osu file format v14

[General]
AudioFilename: Vanic - Samurai (feat. Katy Tiz) (Spirix Remix).mp3
AudioLeadIn: 0
PreviewTime: -1
Countdown: 1
SampleSet: None
StackLeniency: 0.7
Mode: 0
LetterboxInBreaks: 1
CountdownOffset: 2
WidescreenStoryboard: 0

[Editor]
DistanceSpacing: 1.8
BeatDivisor: 4
GridSize: 4
TimelineZoom: 1

[Metadata]
Title:Samurai
TitleUnicode:Samurai
Artist:Venix
ArtistUnicode:Venix
Creator:Waboo
Version:Easy
Source:Remix
Tags:samurai, anime, osu
BeatmapID:1579542
BeatmapSetID:749981

[Difficulty]
HPDrainRate:5
CircleSize:5
OverallDifficulty:6
ApproachRate:7
SliderMultiplier:1.4
SliderTickRate:1

[Events]
//Background and Video events
//Break Periods
2,45006,46579
//Storyboard Layer 0 (Background)
//Storyboard Layer 1 (Fail)
//Storyboard Layer 2 (Pass)
//Storyboard Layer 3 (Foreground)
//Storyboard Sound Samples

[TimingPoints]
1736.9702970297,297.029702970297,4,1,0,100,1,0

[Colours]
Combo1 : 255,192,0
Combo2 : 0,202,0
Combo3 : 18,124,255
Combo4 : 64,0,64

[HitObjects]
204,176,920,5,0,0:0:0:0:
264,192,1736,1,0,0:0:0:0:
344,172,2553,1,0,0:0:0:0:
224,144,3370,1,0,0:0:0:0:
164,192,4930,1,0,0:0:0:0:
288,208,6415,1,0,0:0:0:0:
168,128,8123,1,0,0:0:0:0:
60,96,9459,2,0,P|176:240|296:268,1,315
260,196,13618,1,0,0:0:0:0:
180,168,15326,1,0,0:0:0:0:
316,168,16959,1,0,0:0:0:0:
172,224,18519,1,0,0:0:0:0:
328,216,20078,1,0,0:0:0:0:
112,136,21712,1,0,0:0:0:0:
496,200,22157,1,0,0:0:0:0:
184,200,25647,1,0,0:0:0:0:
240,200,26093,1,0,0:0:0:0:
240,200,26464,1,0,0:0:0:0:
188,160,26984,1,0,0:0:0:0:
280,144,28915,1,0,0:0:0:0:
292,204,29732,1,0,0:0:0:0:
172,200,30326,1,0,0:0:0:0:
120,148,30845,1,0,0:0:0:0:
120,148,31142,1,0,0:0:0:0:
120,148,31365,1,0,0:0:0:0:
120,148,31514,1,0,0:0:0:0:
120,148,31736,1,0,0:0:0:0:
256,120,33890,1,0,0:0:0:0:
212,168,35375,1,0,0:0:0:0:
116,176,36786,2,0,L|232:200|232:200,10,105
216,160,41613,2,0,P|276:224|324:224,1,140
184,204,42281,1,0,0:0:0:0:
156,192,42801,1,0,0:0:0:0:
128,176,43246,1,0,0:0:0:0:
100,140,44137,1,0,0:0:0:0:
100,140,44509,1,0,0:0:0:0:
100,140,44806,1,0,0:0:0:0:
256,192,47479,12,0,50821,0:0:0:0:
172,156,51415,5,0,0:0:0:0:
232,176,52232,1,0,0:0:0:0:
232,176,52380,1,0,0:0:0:0:
232,176,52603,1,0,0:0:0:0:
232,176,52826,1,0,0:0:0:0:
232,176,53048,1,0,0:0:0:0:
232,176,53271,1,0,0:0:0:0:
232,176,53494,1,0,0:0:0:0:
232,176,53642,1,0,0:0:0:0:
136,168,54459,1,0,0:0:0:0:
136,168,54756,1,0,0:0:0:0:
136,168,54905,1,0,0:0:0:0:
136,168,55053,1,0,0:0:0:0:
136,168,55202,1,0,0:0:0:0:
136,168,55350,1,0,0:0:0:0:
136,168,55499,1,0,0:0:0:0:
136,168,55722,1,0,0:0:0:0:
136,168,55870,1,0,0:0:0:0:
136,168,56093,1,0,0:0:0:0:
136,168,56241,1,0,0:0:0:0:
136,168,56464,1,0,0:0:0:0:
136,168,56613,1,0,0:0:0:0:
136,168,56835,1,0,0:0:0:0:
224,180,57652,1,0,0:0:0:0:
272,184,58395,1,0,0:0:0:0:
248,140,59212,1,0,0:0:0:0:
60,132,60845,2,0,L|236:240,4,175
88,144,64038,2,0,P|176:216|296:252,4,210
112,144,66860,2,0,B|96:192|104:232|116:248,1,105
380,152,67826,2,0,B|404:248|384:280|384:280|328:304,1,175
168,86,68494,6,0,B|128:104|128:104|108:136|132:232,1,175,0|0,0:1|0:1,0:1:0:0:
397,137,69460,2,0,B|408:152|416:192|400:240,1,105,0|0,0:1|0:1,0:1:0:0:
246,136,72282,2,0,P|344:172|424:240,4,210,0|0|0|0|0,0:1|0:1|0:1|0:1|0:1,0:1:0:0:
302,160,75475,2,0,L|452:252,4,175,0|0|0|0|0,0:1|0:1|0:1|0:1|0:1,0:1:0:0:
264,244,77108,1,0,0:1:0:0:
240,200,77925,1,0,0:1:0:0:
288,204,78668,1,0,0:1:0:0:
376,216,79485,1,0,0:1:0:0:
376,216,79707,1,0,0:1:0:0:
376,216,79856,1,0,0:1:0:0:
376,216,80079,1,0,0:1:0:0:
376,216,80227,1,0,0:1:0:0:
376,216,80450,1,0,0:1:0:0:
376,216,80598,1,0,0:1:0:0:
376,216,80821,1,0,0:1:0:0:
376,216,80970,1,0,0:1:0:0:
376,216,81118,1,0,0:1:0:0:
376,216,81267,1,0,0:1:0:0:
376,216,81415,1,0,0:1:0:0:
376,216,81564,1,0,0:1:0:0:
376,216,81861,1,0,0:1:0:0:
280,208,82678,1,0,0:1:0:0:
280,208,82826,1,0,0:1:0:0:
280,208,83049,1,0,0:1:0:0:
280,208,83272,1,0,0:1:0:0:
280,208,83494,1,0,0:1:0:0:
280,208,83717,1,0,0:1:0:0:
280,208,83940,1,0,0:1:0:0:
280,208,84088,1,0,0:1:0:0:
340,228,84905,1,0,0:1:0:0:
256,192,85499,8,0,88841,0:1:0:0:
412,244,91514,5,0,0:1:0:0:
412,244,91811,1,0,0:1:0:0:
412,244,92183,1,0,0:1:0:0:
384,208,93074,1,0,0:1:0:0:
356,192,93519,1,0,0:1:0:0:
328,180,94039,1,0,0:1:0:0:
188,159,94707,6,0,P|256:168|296:224,1,140,0|0,0:1|0:1,0:1:0:0:
293,186,99534,6,0,L|280:184|396:208,10,105,0|0|0|0|0|0|0|0|0|0|0,0:1|0:1|0:1|0:1|0:1|0:1|0:1|0:1|0:1|0:1|0:1,0:1:0:0:
300,216,100945,1,0,0:1:0:0:
256,264,102430,1,0,0:1:0:0:
392,236,104584,1,0,0:1:0:0:
392,236,104806,1,0,0:1:0:0:
392,236,104955,1,0,0:1:0:0:
392,236,105178,1,0,0:1:0:0:
392,236,105475,1,0,0:1:0:0:
340,184,105994,1,0,0:1:0:0:
220,180,106588,1,0,0:1:0:0:
232,240,107405,1,0,0:1:0:0:
324,224,109336,1,0,0:1:0:0:
272,184,109856,1,0,0:1:0:0:
272,184,110227,1,0,0:1:0:0:
328,184,110673,1,0,0:1:0:0:
16,184,114163,1,0,0:1:0:0:
400,248,114608,1,0,0:1:0:0:
184,168,116242,1,0,0:1:0:0:
340,160,117801,1,0,0:1:0:0:
196,216,119361,1,0,0:1:0:0:
332,216,120994,1,0,0:1:0:0:
252,188,122702,1,0,0:1:0:0:
215,116,126861,2,0,P|363:161|452:288,1,315,0|0,0:1|0:1,0:1:0:0:
344,256,128197,1,0,0:1:0:0:
224,176,129905,1,0,0:1:0:0:
348,192,131390,1,0,0:1:0:0:
288,240,132950,1,0,0:1:0:0:
168,212,133767,1,0,0:1:0:0:
248,192,134584,1,0,0:1:0:0:
308,208,135400,1,0,0:1:0:0:
