osu file format v3

[General]
AudioFilename: Vengaboys - Boom Boom Boom.mp3
AudioLeadIn: 0
AudioHash: 1483519b9a018dd80abed088cae3f58b
PreviewTime: -1
SampleSet: Normal
EditorBookmarks: 28098,68171,83333,130553,145716

[Metadata]
Title:Boom Boom Boom
Artist:Vengaboys
Creator:Advancechao
Version:Normal

[Difficulty]
HPDrainRate:5
CircleSize:5
OverallDifficulty:4
SliderMultiplier: 1.4
SliderTickRate: 2

[Events]
0,0,"a gh.jpg"
2,68154,82500
2,130537,144882
3,0,0,128,255

[TimingPoints]
-60,433.212996389892

[HitObjects]
384,104,28315,1,0,
344,104,28532,1,0,
248,104,28965,1,0,
144,104,29398,1,0,
144,192,29831,1,0,
216,248,30264,2,2,B|216:248|287:320|352:232,3,140
424,248,31997,6,0,B|424:248|424:96,1,140
336,72,32864,1,0,
248,72,33297,2,0,B|248:72|167:51|136:136,1,140
136,240,34163,2,6,B|136:240|146:322|264:312,1,140
400,184,35246,5,0,
360,184,35463,2,0,B|360:184|216:184,2,140
272,272,36763,1,0,
184,272,37196,6,2,B|184:272|125:362|64:248,3,140
96,200,38929,1,0,
104,128,39362,2,0,B|104:128|176:80|232:136,1,140
264,160,40012,1,4,
392,104,40662,5,0,
296,104,41095,1,0,
256,104,41311,1,0,
216,104,41528,1,4,
324,298,41961,6,0,B|324:298|252:376|160:256,1,140
200,224,42828,2,0,B|200:224|268:139|360:277,1,140
416,240,43694,5,0,
416,168,44127,1,0,
376,104,44560,2,0,B|376:104|351:40|272:64,2,70
176,160,45427,6,2,B|176:160|121:232|192:304,3,140
256,272,47376,1,0,
280,248,47593,1,0,
328,200,48026,1,4,
392,72,48893,6,0,B|392:72|337:33|288:120,1,70
304,96,49326,1,2,
200,72,49759,2,0,B|200:72|145:33|96:120,1,70
112,96,50192,1,2,
96,232,50625,6,0,B|96:232|75:293|160:312,2,70
104,144,51492,1,2,
160,64,51925,1,6,
216,136,52358,6,0,B|216:136|154:214|256:312,1,140
296,264,53225,2,0,B|296:264|358:186|256:88,1,140
256,104,54524,5,4,
336,248,54958,5,4,
168,248,55391,5,4,
256,192,55824,5,4,
384,80,56474,5,0,
352,101,56690,2,0,B|352:101|316:146|272:72,1,70
256,80,57124,1,2,
152,80,57557,1,6,
160,200,58207,5,0,
176,240,58423,1,0,
232,296,58856,2,0,B|232:296|264:328|312:280,1,70
320,272,59290,1,0,
376,200,59723,1,0,
384,104,60156,5,0,
280,104,60589,2,0,B|280:104|252:66|200:120,1,70
192,128,61023,1,0,
184,192,61456,6,6,B|184:192|344:192,3,140
400,104,63405,5,0,
408,144,63622,1,0,
400,216,64055,2,0,B|400:216|384:280|304:256,2,70
248,320,65138,5,0,
224,288,65355,1,0,
248,256,65571,1,0,
224,224,65788,1,0,
176,160,66221,2,0,B|176:160|107:125|40:176,2,140
280,160,67521,1,2,
384,160,67954,1,6,
344,192,83550,5,2,
256,240,83983,1,0,
168,192,84416,5,2,
256,136,84849,1,0,
287,191,85282,6,0,B|287:191|199:191,2,70
288,272,86149,1,2,
360,320,86582,1,2,
344,192,87015,6,0,B|344:192|240:79|136:224,2,210
384,280,88748,1,2,
296,296,89181,1,2,
224,328,89615,1,2,
200,304,89831,1,2,
160,312,90048,1,6,
168,160,90481,6,0,B|168:160|152:60|256:72,3,140
288,112,92214,1,2,
328,120,92430,1,0,
360,96,92647,1,2,
392,160,93080,2,2,B|392:160|392:208|344:216,1,70
320,224,93514,1,2,
144,232,93947,5,0,
120,152,94380,1,0,
184,96,94813,2,0,B|184:96|287:53|392:112,1,210
384,280,96113,2,4,B|384:280|260:210|281:300|228:340|112:240,1,280
112,160,97412,6,2,B|112:160|179:244|248:128,1,140
288,112,98279,2,2,B|288:112|355:28|424:144,1,140
432,184,99145,5,0,
384,232,99578,1,0,
344,232,99795,1,0,
328,272,100012,1,0,
248,320,100445,1,4,
256,192,100878,12,0,102611
280,128,103044,5,4,
216,176,103477,5,4,
280,216,103911,5,4,
216,264,104344,5,4,
128,256,105210,5,0,
96,168,105643,1,0,
184,128,106077,2,2,B|184:128|249:72|312:128,1,140
368,168,106943,5,0,
400,152,107160,1,0,
424,128,107376,1,0,
408,64,107810,2,2,B|408:64|355:24|272:64,2,140
376,136,109109,1,0,
296,136,109542,1,4,
184,160,109976,5,2,
232,232,110409,1,2,
264,256,110625,1,0,
232,280,110842,1,2,
136,296,111275,6,0,B|136:296|104:228|152:184,2,105
176,320,112142,1,2,
256,320,112575,1,2,
336,320,113008,2,0,B|336:320|368:252|320:208,2,105
384,320,113875,5,0,
416,296,114091,1,0,
440,256,114308,1,0,
400,192,114741,2,2,B|400:192|303:88|168:224,1,210
184,192,115607,5,0,
152,128,116041,1,2,
120,64,116474,1,6,
256,320,116907,6,0,B|256:320|336:296,1,70
352,280,117340,2,0,B|352:280|400:200,1,70
392,184,117773,1,0,
344,96,118207,1,4,
232,48,118856,5,0,
184,56,119073,1,0,
160,128,119506,1,0,
184,160,119723,1,0,
216,176,119940,2,2,B|216:176|288:248|328:160|378:133|432:224,1,210
408,232,120806,5,0,
360,288,121239,1,0,
280,288,121672,2,2,B|280:288|168:288,1,105
80,216,122539,1,0,
96,144,122972,2,0,B|96:144|160:64,1,70
184,72,123405,1,0,
256,192,123838,12,4,125138
320,200,125788,1,0,
280,200,126004,2,2,B|280:200|136:200,2,140
368,280,127521,5,0,
344,248,127737,1,0,
360,216,127954,1,0,
336,184,128171,1,0,
248,208,128604,1,0,
192,144,129470,5,0,
176,112,129687,1,0,
200,80,129903,2,0,B|200:80|248:80,1,70
296,104,130337,1,4,
400,96,145932,5,0,
304,96,146365,1,0,
224,96,146799,1,0,
184,96,147015,1,0,
144,96,147232,1,0,
168,192,147665,6,2,B|168:192|222:226|272:192,2,105
144,224,148532,1,2,
176,296,148965,1,2,
312,304,149398,6,0,B|312:304|403:304|400:192,1,140
400,144,150264,2,0,B|400:144|384:40|264:64,1,140
232,56,151131,5,0,
152,104,151564,1,0,
232,168,151997,1,2,
208,192,152214,1,2,
232,224,152430,1,2,
232,320,152864,6,0,B|232:320|120:320,2,105
280,320,153730,6,0,B|280:320|392:320,2,105
312,248,154597,5,0,
368,176,155030,1,0,
416,104,155463,2,2,B|416:104|453:63|496:120,2,70
320,104,156329,5,0,
288,128,156546,1,0,
208,104,156979,1,0,
176,128,157196,1,0,
80,184,157629,1,0,
144,264,158062,1,4,
448,112,158929,5,0,
352,112,159362,1,0,
248,112,159795,6,0,B|248:112|177:84|152:168,1,105
128,216,160445,1,0,
152,248,160662,1,0,
184,232,160878,1,0,
208,264,161095,1,0,
288,280,161528,2,0,B|288:280|354:240|280:168,1,105
408,176,162394,5,2,
384,144,162611,1,0,
360,112,162828,1,2,
280,64,163261,1,2,
168,176,163911,2,0,B|168:176|272:176,1,70
328,176,164560,1,0,
456,96,164994,6,0,B|456:96|396:28|304:88,1,140
232,80,165860,1,0,
152,88,166293,1,2,
128,120,166510,1,2,
104,152,166727,1,2,
80,232,167160,1,0,
120,312,167593,2,0,B|120:312|32:312,2,70
216,296,168459,1,0,
320,296,168893,1,0,
416,240,169326,5,2,
440,208,169542,1,0,
408,184,169759,1,2,
312,208,170192,1,2,
200,208,170625,1,0,
144,144,171059,6,0,B|144:144|72:144,2,70
224,144,171925,1,0,
376,96,172358,5,4,
296,160,172791,5,4,
216,224,173225,5,4,
136,288,173658,5,4,
104,224,174308,6,0,B|104:224|72:172|128:136,1,70
160,112,174958,1,2,
240,104,175391,2,2,B|240:104|376:104,1,105
440,72,176041,5,0,
440,112,176257,1,0,
440,200,176690,1,0,
336,200,177124,1,2,
240,200,177557,1,2,
320,296,177990,5,0,
352,272,178207,1,0,
392,288,178423,1,0,
408,216,178856,2,0,B|408:216|384:160|304:192,1,70
320,192,179290,5,6,
256,264,179723,5,6,
192,192,180156,5,6,
256,120,180589,5,6,
336,128,181456,5,0,
376,200,181889,2,0,B|376:200|448:200,2,70
168,112,183189,5,0,
144,136,183405,1,0,
128,168,183622,1,0,
120,232,184055,2,0,B|120:232|144:312|216:288,1,105
280,296,184705,5,0,
304,264,184921,1,2,
352,200,185355,1,2,
408,128,185788,1,6,
256,192,186221,12,4,187521
448,216,188171,1,0,
416,184,188387,1,0,
352,136,188820,1,0,
320,112,189037,1,0,
288,104,189254,2,2,B|288:104|152:104,2,105
280,144,190120,5,2,
248,168,190337,1,0,
272,200,190553,1,2,
352,288,190986,1,0,
256,288,191420,1,0,
168,256,191853,1,0,
96,200,192287,1,0,
40,128,192719,1,0,
123,80,193152,5,4,
211,80,193586,5,4,
299,80,194019,5,4,
387,80,194452,5,4,
160,208,195102,5,0,
192,240,195318,1,0,
232,264,195535,1,0,
280,264,195751,1,0,
320,240,195968,1,0,
352,208,196185,1,4,
256,192,196835,12,4,199651
