osu file format v3

[General]
AudioFilename: Vengaboys - Boom Boom Boom.mp3
AudioLeadIn: 0
AudioHash: 1483519b9a018dd80abed088cae3f58b
PreviewTime: -1
SampleSet: Normal
EditorBookmarks: 28098,68171,83333,130553,145716,196402

[Metadata]
Title:Boom Boom Boom
Artist:Vengaboys
Creator:Advancechao
Version:Hard

[Difficulty]
HPDrainRate:5
CircleSize:6
OverallDifficulty:6
SliderMultiplier: 1.4
SliderTickRate: 2

[Events]
0,0,"a gh.jpg"
2,68154,82500
2,130537,144882
3,0,0,128,255

[TimingPoints]
-60,433.212996389892

[HitObjects]
184,144,28315,1,0,
208,176,28532,1,0,
240,176,28748,1,0,
264,144,28965,1,0,
367,116,29398,1,0,
357,157,29615,1,0,
346,195,29831,1,0,
323,225,30048,1,0,
296,248,30264,2,2,B|296:248|225:320|160:232,3,140
144,224,31781,5,0,
176,192,31997,2,0,B|176:192|272:192,1,70
272,168,32430,1,0,
216,72,32864,1,0,
216,72,33080,1,0,
256,72,33297,2,0,B|256:72|326:43|360:128,1,70
352,96,33730,2,0,B|352:96|406:101|368:192,1,70
384,184,34163,2,6,B|384:184|374:290|256:280,1,140
112,112,35246,5,0,
152,112,35463,2,0,B|152:112|264:112,2,70
160,224,36329,2,0,B|160:224|176:267|224:272,1,70
248,272,36763,1,0,
288,272,36979,1,0,
328,272,37196,6,2,B|328:272|387:362|448:248,3,140
440,232,38712,1,0,
416,200,38929,1,0,
432,160,39145,1,0,
408,128,39362,2,0,B|408:128|336:80|280:136,1,140
248,160,40012,1,4,
120,104,40662,5,0,
200,104,40986,1,0,
200,104,41095,1,0,
240,104,41311,1,0,
280,104,41528,1,4,
188,298,41961,6,0,B|188:298|260:376|352:256,1,140
328,264,42611,1,0,
312,224,42828,2,0,B|312:224|244:139|152:277,1,140
144,184,43694,5,0,
144,184,43911,1,0,
136,144,44127,1,0,
136,144,44344,1,0,
136,104,44560,2,0,B|136:104|161:40|240:64,2,70
336,160,45427,6,2,B|336:160|391:232|320:304,3,140
256,272,47376,1,0,
232,248,47593,1,0,
208,224,47810,1,0,
184,200,48026,1,4,
120,72,48893,6,0,B|120:72|175:33|224:120,1,70
208,96,49326,1,2,
240,96,49542,1,2,
256,72,49759,2,0,B|256:72|311:33|360:120,1,70
344,96,50192,1,2,
408,240,50625,6,0,B|408:240|429:301|344:320,3,70
360,320,51492,1,2,
328,296,51708,1,2,
296,320,51925,1,6,
216,248,52358,6,0,B|216:248|154:170|256:72,1,140
256,120,53008,1,0,
296,120,53225,2,0,B|296:120|358:198|256:296,1,140
256,104,54524,5,4,
176,248,54958,5,4,
344,248,55391,5,4,
256,192,55824,5,4,
128,80,56474,5,0,
160,101,56690,2,0,B|160:101|196:146|240:72,1,70
256,80,57124,1,2,
288,56,57340,1,2,
320,80,57557,1,6,
352,200,58207,5,0,
336,240,58423,1,0,
312,272,58640,1,0,
280,296,58856,2,0,B|280:296|248:328|200:280,1,70
192,272,59290,1,0,
136,208,59615,1,0,
136,128,59940,5,0,
168,104,60156,1,0,
200,128,60373,1,0,
232,104,60589,2,0,B|232:104|260:66|312:120,1,70
320,128,61023,1,0,
328,192,61456,6,6,B|328:192|168:192,3,140
112,104,63405,5,0,
104,144,63622,1,0,
104,184,63838,1,0,
112,216,64055,2,0,B|112:216|128:280|208:256,2,70
264,320,65138,5,0,
288,288,65355,1,0,
264,256,65571,1,0,
288,224,65788,1,0,
312,192,66004,1,0,
336,160,66221,2,0,B|336:160|405:125|456:176,2,105
312,128,67088,5,2,
312,128,67304,1,2,
256,128,67521,1,2,
256,128,67737,1,2,
200,128,67954,1,6,
192,192,83550,5,2,
238,244,83983,1,0,
278,244,84200,1,0,
336,192,84416,5,2,
280,144,84849,1,0,
240,144,85066,1,0,
225,191,85282,6,0,B|225:191|313:191,3,70
320,216,86149,1,2,
320,256,86365,1,2,
296,288,86582,1,2,
168,192,87015,6,0,B|168:192|272:79|376:224,2,210
160,280,88748,1,2,
192,264,88965,1,0,
216,296,89181,1,2,
256,304,89398,1,0,
288,328,89615,1,2,
312,304,89831,1,2,
352,312,90048,1,6,
344,160,90481,6,0,B|344:160|360:60|256:72,3,140
224,112,92214,1,2,
184,120,92430,1,0,
152,96,92647,1,2,
120,120,92864,1,0,
120,160,93080,2,2,B|120:160|120:208|168:216,1,70
192,224,93514,1,2,
368,232,93947,5,0,
384,144,94380,1,0,
360,112,94597,1,0,
328,96,94813,2,0,B|328:96|248:56|184:112,1,140
168,128,95463,1,0,
136,216,95896,2,0,B|136:216|176:248,1,70
224,280,96329,2,4,B|224:280|304:208|327:300|368:368|424:232,1,210
400,160,97412,6,2,B|400:160|333:244|264:128,1,140
256,136,98062,1,0,
224,112,98279,2,2,B|224:112|157:28|88:144,1,140
88,144,98929,1,0,
80,184,99145,5,0,
120,192,99362,1,0,
128,232,99578,1,0,
168,232,99795,1,0,
184,272,100012,1,0,
224,264,100228,1,0,
232,304,100445,1,4,
256,192,100878,12,0,102611
232,128,103044,5,4,
296,176,103477,5,4,
232,216,103911,5,4,
296,264,104344,5,4,
368,264,104994,5,0,
384,232,105210,1,0,
392,200,105427,1,0,
384,168,105643,1,0,
360,144,105860,1,0,
328,128,106077,2,2,B|328:128|263:72|200:128,1,140
176,152,106727,5,0,
144,168,106943,1,0,
112,152,107160,1,0,
88,128,107376,1,0,
88,96,107593,1,0,
104,64,107810,2,2,B|104:64|157:24|208:72,2,105
128,96,108676,5,0,
160,120,108893,1,0,
192,128,109109,1,0,
224,128,109326,1,0,
248,112,109542,1,4,
328,160,109976,5,2,
280,232,110409,1,2,
248,256,110625,1,0,
280,280,110842,1,2,
344,296,111275,6,0,B|344:296|376:228|328:184,2,105
312,320,112142,1,0,
280,296,112358,1,0,
248,320,112575,1,0,
216,296,112791,1,0,
184,320,113008,2,0,B|184:320|152:252|200:208,2,105
144,320,113875,5,0,
112,296,114091,1,0,
96,264,114308,1,0,
96,224,114524,1,0,
112,192,114741,2,2,B|112:192|209:88|344:224,1,210
328,192,115607,5,0,
344,160,115824,1,0,
360,128,116041,1,2,
376,96,116257,1,2,
392,64,116474,1,6,
256,320,116907,6,0,B|256:320|176:296,1,70
160,280,117340,2,0,B|160:280|112:200,1,70
120,184,117773,2,0,B|120:184|136:120,1,70
168,96,118207,1,4,
288,88,118856,5,0,
320,64,119073,1,0,
352,88,119290,1,0,
352,128,119506,1,0,
328,160,119723,1,0,
296,176,119940,2,2,B|296:176|224:248|184:160|134:133|80:224,1,210
104,224,120806,5,0,
112,264,121023,1,0,
136,296,121239,2,0,B|136:296|184:328|232:272,1,70
232,288,121672,2,2,B|232:288|344:288,1,105
408,248,122322,1,0,
432,216,122539,1,0,
432,176,122755,1,0,
416,144,122972,2,0,B|416:144|352:64,1,70
336,88,123405,1,0,
256,192,123838,12,4,125138
192,200,125788,1,0,
232,200,126004,2,2,B|232:200|312:200,4,70
144,280,127521,5,0,
168,248,127737,1,0,
152,216,127954,1,0,
176,184,128171,1,0,
216,176,128387,1,0,
248,200,128604,1,0,
320,248,128929,1,0,
352,176,129254,5,0,
320,144,129470,1,0,
336,112,129687,1,0,
312,80,129903,2,0,B|312:80|264:80,1,70
216,104,130337,1,4,
160,96,145932,5,0,
224,96,146365,1,0,
288,96,146690,1,0,
288,96,146799,1,0,
320,96,147015,1,0,
352,96,147232,2,0,B|352:96|393:132|344:184,1,70
344,192,147665,6,2,B|344:192|290:226|240:192,2,105
368,224,148532,1,2,
360,264,148748,1,2,
336,296,148965,1,2,
200,296,149398,6,0,B|200:296|109:296|112:184,1,140
112,176,150048,1,0,
112,144,150264,2,0,B|112:144|128:40|248:64,1,140
240,56,150914,1,0,
280,56,151131,5,0,
360,104,151564,1,0,
280,168,151997,1,2,
304,192,152214,1,2,
280,224,152430,1,2,
304,248,152647,1,2,
280,288,152864,6,0,B|280:288|392:288,2,105
232,288,153730,6,0,B|232:288|120:288,2,105
232,248,154597,5,0,
208,216,154813,2,0,B|208:216|169:250|136:208,1,70
128,192,155246,2,0,B|128:192|88:152|144:104,1,70
96,104,155680,2,2,B|96:104|59:63|16:120,2,70
136,104,156329,5,0,
168,128,156546,1,0,
248,104,156979,1,0,
280,128,157196,1,0,
376,104,157629,1,0,
400,128,157846,1,0,
424,152,158062,1,4,
104,112,158712,5,0,
104,112,158820,1,0,
104,112,158929,1,0,
144,112,159145,1,0,
184,112,159362,1,0,
224,112,159578,1,0,
264,112,159795,6,0,B|264:112|335:84|360:168,1,105
384,216,160445,1,0,
360,248,160662,1,0,
328,232,160878,1,0,
304,264,161095,1,0,
272,248,161311,1,0,
248,280,161528,1,0,
152,280,161853,2,0,B|152:280|86:240|160:168,1,105
160,160,162394,5,2,
160,160,162611,1,0,
184,128,162828,1,2,
208,96,163044,1,2,
232,64,163261,1,2,
304,88,163586,5,0,
360,176,163911,2,0,B|360:176|256:176,1,70
256,176,164344,2,0,B|256:176|176:176,1,70
152,176,164777,2,0,B|152:176|89:165|128:104,1,70
120,96,165210,6,0,B|120:96|180:28|272:88,1,140
280,80,165860,1,0,
368,96,166293,1,2,
384,120,166510,1,2,
400,144,166727,1,2,
432,224,167051,1,0,
384,272,167376,2,0,B|384:272|296:272,5,70
240,272,168784,1,0,
136,240,169109,5,0,
160,208,169326,1,2,
136,176,169542,1,0,
168,152,169759,1,2,
200,168,169976,1,2,
208,208,170192,1,2,
280,232,170517,1,0,
352,184,170842,5,0,
368,144,171059,2,0,B|368:144|440:144,2,70
328,144,171708,1,0,
328,144,171925,1,0,
136,96,172358,5,4,
216,160,172791,5,4,
296,224,173225,5,4,
376,288,173658,5,4,
408,224,174308,6,0,B|408:224|440:172|384:136,1,70
384,136,174741,1,0,
352,112,174958,1,2,
312,104,175174,1,2,
272,104,175391,2,2,B|272:104|136:104,1,105
88,112,176041,5,0,
64,144,176257,1,0,
88,176,176474,1,0,
128,176,176690,1,0,
128,216,176907,1,0,
104,248,177124,1,2,
64,328,177449,1,2,
168,328,177773,5,0,
192,296,177990,1,0,
160,272,178207,1,0,
120,288,178423,1,0,
104,256,178640,1,0,
104,216,178856,2,0,B|104:216|128:160|208:192,1,70
192,168,179290,5,6,
216,208,179506,1,0,
256,208,179723,5,6,
280,168,179940,1,0,
256,128,180156,5,6,
216,128,180373,1,0,
235,168,180589,5,6,
160,104,181239,6,0,B|160:104|192:151|112:200,1,70
136,200,181672,2,0,B|136:200|64:200,2,70
176,200,182322,1,0,
216,200,182539,2,0,B|216:200|322:205|304:104,1,140
344,112,183189,5,0,
368,136,183405,1,0,
384,168,183622,1,0,
392,200,183838,1,0,
392,232,184055,2,0,B|392:232|368:312|296:288,1,105
232,296,184705,5,0,
192,296,184921,1,2,
192,296,185138,1,2,
144,296,185355,1,2,
144,296,185571,1,2,
96,296,185788,1,6,
256,192,186221,12,4,187521
96,184,188171,5,0,
96,184,188387,1,0,
128,160,188604,1,0,
160,136,188820,1,0,
192,112,189037,1,0,
224,104,189254,2,2,B|224:104|360:104,2,105
232,144,190120,5,2,
264,168,190337,1,0,
240,200,190553,1,2,
264,232,190770,1,0,
232,256,190986,2,0,B|232:256|104:256,3,70
160,216,191853,1,0,
136,184,192070,1,0,
104,200,192287,1,0,
72,184,192503,1,0,
72,144,192719,1,0,
88,104,192936,1,0,
123,80,193152,5,4,
211,80,193586,5,4,
299,80,194019,5,4,
387,80,194452,5,4,
352,216,195102,5,0,
320,240,195318,1,0,
224,240,195643,1,0,
224,240,195752,1,0,
184,240,195968,1,0,
152,216,196185,1,0,
256,192,196835,12,4,199651
