osu file format v4

[General]
AudioFilename: 03 Pwntendo.mp3
AudioLeadIn: 0
AudioHash: e09919fcac75d6831050323c7ee4214c
PreviewTime: -1
SampleSet: Normal
EditorBookmarks: 4575,6294,6575,6763,6919,7106,7294

[Metadata]
Title:Pwntendo
Artist:Venetian Snares
Creator:Binome
Version:Easy

[Difficulty]
HPDrainRate:5
CircleSize:5
OverallDifficulty:5
SliderMultiplier: 0.999999999999999
SliderTickRate: 1

[Events]
2,164838,172188
3,0,0,0,64

[TimingPoints]
388,155.844155844156,4,1,1

[HitObjects]
256,192,4946,1,0,
416,320,5803,1,0,
224,160,6777,1,0,
352,256,7439,1,0,
224,160,8024,1,0,
320,256,8608,1,0,
256,160,9115,1,0,
128,192,9699,1,0,
480,64,11141,1,0,
0,224,13089,1,0,
288,128,14336,1,0,
224,256,14920,1,0,
256,160,15388,1,0,
384,192,15933,1,0,
256,128,16517,1,0,
96,352,17569,1,0,
160,224,18154,1,0,
256,128,18699,1,0,
320,192,19050,1,0,
288,160,19284,1,0,
96,224,20063,1,0,
224,160,20647,1,0,
384,192,21271,1,0,
352,160,21465,1,0,
224,160,21933,5,0,
320,192,22400,1,0,
224,96,23024,1,0,
224,160,23258,1,0,
256,128,23491,1,0,
160,64,23920,1,0,
224,224,24621,1,0,
352,160,25128,1,0,
320,128,25400,1,0,
256,96,25673,1,0,
224,96,25868,1,0,
192,128,26024,1,0,
256,256,26647,1,0,
256,96,27310,1,0,
288,160,27543,1,0,
224,160,27777,1,0,
320,160,28245,1,0,
192,96,28829,1,0,
224,224,29375,1,0,
256,192,29608,1,0,
256,128,29881,1,0,
128,192,30465,5,0,
256,160,30933,1,0,
288,288,31517,1,0,
288,256,31673,1,0,
288,224,31790,1,0,
288,160,32024,1,0,
160,128,32530,1,0,
224,224,33076,1,0,
320,96,33660,1,0,
224,128,34089,1,0,
224,224,34439,1,0,
288,224,34751,1,0,
32,192,35803,1,0,
224,160,36621,1,0,
352,256,37245,1,0,
288,128,37868,1,0,
288,192,38141,1,0,
224,128,38452,1,0,
224,192,38764,1,0,
416,32,39699,1,0,
384,64,39894,1,0,
352,96,40050,1,0,
128,128,40907,1,0,
448,224,42193,1,0,
384,224,42504,1,0,
320,192,42777,1,0,
256,128,43128,1,0,
256,160,44375,1,0,
32,256,45349,5,0,
160,192,45933,1,0,
288,96,46478,1,0,
288,160,46712,1,0,
256,224,46946,1,0,
224,192,47141,1,0,
192,160,47336,1,0,
192,128,47491,1,0,
480,160,48660,1,0,
256,160,49556,1,0,
160,352,50452,1,0,
160,288,50686,1,0,
192,224,50959,1,0,
224,192,51193,1,0,
224,160,51349,1,0,
224,128,51543,1,0,
192,96,51699,1,0,
192,96,53141,1,0,
192,128,53336,1,0,
384,0,54232,1,0,
352,32,54388,1,0,
288,96,54777,1,0,
256,96,54933,1,0,
224,128,55089,1,0,
160,128,55400,1,0,
160,160,55556,1,0,
256,256,56063,1,0,
224,160,56413,1,0,
256,192,56569,1,0,
288,192,56725,1,0,
320,224,56920,1,0,
320,192,57115,1,0,
320,160,57271,1,0,
288,128,57426,1,0,
256,128,57582,1,0,
224,128,57738,5,0,
160,192,58089,1,0,
320,192,58712,1,0,
224,160,59063,1,0,
160,160,59297,1,0,
192,160,59452,5,0,
224,160,59647,5,0,
256,192,59803,1,0,
256,160,59959,1,0,
288,128,60115,1,0,
256,160,60271,1,0,
256,384,61089,1,0,
256,352,61245,1,0,
256,320,61400,1,0,
256,288,61556,1,0,
256,224,61829,1,0,
128,160,62413,1,0,
288,128,62998,1,0,
224,256,63582,1,0,
224,96,64167,1,0,
224,128,64362,1,0,
224,160,64517,1,0,
352,320,65375,1,0,
320,288,65530,1,0,
288,256,65686,1,0,
256,224,65842,1,0,
256,32,66660,1,0,
256,320,67751,1,0,
256,288,67946,1,0,
256,256,68102,1,0,
256,224,68258,1,0,
256,192,68413,1,0,
256,160,68530,1,0,
96,224,69154,1,0,
128,192,69310,1,0,
160,160,69465,1,0,
224,192,69738,1,0,
256,224,69933,1,0,
256,192,70089,1,0,
256,128,70323,1,0,
192,160,70556,1,0,
256,224,70946,1,0,
320,128,71336,1,0,
288,128,71491,1,0,
224,96,71842,1,0,
224,128,71998,1,0,
192,160,72154,1,0,
160,224,72426,1,0,
160,288,72660,1,0,
256,288,73089,1,0,
352,288,73478,1,0,
384,256,73673,1,0,
352,192,73985,1,0,
352,128,74219,1,0,
320,128,74375,1,0,
288,128,74530,1,0,
256,128,74647,1,0,
192,128,74881,1,0,
128,192,75232,1,0,
224,256,75699,1,0,
224,224,75816,1,0,
288,224,76128,1,0,
352,160,76478,1,0,
224,96,77024,1,0,
160,160,77413,1,0,
192,192,77569,1,0,
224,192,77725,1,0,
256,192,77881,1,0,
288,192,78076,1,0,
320,160,78271,1,0,
320,128,78465,1,0,
320,96,78621,1,0,
256,64,78816,1,0,
192,64,79011,1,0,
160,96,79245,1,0,
160,160,79556,1,0,
256,288,80141,1,0,
384,128,80920,1,0,
320,160,81154,1,0,
224,160,81621,1,0,
96,96,82128,1,0,
160,256,82790,1,0,
192,224,83024,1,0,
224,192,83180,1,0,
256,160,83336,1,0,
352,224,83764,1,0,
512,192,84388,1,0,
384,192,84894,1,0,
352,192,85050,1,0,
320,160,85206,1,0,
288,160,85323,1,0,
96,256,86141,1,0,
192,160,86725,1,0,
224,128,86881,1,0,
224,160,86998,1,0,
448,64,87933,5,0,
320,128,88556,1,0,
192,192,89141,1,0,
192,224,89297,1,0,
224,224,89452,1,0,
256,192,89608,1,0,
256,160,89803,1,0,
256,128,89959,1,0,
224,96,90154,1,0,
96,256,90933,1,0,
128,224,91089,1,0,
160,192,91245,1,0,
192,160,91400,1,0,
416,224,92258,1,0,
224,128,93076,1,0,
256,160,93271,1,0,
288,160,93426,1,0,
256,64,93738,1,0,
192,128,94050,1,0,
256,160,94400,1,0,
96,256,95180,1,0,
128,224,95336,1,0,
160,224,95491,1,0,
320,96,96349,5,0,
224,224,96933,1,0,
224,192,97128,1,0,
352,128,97712,1,0,
288,160,97985,1,0,
224,128,98258,1,0,
192,96,98452,1,0,
160,128,98647,1,0,
160,160,98764,1,0,
320,224,99465,1,0,
288,192,99621,1,0,
256,160,99777,1,0,
256,128,99972,1,0,
192,320,100751,1,0,
384,64,101998,1,0,
320,96,102310,1,0,
288,128,102543,1,0,
256,128,102699,1,0,
224,96,102894,1,0,
256,288,103712,1,0,
256,256,103868,1,0,
256,224,104024,1,0,
256,192,104180,1,0,
256,160,104375,1,0,
64,128,105115,1,0,
192,128,105582,1,0,
256,64,105933,1,0,
288,192,106517,1,0,
288,96,107297,1,0,
160,224,107998,1,0,
224,160,108349,1,0,
256,160,108504,1,0,
256,128,108660,1,0,
288,192,108933,1,0,
256,96,109284,1,0,
224,160,109595,1,0,
256,192,109751,1,0,
192,160,110063,1,0,
160,192,110219,1,0,
224,320,110803,1,0,
320,192,111465,1,0,
128,160,112284,5,0,
192,160,112634,1,0,
256,160,112868,1,0,
320,96,113219,1,0,
352,160,113530,1,0,
192,192,114154,1,0,
224,192,114310,1,0,
224,160,114465,1,0,
192,160,114621,1,0,
160,192,114816,1,0,
160,224,114972,1,0,
192,224,115167,1,0,
224,224,115323,1,0,
256,192,115478,1,0,
256,160,115673,1,0,
352,96,116141,1,0,
384,128,116297,1,0,
352,160,116491,1,0,
320,192,116647,1,0,
96,64,117621,1,0,
224,160,118284,1,0,
256,160,118478,1,0,
288,128,118634,1,0,
256,64,118907,1,0,
96,256,119803,1,0,
224,128,120426,1,0,
256,160,120621,1,0,
256,192,120738,1,0,
288,224,120894,1,0,
352,192,121206,1,0,
320,128,121439,1,0,
320,96,121556,1,0,
288,96,121712,1,0,
160,256,122530,1,0,
192,224,122647,1,0,
224,192,122842,1,0,
256,160,122998,1,0,
288,160,123193,1,0,
288,192,123349,1,0,
288,224,123504,1,0,
320,224,123699,1,0,
352,192,123855,1,0,
352,160,124011,1,0,
288,96,124323,1,0,
256,288,125141,1,0,
96,32,126271,1,0,
256,160,127050,1,0,
288,160,127167,1,0,
288,192,127323,1,0,
32,160,128297,1,0,
192,160,128998,1,0,
224,160,129154,1,0,
256,160,129310,1,0,
288,192,129465,1,0,
320,256,129738,1,0,
384,224,130011,1,0,
352,160,130323,1,0,
256,128,130712,5,0,
256,256,131180,1,0,
256,224,131336,1,0,
224,224,131530,1,0,
192,192,131686,1,0,
192,160,131881,1,0,
224,128,132037,1,0,
256,160,132232,1,0,
288,192,132388,1,0,
288,224,132543,1,0,
320,256,132738,1,0,
320,224,132894,1,0,
320,128,133284,1,0,
288,96,133439,1,0,
256,96,133634,1,0,
160,384,134803,5,0,
224,224,135504,1,0,
256,192,135660,1,0,
256,160,135816,1,0,
384,352,136790,1,0,
288,192,137530,5,0,
192,160,137881,1,0,
224,224,138232,1,0,
288,192,138543,1,0,
224,64,139050,1,0,
352,352,140375,5,0,
320,320,140530,1,0,
192,96,141582,1,0,
224,192,145323,1,0,
256,128,147699,5,0,
128,256,148439,1,0,
320,32,149569,1,0,
224,192,150310,1,0,
224,160,150388,1,0,
256,128,150582,1,0,
224,128,150777,1,0,
288,384,151790,1,0,
256,288,152141,1,0,
224,192,152491,1,0,
224,128,152803,1,0,
160,128,153154,1,0,
256,256,153777,1,0,
192,64,154634,1,0,
256,224,155297,1,0,
256,192,155452,1,0,
256,160,155569,1,0,
96,32,156465,1,0,
352,256,157790,1,0,
320,224,157946,1,0,
288,192,158063,1,0,
64,256,158959,1,0,
224,192,159660,1,0,
352,32,160556,1,0,
320,64,160712,1,0,
288,96,160868,1,0,
128,256,161686,1,0,
256,160,172634,5,0,
224,192,173452,1,0,
256,128,175478,1,0,
448,256,176375,1,0,
384,224,176608,1,0,
352,192,176764,1,0,
256,160,178829,1,0,
256,224,179102,1,0,
224,160,179413,1,0,
128,160,179725,1,0,
384,160,180777,1,0,
320,160,181089,1,0,
256,128,181439,1,0,
160,128,181790,1,0,
384,256,182803,1,0,
96,160,184011,1,0,
352,128,185102,1,0,
320,128,185297,1,0,
288,128,185452,1,0,
256,128,185608,1,0,
256,64,188258,1,0,
256,352,189426,1,0,
160,128,190439,1,0,
352,160,191180,1,0,
288,128,191491,1,0,
224,192,191842,1,0,
160,160,192154,1,0,
160,64,192504,1,0,
288,224,193362,1,0,
32,224,194375,1,0,
288,96,195504,1,0,
32,224,196595,1,0,
224,224,197375,1,0,
288,160,197686,1,0,
224,96,197998,1,0,
160,96,198271,1,0,
160,160,198582,1,0,
192,224,198894,1,0,
320,96,199634,1,0,
128,288,200686,1,0,
160,224,200998,1,0,
288,64,201738,1,0,
32,288,203102,5,0,
224,160,204037,1,0,
480,224,205128,1,0,
128,128,206569,1,0,
192,160,206803,1,0,
256,160,207037,1,0,
320,96,207349,1,0,
320,320,208323,1,0,
128,64,209569,1,0,
320,352,210972,1,0,
224,192,211751,1,0,
384,160,212413,1,0,
128,160,213504,1,0,
480,128,214946,1,0,
416,128,215258,1,0,
352,128,215569,1,0,
288,128,215881,1,0,
96,224,216777,1,0,
416,128,218063,1,0,
224,160,218803,1,0,
448,224,219738,1,0,
128,96,221024,1,0,
352,288,222193,1,0,
160,32,223439,1,0,
224,128,223907,1,0,
192,224,224336,1,0,
224,160,226673,1,0,
416,128,227491,1,0,
96,96,228777,5,0,
288,224,229673,1,0,
288,160,230725,1,0,
128,160,231310,1,0,
224,160,231738,1,0,
352,224,232362,1,0,
224,128,233024,1,0,
288,288,233764,1,0,
256,32,234777,1,0,
256,128,235128,1,0,
160,224,235751,1,0,
256,192,236102,1,0,
352,32,236803,1,0,
256,128,237349,1,0,
288,288,238011,1,0,
288,224,238284,1,0,
64,96,239336,1,0,
224,128,240037,1,0,
288,192,240349,1,0,
320,256,240660,1,0,
256,224,240972,1,0,
128,96,241595,1,0,
448,288,243115,1,0,
384,256,243426,1,0,
320,192,243738,1,0,
160,96,244517,1,0,
384,352,245842,1,0,
256,192,246699,1,0,
224,160,247868,1,0,
384,256,248569,1,0,
320,224,248920,1,0,
256,192,249232,1,0,
192,160,249504,1,0,
128,128,249816,1,0,
192,224,250245,5,0,
256,32,251024,1,0,
192,256,251998,1,0,
224,192,252232,1,0,
416,96,253050,1,0,
128,192,254219,1,0,
384,160,255232,1,0,
96,192,256400,5,0,
