osu file format v14

[General]
AudioFilename: Ktsark Mozgalom for osu.mp3
AudioLeadIn: 0
PreviewTime: -1
Countdown: 0
SampleSet: None
StackLeniency: 0.7
Mode: 3
LetterboxInBreaks: 0
SpecialStyle: 0
WidescreenStoryboard: 1

[Editor]
DistanceSpacing: 0.8
BeatDivisor: 4
GridSize: 32
TimelineZoom: 2.599999

[Metadata]
Title:Ketsarku Mozgalom
TitleUnicode:Kétsarkú Mozgalom
Artist:Venetian Snares
ArtistUnicode:Venetian Snares
Creator:wizardoffail
Version:i remember being happy
Source:
Tags:
BeatmapID:766439
BeatmapSetID:347300

[Difficulty]
HPDrainRate:8
CircleSize:7
OverallDifficulty:8
ApproachRate:5
SliderMultiplier:1.4
SliderTickRate:1

[Events]
//Background and Video events
0,0,"Venetian Pic.jpg",0,0
//Break Periods
//Storyboard Layer 0 (Background)
//Storyboard Layer 1 (Fail)
//Storyboard Layer 2 (Pass)
//Storyboard Layer 3 (Foreground)
//Storyboard Sound Samples

[TimingPoints]
-400,652.173913043478,1000,1,1,1,1,0
31334,344.827586206897,7,1,1,1,1,0

[HitObjects]
182,192,2481,128,0,3132:0:0:0:0:
109,192,3132,128,0,4100:0:0:0:0:
109,192,4159,128,0,4198:0:0:0:0:
402,192,4198,128,0,4475:0:0:0:0:
329,192,4475,128,0,5146:0:0:0:0:
109,192,5146,128,0,6073:0:0:0:0:
256,192,6073,128,0,6389:0:0:0:0:
182,192,6389,128,0,7100:0:0:0:0:
36,192,7100,128,0,7573:0:0:0:0:
109,192,12389,128,0,12764:0:0:0:0:
36,192,12764,128,0,13948:0:0:0:0:
329,192,13948,128,0,14264:0:0:0:0:
109,192,14264,128,0,14955:0:0:0:0:
182,192,14955,128,0,15981:0:0:0:0:
182,192,16040,128,0,16073:0:0:0:0:
402,192,16073,128,0,16389:0:0:0:0:
256,192,16389,128,0,17146:0:0:0:0:
329,192,17146,128,0,18290:0:0:0:0:
475,192,18290,128,0,18665:0:0:0:0:
182,192,18665,128,0,19573:0:0:0:0:
256,192,19573,128,0,20389:0:0:0:0:
329,192,21731,128,0,22757:0:0:0:0:
402,192,22757,128,0,23073:0:0:0:0:
256,192,23073,128,0,23698:0:0:0:0:
329,192,23698,128,0,24705:0:0:0:0:
402,192,24705,128,0,25040:0:0:0:0:
256,192,25040,128,0,25830:0:0:0:0:
329,192,25830,128,0,26856:0:0:0:0:
182,192,28889,128,0,29422:0:0:0:0:
475,192,28889,128,0,29422:0:0:0:0:
329,192,31334,5,0,0:0:0:0:
475,192,31334,1,0,0:0:0:0:
182,192,31420,1,0,0:0:0:0:
36,192,31506,1,0,0:0:0:0:
256,192,31592,1,0,0:0:0:0:
475,192,31592,1,0,0:0:0:0:
182,192,31678,1,0,0:0:0:0:
36,192,31765,1,0,0:0:0:0:
329,192,31851,1,0,0:0:0:0:
402,192,31851,1,0,0:0:0:0:
256,192,32023,1,0,0:0:0:0:
109,192,32023,1,0,0:0:0:0:
475,192,32196,1,0,0:0:0:0:
182,192,32282,1,0,0:0:0:0:
36,192,32282,1,0,0:0:0:0:
329,192,32368,1,0,0:0:0:0:
109,192,32454,1,0,0:0:0:0:
256,192,32540,1,0,0:0:0:0:
402,192,32540,1,0,0:0:0:0:
182,192,32713,1,0,0:0:0:0:
36,192,32713,1,0,0:0:0:0:
256,192,32799,1,0,0:0:0:0:
329,192,32885,1,0,0:0:0:0:
475,192,32885,1,0,0:0:0:0:
109,192,32885,1,0,0:0:0:0:
182,192,32971,1,0,0:0:0:0:
256,192,33058,1,0,0:0:0:0:
36,192,33058,1,0,0:0:0:0:
475,192,33058,1,0,0:0:0:0:
109,192,33402,1,0,0:0:0:0:
402,192,33489,1,0,0:0:0:0:
109,192,33575,1,0,0:0:0:0:
402,192,33661,1,0,0:0:0:0:
256,192,33747,1,0,0:0:0:0:
36,192,33747,1,0,0:0:0:0:
475,192,33834,1,0,0:0:0:0:
329,192,33920,1,0,0:0:0:0:
182,192,34006,1,0,0:0:0:0:
36,192,34006,1,0,0:0:0:0:
475,192,34092,1,0,0:0:0:0:
329,192,34178,1,0,0:0:0:0:
182,192,34178,1,0,0:0:0:0:
256,192,34265,1,0,0:0:0:0:
36,192,34265,1,0,0:0:0:0:
329,192,34351,1,0,0:0:0:0:
475,192,34351,1,0,0:0:0:0:
256,192,34437,1,0,0:0:0:0:
109,192,34437,1,0,0:0:0:0:
329,192,34523,1,0,0:0:0:0:
475,192,34609,1,0,0:0:0:0:
182,192,34696,1,0,0:0:0:0:
36,192,34696,1,0,0:0:0:0:
256,192,34782,1,0,0:0:0:0:
329,192,34825,1,0,0:0:0:0:
402,192,34868,1,0,0:0:0:0:
475,192,34911,1,0,0:0:0:0:
182,192,34954,1,0,0:0:0:0:
109,192,35127,1,0,0:0:0:0:
402,192,35213,1,0,0:0:0:0:
182,192,35299,1,0,0:0:0:0:
475,192,35385,1,0,0:0:0:0:
329,192,35471,1,0,0:0:0:0:
36,192,35471,1,0,0:0:0:0:
256,192,35816,1,0,0:0:0:0:
182,192,35859,1,0,0:0:0:0:
109,192,35902,1,0,0:0:0:0:
36,192,35946,1,0,0:0:0:0:
475,192,35989,1,0,0:0:0:0:
402,192,36032,1,0,0:0:0:0:
329,192,36075,1,0,0:0:0:0:
256,192,36118,1,0,0:0:0:0:
182,192,36161,1,0,0:0:0:0:
36,192,36161,1,0,0:0:0:0:
475,192,36161,1,0,0:0:0:0:
329,192,36334,1,0,0:0:0:0:
256,192,36420,1,0,0:0:0:0:
36,192,36420,1,0,0:0:0:0:
329,192,36592,1,0,0:0:0:0:
475,192,36592,1,0,0:0:0:0:
256,192,36678,1,0,0:0:0:0:
109,192,36678,1,0,0:0:0:0:
182,192,36851,1,0,0:0:0:0:
36,192,36851,1,0,0:0:0:0:
402,192,36851,1,0,0:0:0:0:
329,192,37109,1,0,0:0:0:0:
109,192,37109,1,0,0:0:0:0:
36,192,37109,1,0,0:0:0:0:
256,192,37282,1,0,0:0:0:0:
402,192,37368,1,0,0:0:0:0:
475,192,37368,1,0,0:0:0:0:
36,192,37368,1,0,0:0:0:0:
182,192,37454,1,0,0:0:0:0:
256,192,37540,1,0,0:0:0:0:
402,192,37540,1,0,0:0:0:0:
109,192,37627,1,0,0:0:0:0:
182,192,37713,1,0,0:0:0:0:
475,192,37713,1,0,0:0:0:0:
329,192,37799,1,0,0:0:0:0:
256,192,37885,1,0,0:0:0:0:
109,192,37885,1,0,0:0:0:0:
402,192,37971,1,0,0:0:0:0:
475,192,38058,1,0,0:0:0:0:
36,192,38058,1,0,0:0:0:0:
182,192,38144,1,0,0:0:0:0:
402,192,38144,1,0,0:0:0:0:
256,192,38230,1,0,0:0:0:0:
329,192,38230,1,0,0:0:0:0:
109,192,38230,1,0,0:0:0:0:
36,192,38402,1,0,0:0:0:0:
182,192,38402,1,0,0:0:0:0:
256,192,38402,1,0,0:0:0:0:
329,192,38489,1,0,0:0:0:0:
402,192,38532,1,0,0:0:0:0:
475,192,38575,1,0,0:0:0:0:
182,192,38575,1,0,0:0:0:0:
109,192,38575,1,0,0:0:0:0:
329,192,38747,1,0,0:0:0:0:
182,192,38834,1,0,0:0:0:0:
109,192,38834,1,0,0:0:0:0:
402,192,38920,1,0,0:0:0:0:
256,192,39006,1,0,0:0:0:0:
329,192,39092,1,0,0:0:0:0:
475,192,39092,1,0,0:0:0:0:
109,192,39092,1,0,0:0:0:0:
256,192,39178,1,0,0:0:0:0:
36,192,39178,1,0,0:0:0:0:
182,192,39265,1,0,0:0:0:0:
402,192,39265,1,0,0:0:0:0:
109,192,39351,1,0,0:0:0:0:
182,192,39437,1,0,0:0:0:0:
329,192,39523,1,0,0:0:0:0:
475,192,39523,1,0,0:0:0:0:
256,192,39609,1,0,0:0:0:0:
182,192,39652,1,0,0:0:0:0:
109,192,39696,1,0,0:0:0:0:
36,192,39739,1,0,0:0:0:0:
256,192,39782,1,0,0:0:0:0:
402,192,39782,1,0,0:0:0:0:
475,192,39954,1,0,0:0:0:0:
256,192,40040,1,0,0:0:0:0:
402,192,40127,1,0,0:0:0:0:
182,192,40213,1,0,0:0:0:0:
329,192,40299,1,0,0:0:0:0:
109,192,40385,1,0,0:0:0:0:
256,192,40471,1,0,0:0:0:0:
36,192,40558,1,0,0:0:0:0:
329,192,40644,1,0,0:0:0:0:
182,192,40730,1,0,0:0:0:0:
475,192,40730,1,0,0:0:0:0:
402,192,40773,1,0,0:0:0:0:
36,192,40816,1,0,0:0:0:0:
329,192,40816,1,0,0:0:0:0:
256,192,40859,1,0,0:0:0:0:
182,192,40902,1,0,0:0:0:0:
109,192,40946,1,0,0:0:0:0:
36,192,40989,1,0,0:0:0:0:
329,192,40989,1,0,0:0:0:0:
475,192,40989,1,0,0:0:0:0:
182,192,41161,1,0,0:0:0:0:
256,192,41247,1,0,0:0:0:0:
402,192,41247,1,0,0:0:0:0:
36,192,41247,1,0,0:0:0:0:
329,192,41420,1,0,0:0:0:0:
182,192,41506,1,0,0:0:0:0:
475,192,41506,1,0,0:0:0:0:
402,192,41678,1,0,0:0:0:0:
36,192,41678,1,0,0:0:0:0:
256,192,41851,1,0,0:0:0:0:
109,192,41937,1,0,0:0:0:0:
475,192,41937,1,0,0:0:0:0:
329,192,42023,1,0,0:0:0:0:
182,192,42109,1,0,0:0:0:0:
36,192,42109,1,0,0:0:0:0:
329,192,42196,1,0,0:0:0:0:
475,192,42196,1,0,0:0:0:0:
329,192,42368,1,0,0:0:0:0:
475,192,42368,1,0,0:0:0:0:
182,192,42454,1,0,0:0:0:0:
402,192,42540,1,0,0:0:0:0:
36,192,42540,1,0,0:0:0:0:
182,192,42627,1,0,0:0:0:0:
109,192,42713,1,0,0:0:0:0:
329,192,42713,1,0,0:0:0:0:
256,192,42799,1,0,0:0:0:0:
475,192,42799,1,0,0:0:0:0:
182,192,42885,1,0,0:0:0:0:
36,192,42885,1,0,0:0:0:0:
329,192,42971,1,0,0:0:0:0:
475,192,42971,1,0,0:0:0:0:
256,192,43058,1,0,0:0:0:0:
109,192,43058,1,0,0:0:0:0:
329,192,43101,1,0,0:0:0:0:
402,192,43144,1,0,0:0:0:0:
475,192,43187,1,0,0:0:0:0:
36,192,43230,1,0,0:0:0:0:
109,192,43273,1,0,0:0:0:0:
182,192,43316,1,0,0:0:0:0:
256,192,43359,1,0,0:0:0:0:
329,192,43402,1,0,0:0:0:0:
475,192,43402,1,0,0:0:0:0:
256,192,43489,1,0,0:0:0:0:
109,192,43489,1,0,0:0:0:0:
36,192,43575,1,0,0:0:0:0:
109,192,43661,1,0,0:0:0:0:
329,192,43661,1,0,0:0:0:0:
475,192,43661,1,0,0:0:0:0:
256,192,43747,1,0,0:0:0:0:
182,192,43834,1,0,0:0:0:0:
36,192,43834,1,0,0:0:0:0:
256,192,43920,1,0,0:0:0:0:
402,192,43920,1,0,0:0:0:0:
182,192,44006,1,0,0:0:0:0:
36,192,44006,1,0,0:0:0:0:
329,192,44092,1,0,0:0:0:0:
475,192,44092,1,0,0:0:0:0:
109,192,44178,1,0,0:0:0:0:
256,192,44265,1,0,0:0:0:0:
402,192,44351,1,0,0:0:0:0:
36,192,44351,1,0,0:0:0:0:
109,192,44437,1,0,0:0:0:0:
182,192,44480,1,0,0:0:0:0:
256,192,44523,1,0,0:0:0:0:
329,192,44566,1,0,0:0:0:0:
475,192,44609,1,0,0:0:0:0:
36,192,44609,1,0,0:0:0:0:
402,192,44609,1,0,0:0:0:0:
109,192,44782,1,0,0:0:0:0:
182,192,44782,1,0,0:0:0:0:
329,192,44868,1,0,0:0:0:0:
475,192,44868,1,0,0:0:0:0:
402,192,45040,1,0,0:0:0:0:
256,192,45040,1,0,0:0:0:0:
182,192,45127,1,0,0:0:0:0:
109,192,45127,1,0,0:0:0:0:
475,192,45213,1,0,0:0:0:0:
329,192,45213,1,0,0:0:0:0:
36,192,45299,1,0,0:0:0:0:
182,192,45299,1,0,0:0:0:0:
256,192,45385,1,0,0:0:0:0:
402,192,45385,1,0,0:0:0:0:
475,192,45471,1,0,0:0:0:0:
109,192,45471,1,0,0:0:0:0:
182,192,45558,1,0,0:0:0:0:
402,192,45558,1,0,0:0:0:0:
36,192,45644,1,0,0:0:0:0:
329,192,45644,1,0,0:0:0:0:
109,192,45730,1,0,0:0:0:0:
256,192,45730,1,0,0:0:0:0:
475,192,45816,1,0,0:0:0:0:
329,192,45816,1,0,0:0:0:0:
36,192,45989,1,0,0:0:0:0:
475,192,46075,1,0,0:0:0:0:
256,192,46075,1,0,0:0:0:0:
182,192,46247,1,0,0:0:0:0:
329,192,46247,1,0,0:0:0:0:
475,192,46334,1,0,0:0:0:0:
402,192,46334,1,0,0:0:0:0:
256,192,46420,1,0,0:0:0:0:
36,192,46420,1,0,0:0:0:0:
329,192,46506,1,0,0:0:0:0:
475,192,46506,1,0,0:0:0:0:
109,192,46506,1,0,0:0:0:0:
182,192,46678,1,0,0:0:0:0:
36,192,46765,1,0,0:0:0:0:
256,192,46765,1,0,0:0:0:0:
402,192,46765,1,0,0:0:0:0:
109,192,46937,1,0,0:0:0:0:
402,192,47023,128,0,47196:0:0:0:0:
36,192,47196,1,0,0:0:0:0:
256,192,47282,1,0,0:0:0:0:
36,192,47368,1,0,0:0:0:0:
256,192,47454,1,0,0:0:0:0:
402,192,47540,1,0,0:0:0:0:
329,192,47584,1,0,0:0:0:0:
256,192,47627,1,0,0:0:0:0:
182,192,47670,1,0,0:0:0:0:
36,192,47713,1,0,0:0:0:0:
256,192,47799,1,0,0:0:0:0:
475,192,47885,1,0,0:0:0:0:
182,192,47971,1,0,0:0:0:0:
329,192,48058,128,0,48230:0:0:0:0:
182,192,48230,1,0,0:0:0:0:
36,192,48230,1,0,0:0:0:0:
475,192,48230,1,0,0:0:0:0:
329,192,48402,1,0,0:0:0:0:
182,192,48489,1,0,0:0:0:0:
36,192,48489,1,0,0:0:0:0:
256,192,48575,1,0,0:0:0:0:
402,192,48575,1,0,0:0:0:0:
182,192,48661,1,0,0:0:0:0:
36,192,48661,1,0,0:0:0:0:
329,192,48747,1,0,0:0:0:0:
475,192,48747,1,0,0:0:0:0:
256,192,48834,1,0,0:0:0:0:
182,192,48920,1,0,0:0:0:0:
36,192,48920,1,0,0:0:0:0:
402,192,48920,1,0,0:0:0:0:
329,192,49006,1,0,0:0:0:0:
109,192,49092,1,0,0:0:0:0:
256,192,49092,1,0,0:0:0:0:
36,192,49178,1,0,0:0:0:0:
475,192,49178,1,0,0:0:0:0:
329,192,49178,1,0,0:0:0:0:
182,192,49265,1,0,0:0:0:0:
256,192,49308,1,0,0:0:0:0:
329,192,49351,1,0,0:0:0:0:
402,192,49394,1,0,0:0:0:0:
475,192,49437,1,0,0:0:0:0:
182,192,49437,1,0,0:0:0:0:
109,192,49437,1,0,0:0:0:0:
329,192,49609,1,0,0:0:0:0:
402,192,49609,1,0,0:0:0:0:
36,192,49609,1,0,0:0:0:0:
109,192,49696,1,0,0:0:0:0:
256,192,49782,1,0,0:0:0:0:
329,192,49868,1,0,0:0:0:0:
402,192,49868,1,0,0:0:0:0:
36,192,49868,1,0,0:0:0:0:
109,192,49954,1,0,0:0:0:0:
256,192,50040,1,0,0:0:0:0:
329,192,50127,1,0,0:0:0:0:
402,192,50127,1,0,0:0:0:0:
36,192,50127,1,0,0:0:0:0:
109,192,50213,1,0,0:0:0:0:
256,192,50299,1,0,0:0:0:0:
402,192,50299,1,0,0:0:0:0:
182,192,50385,1,0,0:0:0:0:
36,192,50385,1,0,0:0:0:0:
329,192,50471,1,0,0:0:0:0:
475,192,50471,1,0,0:0:0:0:
109,192,50558,1,0,0:0:0:0:
256,192,50558,1,0,0:0:0:0:
402,192,50644,1,0,0:0:0:0:
329,192,50644,1,0,0:0:0:0:
329,192,50902,1,0,0:0:0:0:
402,192,50902,1,0,0:0:0:0:
256,192,51161,1,0,0:0:0:0:
109,192,51161,1,0,0:0:0:0:
256,192,51334,1,0,0:0:0:0:
402,192,51334,1,0,0:0:0:0:
256,192,51592,1,0,0:0:0:0:
402,192,51592,1,0,0:0:0:0:
182,192,51851,1,0,0:0:0:0:
109,192,51851,1,0,0:0:0:0:
36,192,52023,1,0,0:0:0:0:
475,192,52023,1,0,0:0:0:0:
256,192,52023,1,0,0:0:0:0:
475,192,52368,1,0,0:0:0:0:
182,192,52454,1,0,0:0:0:0:
329,192,52540,1,0,0:0:0:0:
36,192,52627,1,0,0:0:0:0:
329,192,52713,128,0,52742:0:0:0:0:
402,192,52742,128,0,52770:0:0:0:0:
475,192,52770,128,0,52799:0:0:0:0:
182,192,52799,128,0,52828:0:0:0:0:
109,192,52828,128,0,52856:0:0:0:0:
36,192,52856,128,0,52885:0:0:0:0:
256,192,52885,128,0,52914:0:0:0:0:
329,192,52914,128,0,52943:0:0:0:0:
402,192,52943,128,0,52971:0:0:0:0:
36,192,52971,128,0,53000:0:0:0:0:
109,192,53000,128,0,53029:0:0:0:0:
182,192,53029,128,0,53058:0:0:0:0:
329,192,53058,1,0,0:0:0:0:
475,192,53058,1,0,0:0:0:0:
36,192,53144,1,0,0:0:0:0:
182,192,53230,1,0,0:0:0:0:
402,192,53316,1,0,0:0:0:0:
256,192,53316,1,0,0:0:0:0:
36,192,53402,1,0,0:0:0:0:
109,192,53489,1,0,0:0:0:0:
475,192,53489,1,0,0:0:0:0:
402,192,53575,1,0,0:0:0:0:
182,192,53575,1,0,0:0:0:0:
329,192,53661,1,0,0:0:0:0:
182,192,53747,1,0,0:0:0:0:
36,192,53747,1,0,0:0:0:0:
256,192,53790,1,0,0:0:0:0:
329,192,53834,1,0,0:0:0:0:
402,192,53877,1,0,0:0:0:0:
475,192,53920,1,0,0:0:0:0:
36,192,53963,1,0,0:0:0:0:
109,192,54006,1,0,0:0:0:0:
256,192,54006,1,0,0:0:0:0:
329,192,54049,1,0,0:0:0:0:
402,192,54092,1,0,0:0:0:0:
475,192,54135,1,0,0:0:0:0:
36,192,54178,1,0,0:0:0:0:
109,192,54221,1,0,0:0:0:0:
182,192,54265,1,0,0:0:0:0:
329,192,54265,1,0,0:0:0:0:
109,192,54437,1,0,0:0:0:0:
256,192,54523,1,0,0:0:0:0:
109,192,54609,1,0,0:0:0:0:
256,192,54696,1,0,0:0:0:0:
329,192,54782,1,0,0:0:0:0:
475,192,54782,1,0,0:0:0:0:
36,192,54782,1,0,0:0:0:0:
256,192,55127,1,0,0:0:0:0:
182,192,55170,1,0,0:0:0:0:
109,192,55213,1,0,0:0:0:0:
36,192,55256,1,0,0:0:0:0:
475,192,55299,1,0,0:0:0:0:
402,192,55342,1,0,0:0:0:0:
329,192,55385,1,0,0:0:0:0:
256,192,55428,1,0,0:0:0:0:
182,192,55471,1,0,0:0:0:0:
36,192,55471,1,0,0:0:0:0:
256,192,55644,1,0,0:0:0:0:
329,192,55730,1,0,0:0:0:0:
402,192,55730,1,0,0:0:0:0:
109,192,55730,1,0,0:0:0:0:
256,192,55902,1,0,0:0:0:0:
402,192,55989,1,0,0:0:0:0:
329,192,55989,1,0,0:0:0:0:
109,192,55989,1,0,0:0:0:0:
182,192,56075,1,0,0:0:0:0:
256,192,56161,1,0,0:0:0:0:
402,192,56161,1,0,0:0:0:0:
36,192,56161,1,0,0:0:0:0:
109,192,56247,1,0,0:0:0:0:
182,192,56334,1,0,0:0:0:0:
256,192,56420,1,0,0:0:0:0:
402,192,56420,1,0,0:0:0:0:
36,192,56420,1,0,0:0:0:0:
109,192,56506,1,0,0:0:0:0:
182,192,56592,1,0,0:0:0:0:
256,192,56678,1,0,0:0:0:0:
402,192,56678,1,0,0:0:0:0:
36,192,56678,1,0,0:0:0:0:
109,192,56765,1,0,0:0:0:0:
329,192,56851,1,0,0:0:0:0:
475,192,56937,1,0,0:0:0:0:
36,192,57023,1,0,0:0:0:0:
182,192,57023,1,0,0:0:0:0:
256,192,57109,1,0,0:0:0:0:
475,192,57109,1,0,0:0:0:0:
329,192,57196,128,0,57885:0:0:0:0:
402,192,57196,128,0,57885:0:0:0:0:
36,192,57885,1,0,0:0:0:0:
182,192,57885,1,0,0:0:0:0:
475,192,58058,1,0,0:0:0:0:
402,192,58144,1,0,0:0:0:0:
182,192,58144,1,0,0:0:0:0:
36,192,58230,1,0,0:0:0:0:
109,192,58316,1,0,0:0:0:0:
256,192,58316,1,0,0:0:0:0:
329,192,58402,1,0,0:0:0:0:
475,192,58402,1,0,0:0:0:0:
36,192,58489,1,0,0:0:0:0:
182,192,58489,1,0,0:0:0:0:
256,192,58575,128,0,58661:0:0:0:0:
402,192,58575,128,0,58661:0:0:0:0:
182,192,58661,128,0,58747:0:0:0:0:
36,192,58661,128,0,58747:0:0:0:0:
256,192,58747,128,0,58834:0:0:0:0:
402,192,58747,128,0,58834:0:0:0:0:
109,192,58834,128,0,59092:0:0:0:0:
475,192,58834,1,0,0:0:0:0:
329,192,59092,128,0,59265:0:0:0:0:
182,192,59265,1,0,0:0:0:0:
36,192,59351,1,0,0:0:0:0:
329,192,59437,128,0,59459:0:0:0:0:
182,192,59523,128,0,59545:0:0:0:0:
402,192,59609,128,0,59638:0:0:0:0:
109,192,59696,128,0,59724:0:0:0:0:
475,192,59782,128,0,59825:0:0:0:0:
256,192,59868,128,0,59911:0:0:0:0:
402,192,59954,128,0,60040:0:0:0:0:
329,192,59954,128,0,60040:0:0:0:0:
182,192,60040,128,0,60127:0:0:0:0:
36,192,60040,128,0,60127:0:0:0:0:
329,192,60127,128,0,60213:0:0:0:0:
475,192,60127,128,0,60213:0:0:0:0:
182,192,60213,128,0,60299:0:0:0:0:
109,192,60213,128,0,60299:0:0:0:0:
256,192,60299,1,0,0:0:0:0:
402,192,60299,1,0,0:0:0:0:
329,192,60471,1,0,0:0:0:0:
402,192,60558,1,0,0:0:0:0:
182,192,60558,1,0,0:0:0:0:
36,192,60558,1,0,0:0:0:0:
256,192,60730,1,0,0:0:0:0:
329,192,60816,1,0,0:0:0:0:
475,192,60816,1,0,0:0:0:0:
182,192,60989,1,0,0:0:0:0:
36,192,60989,1,0,0:0:0:0:
402,192,60989,1,0,0:0:0:0:
329,192,61075,1,0,0:0:0:0:
256,192,61161,1,0,0:0:0:0:
402,192,61247,1,0,0:0:0:0:
182,192,61247,1,0,0:0:0:0:
36,192,61247,1,0,0:0:0:0:
256,192,61334,1,0,0:0:0:0:
329,192,61420,1,0,0:0:0:0:
475,192,61420,1,0,0:0:0:0:
182,192,61506,1,0,0:0:0:0:
36,192,61506,1,0,0:0:0:0:
256,192,61592,1,0,0:0:0:0:
402,192,61592,1,0,0:0:0:0:
182,192,61678,1,0,0:0:0:0:
36,192,61678,1,0,0:0:0:0:
475,192,61678,1,0,0:0:0:0:
256,192,61765,128,0,61851:0:0:0:0:
402,192,61851,128,0,62023:0:0:0:0:
256,192,62023,1,0,0:0:0:0:
256,192,62253,1,0,0:0:0:0:
256,192,62483,1,0,0:0:0:0:
36,192,62713,1,0,0:0:0:0:
182,192,62713,1,0,0:0:0:0:
475,192,62799,1,0,0:0:0:0:
329,192,62799,1,0,0:0:0:0:
109,192,62885,1,0,0:0:0:0:
402,192,62971,1,0,0:0:0:0:
256,192,62971,1,0,0:0:0:0:
182,192,63058,1,0,0:0:0:0:
36,192,63144,1,0,0:0:0:0:
182,192,63230,1,0,0:0:0:0:
329,192,63230,1,0,0:0:0:0:
475,192,63316,1,0,0:0:0:0:
109,192,63316,1,0,0:0:0:0:
256,192,63402,1,0,0:0:0:0:
36,192,63402,1,0,0:0:0:0:
329,192,63489,1,0,0:0:0:0:
475,192,63575,1,0,0:0:0:0:
182,192,63575,1,0,0:0:0:0:
36,192,63661,1,0,0:0:0:0:
256,192,63661,1,0,0:0:0:0:
402,192,63747,1,0,0:0:0:0:
329,192,63790,1,0,0:0:0:0:
256,192,63834,1,0,0:0:0:0:
182,192,63877,1,0,0:0:0:0:
109,192,63920,1,0,0:0:0:0:
475,192,63920,1,0,0:0:0:0:
36,192,64092,1,0,0:0:0:0:
256,192,64178,1,0,0:0:0:0:
109,192,64265,1,0,0:0:0:0:
329,192,64351,1,0,0:0:0:0:
182,192,64437,1,0,0:0:0:0:
402,192,64523,1,0,0:0:0:0:
256,192,64609,1,0,0:0:0:0:
475,192,64696,1,0,0:0:0:0:
256,192,64782,1,0,0:0:0:0:
182,192,64839,1,0,0:0:0:0:
109,192,64897,1,0,0:0:0:0:
402,192,64954,128,0,65127:0:0:0:0:
256,192,65127,1,0,0:0:0:0:
36,192,65127,1,0,0:0:0:0:
475,192,65299,1,0,0:0:0:0:
109,192,65385,1,0,0:0:0:0:
402,192,65385,1,0,0:0:0:0:
256,192,65385,1,0,0:0:0:0:
36,192,65558,1,0,0:0:0:0:
182,192,65558,1,0,0:0:0:0:
329,192,65644,128,0,65816:0:0:0:0:
182,192,65816,1,0,0:0:0:0:
182,192,66075,1,0,0:0:0:0:
329,192,66334,128,0,66506:0:0:0:0:
182,192,66506,128,0,66592:0:0:0:0:
475,192,66592,128,0,66678:0:0:0:0:
256,192,66678,128,0,66765:0:0:0:0:
36,192,66765,128,0,66851:0:0:0:0:
402,192,66765,1,0,0:0:0:0:
182,192,66851,1,0,0:0:0:0:
475,192,66937,128,0,67023:0:0:0:0:
109,192,67023,1,0,0:0:0:0:
329,192,67109,1,0,0:0:0:0:
182,192,67196,1,0,0:0:0:0:
475,192,67282,1,0,0:0:0:0:
256,192,67368,128,0,67540:0:0:0:0:
402,192,67540,1,0,0:0:0:0:
182,192,67540,1,0,0:0:0:0:
36,192,67540,1,0,0:0:0:0:
329,192,67713,1,0,0:0:0:0:
475,192,67713,1,0,0:0:0:0:
182,192,67799,1,0,0:0:0:0:
36,192,67799,1,0,0:0:0:0:
256,192,67885,1,0,0:0:0:0:
402,192,67885,1,0,0:0:0:0:
109,192,67971,1,0,0:0:0:0:
475,192,68058,1,0,0:0:0:0:
329,192,68058,1,0,0:0:0:0:
36,192,68144,1,0,0:0:0:0:
182,192,68230,1,0,0:0:0:0:
329,192,68230,1,0,0:0:0:0:
329,192,68489,1,0,0:0:0:0:
182,192,68489,1,0,0:0:0:0:
182,192,68747,1,0,0:0:0:0:
329,192,68747,1,0,0:0:0:0:
256,192,68920,128,0,69782:0:0:0:0:
475,192,69782,128,0,69868:0:0:0:0:
329,192,69868,128,0,69954:0:0:0:0:
36,192,69954,1,0,0:0:0:0:
182,192,69954,1,0,0:0:0:0:
256,192,70213,1,0,0:0:0:0:
475,192,70213,1,0,0:0:0:0:
182,192,70385,1,0,0:0:0:0:
36,192,70385,1,0,0:0:0:0:
329,192,70471,1,0,0:0:0:0:
402,192,70471,1,0,0:0:0:0:
256,192,70644,1,0,0:0:0:0:
109,192,70644,1,0,0:0:0:0:
182,192,70902,1,0,0:0:0:0:
475,192,70902,1,0,0:0:0:0:
36,192,70989,1,0,0:0:0:0:
402,192,71247,1,0,0:0:0:0:
256,192,71247,1,0,0:0:0:0:
182,192,71334,1,0,0:0:0:0:
36,192,71334,1,0,0:0:0:0:
475,192,71334,1,0,0:0:0:0:
329,192,71420,1,0,0:0:0:0:
109,192,71506,1,0,0:0:0:0:
256,192,71506,1,0,0:0:0:0:
475,192,71592,1,0,0:0:0:0:
329,192,71592,1,0,0:0:0:0:
36,192,71592,1,0,0:0:0:0:
182,192,71678,1,0,0:0:0:0:
402,192,71765,1,0,0:0:0:0:
256,192,71765,1,0,0:0:0:0:
36,192,71851,1,0,0:0:0:0:
182,192,71851,1,0,0:0:0:0:
329,192,71937,1,0,0:0:0:0:
256,192,72023,1,0,0:0:0:0:
109,192,72023,1,0,0:0:0:0:
475,192,72023,1,0,0:0:0:0:
36,192,72109,1,0,0:0:0:0:
402,192,72109,1,0,0:0:0:0:
329,192,72109,1,0,0:0:0:0:
182,192,72196,1,0,0:0:0:0:
256,192,72282,1,0,0:0:0:0:
402,192,72282,1,0,0:0:0:0:
475,192,72368,1,0,0:0:0:0:
182,192,72368,1,0,0:0:0:0:
36,192,72368,1,0,0:0:0:0:
109,192,72627,1,0,0:0:0:0:
475,192,72799,1,0,0:0:0:0:
329,192,72799,1,0,0:0:0:0:
182,192,72885,1,0,0:0:0:0:
109,192,72885,1,0,0:0:0:0:
36,192,73058,1,0,0:0:0:0:
402,192,73058,1,0,0:0:0:0:
256,192,73316,1,0,0:0:0:0:
475,192,73316,1,0,0:0:0:0:
109,192,73402,1,0,0:0:0:0:
182,192,73661,1,0,0:0:0:0:
475,192,73661,1,0,0:0:0:0:
256,192,73747,1,0,0:0:0:0:
402,192,73747,1,0,0:0:0:0:
36,192,73747,1,0,0:0:0:0:
109,192,73834,1,0,0:0:0:0:
182,192,73920,1,0,0:0:0:0:
475,192,73920,1,0,0:0:0:0:
256,192,74006,128,0,74782:0:0:0:0:
402,192,74006,128,0,74782:0:0:0:0:
36,192,74006,1,0,0:0:0:0:
36,192,74523,1,0,0:0:0:0:
109,192,74566,1,0,0:0:0:0:
182,192,74609,1,0,0:0:0:0:
329,192,74652,1,0,0:0:0:0:
475,192,74696,1,0,0:0:0:0:
36,192,74739,1,0,0:0:0:0:
182,192,74782,1,0,0:0:0:0:
329,192,74954,1,0,0:0:0:0:
475,192,75040,1,0,0:0:0:0:
402,192,75213,1,0,0:0:0:0:
256,192,75213,1,0,0:0:0:0:
182,192,75299,1,0,0:0:0:0:
109,192,75299,1,0,0:0:0:0:
256,192,75471,1,0,0:0:0:0:
36,192,75471,1,0,0:0:0:0:
475,192,75471,1,0,0:0:0:0:
182,192,75730,1,0,0:0:0:0:
329,192,75730,1,0,0:0:0:0:
109,192,75730,1,0,0:0:0:0:
475,192,75816,1,0,0:0:0:0:
402,192,76075,1,0,0:0:0:0:
109,192,76075,1,0,0:0:0:0:
36,192,76161,1,0,0:0:0:0:
475,192,76161,1,0,0:0:0:0:
256,192,76161,1,0,0:0:0:0:
182,192,76247,1,0,0:0:0:0:
109,192,76334,1,0,0:0:0:0:
329,192,76334,1,0,0:0:0:0:
36,192,76420,1,0,0:0:0:0:
256,192,76420,1,0,0:0:0:0:
475,192,76420,1,0,0:0:0:0:
182,192,76506,1,0,0:0:0:0:
329,192,76592,1,0,0:0:0:0:
256,192,76678,1,0,0:0:0:0:
109,192,76678,1,0,0:0:0:0:
402,192,76765,1,0,0:0:0:0:
475,192,76851,1,0,0:0:0:0:
182,192,76851,1,0,0:0:0:0:
36,192,76851,1,0,0:0:0:0:
256,192,76937,1,0,0:0:0:0:
402,192,77023,1,0,0:0:0:0:
475,192,77109,1,0,0:0:0:0:
182,192,77109,1,0,0:0:0:0:
36,192,77109,1,0,0:0:0:0:
256,192,77196,1,0,0:0:0:0:
402,192,77196,1,0,0:0:0:0:
329,192,77454,1,0,0:0:0:0:
475,192,77627,1,0,0:0:0:0:
256,192,77627,1,0,0:0:0:0:
36,192,77713,1,0,0:0:0:0:
182,192,77713,1,0,0:0:0:0:
109,192,77885,1,0,0:0:0:0:
329,192,77885,1,0,0:0:0:0:
475,192,77971,1,0,0:0:0:0:
256,192,78144,1,0,0:0:0:0:
182,192,78144,1,0,0:0:0:0:
36,192,78144,1,0,0:0:0:0:
109,192,78489,1,0,0:0:0:0:
329,192,78489,1,0,0:0:0:0:
256,192,78575,1,0,0:0:0:0:
36,192,78575,1,0,0:0:0:0:
475,192,78575,1,0,0:0:0:0:
402,192,78661,1,0,0:0:0:0:
109,192,78661,1,0,0:0:0:0:
329,192,78747,1,0,0:0:0:0:
182,192,78747,1,0,0:0:0:0:
36,192,78834,1,0,0:0:0:0:
256,192,78834,1,0,0:0:0:0:
475,192,78834,1,0,0:0:0:0:
329,192,78920,1,0,0:0:0:0:
109,192,79006,1,0,0:0:0:0:
256,192,79092,1,0,0:0:0:0:
475,192,79178,1,0,0:0:0:0:
329,192,79265,1,0,0:0:0:0:
182,192,79351,1,0,0:0:0:0:
36,192,79437,1,0,0:0:0:0:
256,192,79523,1,0,0:0:0:0:
475,192,79523,1,0,0:0:0:0:
182,192,79609,1,0,0:0:0:0:
109,192,79609,1,0,0:0:0:0:
402,192,79609,1,0,0:0:0:0:
329,192,79782,1,0,0:0:0:0:
36,192,79868,1,0,0:0:0:0:
109,192,80040,1,0,0:0:0:0:
256,192,80040,1,0,0:0:0:0:
329,192,80127,1,0,0:0:0:0:
475,192,80127,1,0,0:0:0:0:
182,192,80213,1,0,0:0:0:0:
36,192,80299,1,0,0:0:0:0:
402,192,80299,1,0,0:0:0:0:
256,192,80299,1,0,0:0:0:0:
109,192,80385,1,0,0:0:0:0:
329,192,80471,1,0,0:0:0:0:
475,192,80558,1,0,0:0:0:0:
182,192,80558,1,0,0:0:0:0:
256,192,80644,1,0,0:0:0:0:
402,192,80644,1,0,0:0:0:0:
329,192,80816,1,0,0:0:0:0:
182,192,80902,1,0,0:0:0:0:
36,192,80902,1,0,0:0:0:0:
475,192,80989,1,0,0:0:0:0:
329,192,80989,1,0,0:0:0:0:
109,192,81075,1,0,0:0:0:0:
256,192,81161,1,0,0:0:0:0:
402,192,81161,1,0,0:0:0:0:
36,192,81247,1,0,0:0:0:0:
475,192,81247,1,0,0:0:0:0:
182,192,81247,1,0,0:0:0:0:
329,192,81334,1,0,0:0:0:0:
109,192,81420,1,0,0:0:0:0:
256,192,81420,1,0,0:0:0:0:
36,192,81506,1,0,0:0:0:0:
329,192,81506,1,0,0:0:0:0:
475,192,81506,1,0,0:0:0:0:
182,192,81592,1,0,0:0:0:0:
329,192,81678,1,0,0:0:0:0:
109,192,81678,1,0,0:0:0:0:
256,192,81765,1,0,0:0:0:0:
475,192,81765,1,0,0:0:0:0:
36,192,81765,1,0,0:0:0:0:
182,192,81851,1,0,0:0:0:0:
109,192,81937,1,0,0:0:0:0:
329,192,81937,1,0,0:0:0:0:
402,192,81937,1,0,0:0:0:0:
475,192,82023,1,0,0:0:0:0:
256,192,82023,1,0,0:0:0:0:
36,192,82023,1,0,0:0:0:0:
182,192,82282,1,0,0:0:0:0:
36,192,82454,1,0,0:0:0:0:
475,192,82540,1,0,0:0:0:0:
182,192,82540,1,0,0:0:0:0:
256,192,82713,1,0,0:0:0:0:
402,192,82713,1,0,0:0:0:0:
36,192,82799,1,0,0:0:0:0:
109,192,82971,1,0,0:0:0:0:
475,192,82971,1,0,0:0:0:0:
256,192,83058,1,0,0:0:0:0:
402,192,83144,1,0,0:0:0:0:
256,192,83230,1,0,0:0:0:0:
182,192,83316,1,0,0:0:0:0:
36,192,83316,1,0,0:0:0:0:
329,192,83402,1,0,0:0:0:0:
475,192,83402,1,0,0:0:0:0:
256,192,83489,1,0,0:0:0:0:
109,192,83489,1,0,0:0:0:0:
36,192,83575,1,0,0:0:0:0:
329,192,83575,1,0,0:0:0:0:
475,192,83575,1,0,0:0:0:0:
109,192,83661,128,0,83790:0:0:0:0:
256,192,83661,128,0,83790:0:0:0:0:
256,192,83834,128,0,83920:0:0:0:0:
109,192,83834,128,0,83920:0:0:0:0:
402,192,83920,128,0,84006:0:0:0:0:
182,192,84006,128,0,84092:0:0:0:0:
36,192,84006,128,0,84092:0:0:0:0:
475,192,84092,128,0,84178:0:0:0:0:
109,192,84178,128,0,84265:0:0:0:0:
329,192,84265,128,0,84351:0:0:0:0:
475,192,84351,128,0,84437:0:0:0:0:
182,192,84351,1,0,0:0:0:0:
36,192,84437,1,0,0:0:0:0:
256,192,84437,128,0,85127:0:0:0:0:
402,192,84437,1,0,0:0:0:0:
109,192,84696,1,0,0:0:0:0:
402,192,84868,1,0,0:0:0:0:
329,192,84868,1,0,0:0:0:0:
36,192,84954,1,0,0:0:0:0:
182,192,84954,1,0,0:0:0:0:
475,192,85127,128,0,85385:0:0:0:0:
109,192,85127,1,0,0:0:0:0:
329,192,85385,128,0,85816:0:0:0:0:
36,192,85385,1,0,0:0:0:0:
182,192,85385,1,0,0:0:0:0:
256,192,85730,1,0,0:0:0:0:
36,192,85730,1,0,0:0:0:0:
182,192,85816,1,0,0:0:0:0:
475,192,85816,1,0,0:0:0:0:
109,192,85902,1,0,0:0:0:0:
256,192,85989,1,0,0:0:0:0:
402,192,85989,1,0,0:0:0:0:
182,192,86075,1,0,0:0:0:0:
36,192,86075,1,0,0:0:0:0:
475,192,86075,1,0,0:0:0:0:
329,192,86161,1,0,0:0:0:0:
109,192,86247,1,0,0:0:0:0:
182,192,86334,1,0,0:0:0:0:
402,192,86334,1,0,0:0:0:0:
36,192,86420,1,0,0:0:0:0:
109,192,86506,1,0,0:0:0:0:
329,192,86506,1,0,0:0:0:0:
475,192,86506,1,0,0:0:0:0:
256,192,86592,1,0,0:0:0:0:
182,192,86678,1,0,0:0:0:0:
109,192,86765,1,0,0:0:0:0:
329,192,86765,1,0,0:0:0:0:
402,192,86765,1,0,0:0:0:0:
475,192,86851,1,0,0:0:0:0:
256,192,86851,1,0,0:0:0:0:
36,192,86851,1,0,0:0:0:0:
182,192,87109,1,0,0:0:0:0:
256,192,87282,1,0,0:0:0:0:
36,192,87282,1,0,0:0:0:0:
329,192,87368,1,0,0:0:0:0:
475,192,87368,1,0,0:0:0:0:
256,192,87540,1,0,0:0:0:0:
109,192,87540,1,0,0:0:0:0:
402,192,87540,1,0,0:0:0:0:
36,192,87627,1,0,0:0:0:0:
182,192,87799,1,0,0:0:0:0:
329,192,87799,1,0,0:0:0:0:
475,192,87799,1,0,0:0:0:0:
256,192,88144,1,0,0:0:0:0:
402,192,88144,1,0,0:0:0:0:
36,192,88230,1,0,0:0:0:0:
182,192,88230,1,0,0:0:0:0:
475,192,88230,1,0,0:0:0:0:
329,192,88316,1,0,0:0:0:0:
402,192,88402,1,0,0:0:0:0:
182,192,88402,1,0,0:0:0:0:
256,192,88489,128,0,89265:0:0:0:0:
36,192,88489,1,0,0:0:0:0:
475,192,88489,1,0,0:0:0:0:
329,192,89178,1,0,0:0:0:0:
402,192,89178,1,0,0:0:0:0:
36,192,89265,1,0,0:0:0:0:
182,192,89265,1,0,0:0:0:0:
475,192,89265,1,0,0:0:0:0:
109,192,89954,1,0,0:0:0:0:
329,192,89954,1,0,0:0:0:0:
182,192,90213,1,0,0:0:0:0:
475,192,90213,1,0,0:0:0:0:
36,192,90299,1,0,0:0:0:0:
182,192,90558,1,0,0:0:0:0:
475,192,90558,1,0,0:0:0:0:
402,192,90644,1,0,0:0:0:0:
256,192,90644,1,0,0:0:0:0:
36,192,90644,1,0,0:0:0:0:
182,192,90730,1,0,0:0:0:0:
329,192,90816,1,0,0:0:0:0:
475,192,90816,1,0,0:0:0:0:
256,192,90902,1,0,0:0:0:0:
109,192,90902,1,0,0:0:0:0:
402,192,90989,1,0,0:0:0:0:
182,192,91075,1,0,0:0:0:0:
475,192,91161,1,0,0:0:0:0:
329,192,91161,1,0,0:0:0:0:
36,192,91161,1,0,0:0:0:0:
109,192,91247,1,0,0:0:0:0:
256,192,91247,1,0,0:0:0:0:
402,192,91334,1,0,0:0:0:0:
36,192,91420,1,0,0:0:0:0:
182,192,91420,1,0,0:0:0:0:
475,192,91506,1,0,0:0:0:0:
329,192,91506,1,0,0:0:0:0:
182,192,91592,1,0,0:0:0:0:
36,192,91678,1,0,0:0:0:0:
402,192,91678,1,0,0:0:0:0:
329,192,91736,1,0,0:0:0:0:
256,192,91793,1,0,0:0:0:0:
182,192,91851,1,0,0:0:0:0:
109,192,92368,1,0,0:0:0:0:
329,192,92368,1,0,0:0:0:0:
36,192,92627,1,0,0:0:0:0:
256,192,92627,1,0,0:0:0:0:
182,192,92713,1,0,0:0:0:0:
475,192,92713,1,0,0:0:0:0:
402,192,92971,1,0,0:0:0:0:
256,192,92971,1,0,0:0:0:0:
182,192,93058,1,0,0:0:0:0:
36,192,93058,1,0,0:0:0:0:
475,192,93058,1,0,0:0:0:0:
329,192,93144,1,0,0:0:0:0:
256,192,93230,1,0,0:0:0:0:
109,192,93230,1,0,0:0:0:0:
329,192,93316,1,0,0:0:0:0:
475,192,93316,1,0,0:0:0:0:
36,192,93316,1,0,0:0:0:0:
109,192,93402,1,0,0:0:0:0:
256,192,93489,1,0,0:0:0:0:
402,192,93575,128,0,93834:0:0:0:0:
329,192,93834,128,0,93920:0:0:0:0:
402,192,94006,1,0,0:0:0:0:
182,192,94006,1,0,0:0:0:0:
256,192,94092,128,0,94782:0:0:0:0:
475,192,94092,1,0,0:0:0:0:
36,192,94092,1,0,0:0:0:0:
109,192,94351,1,0,0:0:0:0:
402,192,94523,1,0,0:0:0:0:
182,192,94609,1,0,0:0:0:0:
36,192,94609,1,0,0:0:0:0:
475,192,94782,128,0,95040:0:0:0:0:
109,192,94782,1,0,0:0:0:0:
329,192,94782,1,0,0:0:0:0:
402,192,95040,128,0,95471:0:0:0:0:
182,192,95040,1,0,0:0:0:0:
256,192,95040,1,0,0:0:0:0:
256,192,95385,1,0,0:0:0:0:
182,192,95471,1,0,0:0:0:0:
36,192,95471,1,0,0:0:0:0:
329,192,95558,1,0,0:0:0:0:
256,192,95644,1,0,0:0:0:0:
109,192,95644,1,0,0:0:0:0:
36,192,95730,1,0,0:0:0:0:
475,192,95730,1,0,0:0:0:0:
329,192,95730,1,0,0:0:0:0:
182,192,95816,1,0,0:0:0:0:
402,192,95902,1,0,0:0:0:0:
109,192,95989,1,0,0:0:0:0:
256,192,96075,1,0,0:0:0:0:
329,192,96161,1,0,0:0:0:0:
475,192,96161,1,0,0:0:0:0:
36,192,96161,1,0,0:0:0:0:
109,192,96247,1,0,0:0:0:0:
256,192,96334,1,0,0:0:0:0:
475,192,96420,1,0,0:0:0:0:
329,192,96420,1,0,0:0:0:0:
36,192,96420,1,0,0:0:0:0:
109,192,96506,1,0,0:0:0:0:
256,192,96506,1,0,0:0:0:0:
329,192,96592,1,0,0:0:0:0:
475,192,96592,1,0,0:0:0:0:
182,192,96678,1,0,0:0:0:0:
36,192,96678,1,0,0:0:0:0:
256,192,96765,1,0,0:0:0:0:
402,192,96765,1,0,0:0:0:0:
182,192,96851,1,0,0:0:0:0:
36,192,96851,1,0,0:0:0:0:
329,192,96937,1,0,0:0:0:0:
475,192,96937,1,0,0:0:0:0:
256,192,97023,1,0,0:0:0:0:
109,192,97023,1,0,0:0:0:0:
329,192,97196,1,0,0:0:0:0:
475,192,97196,1,0,0:0:0:0:
182,192,97196,1,0,0:0:0:0:
109,192,97368,1,0,0:0:0:0:
329,192,97454,1,0,0:0:0:0:
402,192,97454,1,0,0:0:0:0:
182,192,97454,1,0,0:0:0:0:
36,192,97454,1,0,0:0:0:0:
402,192,97799,1,0,0:0:0:0:
182,192,97799,1,0,0:0:0:0:
109,192,97885,1,0,0:0:0:0:
36,192,97885,1,0,0:0:0:0:
329,192,97885,1,0,0:0:0:0:
475,192,97971,1,0,0:0:0:0:
256,192,98058,1,0,0:0:0:0:
36,192,98144,1,0,0:0:0:0:
182,192,98144,1,0,0:0:0:0:
329,192,98230,1,0,0:0:0:0:
109,192,98316,1,0,0:0:0:0:
475,192,98316,1,0,0:0:0:0:
402,192,98402,1,0,0:0:0:0:
256,192,98402,1,0,0:0:0:0:
36,192,98460,1,0,0:0:0:0:
329,192,98517,1,0,0:0:0:0:
109,192,98575,1,0,0:0:0:0:
475,192,98632,1,0,0:0:0:0:
182,192,98690,1,0,0:0:0:0:
329,192,98747,1,0,0:0:0:0:
109,192,98805,1,0,0:0:0:0:
402,192,98862,1,0,0:0:0:0:
256,192,98920,1,0,0:0:0:0:
475,192,98920,1,0,0:0:0:0:
36,192,98920,1,0,0:0:0:0:
182,192,99006,1,0,0:0:0:0:
36,192,99092,1,0,0:0:0:0:
182,192,99178,1,0,0:0:0:0:
329,192,99265,1,0,0:0:0:0:
109,192,99351,1,0,0:0:0:0:
256,192,99437,1,0,0:0:0:0:
402,192,99437,1,0,0:0:0:0:
109,192,99523,1,0,0:0:0:0:
182,192,99609,1,0,0:0:0:0:
329,192,99609,1,0,0:0:0:0:
475,192,99609,128,0,99868:0:0:0:0:
36,192,99696,1,0,0:0:0:0:
256,192,99782,1,0,0:0:0:0:
402,192,99868,1,0,0:0:0:0:
109,192,99868,1,0,0:0:0:0:
256,192,99954,1,0,0:0:0:0:
36,192,100040,1,0,0:0:0:0:
182,192,100127,1,0,0:0:0:0:
256,192,100213,1,0,0:0:0:0:
402,192,100213,1,0,0:0:0:0:
36,192,100299,1,0,0:0:0:0:
475,192,100299,1,0,0:0:0:0:
182,192,100299,1,0,0:0:0:0:
402,192,100385,1,0,0:0:0:0:
256,192,100471,1,0,0:0:0:0:
182,192,100558,1,0,0:0:0:0:
36,192,100558,1,0,0:0:0:0:
475,192,100558,1,0,0:0:0:0:
256,192,100644,1,0,0:0:0:0:
402,192,100644,1,0,0:0:0:0:
182,192,100730,1,0,0:0:0:0:
36,192,100730,1,0,0:0:0:0:
475,192,100816,1,0,0:0:0:0:
329,192,100816,1,0,0:0:0:0:
182,192,100989,1,0,0:0:0:0:
36,192,101075,1,0,0:0:0:0:
109,192,101075,1,0,0:0:0:0:
256,192,101075,1,0,0:0:0:0:
402,192,101075,1,0,0:0:0:0:
182,192,101247,1,0,0:0:0:0:
256,192,101334,1,0,0:0:0:0:
109,192,101334,1,0,0:0:0:0:
329,192,101334,1,0,0:0:0:0:
475,192,101334,1,0,0:0:0:0:
402,192,101592,1,0,0:0:0:0:
109,192,101765,1,0,0:0:0:0:
182,192,101765,1,0,0:0:0:0:
256,192,101851,1,0,0:0:0:0:
475,192,101851,1,0,0:0:0:0:
36,192,102023,1,0,0:0:0:0:
182,192,102023,1,0,0:0:0:0:
475,192,102282,1,0,0:0:0:0:
109,192,102282,1,0,0:0:0:0:
256,192,102368,1,0,0:0:0:0:
329,192,102627,1,0,0:0:0:0:
402,192,102627,1,0,0:0:0:0:
182,192,102713,1,0,0:0:0:0:
36,192,102713,1,0,0:0:0:0:
475,192,102713,1,0,0:0:0:0:
256,192,102799,1,0,0:0:0:0:
109,192,102885,1,0,0:0:0:0:
402,192,102885,1,0,0:0:0:0:
256,192,102971,128,0,103489:0:0:0:0:
36,192,102971,1,0,0:0:0:0:
475,192,102971,1,0,0:0:0:0:
329,192,103489,128,0,103575:0:0:0:0:
402,192,103575,128,0,103661:0:0:0:0:
475,192,103661,128,0,103747:0:0:0:0:
36,192,103747,1,0,0:0:0:0:
182,192,103747,1,0,0:0:0:0:
256,192,103747,1,0,0:0:0:0:
329,192,104006,128,0,104092:0:0:0:0:
182,192,104092,128,0,104178:0:0:0:0:
36,192,104092,1,0,0:0:0:0:
475,192,104178,1,0,0:0:0:0:
109,192,104265,1,0,0:0:0:0:
256,192,104265,1,0,0:0:0:0:
402,192,104437,128,0,104696:0:0:0:0:
36,192,104437,1,0,0:0:0:0:
182,192,104437,1,0,0:0:0:0:
109,192,104696,128,0,105385:0:0:0:0:
256,192,104696,1,0,0:0:0:0:
475,192,105040,1,0,0:0:0:0:
329,192,105040,1,0,0:0:0:0:
256,192,105127,1,0,0:0:0:0:
182,192,105213,1,0,0:0:0:0:
475,192,105299,1,0,0:0:0:0:
329,192,105299,1,0,0:0:0:0:
36,192,105385,128,0,105902:0:0:0:0:
256,192,105385,1,0,0:0:0:0:
109,192,105902,128,0,105989:0:0:0:0:
329,192,105902,128,0,105989:0:0:0:0:
475,192,105989,128,0,106075:0:0:0:0:
182,192,105989,128,0,106075:0:0:0:0:
329,192,106075,128,0,106161:0:0:0:0:
109,192,106075,128,0,106161:0:0:0:0:
36,192,106161,128,0,106247:0:0:0:0:
256,192,106161,128,0,106247:0:0:0:0:
329,192,106334,128,0,106420:0:0:0:0:
109,192,106420,1,0,0:0:0:0:
475,192,106420,128,0,106678:0:0:0:0:
329,192,106592,1,0,0:0:0:0:
256,192,106678,1,0,0:0:0:0:
36,192,106678,1,0,0:0:0:0:
109,192,106851,1,0,0:0:0:0:
329,192,106851,1,0,0:0:0:0:
402,192,106851,1,0,0:0:0:0:
475,192,107109,1,0,0:0:0:0:
182,192,107109,128,0,108402:0:0:0:0:
256,192,107109,128,0,108402:0:0:0:0:
402,192,108402,1,0,0:0:0:0:
475,192,108402,1,0,0:0:0:0:
109,192,108489,1,0,0:0:0:0:
36,192,108489,1,0,0:0:0:0:
329,192,108575,128,0,109265:0:0:0:0:
402,192,108575,128,0,109265:0:0:0:0:
182,192,109265,1,0,0:0:0:0:
36,192,109265,1,0,0:0:0:0:
256,192,109523,1,0,0:0:0:0:
475,192,109523,1,0,0:0:0:0:
36,192,109609,1,0,0:0:0:0:
109,192,109782,1,0,0:0:0:0:
256,192,109868,1,0,0:0:0:0:
402,192,109868,1,0,0:0:0:0:
182,192,109954,1,0,0:0:0:0:
36,192,109954,1,0,0:0:0:0:
475,192,109954,1,0,0:0:0:0:
329,192,110040,1,0,0:0:0:0:
109,192,110127,1,0,0:0:0:0:
256,192,110127,1,0,0:0:0:0:
329,192,110213,128,0,110902:0:0:0:0:
36,192,110213,1,0,0:0:0:0:
475,192,110213,1,0,0:0:0:0:
475,192,110902,1,0,0:0:0:0:
109,192,110902,1,0,0:0:0:0:
182,192,110989,128,0,111161:0:0:0:0:
256,192,110989,128,0,111161:0:0:0:0:
182,192,111247,128,0,111420:0:0:0:0:
256,192,111247,128,0,111420:0:0:0:0:
182,192,111506,128,0,111678:0:0:0:0:
256,192,111506,128,0,111678:0:0:0:0:
475,192,111678,128,0,111765:0:0:0:0:
109,192,111765,128,0,111851:0:0:0:0:
256,192,111851,128,0,111937:0:0:0:0:
36,192,111937,128,0,112023:0:0:0:0:
475,192,111937,1,0,0:0:0:0:
402,192,112023,1,0,0:0:0:0:
256,192,112109,1,0,0:0:0:0:
109,192,112196,1,0,0:0:0:0:
402,192,112282,1,0,0:0:0:0:
182,192,112282,1,0,0:0:0:0:
475,192,112368,1,0,0:0:0:0:
256,192,112368,1,0,0:0:0:0:
36,192,112368,1,0,0:0:0:0:
402,192,112454,1,0,0:0:0:0:
329,192,112540,1,0,0:0:0:0:
109,192,112540,1,0,0:0:0:0:
475,192,112627,1,0,0:0:0:0:
256,192,112627,1,0,0:0:0:0:
36,192,112627,1,0,0:0:0:0:
402,192,112713,1,0,0:0:0:0:
329,192,112799,1,0,0:0:0:0:
109,192,112799,1,0,0:0:0:0:
256,192,112885,128,0,113144:0:0:0:0:
182,192,113144,128,0,113230:0:0:0:0:
329,192,113316,1,0,0:0:0:0:
475,192,113316,1,0,0:0:0:0:
256,192,113402,128,0,114092:0:0:0:0:
109,192,113402,1,0,0:0:0:0:
402,192,113661,1,0,0:0:0:0:
475,192,113834,1,0,0:0:0:0:
182,192,113920,1,0,0:0:0:0:
36,192,113920,1,0,0:0:0:0:
475,192,114092,128,0,114351:0:0:0:0:
109,192,114092,1,0,0:0:0:0:
182,192,114351,1,0,0:0:0:0:
36,192,114351,1,0,0:0:0:0:
402,192,114351,128,0,114782:0:0:0:0:
256,192,114696,1,0,0:0:0:0:
36,192,114782,1,0,0:0:0:0:
182,192,114782,1,0,0:0:0:0:
329,192,114868,1,0,0:0:0:0:
109,192,114954,1,0,0:0:0:0:
256,192,114954,1,0,0:0:0:0:
36,192,115040,1,0,0:0:0:0:
329,192,115040,1,0,0:0:0:0:
475,192,115040,1,0,0:0:0:0:
182,192,115127,1,0,0:0:0:0:
402,192,115213,1,0,0:0:0:0:
36,192,115299,1,0,0:0:0:0:
329,192,115385,1,0,0:0:0:0:
109,192,115471,1,0,0:0:0:0:
256,192,115471,1,0,0:0:0:0:
329,192,115558,1,0,0:0:0:0:
475,192,115644,1,0,0:0:0:0:
182,192,115730,1,0,0:0:0:0:
36,192,115730,1,0,0:0:0:0:
329,192,115816,1,0,0:0:0:0:
475,192,115816,1,0,0:0:0:0:
256,192,115902,1,0,0:0:0:0:
109,192,115902,1,0,0:0:0:0:
329,192,115989,1,0,0:0:0:0:
475,192,115989,1,0,0:0:0:0:
182,192,116075,1,0,0:0:0:0:
36,192,116075,1,0,0:0:0:0:
256,192,116161,1,0,0:0:0:0:
402,192,116161,1,0,0:0:0:0:
36,192,116247,1,0,0:0:0:0:
182,192,116247,1,0,0:0:0:0:
475,192,116334,1,0,0:0:0:0:
329,192,116334,1,0,0:0:0:0:
182,192,116506,1,0,0:0:0:0:
109,192,116506,1,0,0:0:0:0:
402,192,116506,1,0,0:0:0:0:
36,192,116765,128,0,117023:0:0:0:0:
475,192,116765,128,0,117023:0:0:0:0:
402,192,117023,1,0,0:0:0:0:
329,192,117066,1,0,0:0:0:0:
256,192,117109,1,0,0:0:0:0:
182,192,117152,1,0,0:0:0:0:
109,192,117196,1,0,0:0:0:0:
475,192,117196,1,0,0:0:0:0:
256,192,117325,1,0,0:0:0:0:
402,192,117325,1,0,0:0:0:0:
182,192,117454,1,0,0:0:0:0:
36,192,117454,1,0,0:0:0:0:
256,192,117540,1,0,0:0:0:0:
402,192,117540,1,0,0:0:0:0:
475,192,117627,1,0,0:0:0:0:
109,192,117627,1,0,0:0:0:0:
329,192,117713,1,0,0:0:0:0:
402,192,117713,1,0,0:0:0:0:
182,192,117799,1,0,0:0:0:0:
109,192,117799,1,0,0:0:0:0:
402,192,117885,1,0,0:0:0:0:
475,192,117885,1,0,0:0:0:0:
109,192,117971,1,0,0:0:0:0:
36,192,117971,1,0,0:0:0:0:
402,192,118058,1,0,0:0:0:0:
329,192,118058,1,0,0:0:0:0:
182,192,118144,1,0,0:0:0:0:
109,192,118144,1,0,0:0:0:0:
256,192,118230,1,0,0:0:0:0:
36,192,118230,1,0,0:0:0:0:
475,192,118230,1,0,0:0:0:0:
329,192,118747,1,0,0:0:0:0:
402,192,118747,1,0,0:0:0:0:
109,192,118747,1,0,0:0:0:0:
475,192,118920,128,0,119178:0:0:0:0:
182,192,118920,1,0,0:0:0:0:
36,192,118920,1,0,0:0:0:0:
329,192,119178,1,0,0:0:0:0:
256,192,119178,1,0,0:0:0:0:
109,192,119265,1,0,0:0:0:0:
109,192,119523,1,0,0:0:0:0:
256,192,119523,1,0,0:0:0:0:
329,192,119609,1,0,0:0:0:0:
475,192,119609,1,0,0:0:0:0:
36,192,119609,1,0,0:0:0:0:
182,192,119696,1,0,0:0:0:0:
402,192,119782,1,0,0:0:0:0:
256,192,119782,1,0,0:0:0:0:
182,192,119868,1,0,0:0:0:0:
36,192,119868,1,0,0:0:0:0:
475,192,119868,1,0,0:0:0:0:
329,192,119954,1,0,0:0:0:0:
109,192,120040,1,0,0:0:0:0:
256,192,120040,1,0,0:0:0:0:
36,192,120127,1,0,0:0:0:0:
402,192,120127,1,0,0:0:0:0:
475,192,120127,1,0,0:0:0:0:
182,192,120213,1,0,0:0:0:0:
109,192,120299,1,0,0:0:0:0:
329,192,120299,1,0,0:0:0:0:
36,192,120385,1,0,0:0:0:0:
256,192,120385,1,0,0:0:0:0:
475,192,120385,1,0,0:0:0:0:
402,192,120471,1,0,0:0:0:0:
329,192,120558,1,0,0:0:0:0:
109,192,120558,1,0,0:0:0:0:
182,192,120644,1,0,0:0:0:0:
256,192,120644,1,0,0:0:0:0:
475,192,120644,1,0,0:0:0:0:
402,192,120902,1,0,0:0:0:0:
36,192,121075,1,0,0:0:0:0:
109,192,121075,1,0,0:0:0:0:
329,192,121161,1,0,0:0:0:0:
475,192,121161,1,0,0:0:0:0:
182,192,121247,1,0,0:0:0:0:
256,192,121334,1,0,0:0:0:0:
402,192,121334,1,0,0:0:0:0:
36,192,121420,1,0,0:0:0:0:
182,192,121506,1,0,0:0:0:0:
329,192,121592,1,0,0:0:0:0:
475,192,121592,1,0,0:0:0:0:
256,192,121678,1,0,0:0:0:0:
36,192,121678,1,0,0:0:0:0:
402,192,121765,1,0,0:0:0:0:
256,192,121851,1,0,0:0:0:0:
475,192,121937,1,0,0:0:0:0:
182,192,121937,1,0,0:0:0:0:
36,192,122023,1,0,0:0:0:0:
402,192,122023,1,0,0:0:0:0:
109,192,122109,1,0,0:0:0:0:
256,192,122196,1,0,0:0:0:0:
475,192,122282,1,0,0:0:0:0:
402,192,122311,1,0,0:0:0:0:
329,192,122339,1,0,0:0:0:0:
256,192,122368,1,0,0:0:0:0:
182,192,122397,1,0,0:0:0:0:
109,192,122425,1,0,0:0:0:0:
36,192,122454,1,0,0:0:0:0:
475,192,122454,1,0,0:0:0:0:
402,192,122483,1,0,0:0:0:0:
329,192,122512,1,0,0:0:0:0:
256,192,122540,1,0,0:0:0:0:
182,192,122569,1,0,0:0:0:0:
109,192,122598,1,0,0:0:0:0:
36,192,122627,1,0,0:0:0:0:
475,192,122627,1,0,0:0:0:0:
402,192,122670,1,0,0:0:0:0:
256,192,122713,1,0,0:0:0:0:
182,192,122756,1,0,0:0:0:0:
109,192,122799,1,0,0:0:0:0:
36,192,122842,1,0,0:0:0:0:
475,192,122842,1,0,0:0:0:0:
402,192,122885,1,0,0:0:0:0:
329,192,122928,1,0,0:0:0:0:
256,192,122971,1,0,0:0:0:0:
109,192,123015,1,0,0:0:0:0:
36,192,123058,1,0,0:0:0:0:
475,192,123058,1,0,0:0:0:0:
329,192,123144,1,0,0:0:0:0:
109,192,123230,1,0,0:0:0:0:
475,192,123316,1,0,0:0:0:0:
256,192,123316,128,0,123575:0:0:0:0:
36,192,123402,128,0,123575:0:0:0:0:
402,192,123489,128,0,123575:0:0:0:0:
109,192,123575,1,0,0:0:0:0:
182,192,123747,1,0,0:0:0:0:
475,192,123747,128,0,124006:0:0:0:0:
329,192,124006,128,0,124135:0:0:0:0:
36,192,124006,1,0,0:0:0:0:
402,192,124135,128,0,124265:0:0:0:0:
182,192,124135,1,0,0:0:0:0:
109,192,124265,1,0,0:0:0:0:
256,192,124265,128,0,124394:0:0:0:0:
329,192,124394,128,0,124523:0:0:0:0:
36,192,124394,1,0,0:0:0:0:
475,192,124523,128,0,124696:0:0:0:0:
109,192,124523,1,0,0:0:0:0:
256,192,124696,128,0,125471:0:0:0:0:
329,192,125127,1,0,0:0:0:0:
475,192,125127,1,0,0:0:0:0:
182,192,125213,1,0,0:0:0:0:
109,192,125299,1,0,0:0:0:0:
36,192,125385,1,0,0:0:0:0:
182,192,125471,128,0,126161:0:0:0:0:
475,192,125471,1,0,0:0:0:0:
329,192,125471,1,0,0:0:0:0:
475,192,126161,1,0,0:0:0:0:
329,192,126161,1,0,0:0:0:0:
36,192,126161,1,0,0:0:0:0:
475,192,126420,128,0,126506:0:0:0:0:
109,192,126420,1,0,0:0:0:0:
329,192,126506,128,0,126592:0:0:0:0:
182,192,126592,128,0,126678:0:0:0:0:
475,192,126678,128,0,126765:0:0:0:0:
256,192,126765,128,0,126851:0:0:0:0:
109,192,126851,128,0,126937:0:0:0:0:
402,192,126937,128,0,127023:0:0:0:0:
256,192,127023,128,0,127109:0:0:0:0:
109,192,127109,128,0,127196:0:0:0:0:
402,192,127196,128,0,127282:0:0:0:0:
256,192,127282,128,0,127368:0:0:0:0:
36,192,127368,128,0,127454:0:0:0:0:
402,192,127454,128,0,127540:0:0:0:0:
182,192,127540,128,0,127627:0:0:0:0:
36,192,127627,128,0,127713:0:0:0:0:
329,192,127713,128,0,127799:0:0:0:0:
182,192,127799,128,0,127885:0:0:0:0:
36,192,127885,1,0,0:0:0:0:
475,192,127885,128,0,128402:0:0:0:0:
182,192,128144,1,0,0:0:0:0:
256,192,128187,1,0,0:0:0:0:
329,192,128230,1,0,0:0:0:0:
402,192,128273,1,0,0:0:0:0:
36,192,128316,1,0,0:0:0:0:
109,192,128359,1,0,0:0:0:0:
182,192,128402,1,0,0:0:0:0:
329,192,128402,1,0,0:0:0:0:
109,192,128575,128,0,128834:0:0:0:0:
256,192,128575,1,0,0:0:0:0:
402,192,128575,1,0,0:0:0:0:
475,192,128834,128,0,129265:0:0:0:0:
329,192,128834,1,0,0:0:0:0:
256,192,128877,1,0,0:0:0:0:
182,192,128920,1,0,0:0:0:0:
109,192,128963,1,0,0:0:0:0:
36,192,129006,1,0,0:0:0:0:
402,192,129006,1,0,0:0:0:0:
329,192,129049,1,0,0:0:0:0:
256,192,129092,1,0,0:0:0:0:
182,192,129135,1,0,0:0:0:0:
109,192,129178,1,0,0:0:0:0:
256,192,129265,1,0,0:0:0:0:
36,192,129265,1,0,0:0:0:0:
402,192,129351,1,0,0:0:0:0:
182,192,129437,1,0,0:0:0:0:
329,192,129523,1,0,0:0:0:0:
475,192,129523,1,0,0:0:0:0:
36,192,129523,1,0,0:0:0:0:
256,192,129609,1,0,0:0:0:0:
109,192,129696,1,0,0:0:0:0:
402,192,129696,1,0,0:0:0:0:
256,192,129782,1,0,0:0:0:0:
475,192,129782,128,0,129868:0:0:0:0:
182,192,129868,1,0,0:0:0:0:
402,192,129868,128,0,129954:0:0:0:0:
109,192,129954,1,0,0:0:0:0:
329,192,129954,128,0,130040:0:0:0:0:
36,192,130040,1,0,0:0:0:0:
256,192,130040,128,0,130127:0:0:0:0:
109,192,130127,1,0,0:0:0:0:
475,192,130127,128,0,130299:0:0:0:0:
182,192,130299,1,0,0:0:0:0:
36,192,130299,1,0,0:0:0:0:
329,192,130299,1,0,0:0:0:0:
256,192,130558,1,0,0:0:0:0:
402,192,130558,1,0,0:0:0:0:
182,192,130644,1,0,0:0:0:0:
36,192,130644,1,0,0:0:0:0:
329,192,130730,1,0,0:0:0:0:
109,192,130816,128,0,130902:0:0:0:0:
256,192,130816,128,0,130902:0:0:0:0:
475,192,130902,128,0,130989:0:0:0:0:
36,192,130989,1,0,0:0:0:0:
182,192,130989,1,0,0:0:0:0:
256,192,131075,1,0,0:0:0:0:
402,192,131161,1,0,0:0:0:0:
36,192,131247,1,0,0:0:0:0:
475,192,131247,1,0,0:0:0:0:
182,192,131247,1,0,0:0:0:0:
256,192,131334,128,0,131592:0:0:0:0:
475,192,131592,1,0,0:0:0:0:
402,192,131678,1,0,0:0:0:0:
36,192,131678,1,0,0:0:0:0:
182,192,131678,1,0,0:0:0:0:
329,192,131765,1,0,0:0:0:0:
256,192,131851,1,0,0:0:0:0:
182,192,131937,1,0,0:0:0:0:
36,192,131937,1,0,0:0:0:0:
402,192,131937,1,0,0:0:0:0:
475,192,132196,1,0,0:0:0:0:
109,192,132196,1,0,0:0:0:0:
329,192,132196,1,0,0:0:0:0:
182,192,132282,1,0,0:0:0:0:
256,192,132368,1,0,0:0:0:0:
402,192,132368,1,0,0:0:0:0:
182,192,132454,1,0,0:0:0:0:
36,192,132454,1,0,0:0:0:0:
475,192,132454,1,0,0:0:0:0:
402,192,132540,1,0,0:0:0:0:
256,192,132584,1,0,0:0:0:0:
182,192,132627,1,0,0:0:0:0:
109,192,132670,1,0,0:0:0:0:
36,192,132713,1,0,0:0:0:0:
329,192,132713,1,0,0:0:0:0:
475,192,132713,1,0,0:0:0:0:
256,192,132799,1,0,0:0:0:0:
109,192,132885,1,0,0:0:0:0:
475,192,132971,1,0,0:0:0:0:
36,192,132971,1,0,0:0:0:0:
329,192,132971,1,0,0:0:0:0:
256,192,133058,1,0,0:0:0:0:
109,192,133144,1,0,0:0:0:0:
36,192,133230,1,0,0:0:0:0:
475,192,133230,1,0,0:0:0:0:
329,192,133230,1,0,0:0:0:0:
182,192,133316,1,0,0:0:0:0:
256,192,133402,1,0,0:0:0:0:
402,192,133402,1,0,0:0:0:0:
36,192,133489,1,0,0:0:0:0:
329,192,133575,1,0,0:0:0:0:
182,192,133575,1,0,0:0:0:0:
109,192,133661,1,0,0:0:0:0:
475,192,133747,128,0,133834:0:0:0:0:
256,192,133747,1,0,0:0:0:0:
182,192,133834,128,0,133920:0:0:0:0:
329,192,133920,128,0,134006:0:0:0:0:
36,192,134006,128,0,134092:0:0:0:0:
256,192,134092,128,0,134178:0:0:0:0:
109,192,134178,128,0,134265:0:0:0:0:
256,192,134265,128,0,134351:0:0:0:0:
475,192,134351,128,0,134437:0:0:0:0:
329,192,134437,128,0,134523:0:0:0:0:
36,192,134523,128,0,134609:0:0:0:0:
256,192,134609,128,0,134782:0:0:0:0:
402,192,134782,1,0,0:0:0:0:
109,192,134782,1,0,0:0:0:0:
36,192,134954,1,0,0:0:0:0:
182,192,134954,1,0,0:0:0:0:
475,192,134954,1,0,0:0:0:0:
329,192,134954,1,0,0:0:0:0:
256,192,135127,1,0,0:0:0:0:
109,192,135127,128,0,135428:0:0:0:0:
402,192,135127,128,0,135428:0:0:0:0:
475,192,135428,128,0,135730:0:0:0:0:
36,192,135428,128,0,135730:0:0:0:0:
402,192,135601,1,0,0:0:0:0:
329,192,135687,1,0,0:0:0:0:
256,192,135773,1,0,0:0:0:0:
182,192,135816,1,0,0:0:0:0:
109,192,135845,1,0,0:0:0:0:
36,192,135874,1,0,0:0:0:0:
475,192,135902,1,0,0:0:0:0:
402,192,135931,1,0,0:0:0:0:
329,192,135960,1,0,0:0:0:0:
256,192,135989,1,0,0:0:0:0:
182,192,136010,1,0,0:0:0:0:
109,192,136032,1,0,0:0:0:0:
36,192,136053,1,0,0:0:0:0:
475,192,136075,1,0,0:0:0:0:
402,192,136096,1,0,0:0:0:0:
329,192,136118,1,0,0:0:0:0:
256,192,136140,1,0,0:0:0:0:
182,192,136161,1,0,0:0:0:0:
36,192,136190,1,0,0:0:0:0:
109,192,136219,1,0,0:0:0:0:
256,192,136247,1,0,0:0:0:0:
402,192,136276,1,0,0:0:0:0:
475,192,136305,1,0,0:0:0:0:
182,192,136334,1,0,0:0:0:0:
36,192,136362,1,0,0:0:0:0:
109,192,136391,1,0,0:0:0:0:
256,192,136420,1,0,0:0:0:0:
402,192,136448,1,0,0:0:0:0:
475,192,136477,1,0,0:0:0:0:
109,192,136506,128,0,136678:0:0:0:0:
256,192,136678,128,0,136851:0:0:0:0:
402,192,136678,128,0,136851:0:0:0:0:
36,192,136851,1,0,0:0:0:0:
182,192,136851,128,0,136937:0:0:0:0:
475,192,136937,128,0,137023:0:0:0:0:
256,192,137023,128,0,137109:0:0:0:0:
109,192,137023,1,0,0:0:0:0:
402,192,137109,128,0,137196:0:0:0:0:
36,192,137196,128,0,137282:0:0:0:0:
329,192,137282,128,0,137368:0:0:0:0:
109,192,137368,128,0,137454:0:0:0:0:
256,192,137454,128,0,137540:0:0:0:0:
402,192,137540,1,0,0:0:0:0:
109,192,137627,1,0,0:0:0:0:
329,192,137627,1,0,0:0:0:0:
256,192,137713,1,0,0:0:0:0:
36,192,137713,1,0,0:0:0:0:
475,192,137713,1,0,0:0:0:0:
109,192,137799,128,0,137885:0:0:0:0:
329,192,137885,128,0,137971:0:0:0:0:
36,192,137971,128,0,138058:0:0:0:0:
182,192,138058,1,0,0:0:0:0:
402,192,138058,1,0,0:0:0:0:
475,192,138230,128,0,138489:0:0:0:0:
109,192,138230,128,0,138489:0:0:0:0:
256,192,138230,1,0,0:0:0:0:
329,192,138489,1,0,0:0:0:0:
256,192,138532,1,0,0:0:0:0:
182,192,138575,1,0,0:0:0:0:
36,192,138618,1,0,0:0:0:0:
475,192,138661,1,0,0:0:0:0:
329,192,138704,1,0,0:0:0:0:
256,192,138747,1,0,0:0:0:0:
182,192,138790,1,0,0:0:0:0:
109,192,138834,1,0,0:0:0:0:
256,192,138920,1,0,0:0:0:0:
402,192,138920,1,0,0:0:0:0:
475,192,139006,1,0,0:0:0:0:
182,192,139006,1,0,0:0:0:0:
36,192,139006,1,0,0:0:0:0:
329,192,139092,1,0,0:0:0:0:
109,192,139178,1,0,0:0:0:0:
256,192,139178,1,0,0:0:0:0:
475,192,139265,1,0,0:0:0:0:
329,192,139265,1,0,0:0:0:0:
36,192,139265,1,0,0:0:0:0:
182,192,139351,1,0,0:0:0:0:
402,192,139437,1,0,0:0:0:0:
256,192,139437,128,0,139523:0:0:0:0:
36,192,139523,1,0,0:0:0:0:
475,192,139523,1,0,0:0:0:0:
329,192,139609,1,0,0:0:0:0:
109,192,139652,128,0,139782:0:0:0:0:
256,192,139696,1,0,0:0:0:0:
402,192,139782,128,0,139954:0:0:0:0:
182,192,139954,128,0,140213:0:0:0:0:
475,192,140213,128,0,140471:0:0:0:0:
256,192,140471,128,0,140644:0:0:0:0:
329,192,140644,128,0,140902:0:0:0:0:
109,192,140902,128,0,141075:0:0:0:0:
402,192,141075,128,0,141161:0:0:0:0:
109,192,141161,128,0,141247:0:0:0:0:
256,192,141247,128,0,141334:0:0:0:0:
475,192,141334,128,0,141420:0:0:0:0:
182,192,141420,1,0,0:0:0:0:
36,192,141420,128,0,141678:0:0:0:0:
329,192,141420,128,0,141678:0:0:0:0:
182,192,141678,128,0,141937:0:0:0:0:
475,192,141678,128,0,141937:0:0:0:0:
402,192,141937,1,0,0:0:0:0:
329,192,141980,1,0,0:0:0:0:
256,192,142023,1,0,0:0:0:0:
182,192,142066,1,0,0:0:0:0:
109,192,142109,1,0,0:0:0:0:
36,192,142152,1,0,0:0:0:0:
475,192,142152,1,0,0:0:0:0:
402,192,142196,1,0,0:0:0:0:
329,192,142239,1,0,0:0:0:0:
256,192,142282,1,0,0:0:0:0:
182,192,142325,1,0,0:0:0:0:
109,192,142368,1,0,0:0:0:0:
475,192,142368,1,0,0:0:0:0:
329,192,142454,1,0,0:0:0:0:
182,192,142540,1,0,0:0:0:0:
36,192,142540,1,0,0:0:0:0:
402,192,142627,1,0,0:0:0:0:
256,192,142713,1,0,0:0:0:0:
475,192,142713,1,0,0:0:0:0:
109,192,142799,1,0,0:0:0:0:
182,192,142885,1,0,0:0:0:0:
402,192,142885,1,0,0:0:0:0:
256,192,142971,1,0,0:0:0:0:
475,192,142971,1,0,0:0:0:0:
182,192,143058,1,0,0:0:0:0:
36,192,143058,1,0,0:0:0:0:
256,192,143144,1,0,0:0:0:0:
402,192,143144,1,0,0:0:0:0:
182,192,143230,1,0,0:0:0:0:
36,192,143230,1,0,0:0:0:0:
329,192,143316,1,0,0:0:0:0:
475,192,143316,1,0,0:0:0:0:
256,192,143402,128,0,143604:0:0:0:0:
109,192,143402,1,0,0:0:0:0:
182,192,143632,128,0,143719:0:0:0:0:
36,192,143719,128,0,143805:0:0:0:0:
475,192,143805,128,0,143977:0:0:0:0:
256,192,143977,128,0,144063:0:0:0:0:
109,192,144092,128,0,144221:0:0:0:0:
402,192,144221,128,0,144322:0:0:0:0:
109,192,144322,128,0,144437:0:0:0:0:
402,192,144437,128,0,144552:0:0:0:0:
109,192,144552,128,0,144724:0:0:0:0:
402,192,144724,128,0,144925:0:0:0:0:
109,192,144925,128,0,145127:0:0:0:0:
402,192,145127,128,0,145385:0:0:0:0:
109,192,145385,128,0,145730:0:0:0:0:
402,192,145730,128,0,146075:0:0:0:0:
109,192,146075,128,0,146477:0:0:0:0:
402,192,146477,128,0,146822:0:0:0:0:
109,192,146765,1,0,0:0:0:0:
182,192,146808,1,0,0:0:0:0:
256,192,146851,1,0,0:0:0:0:
329,192,146894,1,0,0:0:0:0:
402,192,146937,1,0,0:0:0:0:
475,192,146980,1,0,0:0:0:0:
36,192,147023,1,0,0:0:0:0:
109,192,147066,1,0,0:0:0:0:
182,192,147109,1,0,0:0:0:0:
256,192,147152,1,0,0:0:0:0:
329,192,147196,1,0,0:0:0:0:
475,192,147196,1,0,0:0:0:0:
36,192,147196,1,0,0:0:0:0:
329,192,147454,1,0,0:0:0:0:
36,192,147454,1,0,0:0:0:0:
36,192,147713,1,0,0:0:0:0:
329,192,147713,1,0,0:0:0:0:
329,192,147971,1,0,0:0:0:0:
36,192,147971,1,0,0:0:0:0:
329,192,148230,1,0,0:0:0:0:
36,192,148230,1,0,0:0:0:0:
36,192,148489,1,0,0:0:0:0:
329,192,148489,1,0,0:0:0:0:
182,192,149609,1,0,0:0:0:0:
36,192,149609,1,0,0:0:0:0:
475,192,149609,1,0,0:0:0:0:
402,192,149667,1,0,0:0:0:0:
329,192,149724,1,0,0:0:0:0:
256,192,149782,1,0,0:0:0:0:
475,192,152023,1,0,0:0:0:0:
36,192,152023,1,0,0:0:0:0:
329,192,152023,1,0,0:0:0:0:
36,192,154437,1,0,0:0:0:0:
182,192,154437,1,0,0:0:0:0:
475,192,154437,1,0,0:0:0:0:
402,192,154494,1,0,0:0:0:0:
329,192,154552,1,0,0:0:0:0:
256,192,154609,1,0,0:0:0:0:
