osu file format v5

[General]
AudioFilename: Nabari no Ou - Crawl.mp3
AudioLeadIn: 3000
PreviewTime: -1
Countdown: 0
SampleSet: Normal
StackLeniency: 0.7
Mode: 0
LetterboxInBreaks: 1

[Metadata]
Title:Crawl
Artist:Veltpunch
Creator:supergarlic
Version:Normal
Source:
Tags:

[Difficulty]
HPDrainRate:4
CircleSize:4
OverallDifficulty:5
SliderMultiplier:1.3
SliderTickRate:1

[Events]
//Background and Video events
0,0,"nabari no ou.jpg"
//Break Periods
2,62923,64220
2,106072,107706
//Storyboard Layer 0 (Background)
//Storyboard Layer 1 (Failing)
//Storyboard Layer 2 (Passing)
//Storyboard Layer 3 (Foreground)
//Storyboard Sound Samples
//Background Colour Transformations
3,100,163,162,255

[TimingPoints]
1035,337.097589752233,4,1,0,71

[Colours]
Combo1 : 192,192,192
Combo2 : 255,128,0
Combo3 : 255,0,0
Combo4 : 0,0,0
Combo5 : 0,128,0

[HitObjects]
224,96,33059,1,0
128,96,33396,1,0
128,96,33564,2,0,L|128:256,1,130
128,226,34070,1,0
256,96,34744,1,0
256,192,35081,1,0
352,192,35418,1,0
352,96,35755,1,0
256,96,36092,6,0,B|160:96|160:192,1,130
160,256,36766,2,0,B|160:352|288:352,1,130
320,352,37441,2,0,B|352:288,3,65
352,288,38116,1,0
224,160,38452,6,0,B|128:160,2,65
256,160,38958,2,0,B|416:160,1,130
352,256,40138,1,0
256,256,40475,1,0
256,160,40812,1,0
352,160,41150,1,0
352,128,41318,1,0
352,96,41486,2,0,B|224:96|224:32,1,130
160,64,42160,2,0,B|160:96|32:96,1,130
64,160,42835,2,0,B|180:284|256:64,1,260
320,64,43846,5,0
256,160,44184,1,0
160,160,44521,1,0
160,256,44858,2,0,B|320:256,1,130
384,256,45531,2,0,B|384:96,1,130
320,64,46206,2,0,B|128:64,1,130
128,128,46880,6,0,B|32:128|32:224,1,130
32,224,47385,2,0,B|128:224,1,65
160,224,47722,1,0
256,288,48228,1,0
224,192,48565,2,0,B|224:96,2,65
96,96,49239,5,0
96,96,49408,2,0,B|96:256,1,130
96,226,49914,1,0
192,224,50251,1,0
192,128,50588,2,0,B|352:128,1,130
384,192,51262,2,0,B|384:352,1,130
288,320,51936,1,0
192,320,52273,1,0
96,320,52610,1,0
96,224,52948,1,0
96,128,53285,2,0,B|228:129|288:288,1,260
416,288,54633,6,0,B|480:256,2,65
288,288,55644,1,0
192,288,55981,1,0
96,288,56318,1,0
128,192,56655,2,0,B|288:192,1,130
352,192,57330,1,0
416,128,57667,5,0
352,64,58004,1,0
288,128,58341,1,0
224,192,58678,2,0,B|141:56|240:4|304:111|201:225,1,325
96,224,60027,6,0,B|96:128,2,65
224,320,61038,1,0
224,224,61375,1,0
224,128,61712,1,0
320,128,62049,1,0
320,224,62386,2,0,B|128:224,1,130
160,128,65420,5,0
160,224,65757,2,0,B|384:224,1,195
352,224,66431,1,0
288,96,67106,1,0
192,96,67443,1,0
192,192,67780,1,0
288,192,68117,1,0
288,288,68454,6,0,B|192:288|128:192,1,130
96,224,69128,2,0,B|160:224|256:160,1,130
288,192,69802,2,0,B|224:192|128:128,1,130
128,160,70308,2,0,B|32:160,1,65
64,256,70814,5,0
64,256,70982,1,0
64,256,71151,2,0,B|160:256,1,65
224,256,71656,2,0,B|224:128,1,65
64,160,72499,5,0
160,192,72836,1,0
64,224,73173,1,0
160,256,73510,1,0
256,224,73848,1,0
160,192,74185,1,0
256,160,74522,1,0
256,64,74859,2,0,B|160:128|32:32,1,195
96,192,76207,6,0,B|96:288,2,65
192,128,77050,1,0
192,128,77219,1,0
224,288,77893,5,0
320,288,78230,1,0
320,192,78567,1,0
224,192,78904,1,0
128,192,79241,2,0,B|32:192|64:96,1,130
128,64,79915,2,0,B|224:64|192:160,1,130
192,224,80590,2,0,B|192:320,1,65
256,288,80927,1,0
256,224,81095,2,0,B|352:224,1,65
416,224,81601,5,0
416,128,81938,2,0,B|450:8|288:64,1,195
288,64,82612,1,0
160,128,83286,1,0
160,224,83623,1,0
256,224,83961,1,0
256,128,84298,2,0,B|256:32,2,65
256,224,84972,1,0
352,224,85309,2,0,B|416:160|128:32,1,260
96,128,86994,6,0,B|96:224,2,65
224,128,88006,1,0
224,224,88343,1,0
320,224,88680,1,0
320,128,89017,2,0,B|160:128,1,130
96,128,89691,1,0
96,256,90028,6,0,B|256:256,2,130
96,160,91040,2,0,B|256:160|224:320|384:320|384:192,1,325
352,96,92388,5,0
384,128,92556,1,0
352,160,92725,1,0
224,224,93399,1,0
224,224,93568,1,0
224,224,93736,1,0
128,224,94073,2,0,B|128:64,3,130
192,160,95422,5,0
288,128,95759,1,0
192,96,96097,1,0
192,224,96433,2,0,B|320:192|192:160|96:128|256:96|288:64|160:32,1,260
224,160,97782,6,0,B|320:160,2,65
128,256,98793,2,0,B|288:256,1,130
256,160,99467,2,0,B|256:0,1,130
160,32,100142,2,0,B|0:32,1,130
32,128,100815,5,0
96,192,101152,1,0
32,256,101490,1,0
96,320,101827,2,0,B|160:320|224:288|160:224|320:160,1,260
224,128,103175,6,0,B|160:64,2,65
224,224,104861,1,0
224,224,105030,1,0
224,224,105198,1,0
224,320,105535,2,0,B|288:320|288:192,1,130
160,96,108906,5,0
256,96,109243,1,0
256,192,109580,1,0
160,192,109917,2,0,B|-13:243|128:384,1,260
160,352,110760,1,0
160,96,111434,6,0,B|320:96,1,130
290,96,111940,2,0,B|192:192,1,130
192,224,112445,2,0,C|224:256|256:224|288:256|320:224|352:256|384:224,1,260
128,128,113625,5,0
128,128,113794,1,0
256,128,114131,1,0
256,256,114973,1,0
256,256,115141,1,0
128,256,115478,1,0
128,128,115985,5,0
128,32,116322,1,0
224,32,116659,1,0
256,160,116996,2,0,B|352:160,2,65
256,256,117670,1,0
160,256,118007,2,0,B|64:256,2,65
160,160,118682,2,2,B|160:64,2,65
288,160,119693,5,0
288,96,119862,1,0
352,96,120030,1,0
352,160,120199,2,0,B|352:256,1,65
288,224,120536,2,0,B|128:224,1,130
64,224,121378,1,0
64,224,121547,1,0
128,96,122390,5,0
128,96,122558,1,0
224,96,122895,1,0
224,192,123232,1,0
128,192,123569,2,0,B|128:352,1,130
224,320,124412,5,0
224,320,124581,1,0
224,192,124918,1,0
224,64,125761,1,0
224,64,125930,1,0
224,192,126267,1,0
224,192,127109,1,0
224,192,127278,1,0
224,96,127615,2,0,B|160:192|224:320|320:320|352:160|288:96,1,390
128,192,129806,5,0
128,288,130143,1,0
224,288,130480,2,0,B|224:128,1,130
224,64,131154,1,0
320,128,131491,1,0
320,224,131828,1,0
224,288,132165,1,0
128,224,132503,2,0,B|128:64,1,130
128,160,134188,5,0
224,160,134525,1,0
224,256,134862,1,0
128,256,135199,1,0
128,160,135536,1,0
256,160,136885,5,0
352,160,137222,1,0
352,256,137559,1,0
256,256,137896,1,0
160,256,138233,1,0
256,192,138570,12,0,144132
