osu file format v5

[General]
AudioFilename: nno.op.mp3
AudioLeadIn: 0
PreviewTime: -1
Countdown: 1
SampleSet: Normal

[Metadata]
Title:Crawl
Artist:Veltpunch
Creator:EiJi
Version:Normal

[Difficulty]
HPDrainRate:6
CircleSize:5
OverallDifficulty:4
SliderMultiplier:1.4
SliderTickRate:2

[Events]
//Background and Video events
//Break Periods
//Storyboard Layer 0 (Background)
//Storyboard Layer 1 (Failing)
//Storyboard Layer 2 (Passing)
//Storyboard Layer 3 (Foreground)
//Storyboard Sound Samples
//Background Colour Transformations
3,100,163,162,255

[TimingPoints]
489,674.157303370787,4,1,0,100
10625,674.157303370787,4,2,0,100
30849,674.157303370787,4,1,0,100
53096,337.078651685393,4,1,0,100
74669,674.157303370787,4,2,0,100
83770,337.078651685393,4,1,0,100

[HitObjects]
80,128,5540,1,4
80,128,5708,1,4
80,128,5877,1,0
80,128,6045,1,0
80,128,6214,1,4
176,128,6551,5,0
272,128,6888,5,4
272,128,7057,1,4
272,128,7225,1,0
272,128,7394,1,0
272,128,7562,1,4
368,128,7899,5,0
368,224,8236,1,4
272,192,8573,1,0
176,224,8911,1,4
80,192,9248,1,0
80,288,9585,1,4
176,312,9922,1,0
272,288,10259,1,4
384,144,10957,6,4,B|216:144,1,140
144,144,12305,1,0
144,96,12642,1,0
192,96,12979,2,0,B|368:96,3,140
328,144,15339,1,0
280,144,15676,1,0
232,144,16013,1,0
176,144,16350,6,4,B|24:144,1,140
32,256,17698,1,0
88,256,18035,2,0,B|176:256,1,70
216,256,18709,1,0
216,256,18878,1,0
216,256,19046,1,0
272,256,19383,2,0,B|368:256,3,70
256,192,21406,5,0
256,192,21743,12,4,22417
80,72,23091,1,0
128,104,23428,1,0
80,136,23765,1,0
128,168,24103,1,0
80,200,24440,2,0,B|200:312,2,140
80,144,26125,1,0
80,88,26462,1,0
256,192,27136,12,4,27810
112,64,28490,1,0
168,64,28827,1,0
168,120,29164,1,0
168,176,29501,1,0
168,176,29669,1,0
168,176,29838,1,0
168,232,30175,1,0
168,288,30512,1,0
256,192,30849,12,0,32535
88,72,33208,1,0
64,120,33545,1,0
120,120,33882,1,4
352,120,34556,5,0
384,72,34893,1,0
328,72,35231,1,4
136,248,35905,5,0
136,192,36242,1,0
184,216,36579,1,4
296,216,37253,5,0
296,160,37590,5,4
296,160,37759,1,4
296,160,37927,1,4
112,48,38601,5,0
168,48,38938,1,0
168,104,39275,5,4
168,104,39444,1,0
168,104,39613,1,0
168,104,39781,1,0
168,104,39950,1,0
168,160,40287,5,0
168,216,40624,1,0
168,272,40961,1,0
168,328,41298,1,0
216,352,41635,1,0
272,352,41972,1,0
328,352,42309,1,0
384,352,42646,1,0
384,296,42983,5,4
384,296,43152,1,4
384,296,43320,1,4
384,184,43995,5,0
352,136,44332,1,0
312,96,44669,1,4
200,96,45343,5,0
168,144,45680,1,0
144,192,46017,1,4
256,200,46691,5,0
256,144,47028,1,0
256,88,47365,1,4
144,80,48040,5,0
144,136,48377,5,4
144,136,48545,1,4
144,136,48714,1,4
144,248,49388,5,0
144,248,49725,1,0
200,248,50062,1,4
312,248,50736,5,0
312,248,51073,1,0
256,248,51410,1,4
256,192,51747,1,4
256,192,52084,1,4
256,248,52422,1,4
40,192,54107,5,0
96,192,54444,1,0
96,192,54612,2,4,B|256:192,1,140
272,232,55287,2,4,B|40:232,1,210
64,232,55961,1,4
64,88,56803,6,4,B|64:160,3,70
120,160,57646,1,0
176,160,57983,2,4,B|176:80|176:72|184:64|192:56|200:48|208:40|216:40|224:40|232:40|240:40|248:40|320:40,1,210
344,40,58826,1,4
256,192,58994,12,4,59331
344,280,60174,1,4
256,192,60343,12,4,60680
112,280,61185,1,0
112,224,61522,1,0
112,168,61860,1,0
112,112,62197,2,4,B|24:112|16:112|16:120|16:128|16:248,1,210
16,320,63208,1,0
72,320,63545,2,4,B|312:320,1,210
280,320,64219,1,4
280,208,64893,6,0,B|360:208,3,70
352,152,65736,1,0
296,152,66073,2,4,B|72:152,1,210
86,152,66747,1,0
88,288,67590,6,0,B|88:216,3,70
144,216,68433,1,0
200,216,68770,1,0
280,216,69275,1,0
336,216,69612,1,4
336,216,69781,1,4
392,216,70118,1,4
336,88,70961,5,4
336,88,71129,1,4
336,144,71466,1,4
336,280,72309,5,4
336,280,72478,1,4
336,224,72815,2,0,B|336:184,18,35
152,224,75006,6,0,B|48:224,2,70
280,224,76354,1,0
344,224,76691,2,4,B|400:224|400:216|400:208|400:160|400:152|400:144|392:144|384:144|376:144|272:144,1,210
301,144,78039,1,4
48,144,79388,6,4,B|144:144,1,70
120,208,80062,2,4,B|40:208,2,70
368,216,82084,5,0
304,200,82421,1,0
296,136,82758,1,0
232,152,83095,1,0
208,96,83433,1,0
152,96,83770,5,0
152,152,84107,1,0
152,208,84444,1,0
96,208,84781,5,0
96,264,85118,1,0
96,320,85455,1,0
96,376,85792,5,0
152,376,86129,1,0
208,376,86466,1,0
208,320,86803,5,0
208,264,87140,1,0
208,208,87477,1,0
208,208,87646,1,4
