osu file format v14

[General]
AudioFilename: 07. Fast Paced Society.mp3
AudioLeadIn: 2000
PreviewTime: 325834
Countdown: 0
SampleSet: Normal
StackLeniency: 0.7
Mode: 0
LetterboxInBreaks: 0
WidescreenStoryboard: 0

[Editor]
Bookmarks: 25654,64151,88917,104266,123213,132687,151634,196157,207864,231278
DistanceSpacing: 0.5
BeatDivisor: 4
GridSize: 4
TimelineZoom: 2.400001

[Metadata]
Title:Fast Paced Society
TitleUnicode:Fast Paced Society
Artist:Vektor
ArtistUnicode:Vektor
Creator:Mazzerin
Version:Torment
Source:
Tags:Outer Isolation blackened progressive technical thrash metal marathon deathstream fort rsi
BeatmapID:670881
BeatmapSetID:298996

[Difficulty]
HPDrainRate:5.7
CircleSize:4.2
OverallDifficulty:9
ApproachRate:9.5
SliderMultiplier:1.8
SliderTickRate:1

[Events]
//Background and Video events
0,0,"VEKTOR.jpg",0,0
//Break Periods
//Storyboard Layer 0 (Background)
//Storyboard Layer 1 (Fail)
//Storyboard Layer 2 (Pass)
//Storyboard Layer 3 (Foreground)
//Storyboard Sound Samples

[TimingPoints]
200,454.545454545455,4,1,5,60,1,0
5654,-200,4,1,5,30,0,0
6109,-200,4,1,5,33,0,0
6563,-200,4,1,5,35,0,0
7018,-200,4,1,5,38,0,0
7472,-133.333333333333,4,1,5,41,0,0
7927,-133.333333333333,4,1,5,44,0,0
8381,-133.333333333333,4,1,5,47,0,0
8836,-133.333333333333,4,1,5,50,0,0
9290,-100,4,1,5,55,0,0
11109,-133.333333333333,4,1,5,60,0,0
23722,-100,4,1,5,60,0,0
24859,-50,4,1,5,60,0,0
25654,283.018867924528,4,1,5,60,1,0
25654,-100,4,1,5,60,0,1
34710,-100,4,1,5,60,0,0
43767,303.030303030303,4,1,5,60,1,0
44475,258.620689655172,4,1,5,60,1,0
45186,283.018867924528,4,2,5,60,1,0
45186,-200,4,2,5,60,0,0
47141,283.018867924528,4,1,5,60,1,0
47424,283.018867924528,4,1,5,60,1,0
47424,-100,4,1,5,60,0,1
51952,-100,4,1,5,60,0,0
61008,303.030303030303,4,1,5,60,1,0
62579,472.44094488189,4,2,5,50,1,0
64151,348.837209302326,4,1,5,60,1,0
65197,348.837209302326,4,1,5,60,1,0
88917,-100,4,1,5,60,0,1
104266,394.736842105263,3,1,5,60,1,0
123213,-100,3,2,5,60,0,0
151634,-151.515151515152,3,1,5,60,0,1
164857,-151.515151515152,3,1,5,30,0,1
164956,-151.515151515152,3,1,5,40,0,1
165055,-151.515151515152,3,1,5,50,0,1
165252,-151.515151515152,3,1,5,60,0,1
174331,-151.515151515152,3,1,5,30,0,1
174430,-151.515151515152,3,1,5,40,0,1
174528,-151.515151515152,3,1,5,50,0,1
174627,-151.515151515152,3,1,5,60,0,1
183805,-151.515151515152,3,1,5,30,0,1
183903,-151.515151515152,3,1,5,40,0,1
184002,-151.515151515152,3,1,5,50,0,1
184101,-151.515151515152,3,1,5,60,0,1
187949,-151.515151515152,3,1,5,30,0,1
188048,-151.515151515152,3,1,5,40,0,1
188147,-151.515151515152,3,1,5,50,0,1
188245,-151.515151515152,3,1,5,60,0,1
188344,-151.515151515152,3,1,5,60,0,0
191305,-300,3,1,5,60,0,0
194858,303.030303030303,4,1,5,60,1,0
195464,346.820809248555,4,1,5,60,1,0
196157,365.853658536585,4,1,5,60,1,0
196157,-125,4,1,5,60,0,0
207864,-125,4,1,6,60,0,1
231278,-125,4,1,6,60,0,0
250166,-125,4,2,5,5,0,0
250303,294.117647058824,4,1,5,60,1,0
250523,-100,4,1,5,20,0,0
250597,-100,4,1,5,60,0,0
251700,-100,4,1,5,20,0,0
251773,-100,4,1,5,60,0,0
252876,-100,4,1,5,20,0,0
252950,-100,4,1,5,60,0,0
254053,-100,4,1,5,20,0,0
254126,-100,4,1,5,60,0,0
254273,292.117647058824,4,1,5,60,1,0
254613,303.030303030303,4,1,5,60,1,0
254714,294,4,1,5,60,1,0
255008,294.117647058824,4,1,5,60,1,0
255008,-100,4,1,5,60,0,1
273244,428.571428571429,3,1,5,60,1,0
293815,288.461538461538,4,1,5,60,1,0
293815,-100,4,1,5,60,0,1
298214,-100,4,1,5,20,0,1
298286,-100,4,1,5,60,0,1
300089,-100,4,1,5,20,0,1
300161,-100,4,1,5,60,0,1
306507,-100,4,1,5,60,0,0
307661,-100,4,1,5,60,0,1
314584,-100,4,1,5,60,0,0
316170,-200,4,1,5,60,0,0
316387,-200,4,1,5,20,0,0
316459,-100,4,1,5,60,0,0
316891,-100,4,1,13,60,0,1
316964,-100,4,1,5,60,0,1
318045,-100,4,1,13,60,0,1
318117,-100,4,1,5,60,0,1
319199,-100,4,1,13,60,0,1
319271,-100,4,1,5,60,0,1
320353,-100,4,1,13,60,0,1
320425,-100,4,1,5,60,0,1
321507,-100,4,1,13,60,0,1
321579,-100,4,1,5,60,0,1
322661,-100,4,1,13,60,0,1
322733,-100,4,1,5,60,0,1
323814,-100,4,1,13,60,0,1
323887,-100,4,1,5,60,0,1
324968,-100,4,1,13,60,0,1
325040,-100,4,1,5,60,0,1
326122,-100,4,1,13,60,0,1
326194,-100,4,1,5,60,0,1
327276,-100,4,1,13,60,0,1
327348,-100,4,1,5,60,0,1
328430,-100,4,1,13,60,0,1
328502,-100,4,1,5,60,0,1
329584,-100,4,1,13,60,0,1
329656,-100,4,1,5,60,0,1
330738,-100,4,1,13,60,0,1
330810,-100,4,1,5,60,0,1
331891,-100,4,1,13,60,0,1
331964,-100,4,1,5,60,0,1
333045,-100,4,1,13,60,0,1
333117,-100,4,1,5,60,0,1
334199,-100,4,1,13,60,0,1
334271,-100,4,1,5,60,0,1
335353,-100,4,1,13,60,0,1
335425,-100,4,1,5,60,0,1
336507,-100,4,1,13,60,0,1
336579,-100,4,1,5,60,0,1
337661,-100,4,1,13,60,0,1
337733,-100,4,1,5,60,0,1
338814,-100,4,1,13,60,0,1
338887,-100,4,1,5,60,0,1
339968,-100,4,1,5,60,0,0
341122,-100,4,1,6,60,0,0
341194,-100,4,1,5,60,0,0
341555,-100,4,1,6,60,0,0
341627,-100,4,1,5,60,0,0
341988,-100,4,1,6,60,0,0
342060,-100,4,1,5,60,0,0
342276,-100,4,1,6,60,0,0
343358,-100,4,1,5,70,0,0
343502,-100,4,1,6,60,0,0
344007,-100,4,1,5,60,0,0
344584,-100,4,1,13,60,0,1
344656,-100,4,1,5,60,0,1
345161,-100,4,1,13,60,0,1
345233,-100,4,1,5,60,0,1
345738,-100,4,1,13,60,0,1
345810,-100,4,1,5,60,0,1
346314,-100,4,1,13,60,0,1
346387,-100,4,1,5,60,0,1
346891,-100,4,1,13,60,0,0
346964,-100,4,1,5,60,0,0
347468,-100,4,1,13,60,0,0
347540,-100,4,1,5,20,0,0
347757,-100,4,1,5,60,0,0
349199,283.018867924528,4,1,5,60,1,0
349199,-200,4,1,5,60,0,0
349269,-200,4,1,5,20,0,0
349482,-200,4,1,5,10,0,0
349552,-200,4,1,5,15,0,0
349623,-200,4,2,5,60,0,0
349694,-200,4,1,5,20,0,0
349906,-200,4,1,5,10,0,0
349977,-200,4,1,5,15,0,0
350048,-200,4,2,5,60,0,0
350118,-200,4,1,5,20,0,0
350260,-200,4,1,5,15,0,0
350331,-200,4,2,5,60,0,0
350401,-200,4,1,5,20,0,0
350614,-200,4,1,5,10,0,0
350684,-200,4,1,5,15,0,0
350755,-200,4,2,5,60,0,0
350826,-200,4,1,5,20,0,0
350967,-200,4,1,5,15,0,0
351038,-100,4,1,5,60,0,0
351463,-100,4,1,5,60,0,1
355991,-100,4,1,5,60,0,0
374104,297.029702970297,4,1,5,60,1,0
375292,264.31718061674,4,1,5,60,1,0
375688,297.029702970297,4,1,5,60,1,0
376480,288.461538461538,4,1,5,60,1,0
376864,-100,4,1,5,80,0,0
376960,-100,4,1,5,60,0,0
377633,-100,4,1,5,50,0,0
379941,-100,4,1,5,40,0,0
382249,-100,4,1,5,30,0,0
384556,-100,4,1,5,20,0,0
386864,-100,4,1,5,10,0,0
397249,-100,4,1,5,5,0,0
400710,-100,4,1,5,50,0,0

[Colours]
Combo1 : 185,227,187
Combo2 : 75,231,125
Combo3 : 118,162,111
Combo4 : 128,128,64

[HitObjects]
119,104,200,5,6,0:2:0:0:
80,185,427,1,0,0:0:0:0:
82,187,503,1,0,0:0:0:0:
84,189,578,1,0,0:0:0:0:
86,191,654,1,0,0:0:0:0:
147,310,881,1,8,0:0:0:0:
232,340,1109,1,0,0:0:0:0:
378,241,1336,1,4,0:0:0:0:
250,170,1563,1,4,0:0:0:0:
221,255,1790,1,0,0:0:0:0:
336,83,2018,5,6,0:2:0:0:
247,68,2245,1,0,0:0:0:0:
246,70,2321,1,0,0:0:0:0:
244,72,2396,1,0,0:0:0:0:
242,74,2472,1,0,0:0:0:0:
123,140,2700,1,8,0:0:0:0:
66,209,2927,1,0,0:0:0:0:
108,337,3154,1,4,0:0:0:0:
242,324,3381,1,0,0:0:0:0:
223,236,3609,1,4,0:0:0:0:
364,335,3836,5,6,0:2:0:0:
330,251,4063,1,0,0:0:0:0:
332,249,4139,1,0,0:0:0:0:
334,247,4215,1,0,0:0:0:0:
336,245,4290,1,0,0:0:0:0:
399,125,4518,1,8,0:0:0:0:
323,76,4745,1,0,0:0:0:0:
191,106,4972,1,4,0:0:0:0:
68,47,5200,1,4,0:0:0:0:
31,129,5427,1,0,0:0:0:0:
71,291,5654,6,0,L|73:326,3,22.5,6|0|0|0,0:2|0:0|0:0|0:0,0:0:0:0:
158,340,6109,2,0,L|156:317,3,22.5
246,298,6563,2,0,L|248:333,3,22.5
339,262,7018,2,0,L|341:297,3,22.5
397,171,7472,6,0,L|436:135,3,33.7500012874604,6|0|0|0,0:2|0:0|0:0|0:0,0:0:0:0:
308,122,7927,2,0,L|283:144,3,33.7500012874604,2|0|0|0,0:0|0:0|0:0|0:0,0:0:0:0:
190,95,8381,2,0,L|173:40,3,33.7500012874604,2|0|0|0,0:0|0:0|0:0|0:0,0:0:0:0:
109,157,8836,2,0,L|118:189,3,33.7500012874604,2|0|0|0,0:0|0:0|0:0|0:0,0:0:0:0:
167,281,9290,6,0,L|121:313,3,45,2|0|0|0,0:0|0:0|0:0|0:0,0:0:0:0:
224,342,9745,2,0,L|260:316,3,45,10|0|0|0,0:0|0:0|0:0|0:0,0:0:0:0:
345,315,10200,5,8,0:0:0:0:
355,304,10275,1,0,0:0:0:0:
368,298,10351,1,0,0:0:0:0:
382,293,10427,1,0,0:0:0:0:
396,294,10503,1,0,0:0:0:0:
410,298,10578,1,0,0:0:0:0:
423,304,10654,5,0,0:0:0:0:
413,278,10730,1,0,0:0:0:0:
414,250,10806,1,0,0:0:0:0:
423,224,10881,1,0,0:0:0:0:
420,221,10957,1,0,0:0:0:0:
417,219,11033,1,0,0:0:0:0:
414,217,11109,5,4,0:0:0:0:
323,104,11336,2,0,L|288:172,1,67.5000025749208,2|8,0:0|0:0,0:0:0:0:
168,184,11790,2,0,L|200:124,1,67.5000025749208,2|0,0:0|0:0,0:0:0:0:
118,289,12245,1,2,0:0:0:0:
240,350,12472,1,10,0:0:0:0:
179,170,12700,1,2,0:0:0:0:
297,46,12927,5,4,0:0:0:0:
332,197,13154,2,0,B|328:229|328:229|332:284,1,67.5000025749208,2|8,0:0|0:0,0:0:0:0:
465,310,13609,2,0,B|469:278|469:278|465:223,1,67.5000025749208,2|0,0:0|0:0,0:0:0:0:
400,112,14063,1,0,0:0:0:0:
279,49,14290,1,8,0:0:0:0:
218,229,14518,1,0,0:0:0:0:
55,280,14745,5,4,0:0:0:0:
74,86,14972,2,0,P|74:123|98:168,1,67.5000025749208,2|8,0:0|0:0,0:0:0:0:
209,126,15427,2,0,P|209:89|185:44,1,67.5000025749208,2|0,0:0|0:0,0:0:0:0:
327,133,15881,1,0,0:0:0:0:
372,262,16109,1,8,0:0:0:0:
444,89,16336,1,0,0:0:0:0:
512,246,16563,5,4,0:0:0:0:
365,275,16790,2,0,L|325:210,1,67.5000025749208,2|8,0:0|0:0,0:0:0:0:
229,298,17245,2,0,L|267:356,1,67.5000025749208,2|0,0:0|0:0,0:0:0:0:
117,291,17700,1,0,0:0:0:0:
50,173,17927,1,8,0:0:0:0:
240,171,18154,1,8,0:0:0:0:
350,40,18381,5,4,0:0:0:0:
384,204,18609,2,0,B|390:238|390:238|389:281,1,67.5000025749208,2|8,0:0|0:0,0:0:0:0:
478,119,19063,2,0,B|472:85|472:85|473:42,1,67.5000025749208,2|0,0:0|0:0,0:0:0:0:
332,55,19518,1,0,0:0:0:0:
195,71,19745,1,8,0:0:0:0:
251,253,19972,1,0,0:0:0:0:
124,365,20200,5,4,0:0:0:0:
134,209,20427,2,0,L|144:282,1,67.5000025749208,2|8,0:0|0:0,0:0:0:0:
28,148,20881,2,0,L|16:79,1,67.5000025749208,2|0,0:0|0:0,0:0:0:0:
179,138,21336,1,0,0:0:0:0:
272,36,21563,1,8,0:0:0:0:
374,194,21790,1,0,0:0:0:0:
512,297,22018,5,4,0:0:0:0:
358,329,22245,2,0,P|329:350|277:352,1,67.5000025749208,2|8,0:0|0:0,0:0:0:0:
184,285,22700,2,0,P|213:264|265:262,1,67.5000025749208,2|0,0:0|0:0,0:0:0:0:
199,168,23154,1,0,0:0:0:0:
92,261,23381,1,8,0:0:0:0:
40,72,23609,1,0,0:0:0:0:
189,44,23836,5,12,0:0:0:0:
215,38,23950,2,0,L|245:50,2,22.5,0|0|8,0:0|0:0|0:0,0:0:0:0:
313,51,24177,2,0,L|343:91,2,45,8|0|8,0:0|0:0|0:0,0:0:0:0:
345,175,24518,1,0,0:0:0:0:
342,182,24575,2,0,L|354:215,3,22.5,8|8|8|8,0:0|0:0|0:0|0:0,0:0:0:0:
308,284,24859,5,8,0:0:0:0:
226,338,24972,1,8,0:0:0:0:
126,342,25086,1,8,0:0:0:0:
45,283,25200,1,8,0:0:0:0:
18,188,25313,1,8,0:0:0:0:
64,100,25427,1,8,0:0:0:0:
150,53,25540,1,8,0:0:0:0:
246,81,25654,6,0,L|333:38,1,90,6|8,0:0|0:0,0:0:0:0:
434,107,25937,1,2,0:0:0:0:
398,227,26078,2,0,B|404:275|404:275|420:332,1,90,10|2,0:0|0:0,0:0:0:0:
301,260,26361,1,8,0:0:0:0:
174,266,26503,1,2,0:0:0:0:
171,269,26573,1,0,0:0:0:0:
169,273,26644,1,8,0:0:0:0:
168,277,26715,1,0,0:0:0:0:
169,281,26786,6,0,B|127:296|127:296|67:322,1,90,2|8,0:0|0:0,0:0:0:0:
36,219,26998,1,0,0:0:0:0:
30,201,27069,1,2,0:0:0:0:
29,183,27139,1,0,0:0:0:0:
32,165,27210,2,0,B|75:172|75:172|128:177,1,90,10|2,0:0|0:0,0:0:0:0:
166,75,27493,1,8,0:0:0:0:
254,187,27635,1,2,0:0:0:0:
84,359,27776,1,10,0:0:0:0:
247,318,27918,6,0,B|292:307|292:307|363:300,1,90,2|8,0:0|0:0,0:0:0:0:
406,262,28130,1,0,0:0:0:0:
411,249,28201,1,2,0:0:0:0:
443,99,28342,2,0,B|398:110|398:110|327:117,1,90,10|2,0:0|0:0,0:0:0:0:
129,65,28625,1,8,0:0:0:0:
145,69,28696,1,0,0:0:0:0:
161,76,28767,2,0,P|182:89|198:110,1,45,2|0,0:0|0:0,0:0:0:0:
66,187,28908,2,0,P|44:173|28:152,1,45,10|0,0:0|0:0,0:0:0:0:
68,307,29050,5,8,0:0:0:0:
73,313,29120,2,0,L|126:336,2,45,0|2|2,0:0|0:0|0:0,0:0:0:0:
235,276,29333,1,8,0:0:0:0:
229,268,29403,2,0,L|176:245,2,45,0|2|2,0:0|0:0|0:0,0:0:0:0:
362,333,29616,1,8,0:0:0:0:
368,338,29686,2,0,L|421:361,2,45,0|2|2,0:0|0:0|0:0,0:0:0:0:
378,209,29899,2,0,B|353:200|353:200|325:186,1,45,10|0,0:0|0:0,0:0:0:0:
402,51,30040,2,0,B|427:60|427:60|455:74,1,45,2|2,0:0|0:0,0:0:0:0:
400,134,30182,6,0,L|316:100,1,90,2|8,0:0|0:0,0:0:0:0:
203,47,30394,1,0,0:0:0:0:
195,63,30465,1,2,0:0:0:0:
191,80,30536,1,0,0:0:0:0:
192,97,30606,2,0,B|150:113|150:113|103:143,1,90,8|2,0:0|0:0,0:0:0:0:
271,247,30889,1,8,0:0:0:0:
108,148,31031,1,2,0:0:0:0:
99,164,31102,1,0,0:0:0:0:
94,181,31172,1,8,0:0:0:0:
91,198,31243,1,0,0:0:0:0:
92,215,31314,6,0,B|90:267|90:267|95:306,1,90,2|8,0:0|0:0,0:0:0:0:
209,331,31526,1,0,0:0:0:0:
227,331,31597,1,2,0:0:0:0:
244,333,31668,1,0,0:0:0:0:
263,335,31738,2,0,P|295:304|372:308,1,90,10|2,0:0|0:0,0:0:0:0:
420,256,31951,1,0,0:0:0:0:
410,241,32021,1,8,0:0:0:0:
407,223,32092,1,0,0:0:0:0:
408,204,32163,1,2,0:0:0:0:
265,48,32304,1,10,0:0:0:0:
92,215,32446,6,0,L|7:246,1,90,2|8,0:0|0:0,0:0:0:0:
97,359,32729,1,2,0:0:0:0:
263,335,32870,2,0,L|358:301,1,90,10|2,0:0|0:0,0:0:0:0:
425,111,33153,1,8,0:0:0:0:
265,48,33295,1,2,0:0:0:0:
233,65,33366,1,0,0:0:0:0:
197,73,33437,1,8,0:0:0:0:
161,70,33507,1,0,0:0:0:0:
125,61,33578,6,0,B|107:112|107:112|86:146,1,90,2|8,0:0|0:0,0:0:0:0:
37,267,33861,1,2,0:0:0:0:
161,314,34003,2,0,B|186:272|186:272|219:233,1,90,10|2,0:0|0:0,0:0:0:0:
253,171,34215,5,8,0:0:0:0:
267,170,34286,2,0,P|283:192|305:233,1,45
375,305,34427,1,2,0:0:0:0:
425,111,34569,1,10,0:0:0:0:
253,171,34710,6,0,L|220:127,1,45,6|0,0:0|2:0,0:0:0:0:
124,60,34852,1,8,0:0:0:0:
115,75,34922,1,0,0:0:0:0:
109,92,34993,1,2,0:0:0:0:
105,109,35064,1,0,0:0:0:0:
104,127,35135,1,8,0:0:0:0:
107,144,35205,1,0,0:0:0:0:
114,160,35276,1,2,0:0:0:0:
125,174,35347,1,0,0:0:0:0:
135,188,35418,1,8,0:0:0:0:
142,204,35488,1,0,0:0:0:0:
146,221,35559,1,2,0:0:0:0:
146,239,35630,1,0,0:0:0:0:
141,256,35701,1,8,0:0:0:0:
130,270,35771,1,0,0:0:0:0:
119,284,35842,6,0,L|77:307,1,45,6|0,0:0|2:0,0:0:0:0:
58,227,35984,1,8,0:0:0:0:
74,220,36054,1,0,0:0:0:0:
91,216,36125,1,2,0:0:0:0:
109,214,36196,1,0,0:0:0:0:
127,214,36267,1,8,0:0:0:0:
144,215,36337,1,0,0:0:0:0:
161,219,36408,1,2,0:0:0:0:
178,224,36479,1,0,0:0:0:0:
196,224,36550,1,8,0:0:0:0:
213,218,36620,1,0,0:0:0:0:
227,207,36691,1,2,0:0:0:0:
239,193,36762,1,0,0:0:0:0:
245,176,36833,1,8,0:0:0:0:
243,158,36903,1,0,0:0:0:0:
237,140,36974,6,0,L|186:153,1,45,6|0,0:0|2:0,0:0:0:0:
321,47,37116,1,8,0:0:0:0:
320,65,37187,1,0,0:0:0:0:
322,82,37257,1,2,0:0:0:0:
330,97,37328,1,0,0:0:0:0:
343,109,37399,2,0,L|391:98,1,45,14|0,0:0|2:0,0:0:0:0:
417,199,37540,1,2,0:0:0:0:
422,216,37611,1,0,0:0:0:0:
423,234,37682,1,8,0:0:0:0:
421,251,37753,1,0,0:0:0:0:
414,267,37823,2,0,L|370:277,1,45,6|0,0:0|2:0,0:0:0:0:
242,352,37965,2,0,L|290:341,1,45,14|0,0:0|2:0,0:0:0:0:
99,305,38106,6,0,L|55:315,1,45,6|0,0:0|2:0,0:0:0:0:
71,222,38248,1,8,0:0:0:0:
63,205,38319,1,0,0:0:0:0:
59,187,38389,1,2,0:0:0:0:
60,169,38460,1,0,0:0:0:0:
66,152,38531,2,0,B|61:128|61:128|44:94,1,45,14|0,0:0|2:0,0:0:0:0:
171,174,38672,1,2,0:0:0:0:
183,160,38743,1,0,0:0:0:0:
191,144,38814,1,8,0:0:0:0:
197,126,38885,1,0,0:0:0:0:
197,108,38955,2,0,B|173:98|173:98|149:80,1,45,6|0,0:0|2:0,0:0:0:0:
360,83,39097,2,0,B|384:93|384:93|408:111,1,45,14|0,0:0|2:0,0:0:0:0:
296,264,39238,6,0,B|272:254|272:254|248:236,1,45,6|0,0:0|2:0,0:0:0:0:
243,352,39380,1,8,0:0:0:0:
229,340,39451,1,0,0:0:0:0:
212,333,39521,1,2,0:0:0:0:
193,332,39592,1,0,0:0:0:0:
175,335,39663,1,8,0:0:0:0:
158,342,39734,1,0,0:0:0:0:
140,344,39804,1,2,0:0:0:0:
122,340,39875,1,0,0:0:0:0:
106,330,39946,1,8,0:0:0:0:
94,315,40017,1,0,0:0:0:0:
89,297,40087,1,2,0:0:0:0:
86,279,40158,1,0,0:0:0:0:
75,263,40229,1,8,0:0:0:0:
61,251,40300,1,0,0:0:0:0:
44,244,40370,6,0,L|71:196,1,45,6|0,0:0|2:0,0:0:0:0:
55,80,40512,1,8,0:0:0:0:
65,63,40583,1,0,0:0:0:0:
79,52,40653,1,2,0:0:0:0:
95,45,40724,1,0,0:0:0:0:
112,43,40795,1,8,0:0:0:0:
131,46,40866,1,0,0:0:0:0:
146,52,40937,1,2,0:0:0:0:
160,60,41007,1,0,0:0:0:0:
177,67,41078,1,8,0:0:0:0:
192,73,41149,1,0,0:0:0:0:
210,73,41220,1,2,0:0:0:0:
228,68,41290,1,0,0:0:0:0:
244,61,41361,1,8,0:0:0:0:
257,49,41432,1,0,0:0:0:0:
271,38,41503,6,0,B|294:33|294:33|330:32,1,45,6|0,0:0|0:0,0:0:0:0:
444,107,41644,1,2,0:0:0:0:
446,111,41715,1,2,0:0:0:0:
448,114,41786,6,0,L|375:135,1,45,10|0,0:0|0:0,0:0:0:0:
425,228,41927,2,0,L|468:215,1,45,10|0,0:0|0:0,0:0:0:0:
292,125,42069,6,0,L|219:146,1,45,10|0,0:0|0:0,0:0:0:0:
303,291,42210,2,0,L|346:278,1,45,2|0,0:0|0:0,0:0:0:0:
134,132,42352,6,0,L|61:153,1,45,10|0,0:0|0:0,0:0:0:0:
157,362,42493,2,0,L|200:349,1,45,10|0,0:0|0:0,0:0:0:0:
56,262,42635,6,0,L|26:169,2,60,8|0|0,0:0|0:0|0:0,0:0:0:0:
139,271,42918,6,0,L|129:179,2,60,8|0|0,0:0|0:0|0:0,0:0:0:0:
217,241,43201,5,8,0:0:0:0:
275,230,43295,1,0,0:0:0:0:
334,238,43389,1,0,0:0:0:0:
425,239,43484,5,0,0:0:0:0:
461,191,43578,1,0,0:0:0:0:
450,132,43672,1,0,0:0:0:0:
372,99,43767,5,0,0:0:0:0:
299,127,43868,1,8,0:0:0:0:
226,97,43969,1,8,0:0:0:0:
154,66,44070,1,8,0:0:0:0:
101,123,44171,1,8,0:0:0:0:
139,190,44272,1,8,0:0:0:0:
214,171,44373,1,8,0:0:0:0:
226,97,44475,5,4,0:0:0:0:
461,191,44733,1,4,0:0:0:0:
276,313,44992,1,4,0:0:0:0:
121,333,45186,6,0,L|146:299,1,22.5
51,303,45327,2,0,L|76:269,3,22.5
139,190,45610,2,0,L|114:224,1,22.5
209,219,45752,2,0,L|184:253,3,22.5
294,91,46035,2,0,B|307:91|307:91|329:95,1,22.5
343,176,46176,2,0,B|330:176|330:176|308:172,1,22.5
466,197,46318,6,0,L|489:228,1,22.5
410,255,46459,2,0,L|433:286,3,22.5
322,337,46742,2,0,L|292:362,1,22.5
267,279,46884,2,0,L|237:304,2,22.5
343,176,47141,5,0,0:0:0:0:
340,172,47211,1,0,0:0:0:0:
337,168,47282,1,0,0:0:0:0:
334,164,47353,1,0,0:0:0:0:
330,160,47424,6,0,B|284:163|284:163|221:159,1,90,6|8,0:0|0:0,0:0:0:0:
94,77,47707,1,2,0:0:0:0:
108,87,47777,1,0,0:0:0:0:
122,97,47848,2,0,L|113:193,1,90,10|2,0:0|0:0,0:0:0:0:
51,325,48131,1,8,0:0:0:0:
195,305,48273,1,2,0:0:0:0:
229,297,48343,1,0,0:0:0:0:
265,297,48414,1,8,0:0:0:0:
300,301,48485,1,0,0:0:0:0:
334,313,48556,6,0,B|372:278|372:278|431:241,1,90,2|8,0:0|0:0,0:0:0:0:
444,163,48768,1,0,0:0:0:0:
438,145,48838,1,2,0:0:0:0:
436,127,48909,1,0,0:0:0:0:
441,109,48980,2,0,B|396:103|396:103|341:87,1,90,10|2,0:0|0:0,0:0:0:0:
225,43,49263,1,8,0:0:0:0:
128,180,49405,1,2,0:0:0:0:
337,77,49546,1,10,0:0:0:0:
110,190,49688,6,0,B|114:237|114:237|131:298,1,90,2|8,0:0|0:0,0:0:0:0:
181,338,49900,1,0,0:0:0:0:
198,333,49971,1,2,0:0:0:0:
330,302,50112,2,0,B|374:286|374:286|430:280,1,90,10|2,0:0|0:0,0:0:0:0:
356,162,50395,1,8,0:0:0:0:
225,43,50537,1,2,0:0:0:0:
216,57,50607,1,0,0:0:0:0:
206,72,50678,2,0,L|215:117,1,45,8|0,0:0|0:0,0:0:0:0:
45,138,50820,6,0,P|27:189|49:241,1,90,2|8,0:0|0:0,0:0:0:0:
122,318,51103,1,2,0:0:0:0:
139,316,51174,1,0,0:0:0:0:
156,316,51244,2,0,B|183:272|183:272|214:232,1,90,10|10,0:0|0:0,0:0:0:0:
286,202,51457,5,0,0:0:0:0:
282,198,51527,2,0,P|264:176|230:158,1,45
451,85,51669,1,10,0:0:0:0:
225,43,51810,1,2,0:0:0:0:
291,207,51952,6,0,P|309:224|338:237,1,45,6|0,0:0|2:0,0:0:0:0:
430,225,52093,1,0,0:0:0:0:
426,227,52164,1,0,0:0:0:0:
422,229,52235,1,2,0:0:0:0:
430,244,52306,1,8,0:0:0:0:
435,260,52376,1,2,0:0:0:0:
436,277,52447,1,8,0:0:0:0:
431,294,52518,1,2,0:0:0:0:
420,308,52589,1,8,0:0:0:0:
407,320,52659,1,2,0:0:0:0:
390,327,52730,1,8,0:0:0:0:
372,328,52801,1,2,0:0:0:0:
354,325,52872,1,8,0:0:0:0:
336,320,52942,1,2,0:0:0:0:
317,319,53013,1,8,0:0:0:0:
299,321,53084,6,0,L|278:271,1,45,6|8,0:0|0:0,0:0:0:0:
182,316,53225,1,2,0:0:0:0:
179,298,53296,1,8,0:0:0:0:
171,281,53367,1,2,0:0:0:0:
158,267,53438,1,8,0:0:0:0:
144,255,53508,1,2,0:0:0:0:
126,249,53579,1,8,0:0:0:0:
109,241,53650,1,2,0:0:0:0:
96,228,53721,1,8,0:0:0:0:
86,213,53791,1,2,0:0:0:0:
83,195,53862,1,8,0:0:0:0:
87,177,53933,1,2,0:0:0:0:
98,163,54004,1,8,0:0:0:0:
112,152,54074,1,2,0:0:0:0:
129,146,54145,1,8,0:0:0:0:
147,146,54216,6,0,L|173:86,1,45,6|8,0:0|0:0,0:0:0:0:
249,154,54357,1,2,0:0:0:0:
258,138,54428,1,8,0:0:0:0:
271,125,54499,1,2,0:0:0:0:
287,118,54570,1,8,0:0:0:0:
304,115,54640,2,0,L|330:55,1,45,6|8,0:0|0:0,0:0:0:0:
319,196,54782,1,2,0:0:0:0:
331,209,54853,1,8,0:0:0:0:
346,216,54923,1,2,0:0:0:0:
363,221,54994,1,8,0:0:0:0:
381,221,55065,2,0,L|363:262,1,45,6|8,0:0|0:0,0:0:0:0:
224,340,55207,2,0,L|241:298,1,45,6|8,0:0|0:0,0:0:0:0:
89,213,55348,6,0,L|71:254,1,45,6|8,0:0|0:0,0:0:0:0:
176,233,55490,1,2,0:0:0:0:
180,215,55560,1,8,0:0:0:0:
184,197,55631,6,0,L|210:174,2,22.5
133,113,55773,2,0,L|175:73,1,45,14|0,0:0|2:0,0:0:0:0:
281,46,55914,1,8,0:0:0:0:
298,48,55985,1,0,0:0:0:0:
315,50,56056,1,8,0:0:0:0:
332,52,56126,1,0,0:0:0:0:
349,55,56197,2,0,B|334:81|334:81|323:117,1,45,6|0,0:0|2:0,0:0:0:0:
482,178,56339,2,0,B|496:151|496:151|508:116,1,45,6|0,0:0|2:0,0:0:0:0:
342,261,56480,6,0,L|367:215,1,45,6|0,0:0|2:0,0:0:0:0:
422,329,56622,1,0,0:0:0:0:
418,327,56692,1,0,0:0:0:0:
414,325,56763,1,2,0:0:0:0:
400,337,56834,1,8,0:0:0:0:
384,345,56905,1,2,0:0:0:0:
368,352,56975,1,8,0:0:0:0:
350,355,57046,1,2,0:0:0:0:
331,354,57117,1,8,0:0:0:0:
313,348,57188,1,2,0:0:0:0:
297,340,57258,1,8,0:0:0:0:
281,330,57329,1,2,0:0:0:0:
270,315,57400,1,8,0:0:0:0:
261,298,57471,1,2,0:0:0:0:
254,281,57541,1,8,0:0:0:0:
250,263,57612,6,0,B|226:273|226:273|195:278,1,45,6|8,0:0|0:0,0:0:0:0:
104,329,57754,1,2,0:0:0:0:
93,314,57824,1,8,0:0:0:0:
85,297,57895,1,2,0:0:0:0:
83,279,57966,1,8,0:0:0:0:
83,260,58037,1,2,0:0:0:0:
90,243,58107,1,8,0:0:0:0:
97,226,58178,1,2,0:0:0:0:
102,208,58249,1,8,0:0:0:0:
102,189,58320,1,2,0:0:0:0:
97,171,58390,1,8,0:0:0:0:
88,154,58461,1,2,0:0:0:0:
77,139,58532,1,8,0:0:0:0:
63,126,58603,1,2,0:0:0:0:
51,112,58673,1,8,0:0:0:0:
39,97,58744,6,0,B|61:82|61:82|79:64,1,45,6|0,0:0|0:0,0:0:0:0:
166,78,58886,1,2,0:0:0:0:
164,82,58957,1,2,0:0:0:0:
162,85,59028,6,0,L|235:106,1,45,10|8,0:0|0:0,0:0:0:0:
185,199,59169,2,0,L|142:186,1,45,10|8,0:0|0:0,0:0:0:0:
320,84,59310,6,0,L|393:105,1,45,10|0,0:0|0:0,0:0:0:0:
305,277,59452,2,0,L|262:264,1,45,2|0,0:0|0:0,0:0:0:0:
469,76,59594,6,0,L|542:97,1,45,10|0,0:0|0:0,0:0:0:0:
444,346,59735,2,0,L|401:333,1,45,10|0,0:0|0:0,0:0:0:0:
455,169,59876,6,0,L|485:265,2,60,8|0|0,0:0|0:0|0:0,0:0:0:0:
372,168,60159,6,0,L|382:268,2,60,8|0|0,0:0|0:0|0:0,0:0:0:0:
280,187,60442,5,8,0:0:0:0:
222,206,60537,1,0,0:0:0:0:
162,197,60631,1,0,0:0:0:0:
72,184,60725,5,0,0:0:0:0:
28,225,60820,1,0,0:0:0:0:
38,283,60914,1,0,0:0:0:0:
101,337,61008,5,0,0:0:0:0:
177,321,61109,1,8,0:0:0:0:
254,328,61210,1,8,0:0:0:0:
331,339,61311,1,8,0:0:0:0:
404,312,61412,1,2,0:0:0:0:
379,237,61513,1,8,0:0:0:0:
444,192,61614,1,8,0:0:0:0:
507,240,61715,5,4,0:0:0:0:
271,201,62579,5,2,0:0:0:0:
218,127,62736,1,2,0:0:0:0:
166,53,62893,1,2,0:0:0:0:
271,201,63051,5,2,0:0:0:0:
166,53,63208,1,2,0:0:0:0:
347,49,63366,1,2,0:0:0:0:
275,77,64151,6,0,L|291:114,3,22.5,4|0|0|0,0:0|0:0|0:0|0:0,0:0:0:0:
166,53,64325,2,0,L|150:16,3,22.5,4|0|0|0,0:0|0:0|0:0|0:0,0:0:0:0:
218,127,64499,2,0,B|204:151|204:151|197:182,1,45
347,49,64674,5,8,0:0:0:0:
355,302,64848,1,8,0:0:0:0:
140,279,65023,1,8,0:0:0:0:
100,258,65110,1,8,0:0:0:0:
73,221,65197,5,2,0:0:0:0:
89,63,65371,1,2,0:0:0:0:
275,77,65546,1,2,0:0:0:0:
153,196,65720,1,2,0:0:0:0:
395,323,66069,5,2,0:0:0:0:
457,199,66244,1,8,0:0:0:0:
461,206,66418,1,2,0:0:0:0:
465,213,66592,5,2,0:0:0:0:
345,52,66767,1,2,0:0:0:0:
273,59,66854,1,2,0:0:0:0:
201,68,66941,1,10,0:0:0:0:
80,190,67116,1,2,0:0:0:0:
107,225,67203,1,2,0:0:0:0:
133,261,67290,1,2,0:0:0:0:
252,318,67464,1,2,0:0:0:0:
324,321,67552,1,2,0:0:0:0:
395,323,67639,1,10,0:0:0:0:
372,190,67813,1,2,0:0:0:0:
395,151,67901,1,2,0:0:0:0:
430,123,67988,5,2,0:0:0:0:
209,164,68162,1,2,0:0:0:0:
345,52,68337,1,10,0:0:0:0:
181,272,68511,2,0,P|139:255|109:223,1,90,2|0,0:0|0:0,0:0:0:0:
0,177,68860,1,2,0:0:0:0:
299,140,69034,1,10,0:0:0:0:
103,71,69208,1,2,0:0:0:0:
147,75,69295,1,2,0:0:0:0:
192,78,69383,5,2,0:0:0:0:
373,59,69557,1,2,0:0:0:0:
402,125,69645,1,2,0:0:0:0:
435,188,69731,1,10,0:0:0:0:
301,312,69906,1,2,0:0:0:0:
258,296,69994,1,2,0:0:0:0:
213,294,70081,1,2,0:0:0:0:
72,172,70255,1,2,0:0:0:0:
143,164,70342,1,2,0:0:0:0:
215,158,70430,1,10,0:0:0:0:
293,35,70604,1,2,0:0:0:0:
293,79,70691,1,2,0:0:0:0:
315,118,70778,5,2,0:0:0:0:
485,267,70953,1,2,0:0:0:0:
264,227,71127,1,10,0:0:0:0:
370,60,71302,2,0,P|396:106|384:156,1,90,2|0,0:0|0:0,0:0:0:0:
72,172,71651,1,14,0:0:0:0:
217,53,71825,1,2,0:0:0:0:
277,240,71999,1,10,0:0:0:0:
393,142,72174,5,2,0:0:0:0:
256,318,72348,1,2,0:0:0:0:
187,338,72435,1,2,0:0:0:0:
117,357,72522,1,10,0:0:0:0:
153,224,72697,1,2,0:0:0:0:
163,180,72784,1,2,0:0:0:0:
157,135,72871,1,2,0:0:0:0:
331,207,73045,1,2,0:0:0:0:
387,252,73133,1,2,0:0:0:0:
445,293,73220,1,10,0:0:0:0:
478,154,73394,1,2,0:0:0:0:
462,111,73481,1,2,0:0:0:0:
461,65,73569,5,2,0:0:0:0:
242,104,73743,1,2,0:0:0:0:
465,166,73917,1,10,0:0:0:0:
157,135,74092,2,0,P|155:87|184:39,1,90,2|0,0:0|0:0,0:0:0:0:
194,234,74441,1,2,0:0:0:0:
52,154,74615,1,10,0:0:0:0:
46,318,74790,1,2,0:0:0:0:
203,227,74964,5,2,0:0:0:0:
380,66,75138,1,2,0:0:0:0:
312,87,75226,1,2,0:0:0:0:
242,104,75313,1,10,0:0:0:0:
433,214,75487,1,2,0:0:0:0:
418,256,75574,1,2,0:0:0:0:
412,301,75662,2,0,L|418:335,2,30
324,321,75894,5,2,0:0:0:0:
326,315,75952,1,2,0:0:0:0:
327,309,76010,1,8,0:0:0:0:
330,303,76069,1,8,0:0:0:0:
332,297,76127,2,0,B|321:248|321:248|334:251,1,60,10|8,0:0|0:0,0:0:0:0:
252,81,76359,5,2,0:0:0:0:
52,154,76534,1,2,0:0:0:0:
240,312,76708,1,2,0:0:0:0:
234,90,76883,2,0,B|219:135|219:135|191:187,1,90,2|0,0:0|0:0,0:0:0:0:
388,53,77231,1,2,0:0:0:0:
216,169,77406,1,10,0:0:0:0:
439,209,77580,1,2,0:0:0:0:
324,321,77755,5,2,0:0:0:0:
148,355,77929,1,2,0:0:0:0:
93,307,78016,1,2,0:0:0:0:
44,254,78103,1,10,0:0:0:0:
93,110,78278,1,2,0:0:0:0:
123,77,78365,1,2,0:0:0:0:
161,54,78452,1,2,0:0:0:0:
329,122,78627,1,2,0:0:0:0:
400,119,78714,1,2,0:0:0:0:
471,117,78801,1,10,0:0:0:0:
363,274,78976,1,2,0:0:0:0:
380,315,79063,1,2,0:0:0:0:
377,359,79150,5,2,0:0:0:0:
223,197,79324,1,2,0:0:0:0:
449,219,79499,1,10,0:0:0:0:
181,117,79673,2,2,P|141:162|136:207,1,90,2|2,0:0|0:0,0:0:0:0:
250,36,80022,1,2,0:0:0:0:
350,194,80197,1,10,0:0:0:0:
441,32,80371,1,2,0:0:0:0:
449,219,80545,5,2,0:0:0:0:
305,327,80720,1,2,0:0:0:0:
233,320,80807,1,2,0:0:0:0:
161,313,80894,1,10,0:0:0:0:
62,187,81069,1,2,0:0:0:0:
97,159,81156,1,2,0:0:0:0:
118,119,81243,1,2,0:0:0:0:
286,66,81417,1,2,0:0:0:0:
357,51,81505,1,2,0:0:0:0:
427,38,81592,1,10,0:0:0:0:
506,273,81766,1,2,0:0:0:0:
469,297,81853,1,2,0:0:0:0:
424,296,81941,5,2,0:0:0:0:
216,158,82115,1,2,0:0:0:0:
236,362,82290,1,10,0:0:0:0:
118,119,82464,2,2,P|141:84|201:55,1,90,2|2,0:0|0:0,0:0:0:0:
45,214,82813,1,2,0:0:0:0:
208,255,82987,1,10,0:0:0:0:
92,355,83162,1,2,0:0:0:0:
216,158,83336,5,10,0:0:0:0:
373,225,83510,1,2,0:0:0:0:
394,294,83598,1,2,0:0:0:0:
414,364,83685,1,10,0:0:0:0:
432,165,83859,1,2,0:0:0:0:
390,149,83947,1,2,0:0:0:0:
345,151,84034,1,10,0:0:0:0:
262,303,84208,1,2,0:0:0:0:
208,255,84295,1,2,0:0:0:0:
150,210,84383,1,10,0:0:0:0:
76,65,84557,1,2,0:0:0:0:
119,76,84644,1,2,0:0:0:0:
163,71,84731,5,10,0:0:0:0:
390,149,84906,1,2,0:0:0:0:
151,211,85080,1,10,0:0:0:0:
369,282,85255,2,2,B|393:320|393:320|416:365,1,90,2|10,0:0|0:0,0:0:0:0:
462,93,85603,1,2,0:0:0:0:
380,273,85778,1,10,0:0:0:0:
376,44,85952,1,2,0:0:0:0:
163,71,86127,5,14,0:0:0:0:
225,246,86301,1,2,0:0:0:0:
257,310,86388,1,2,0:0:0:0:
284,377,86476,1,10,0:0:0:0:
322,195,86650,1,2,0:0:0:0:
290,131,86737,1,2,0:0:0:0:
263,64,86825,1,10,0:0:0:0:
437,178,86999,1,2,0:0:0:0:
469,242,87086,1,2,0:0:0:0:
496,309,87174,1,10,0:0:0:0:
313,207,87348,1,2,0:0:0:0:
281,143,87435,1,2,0:0:0:0:
254,76,87523,5,10,0:0:0:0:
75,166,87697,1,0,0:0:0:0:
71,175,87784,6,0,L|44:204,2,22.5,2|2|10,0:0|0:0|0:0,0:0:0:0:
138,301,88045,1,10,0:0:0:0:
99,82,88220,1,2,0:0:0:0:
138,103,88307,1,0,0:0:0:0:
162,140,88394,1,0,0:0:0:0:
190,105,88481,1,8,0:0:0:0:
232,88,88569,1,8,0:0:0:0:
276,81,88656,1,8,0:0:0:0:
318,96,88743,2,0,P|338:117|347:135,1,45
431,276,88917,5,2,0:0:0:0:
261,180,89092,1,2,0:0:0:0:
490,203,89266,1,8,0:0:0:0:
218,254,89441,1,2,0:0:0:0:
36,115,89615,5,2,0:0:0:0:
111,298,89790,1,2,0:0:0:0:
102,71,89964,1,8,0:0:0:0:
28,332,90138,1,8,0:0:0:0:
106,150,90313,5,2,0:0:0:0:
296,74,90487,1,2,0:0:0:0:
367,68,90574,1,2,0:0:0:0:
439,65,90662,1,10,0:0:0:0:
262,179,90836,1,2,0:0:0:0:
451,78,91010,1,2,0:0:0:0:
425,115,91098,1,8,0:0:0:0:
414,158,91185,1,8,0:0:0:0:
426,201,91272,1,8,0:0:0:0:
452,237,91359,1,8,0:0:0:0:
406,233,91447,1,8,0:0:0:0:
366,254,91534,2,0,P|348:281|344:302,1,45,8|8,0:0|0:0,0:0:0:0:
219,338,91708,5,2,0:0:0:0:
338,183,91883,1,2,0:0:0:0:
425,308,92057,1,8,0:0:0:0:
158,260,92231,1,2,0:0:0:0:
234,63,92406,5,2,0:0:0:0:
348,194,92580,1,2,0:0:0:0:
169,270,92755,1,8,0:0:0:0:
435,319,92929,1,8,0:0:0:0:
461,85,93103,5,0,0:0:0:0:
234,63,93278,1,2,0:0:0:0:
168,92,93365,1,2,0:0:0:0:
105,127,93452,1,10,0:0:0:0:
179,282,93627,1,2,0:0:0:0:
348,194,93801,1,8,0:0:0:0:
316,161,93888,1,0,0:0:0:0:
321,115,93976,1,0,0:0:0:0:
356,87,94063,1,8,0:0:0:0:
400,95,94150,1,0,0:0:0:0:
361,71,94237,1,0,0:0:0:0:
332,36,94324,2,0,L|282:37,1,45,8|0,0:0|0:0,0:0:0:0:
241,143,94499,5,2,0:0:0:0:
415,6,94673,1,2,0:0:0:0:
433,218,94848,1,8,0:0:0:0:
225,153,95022,1,2,0:0:0:0:
310,308,95197,5,0,0:0:0:0:
121,323,95371,1,0,0:0:0:0:
210,165,95545,1,8,0:0:0:0:
318,317,95720,1,8,0:0:0:0:
339,96,95894,5,2,0:0:0:0:
329,327,96069,1,2,0:0:0:0:
398,346,96156,1,0,0:0:0:0:
467,362,96243,1,10,0:0:0:0:
346,189,96417,1,2,0:0:0:0:
459,71,96592,1,2,0:0:0:0:
426,101,96679,1,8,0:0:0:0:
382,111,96766,1,8,0:0:0:0:
339,96,96853,1,8,0:0:0:0:
309,61,96941,1,8,0:0:0:0:
283,97,97028,1,8,0:0:0:0:
242,115,97115,2,0,P|215:113|196:106,1,45,8|8,0:0|0:0,0:0:0:0:
90,134,97290,5,2,0:0:0:0:
232,36,97464,1,2,0:0:0:0:
244,207,97638,1,8,0:0:0:0:
388,35,97813,1,2,0:0:0:0:
406,207,97987,5,2,0:0:0:0:
228,223,98162,1,2,0:0:0:0:
435,338,98336,1,8,0:0:0:0:
212,239,98510,1,8,0:0:0:0:
470,68,98685,5,2,0:0:0:0:
232,36,98859,1,2,0:0:0:0:
272,96,98947,1,2,0:0:0:0:
311,156,99034,1,10,0:0:0:0:
257,339,99208,1,2,0:0:0:0:
75,233,99383,1,2,0:0:0:0:
104,199,99470,1,8,0:0:0:0:
116,155,99557,1,8,0:0:0:0:
155,175,99644,1,8,0:0:0:0:
199,175,99731,1,2,0:0:0:0:
238,152,99819,1,8,0:0:0:0:
262,113,99906,2,0,P|266:89|262:68,1,45,8|8,0:0|0:0,0:0:0:0:
397,67,100080,5,2,0:0:0:0:
176,93,100255,1,2,0:0:0:0:
277,254,100429,1,8,0:0:0:0:
164,76,100603,1,2,0:0:0:0:
145,288,100778,5,2,0:0:0:0:
156,63,100952,1,2,0:0:0:0:
57,329,101127,1,8,0:0:0:0:
146,48,101301,1,8,0:0:0:0:
297,129,101476,5,2,0:0:0:0:
473,79,101650,1,2,0:0:0:0:
455,148,101737,1,2,0:0:0:0:
434,216,101824,1,10,0:0:0:0:
290,111,101999,1,2,0:0:0:0:
302,335,102173,1,2,0:0:0:0:
267,306,102260,1,8,0:0:0:0:
221,301,102348,1,8,0:0:0:0:
250,267,102435,1,8,0:0:0:0:
235,224,102522,1,8,0:0:0:0:
193,206,102609,1,8,0:0:0:0:
158,235,102697,2,0,B|140:253|140:253|111:263,1,45
46,177,102871,5,2,0:0:0:0:
211,58,103045,1,2,0:0:0:0:
330,256,103220,1,8,0:0:0:0:
203,78,103394,1,2,0:0:0:0:
402,152,103569,5,0,0:0:0:0:
198,98,103743,1,0,0:0:0:0:
446,68,103917,1,8,0:0:0:0:
192,116,104092,1,8,0:0:0:0:
68,267,104266,6,0,B|94:308|94:308|115:351,1,90,4|0,0:0|2:0,0:0:0:0:
227,294,104660,1,0,0:0:0:0:
345,338,104858,2,0,P|392:325|454:370,1,90,2|8,0:0|0:0,0:0:0:0:
368,228,105252,1,2,0:0:0:0:
455,137,105450,6,0,P|413:123|386:60,1,90,2|0,0:0|2:0,0:0:0:0:
241,164,105844,1,0,0:0:0:0:
151,74,106042,2,0,B|149:108|149:108|144:127|144:127|146:149|146:149|145:178,1,90,2|8,0:0|0:0,0:0:0:0:
74,268,106437,1,2,0:0:0:0:
188,320,106634,6,0,L|312:313,1,90,2|0,0:0|2:0,0:0:0:0:
379,239,107029,1,0,0:0:0:0:
492,183,107226,2,0,P|458:149|460:94,1,90,2|8,0:0|0:0,0:0:0:0:
348,40,107621,1,2,0:0:0:0:
128,75,107818,5,2,0:0:0:0:
190,185,108016,1,0,0:0:0:0:
193,187,108114,1,0,0:0:0:0:
196,189,108213,1,0,0:0:0:0:
256,299,108410,2,0,L|279:228,1,45,2|2,0:0|0:0,0:0:0:0:
379,239,108608,1,8,0:0:0:0:
312,132,108805,1,2,0:0:0:0:
128,75,109002,6,0,L|61:144,1,90,4|0,0:0|2:0,0:0:0:0:
125,250,109397,1,0,0:0:0:0:
256,299,109594,2,0,P|306:293|360:348,1,90,2|8,0:0|0:0,0:0:0:0:
459,271,109989,1,2,0:0:0:0:
411,153,110187,6,0,B|412:118|412:118|424:95|424:95|426:57,1,90,2|0,0:0|2:0,0:0:0:0:
312,132,110581,1,0,0:0:0:0:
200,111,110779,2,0,P|148:103|125:52,1,90,2|8,0:0|0:0,0:0:0:0:
105,198,111173,1,2,0:0:0:0:
229,216,111371,6,0,L|331:233,1,90,2|0,0:0|2:0,0:0:0:0:
433,280,111766,1,0,0:0:0:0:
322,339,111963,2,0,P|266:318|214:338,1,90,2|8,0:0|0:0,0:0:0:0:
117,361,112358,1,2,0:0:0:0:
105,198,112555,5,2,0:0:0:0:
203,119,112752,1,0,0:0:0:0:
204,114,112851,1,0,0:0:0:0:
204,109,112950,1,0,0:0:0:0:
312,170,113147,2,0,L|320:97,1,45,2|2,0:0|0:0,0:0:0:0:
269,268,113344,1,8,0:0:0:0:
376,335,113542,1,2,0:0:0:0:
464,223,113739,6,0,B|458:178|458:178|459:124,1,90,4|0,0:0|2:0,0:0:0:0:
320,64,114134,1,0,0:0:0:0:
225,198,114331,2,0,P|264:231|261:289,1,90,8|0,0:0|0:0,0:0:0:0:
112,334,114726,1,2,0:0:0:0:
66,182,114923,6,0,P|104:150|108:89,1,90,2|0,0:0|0:0,0:0:0:0:
231,53,115318,1,2,0:0:0:0:
393,51,115516,2,0,P|377:103|344:126,1,90,8|0,0:0|0:0,0:0:0:0:
225,198,115910,1,2,0:0:0:0:
376,232,116108,6,0,B|420:219|420:219|465:210,1,90,2|0,0:0|0:0,0:0:0:0:
349,325,116502,1,2,0:0:0:0:
188,345,116700,2,0,B|144:332|144:332|99:323,1,90,8|0,0:0|0:0,0:0:0:0:
21,182,117094,1,2,0:0:0:0:
221,74,117292,5,2,0:0:0:0:
375,120,117489,1,0,0:0:0:0:
395,95,117588,1,0,0:0:0:0:
417,72,117687,2,0,L|473:73,1,45,2|2,0:0|0:0,0:0:0:0:
472,224,117884,1,8,0:0:0:0:
352,333,118081,1,2,0:0:0:0:
225,198,118279,1,2,0:0:0:0:
75,116,118476,6,0,P|101:154|91:219,1,90,4|0,0:0|0:0,0:0:0:0:
150,351,118871,1,2,0:0:0:0:
225,198,119068,2,0,P|267:175|335:185,1,90,8|0,0:0|0:0,0:0:0:0:
398,49,119463,1,2,0:0:0:0:
458,199,119660,6,0,P|433:247|444:310,1,90,2|0,0:0|0:0,0:0:0:0:
295,368,120055,1,2,0:0:0:0:
225,198,120252,2,0,B|237:155|237:155|244:106,1,90,8|0,0:0|0:0,0:0:0:0:
100,82,120647,1,2,0:0:0:0:
119,106,120746,1,2,0:0:0:0:
139,129,120844,5,8,0:0:0:0:
381,167,121042,1,2,0:0:0:0:
132,133,121239,1,2,0:0:0:0:
387,171,121437,2,0,B|385:218|385:218|389:269,1,90,8|2,0:0|0:0,0:0:0:0:
255,352,121831,1,2,0:0:0:0:
78,280,122029,5,8,0:0:0:0:
224,211,122226,1,0,0:0:0:0:
236,182,122325,1,0,0:0:0:0:
246,152,122423,2,0,B|290:144|290:144|342:113,1,90
424,253,122818,1,8,0:0:0:0:
127,365,123015,1,8,0:0:0:0:
103,118,123213,6,0,B|124:93|124:93|133:78|133:78|149:66|149:66|168:46,2,90,4|0|0,1:0|0:0|0:0,0:0:0:0:
20,152,123805,2,0,P|61:197|172:168,1,180
240,228,124397,5,0,0:0:0:0:
280,148,124594,1,0,0:0:0:0:
364,179,124792,1,0,0:0:0:0:
388,92,124989,2,0,B|436:80|436:80|464:80|464:80|508:68,1,90
484,84,125384,1,0,0:0:0:0:
264,124,125581,6,0,B|236:140|208:128|208:128|180:136|180:136|148:120|116:132,1,135
128,136,125976,2,0,B|120:96|120:96|108:92,1,45,2|0,0:0|0:0,0:0:0:0:
224,16,126173,2,0,B|232:56|232:56|240:60,1,45,2|0,0:0|0:0,0:0:0:0:
48,140,126371,2,0,B|28:136|28:136|4:136,1,45,2|0,0:0|0:0,0:0:0:0:
308,20,126568,2,0,B|328:24|328:24|352:24,1,45,2|0,0:0|0:0,0:0:0:0:
120,44,126765,6,0,B|128:96|128:96|128:132|128:132|144:240,1,180,2|2,0:0|0:0,0:0:0:0:
144,232,127259,1,0,0:0:0:0:
140,240,127358,2,0,L|60:232,1,45,8|0,0:1|0:0,0:0:0:0:
212,156,127555,1,0,0:0:0:0:
216,164,127654,1,0,0:0:0:0:
220,172,127752,1,0,0:0:0:0:
224,132,127851,1,0,0:0:0:0:
232,92,127950,6,0,B|379:91|379:91|440:72,1,180,4|0,0:1|0:0,0:0:0:0:
480,24,128542,1,0,0:0:0:0:
342,249,128739,1,0,0:0:0:0:
304,168,128937,1,0,0:0:0:0:
424,220,129134,2,0,P|423:278|402:313,1,90
342,249,129529,5,0,0:0:0:0:
251,266,129726,1,0,0:0:0:0:
196,158,129923,1,0,0:0:0:0:
35,178,130120,1,0,0:0:0:0:
136,248,130318,5,0,0:0:0:0:
104,56,130515,1,2,0:0:0:0:
112,68,130614,1,2,0:0:0:0:
120,80,130713,2,0,L|116:148,1,45,2|0,0:0|0:0,0:0:0:0:
224,268,130910,2,0,L|220:336,1,45,2|0,0:0|0:0,0:0:0:0:
316,192,131108,2,0,L|376:188,2,45,2|0|2,0:0|0:0|0:0,0:0:0:0:
40,108,131502,5,4,0:0:0:0:
364,116,131700,1,0,0:0:0:0:
200,8,131897,1,0,0:0:0:0:
202,30,131995,1,0,0:0:0:0:
204,52,132094,1,8,0:1:0:0:
224,268,132292,1,0,0:0:0:0:
260,124,132489,1,8,0:1:0:0:
156,236,132687,6,0,P|152:300|216:344,1,135,2|0,0:1|0:0,0:0:0:0:
224,344,133081,1,8,0:1:0:0:
324,300,133279,1,0,0:0:0:0:
428,328,133476,1,8,0:1:0:0:
440,312,133871,6,0,B|432:268|432:268|436:236|436:236|428:168,1,135,2|0,0:1|0:0,0:0:0:0:
432,172,134266,1,8,0:1:0:0:
472,72,134463,1,0,0:0:0:0:
368,96,134660,1,8,0:1:0:0:
364,88,134858,1,0,0:0:0:0:
360,80,135055,6,0,P|308:104|236:68,1,135,2|0,0:1|0:0,0:0:0:0:
236,64,135450,1,8,0:1:0:0:
248,280,135647,2,0,B|252:216|252:216|248:184,1,90,0|8,0:0|0:1,0:0:0:0:
164,120,136042,1,0,0:0:0:0:
432,156,136239,6,0,P|376:176|340:208,1,90,2|0,0:1|0:0,0:0:0:0:
352,194,136535,1,0,0:0:0:0:
352,194,136634,1,8,0:1:0:0:
152,116,136831,1,0,0:0:0:0:
348,272,137029,2,0,B|340:324|340:324|316:352,1,90,8|0,0:1|0:0,0:0:0:0:
316,360,137325,1,0,0:0:0:0:
316,368,137423,6,0,B|344:328|344:328|464:288,1,135,2|0,0:1|0:0,0:0:0:0:
444,308,137818,1,8,0:1:0:0:
400,208,138016,1,0,0:0:0:0:
420,100,138213,1,8,0:1:0:0:
364,8,138410,1,0,0:0:0:0:
420,100,138608,6,0,B|328:108|328:108|260:96,1,135,2|0,0:1|0:0,0:0:0:0:
280,112,139002,1,8,0:1:0:0:
232,16,139200,1,0,0:0:0:0:
268,116,139397,1,8,0:1:0:0:
168,72,139594,1,0,0:0:0:0:
260,128,139792,6,0,P|280:180|264:284,1,135,2|0,0:1|0:0,0:0:0:0:
268,268,140187,1,8,0:1:0:0:
332,352,140384,2,0,L|204:348,1,90,0|8,0:0|0:1,0:0:0:0:
132,344,140779,1,0,0:0:0:0:
152,236,140976,1,0,0:0:0:0:
256,192,141075,12,0,141963,0:0:0:0:
352,248,142160,6,0,B|328:256|328:256|300:240|300:240|272:244|240:236|240:236|192:240,1,135,2|0,0:1|0:0,0:0:0:0:
212,244,142555,1,8,0:1:0:0:
152,156,142752,1,0,0:0:0:0:
276,332,142950,1,8,0:1:0:0:
388,148,143147,1,0,0:0:0:0:
64,128,143344,6,0,P|64:176|136:240,1,135,2|0,0:1|0:0,0:0:0:0:
112,248,143739,1,8,0:1:0:0:
156,148,143937,1,0,0:0:0:0:
132,364,144134,1,8,0:1:0:0:
240,344,144331,1,0,0:0:0:0:
132,40,144529,6,0,B|96:64|48:48|48:48|28:80|32:120,1,135,2|0,0:1|0:0,0:0:0:0:
36,104,144923,1,8,0:1:0:0:
216,224,145121,2,0,B|288:216|288:216|340:232,1,90,0|8,0:0|0:1,0:0:0:0:
392,284,145516,1,0,0:0:0:0:
400,292,145614,1,0,0:0:0:0:
384,328,145713,6,0,B|376:232|376:232|384:172,1,135,2|0,0:1|0:0,0:0:0:0:
384,176,146108,1,8,0:1:0:0:
416,72,146305,1,0,0:0:0:0:
200,100,146502,1,8,0:1:0:0:
224,204,146700,1,0,0:0:0:0:
228,192,146798,1,0,0:0:0:0:
232,180,146897,6,0,B|136:176|136:176|72:188,1,135,2|0,0:1|0:0,0:0:0:0:
88,192,147292,1,8,0:1:0:0:
172,260,147489,2,0,P|224:280|264:268,1,90,0|8,0:0|0:1,0:0:0:0:
296,60,147884,1,0,0:0:0:0:
324,164,148081,6,0,B|312:188|316:212|316:212|352:248|336:304,1,135,2|0,0:1|0:0,0:0:0:0:
332,304,148476,1,8,0:1:0:0:
432,348,148673,2,0,P|448:296|444:256,1,90,0|8,0:0|0:1,0:0:0:0:
416,156,149068,1,0,0:0:0:0:
428,48,149266,6,0,L|328:64,1,90,2|8,0:1|0:1,0:0:0:0:
72,104,149660,1,0,0:0:0:0:
148,180,149858,1,0,0:0:0:0:
176,76,150055,1,8,0:1:0:0:
326,203,150252,1,0,0:0:0:0:
264,60,150450,6,0,L|168:52,1,90,0|8,0:0|0:1,0:0:0:0:
72,104,150844,1,0,0:0:0:0:
364,24,151042,1,8,0:1:0:0:
336,184,151239,1,0,0:0:0:0:
400,272,151437,1,0,0:0:0:0:
336,348,151634,5,2,0:0:0:0:
496,248,151831,1,0,0:0:0:0:
492,236,151930,1,0,0:0:0:0:
488,224,152029,1,0,0:0:0:0:
452,128,152226,2,0,L|512:119,1,59.3999998187256,10|0,0:0|0:0,0:0:0:0:
268,248,152620,2,0,L|210:256,1,59.3999998187256,2|0,0:0|0:0,0:0:0:0:
56,280,153015,1,0,0:0:0:0:
56,280,153114,1,0,0:0:0:0:
56,280,153213,1,0,0:0:0:0:
52,76,153410,2,0,L|131:91,1,59.3999998187256,10|0,0:0|0:0,0:0:0:0:
312,124,153805,1,10,0:0:0:0:
8,92,154002,5,0,0:0:0:0:
64,176,154199,1,0,0:0:0:0:
68,168,154298,1,0,0:0:0:0:
72,160,154397,1,0,0:0:0:0:
224,24,154594,2,0,L|204:93,1,59.3999998187256,10|0,0:0|0:0,0:0:0:0:
104,316,154989,2,0,L|124:245,1,59.3999998187256,2|0,0:0|0:0,0:0:0:0:
272,232,155383,1,0,0:0:0:0:
268,216,155482,1,0,0:0:0:0:
264,200,155581,1,0,0:0:0:0:
384,32,155778,2,0,L|408:111,1,59.3999998187256,10|0,0:0|0:0,0:0:0:0:
476,280,156173,1,10,0:0:0:0:
224,308,156371,5,0,0:0:0:0:
231,255,156469,1,0,0:0:0:0:
238,203,156568,1,0,0:0:0:0:
245,151,156667,1,0,0:0:0:0:
252,99,156765,1,0,0:0:0:0:
244,88,156864,1,0,0:0:0:0:
280,60,156963,6,0,B|192:68|192:68|154:53,1,118.799999637451,10|2,0:0|0:0,0:0:0:0:
352,120,157555,5,0,0:0:0:0:
346,164,157653,1,0,0:0:0:0:
341,209,157752,1,0,0:0:0:0:
335,254,157851,1,0,0:0:0:0:
330,298,157949,1,0,0:0:0:0:
340,288,158048,1,0,0:0:0:0:
372,240,158147,6,0,B|284:232|284:232|241:249,1,118.799999637451,10|2,0:0|0:0,0:0:0:0:
176,308,158739,5,0,0:0:0:0:
121,329,158837,1,0,0:0:0:0:
65,310,158936,1,0,0:0:0:0:
35,260,159035,1,0,0:0:0:0:
45,202,159133,1,0,0:0:0:0:
32,196,159232,1,0,0:0:0:0:
16,188,159331,6,0,L|33:147,1,29.6999999093628,10|0,0:0|0:0,0:0:0:0:
72,16,159528,2,0,L|74:54,1,29.6999999093628,8|8,0:0|0:0,0:0:0:0:
112,248,159726,1,10,0:0:0:0:
123,220,159824,1,8,0:0:0:0:
122,190,159923,5,0,0:0:0:0:
48,124,160120,1,0,0:0:0:0:
148,100,160318,1,0,0:0:0:0:
396,156,160515,1,0,0:0:0:0:
296,132,160712,1,8,0:0:0:0:
200,168,160910,1,8,0:0:0:0:
280,36,161107,5,2,0:0:0:0:
332,232,161305,1,0,0:0:0:0:
328,240,161403,1,0,0:0:0:0:
324,248,161502,1,0,0:0:0:0:
260,56,161699,2,0,L|341:48,1,59.3999998187256,10|0,0:0|0:0,0:0:0:0:
464,264,162094,2,0,L|384:270,1,59.3999998187256,2|0,0:0|0:0,0:0:0:0:
200,276,162488,1,0,0:0:0:0:
204,286,162587,1,0,0:0:0:0:
208,296,162686,1,0,0:0:0:0:
268,140,162884,2,0,L|189:132,1,59.3999998187256,10|0,0:0|0:0,0:0:0:0:
56,116,163278,1,10,0:0:0:0:
268,260,163476,5,0,0:0:0:0:
270,28,163673,1,0,0:0:0:0:
265,42,163771,1,0,0:0:0:0:
260,56,163870,1,0,0:0:0:0:
180,276,164068,2,0,L|191:343,1,59.3999998187256,10|0,0:0|0:0,0:0:0:0:
356,220,164462,2,0,L|343:155,1,59.3999998187256,2|0,0:0|0:0,0:0:0:0:
176,44,164857,1,8,0:0:0:0:
178,58,164956,1,8,0:0:0:0:
180,73,165055,2,0,L|184:116,1,29.6999999093628,8|8,0:0|0:0,0:0:0:0:
100,228,165252,2,0,P|68:232|54:246,1,29.6999999093628,10|8,0:0|0:0,0:0:0:0:
176,180,165449,2,0,P|208:176|222:163,1,29.6999999093628,8|8,0:0|0:0,0:0:0:0:
88,124,165647,2,0,P|84:92|86:74,1,29.6999999093628,10|8,0:0|0:0,0:0:0:0:
264,60,165844,5,0,0:0:0:0:
271,111,165942,1,0,0:0:0:0:
279,163,166041,1,0,0:0:0:0:
287,215,166140,1,0,0:0:0:0:
294,267,166238,1,0,0:0:0:0:
292,280,166337,1,0,0:0:0:0:
320,332,166436,6,0,B|328:292|328:292|344:260|344:260|360:206,1,118.799999637451,10|2,0:0|0:0,0:0:0:0:
184,104,167028,5,0,0:0:0:0:
190,156,167126,1,0,0:0:0:0:
196,208,167225,1,0,0:0:0:0:
202,260,167324,1,0,0:0:0:0:
209,312,167422,1,0,0:0:0:0:
220,328,167522,1,0,0:0:0:0:
220,276,167620,6,0,B|156:288|156:288|116:284|116:284|83:288,1,118.799999637451,10|2,0:0|0:0,0:0:0:0:
100,80,168212,5,0,0:0:0:0:
143,30,168312,1,0,0:0:0:0:
208,24,168409,1,0,0:0:0:0:
260,65,168508,1,0,0:0:0:0:
269,130,168608,1,0,0:0:0:0:
276,144,168706,1,0,0:0:0:0:
284,160,168805,2,0,L|276:191,1,29.6999999093628,10|0,0:0|0:0,0:0:0:0:
348,104,169002,1,8,0:0:0:0:
344,96,169101,1,8,0:0:0:0:
340,88,169199,2,0,L|386:82,1,29.6999999093628,10|8,0:0|0:0,0:0:0:0:
188,180,169397,5,0,0:0:0:0:
440,152,169594,1,0,0:0:0:0:
136,160,169791,1,0,0:0:0:0:
156,260,169989,1,0,0:0:0:0:
192,60,170186,1,8,0:0:0:0:
96,348,170384,1,8,0:0:0:0:
176,284,170581,5,2,0:0:0:0:
44,208,170778,1,0,0:0:0:0:
48,216,170877,1,0,0:0:0:0:
52,224,170976,1,0,0:0:0:0:
352,164,171173,2,0,L|289:156,1,59.3999998187256,10|0,0:0|0:0,0:0:0:0:
20,260,171568,2,0,L|81:268,1,59.3999998187256,2|0,0:0|0:0,0:0:0:0:
436,304,171962,1,0,0:0:0:0:
432,296,172061,1,0,0:0:0:0:
428,288,172160,1,0,0:0:0:0:
316,60,172357,2,0,L|389:51,1,59.3999998187256,10|0,0:0|0:0,0:0:0:0:
280,288,172752,1,2,0:0:0:0:
236,36,172949,5,0,0:0:0:0:
384,176,173147,1,0,0:0:0:0:
384,188,173245,1,0,0:0:0:0:
384,200,173344,1,0,0:0:0:0:
156,84,173541,2,0,L|232:75,1,59.3999998187256,10|0,0:0|0:0,0:0:0:0:
436,292,173936,2,0,L|362:299,1,59.3999998187256,2|0,0:0|0:0,0:0:0:0:
64,296,174331,1,8,0:0:0:0:
68,304,174430,1,8,0:0:0:0:
72,312,174528,2,0,L|77:272,1,29.6999999093628,8|8,0:0|0:0,0:0:0:0:
84,32,174726,2,0,L|28:32,1,29.6999999093628,10|8,0:0|0:0,0:0:0:0:
124,168,174923,2,0,L|177:167,1,29.6999999093628,8|8,0:0|0:0,0:0:0:0:
296,112,175120,2,0,L|240:112,1,29.6999999093628,10|8,0:0|0:0,0:0:0:0:
284,368,175318,5,0,0:0:0:0:
277,323,175416,1,0,0:0:0:0:
270,278,175515,1,0,0:0:0:0:
264,234,175614,1,0,0:0:0:0:
257,189,175712,1,0,0:0:0:0:
264,200,175811,1,0,0:0:0:0:
312,188,175910,6,0,B|324:296|324:296|319:327,1,118.799999637451,10|2,0:0|0:0,0:0:0:0:
124,252,176502,1,0,0:0:0:0:
117,199,176600,1,0,0:0:0:0:
110,147,176699,1,0,0:0:0:0:
104,95,176798,1,0,0:0:0:0:
115,44,176896,1,0,0:0:0:0:
112,32,176995,1,0,0:0:0:0:
80,72,177094,6,0,B|128:76|128:76|148:72|148:72|220:76,1,118.799999637451,10|2,0:0|0:0,0:0:0:0:
180,328,177686,5,0,0:0:0:0:
132,349,177784,1,0,0:0:0:0:
81,341,177883,1,0,0:0:0:0:
44,306,177982,1,0,0:0:0:0:
32,255,178080,1,0,0:0:0:0:
44,248,178180,1,0,0:0:0:0:
56,240,178278,6,0,L|38:192,1,29.6999999093628,10|0,0:0|0:0,0:0:0:0:
199,74,178476,1,0,0:0:0:0:
197,96,178574,1,8,0:0:0:0:
195,118,178673,1,8,0:0:0:0:
193,141,178772,1,8,0:0:0:0:
191,163,178870,5,0,0:0:0:0:
292,144,179068,1,0,0:0:0:0:
92,112,179265,1,0,0:0:0:0:
396,100,179462,1,0,0:0:0:0:
60,228,179660,1,8,0:0:0:0:
308,48,179857,1,8,0:0:0:0:
360,192,180055,6,0,L|352:275,1,59.3999998187256,2|0,0:0|0:0,0:0:0:0:
362,267,180351,1,0,0:0:0:0:
370,283,180449,1,0,0:0:0:0:
412,80,180647,1,10,0:0:0:0:
256,236,180844,1,0,0:0:0:0:
460,164,181041,1,2,0:0:0:0:
168,64,181239,2,0,L|176:136,1,59.3999998187256
168,136,181535,1,0,0:0:0:0:
160,148,181634,1,0,0:0:0:0:
20,296,181831,1,10,0:0:0:0:
424,244,182028,1,0,0:0:0:0:
68,208,182226,1,10,0:0:0:0:
396,344,182423,6,0,L|461:332,1,59.3999998187256
461,338,182719,1,0,0:0:0:0:
469,342,182818,1,0,0:0:0:0:
400,48,183015,1,10,0:0:0:0:
412,252,183212,1,0,0:0:0:0:
500,12,183410,1,2,0:0:0:0:
92,40,183607,6,0,L|104:123,1,59.3999998187256,0|8,0:0|0:0,0:0:0:0:
100,108,183903,1,8,0:0:0:0:
96,116,184002,2,0,L|46:113,1,29.6999999093628,8|8,0:0|0:0,0:0:0:0:
216,84,184199,1,10,0:0:0:0:
160,280,184397,2,0,L|153:225,1,29.6999999093628,8|8,0:0|0:0,0:0:0:0:
232,60,184594,2,0,L|224:7,1,29.6999999093628,10|8,0:0|0:0,0:0:0:0:
228,184,184791,5,0,0:0:0:0:
234,228,184889,1,0,0:0:0:0:
240,273,184988,1,0,0:0:0:0:
246,317,185087,1,0,0:0:0:0:
252,362,185186,2,0,L|285:352,1,29.6999999093628
368,328,185384,5,10,0:0:0:0:
88,124,185778,1,2,0:0:0:0:
332,204,185976,5,0,0:0:0:0:
368,167,186074,1,0,0:0:0:0:
374,116,186173,1,0,0:0:0:0:
346,73,186272,1,0,0:0:0:0:
298,56,186370,2,0,L|260:61,1,29.6999999093628
164,72,186568,5,10,0:0:0:0:
472,160,186962,1,2,0:0:0:0:
144,184,187160,5,0,0:0:0:0:
150,228,187258,1,0,0:0:0:0:
156,273,187357,1,0,0:0:0:0:
162,317,187456,1,0,0:0:0:0:
168,362,187555,2,0,L|113:343,1,29.6999999093628
44,320,187752,5,10,0:0:0:0:
348,300,187949,1,2,0:0:0:0:
348,312,188048,1,8,0:0:0:0:
348,324,188147,1,8,0:0:0:0:
348,336,188245,1,8,0:0:0:0:
372,360,188344,6,0,B|376:316|376:316|391:284,1,59.3999998187256,2|0,0:0|0:0,0:0:0:0:
428,208,188739,1,0,0:0:0:0:
432,108,188936,2,0,L|424:45,1,59.3999998187256,2|0,0:0|0:0,0:0:0:0:
424,49,189331,1,8,0:0:0:0:
352,344,189528,6,0,B|356:300|356:300|369:270,1,59.3999998187256,2|0,0:0|0:0,0:0:0:0:
408,192,189923,1,0,0:0:0:0:
412,92,190120,2,0,L|403:28,1,59.3999998187256,2|0,0:0|0:0,0:0:0:0:
403,33,190515,1,8,0:0:0:0:
324,328,190712,6,0,B|328:284|328:284|341:254,1,59.3999998187256,2|0,0:0|0:0,0:0:0:0:
380,176,191107,1,0,0:0:0:0:
412,92,191305,6,0,B|400:34|400:34|372:19,3,90,2|10|2|10,0:0|0:0|0:0|0:0,0:0:0:0:
276,36,193475,1,0,0:0:0:0:
276,36,193574,1,0,0:0:0:0:
276,36,193672,5,10,0:0:0:0:
208,76,193969,1,2,0:0:0:0:
132,60,194265,1,2,0:0:0:0:
60,88,194561,1,2,0:0:0:0:
60,88,194857,5,10,0:0:0:0:
80,240,195009,1,2,0:0:0:0:
80,120,195161,5,2,0:0:0:0:
60,272,195313,1,2,0:0:0:0:
8,148,195464,6,2,L|212:136,1,180,10|8,0:0|0:0,0:0:0:0:
200,152,196157,5,2,0:0:0:0:
236,52,196339,1,0,0:0:0:0:
228,160,196522,2,0,B|216:256|216:256|228:308,1,144,2|0,0:0|0:0,0:0:0:0:
296,352,197071,2,0,L|388:344,2,72,2|0|0,0:0|0:0|0:0,0:0:0:0:
148,196,197620,2,0,B|36:204|36:204|88:180,1,144,2|0,0:0|0:0,0:0:0:0:
296,72,198169,1,8,0:0:0:0:
204,316,198352,1,0,0:0:0:0:
196,304,198535,1,0,0:0:0:0:
452,308,198717,1,8,0:0:0:0:
316,200,198900,2,0,L|312:256,1,36
428,296,199083,5,2,0:0:0:0:
224,224,199266,1,0,0:0:0:0:
424,144,199449,2,0,L|408:300,1,144,2|0,0:0|0:0,0:0:0:0:
396,372,199998,2,0,L|304:376,2,72,2|0|0,0:0|0:0|0:0,0:0:0:0:
236,300,200547,2,0,P|176:284|152:192,1,144,2|0,0:0|0:0,0:0:0:0:
176,44,201096,1,8,0:0:0:0:
256,196,201278,1,0,0:0:0:0:
248,204,201461,1,0,0:0:0:0:
16,92,201644,1,8,0:0:0:0:
360,68,201827,2,0,L|352:116,1,36
332,188,202010,5,2,0:0:0:0:
252,84,202193,1,0,0:0:0:0:
468,108,202376,2,0,B|448:220|448:220|456:272,1,144,2|0,0:0|0:0,0:0:0:0:
436,336,202925,2,0,P|400:316|376:272,2,72,2|0|0,0:0|0:0|0:0,0:0:0:0:
344,188,203474,2,0,B|236:196|236:196|276:224,1,144,2|0,0:0|0:0,0:0:0:0:
480,224,204022,1,8,0:0:0:0:
188,308,204205,1,0,0:0:0:0:
192,292,204388,1,0,0:0:0:0:
264,44,204571,1,8,0:0:0:0:
292,300,204754,2,0,L|276:360,1,36
356,132,204937,5,2,0:0:0:0:
188,88,205120,1,0,0:0:0:0:
400,40,205303,2,0,L|416:208,1,144,2|0,0:0|0:0,0:0:0:0:
420,272,205852,2,0,P|460:264|488:232,2,72,2|0|0,0:0|0:0|0:0,0:0:0:0:
291,302,206400,5,0,0:0:0:0:
283,294,206492,1,0,0:0:0:0:
275,290,206583,1,0,0:0:0:0:
263,290,206675,1,0,0:0:0:0:
228,297,206766,1,8,0:0:0:0:
216,297,206858,1,8,0:0:0:0:
208,293,206949,1,0,0:0:0:0:
200,285,207041,1,8,0:0:0:0:
172,261,207132,5,8,0:0:0:0:
171,207,207223,1,8,0:0:0:0:
201,164,207314,1,0,0:0:0:0:
252,148,207406,1,0,0:0:0:0:
302,164,207497,1,0,0:0:0:0:
312,149,207589,1,0,0:0:0:0:
307,113,207681,1,0,0:0:0:0:
316,97,207773,1,0,0:0:0:0:
307,62,207864,6,0,L|267:66,1,36,4|0,0:0|0:0,0:0:0:0:
88,48,208047,1,0,0:0:0:0:
104,88,208138,1,0,0:0:0:0:
92,128,208230,2,0,L|76:160,1,36,12|0,0:0|0:0,0:0:0:0:
80,332,208413,1,0,0:0:0:0:
121,298,208504,1,0,0:0:0:0:
173,285,208595,1,0,0:0:0:0:
226,295,208687,1,0,0:0:0:0:
270,326,208778,2,0,L|264:272,1,36,4|0,0:0|0:0,0:0:0:0:
216,120,208961,1,8,0:0:0:0:
252,159,209052,1,0,0:0:0:0:
303,141,209143,1,0,0:0:0:0:
307,87,209235,1,0,0:0:0:0:
263,55,209327,6,0,L|220:64,1,36,4|0,0:0|0:0,0:0:0:0:
360,232,209510,1,0,0:0:0:0:
382,216,209601,1,0,0:0:0:0:
400,196,209692,1,8,0:0:0:0:
414,173,209784,1,0,0:0:0:0:
423,148,209875,1,0,0:0:0:0:
426,121,209967,1,0,0:0:0:0:
424,94,210058,1,0,0:0:0:0:
416,68,210150,1,0,0:0:0:0:
403,45,210242,2,0,L|456:28,1,36,4|0,0:0|0:0,0:0:0:0:
208,128,210425,2,0,L|155:145,1,36,12|0,0:0|0:0,0:0:0:0:
364,316,210608,2,0,L|416:298,1,36,4|0,0:0|0:0,0:0:0:0:
276,260,210791,5,0,0:0:0:0:
240,266,210882,1,0,0:0:0:0:
205,273,210973,1,0,0:0:0:0:
169,279,211065,1,0,0:0:0:0:
134,286,211156,2,0,L|148:240,1,36,12|0,0:0|0:0,0:0:0:0:
216,48,211339,1,0,0:0:0:0:
259,58,211430,1,0,0:0:0:0:
289,90,211521,1,0,0:0:0:0:
297,134,211613,1,0,0:0:0:0:
280,175,211705,2,0,L|220:168,1,36,4|0,0:0|0:0,0:0:0:0:
44,88,211888,1,8,0:0:0:0:
14,143,211979,1,0,0:0:0:0:
4,205,212070,1,0,0:0:0:0:
16,266,212162,1,0,0:0:0:0:
48,320,212254,6,0,L|4:340,1,36,4|0,0:0|0:0,0:0:0:0:
92,228,212437,1,0,0:0:0:0:
133,232,212528,1,0,0:0:0:0:
175,236,212619,1,8,0:0:0:0:
217,241,212711,1,0,0:0:0:0:
259,245,212802,1,0,0:0:0:0:
300,250,212894,1,0,0:0:0:0:
342,254,212986,2,0,L|328:304,2,48,4|4|4,0:0|0:0|0:0,0:0:0:0:
296,148,213352,2,0,L|310:98,2,48,12|4|4,0:0|0:0|0:0,0:0:0:0:
264,344,213717,5,0,0:0:0:0:
300,373,213809,1,0,0:0:0:0:
347,376,213900,1,0,0:0:0:0:
387,351,213992,1,0,0:0:0:0:
404,307,214083,2,0,L|432:344,1,36,12|0,0:0|0:0,0:0:0:0:
496,228,214266,1,0,0:0:0:0:
434,218,214357,1,0,0:0:0:0:
389,175,214448,1,0,0:0:0:0:
377,114,214540,1,0,0:0:0:0:
403,58,214632,2,0,L|448:64,1,36,4|0,0:0|0:0,0:0:0:0:
340,256,214815,1,8,0:0:0:0:
286,254,214906,1,0,0:0:0:0:
232,252,214997,1,0,0:0:0:0:
178,250,215089,1,0,0:0:0:0:
124,248,215181,6,0,L|132:308,1,36,4|0,0:0|0:0,0:0:0:0:
256,164,215365,1,0,0:0:0:0:
214,162,215456,1,0,0:0:0:0:
172,160,215547,1,8,0:0:0:0:
130,158,215639,1,0,0:0:0:0:
88,156,215730,1,0,0:0:0:0:
46,154,215822,1,0,0:0:0:0:
80,180,215913,5,4,0:0:0:0:
72,192,216004,1,0,0:0:0:0:
52,272,216096,1,4,0:0:0:0:
44,284,216187,1,0,0:0:0:0:
88,352,216278,1,12,0:0:0:0:
80,364,216369,1,0,0:0:0:0:
72,376,216461,2,0,L|112:372,1,36,4|0,0:0|0:0,0:0:0:0:
352,344,216644,5,0,0:0:0:0:
344,290,216735,1,0,0:0:0:0:
337,237,216826,1,0,0:0:0:0:
332,183,216918,1,0,0:0:0:0:
340,130,217010,2,0,L|380:120,1,36,12|0,0:0|0:0,0:0:0:0:
284,32,217193,1,0,0:0:0:0:
239,37,217284,1,0,0:0:0:0:
194,43,217375,1,0,0:0:0:0:
150,49,217467,1,0,0:0:0:0:
105,55,217559,2,0,L|120:92,1,36,4|0,0:0|0:0,0:0:0:0:
224,276,217742,1,8,0:0:0:0:
224,258,217833,1,0,0:0:0:0:
225,240,217924,1,0,0:0:0:0:
226,222,218016,1,0,0:0:0:0:
226,204,218108,6,0,L|192:208,1,36,4|0,0:0|0:0,0:0:0:0:
20,232,218291,1,0,0:0:0:0:
24,258,218382,1,0,0:0:0:0:
29,285,218473,1,8,0:0:0:0:
33,311,218565,1,0,0:0:0:0:
38,338,218656,2,0,L|48:292,1,36,4|0,0:0|0:0,0:0:0:0:
80,60,218839,2,0,L|89:106,1,36,4|0,0:0|0:0,0:0:0:0:
128,352,219022,2,0,L|137:305,1,36,4|0,0:0|0:0,0:0:0:0:
170,73,219205,2,0,L|179:119,1,36,12|0,0:0|0:0,0:0:0:0:
220,328,219388,2,0,L|229:281,1,36,4|0,0:0|0:0,0:0:0:0:
268,36,219571,5,0,0:0:0:0:
276,89,219662,1,0,0:0:0:0:
284,142,219753,1,0,0:0:0:0:
292,196,219845,1,0,0:0:0:0:
296,232,219937,2,0,L|308:179,1,36,12|0,0:0|0:0,0:0:0:0:
368,100,220120,1,0,0:0:0:0:
373,144,220211,1,0,0:0:0:0:
378,189,220302,1,0,0:0:0:0:
384,233,220394,1,0,0:0:0:0:
389,278,220486,2,0,L|376:320,1,36,4|0,0:0|0:0,0:0:0:0:
396,4,220669,1,8,0:0:0:0:
439,10,220760,1,0,0:0:0:0:
474,38,220851,1,0,0:0:0:0:
489,80,220943,1,0,0:0:0:0:
481,124,221035,6,0,L|419:119,1,36,4|0,0:0|0:0,0:0:0:0:
144,80,221217,1,0,0:0:0:0:
146,103,221308,1,0,0:0:0:0:
148,127,221399,1,8,0:0:0:0:
150,151,221491,1,0,0:0:0:0:
152,175,221582,1,0,0:0:0:0:
154,199,221674,1,0,0:0:0:0:
164,216,221766,5,4,0:0:0:0:
192,192,221858,1,0,0:0:0:0:
192,156,221949,1,0,0:0:0:0:
160,140,222041,1,0,0:0:0:0:
124,136,222132,1,8,0:0:0:0:
92,152,222224,1,0,0:0:0:0:
68,180,222315,1,0,0:0:0:0:
60,216,222406,1,0,0:0:0:0:
60,256,222498,5,4,0:0:0:0:
77,304,222589,1,0,0:0:0:0:
112,344,222680,1,0,0:0:0:0:
164,357,222772,1,0,0:0:0:0:
213,338,222864,1,12,0:0:0:0:
216,346,222955,1,0,0:0:0:0:
220,355,223046,1,0,0:0:0:0:
223,363,223138,1,0,0:0:0:0:
226,372,223230,1,0,0:0:0:0:
260,337,223321,1,0,0:0:0:0:
239,303,223412,1,4,0:0:0:0:
236,293,223504,1,0,0:0:0:0:
232,280,223595,1,8,0:0:0:0:
230,244,223687,1,0,0:0:0:0:
244,211,223778,1,0,0:0:0:0:
272,189,223870,1,0,0:0:0:0:
307,181,223961,5,4,0:0:0:0:
312,168,224053,1,0,0:0:0:0:
300,128,224144,1,0,0:0:0:0:
312,88,224236,1,0,0:0:0:0:
344,60,224327,1,8,0:0:0:0:
388,52,224419,1,0,0:0:0:0:
428,64,224510,1,0,0:0:0:0:
456,96,224602,1,0,0:0:0:0:
464,140,224693,2,0,L|456:176,1,36,4|0,0:0|0:0,0:0:0:0:
208,120,224876,2,0,L|216:84,1,36,0|0,0:0|0:0,0:0:0:0:
352,268,225059,2,0,L|288:264,1,36,12|0,0:0|0:0,0:0:0:0:
120,188,225242,2,0,L|56:184,1,36,8|8,0:0|0:0,0:0:0:0:
16,28,225425,5,4,0:0:0:0:
31,59,225516,1,0,0:0:0:0:
60,81,225607,1,0,0:0:0:0:
94,89,225699,1,0,0:0:0:0:
129,81,225791,1,12,0:0:0:0:
127,89,225882,1,0,0:0:0:0:
124,98,225973,1,0,0:0:0:0:
122,107,226065,1,0,0:0:0:0:
124,136,226156,1,0,0:0:0:0:
92,172,226247,1,0,0:0:0:0:
88,220,226339,1,4,0:0:0:0:
112,260,226431,1,0,0:0:0:0:
152,284,226522,1,8,0:0:0:0:
200,276,226614,1,0,0:0:0:0:
232,244,226705,1,0,0:0:0:0:
232,196,226797,1,0,0:0:0:0:
236,152,226888,5,4,0:0:0:0:
232,140,226980,1,0,0:0:0:0:
220,100,227071,1,0,0:0:0:0:
273,102,227162,1,0,0:0:0:0:
327,105,227253,1,8,0:0:0:0:
381,108,227345,1,0,0:0:0:0:
435,111,227437,2,0,L|424:148,1,36,4|0,0:0|0:0,0:0:0:0:
380,356,227620,5,4,0:0:0:0:
383,311,227711,1,0,0:0:0:0:
370,268,227802,1,4,0:0:0:0:
342,234,227894,1,0,0:0:0:0:
303,212,227986,1,12,0:0:0:0:
264,234,228078,1,0,0:0:0:0:
236,268,228170,1,4,0:0:0:0:
223,311,228261,1,0,0:0:0:0:
226,356,228352,5,4,0:0:0:0:
264,374,228443,1,0,0:0:0:0:
302,354,228535,1,0,0:0:0:0:
306,311,228626,1,0,0:0:0:0:
280,276,228717,1,8,0:0:0:0:
236,268,228809,1,0,0:0:0:0:
199,245,228900,1,0,0:0:0:0:
185,203,228992,1,0,0:0:0:0:
200,162,229083,1,0,0:0:0:0:
231,131,229175,1,0,0:0:0:0:
269,112,229266,1,4,0:0:0:0:
304,137,229358,1,0,0:0:0:0:
343,154,229449,1,8,1:0:0:0:
381,133,229541,1,0,0:0:0:0:
405,97,229632,1,0,0:0:0:0:
387,57,229724,1,0,0:0:0:0:
344,49,229815,5,4,0:0:0:0:
312,36,229906,1,8,0:0:0:0:
282,28,229997,1,8,0:0:0:0:
251,30,230089,1,8,0:0:0:0:
222,42,230180,1,8,0:0:0:0:
198,62,230272,1,8,0:0:0:0:
181,89,230364,1,4,0:0:0:0:
174,120,230455,1,0,0:0:0:0:
177,151,230546,1,4,0:0:0:0:
190,180,230638,1,8,0:0:0:0:
211,203,230729,1,12,0:0:0:0:
238,218,230821,1,8,0:0:0:0:
269,224,230912,1,12,0:0:0:0:
300,220,231004,1,8,0:0:0:0:
329,206,231095,1,12,0:0:0:0:
351,184,231186,1,8,0:0:0:0:
365,157,231278,5,2,0:0:0:0:
284,328,231461,1,0,0:0:0:0:
430,289,231644,1,12,0:0:0:0:
442,299,232010,1,6,0:0:0:0:
382,135,232193,1,6,0:0:0:0:
273,315,232376,1,8,0:0:0:0:
263,305,232742,1,6,0:0:0:0:
88,260,233108,2,0,L|44:256,2,36,8|2|2,0:0|0:0|0:0,0:0:0:0:
432,284,233474,5,2,0:0:0:0:
420,200,233657,1,2,0:0:0:0:
408,116,233840,1,12,0:0:0:0:
276,228,234205,1,6,0:0:0:0:
304,56,234388,1,6,0:0:0:0:
316,140,234571,1,8,0:0:0:0:
356,352,234754,1,2,0:0:0:0:
344,348,234846,1,2,0:0:0:0:
332,344,234937,2,0,L|280:352,1,36,12|8,0:0|0:0,0:0:0:0:
80,376,235120,1,6,0:0:0:0:
364,268,235303,5,2,0:0:0:0:
172,368,235486,1,2,0:0:0:0:
212,200,235669,1,12,0:0:0:0:
216,216,236035,1,6,0:0:0:0:
388,244,236217,1,6,0:0:0:0:
200,60,236400,1,8,0:0:0:0:
188,80,236766,1,6,0:0:0:0:
368,268,237132,2,0,L|376:320,2,36,12|0|0,0:0|0:0|0:0,0:0:0:0:
328,100,237498,5,2,0:0:0:0:
304,184,237681,1,2,0:0:0:0:
260,16,237864,1,12,0:0:0:0:
484,144,238230,1,6,0:0:0:0:
355,300,238413,1,6,0:0:0:0:
179,185,238596,5,8,0:0:0:0:
84,248,238778,1,4,0:0:0:0:
84,248,238870,1,2,0:0:0:0:
84,248,238961,2,0,L|76:304,2,36,12|8|0,0:0|0:0|0:0,0:0:0:0:
152,88,239327,2,0,L|144:32,2,36,12|8|0,0:0|0:0|0:0,0:0:0:0:
184,300,239693,5,2,0:0:0:0:
88,156,239876,1,2,0:0:0:0:
336,84,240059,2,0,L|328:168,1,72,12|0,0:0|0:0,0:0:0:0:
312,328,240425,1,6,0:0:0:0:
264,28,240608,1,6,0:0:0:0:
436,28,240791,1,8,0:0:0:0:
412,156,240974,1,2,0:0:0:0:
76,76,241156,1,2,0:0:0:0:
508,116,241522,2,0,P|512:156|504:176,2,36,12|0|0,0:0|0:0|0:0,0:0:0:0:
380,84,241888,5,2,0:0:0:0:
264,144,242071,1,0,0:0:0:0:
140,104,242254,1,12,0:0:0:0:
164,276,242620,1,6,0:0:0:0:
244,248,242803,1,6,0:0:0:0:
76,200,242986,5,8,0:0:0:0:
224,356,243169,2,0,L|232:320,1,36,2|2,0:0|0:0,0:0:0:0:
296,116,243352,2,0,L|288:80,1,36,8|8,0:0|0:0,0:0:0:0:
348,288,243535,1,6,0:0:0:0:
168,168,243717,5,2,0:0:0:0:
144,296,243900,1,0,0:0:0:0:
420,228,244083,1,12,0:0:0:0:
276,132,244449,1,6,0:0:0:0:
336,20,244632,1,0,0:0:0:0:
320,300,244815,1,8,0:0:0:0:
356,44,245181,1,6,0:0:0:0:
204,256,245547,2,0,L|212:304,2,36,12|0|0,0:0|0:0|0:0,0:0:0:0:
152,44,245913,5,2,0:0:0:0:
236,56,246096,1,0,0:0:0:0:
320,64,246278,1,12,0:0:0:0:
32,156,246461,1,2,0:0:0:0:
116,172,246644,1,6,0:0:0:0:
200,188,246827,1,6,0:0:0:0:
412,152,247010,6,0,L|420:180,2,24,2|2|2,0:0|0:0|0:0,0:0:0:0:
344,204,247193,2,0,L|352:232,2,24,2|10|10,0:0|0:0|0:0,0:0:0:0:
264,264,247376,6,0,L|284:320,2,36,12|8|8,0:0|0:0|0:0,0:0:0:0:
152,88,247742,2,0,L|132:32,2,36,4|8|8,0:0|0:0|0:0,0:0:0:0:
272,248,248108,1,6,0:0:0:0:
256,192,248199,12,4,249205,0:0:0:0:
256,192,249297,12,0,250211,0:0:0:0:
100,132,250303,6,0,L|126:277,1,135,4|0,0:0|0:0,0:0:0:0:
127,282,250597,1,0,0:0:0:0:
205,97,250744,2,0,L|227:218,1,90,0|0,0:0|2:0,0:0:0:0:
306,309,251038,1,0,2:0:0:0:
321,299,251111,1,0,2:0:0:0:
333,286,251185,1,0,2:0:0:0:
341,270,251258,1,0,2:0:0:0:
345,253,251332,1,0,2:0:0:0:
345,235,251405,1,0,2:0:0:0:
338,218,251479,6,0,B|364:176|364:176|434:114,1,135
445,114,251773,1,0,0:0:0:0:
448,262,251920,2,0,B|423:301|423:301|391:330,1,90,0|0,0:0|2:0,0:0:0:0:
162,347,252214,1,0,2:0:0:0:
172,332,252287,1,0,2:0:0:0:
186,320,252361,1,0,2:0:0:0:
202,312,252434,1,0,2:0:0:0:
219,308,252508,1,0,2:0:0:0:
237,308,252581,1,0,2:0:0:0:
255,311,252655,6,0,L|116:228,1,135,4|0,0:0|0:0,0:0:0:0:
122,233,252950,1,4,0:0:0:0:
445,114,253097,1,4,0:0:0:0:
260,84,253391,5,0,2:0:0:0:
262,87,253464,1,0,2:0:0:0:
264,90,253538,1,0,2:0:0:0:
266,93,253611,1,0,2:0:0:0:
268,96,253685,1,0,2:0:0:0:
270,99,253758,1,0,2:0:0:0:
272,102,253832,6,0,B|206:127|206:127|132:139,1,135,4|0,0:0|0:0,0:0:0:0:
124,138,254126,1,4,0:0:0:0:
405,233,254273,1,4,0:0:0:0:
168,275,254613,5,0,0:0:0:0:
163,278,254663,1,0,0:0:0:0:
157,280,254714,1,8,0:0:0:0:
151,283,255008,6,0,L|89:195,1,90,2|8,0:0|0:0,0:0:0:0:
169,82,255303,1,0,0:0:0:0:
247,274,255449,1,8,0:0:0:0:
289,117,255597,1,0,0:0:0:0:
301,104,255670,1,0,0:0:0:0:
316,94,255744,1,8,0:0:0:0:
333,86,255817,1,0,0:0:0:0:
350,81,255891,1,0,0:0:0:0:
368,80,255964,1,0,0:0:0:0:
386,81,256038,1,8,0:0:0:0:
403,85,256111,1,0,0:0:0:0:
420,92,256185,6,0,B|401:140|401:140|389:197,1,90,2|8,0:0|0:0,0:0:0:0:
448,310,256479,1,0,0:0:0:0:
289,117,256626,1,8,0:0:0:0:
247,274,256773,1,0,0:0:0:0:
229,268,256846,1,0,0:0:0:0:
213,261,256920,1,8,0:0:0:0:
198,250,256993,1,0,0:0:0:0:
186,238,257067,1,0,0:0:0:0:
175,223,257140,1,0,0:0:0:0:
167,207,257214,1,8,0:0:0:0:
162,189,257287,1,0,0:0:0:0:
164,171,257361,6,0,B|181:123|181:123|187:69,1,90,2|8,0:0|0:0,0:0:0:0:
53,26,257655,1,0,0:0:0:0:
78,190,257803,1,8,0:0:0:0:
289,117,257950,1,0,0:0:0:0:
305,108,258023,1,0,0:0:0:0:
322,102,258097,1,8,0:0:0:0:
339,99,258170,1,0,0:0:0:0:
357,97,258244,1,0,0:0:0:0:
375,98,258317,1,0,0:0:0:0:
393,102,258391,1,8,0:0:0:0:
410,107,258464,1,0,0:0:0:0:
426,116,258538,6,0,P|460:153|465:226,1,90,2|8,0:0|0:0,0:0:0:0:
426,350,258832,1,0,0:0:0:0:
359,211,258979,1,8,0:0:0:0:
206,335,259126,1,0,0:0:0:0:
175,354,259200,1,8,0:0:0:0:
143,336,259273,1,8,0:0:0:0:
107,327,259347,1,8,0:0:0:0:
71,331,259420,1,0,0:0:0:0:
92,301,259494,1,0,0:0:0:0:
99,265,259567,1,8,0:0:0:0:
96,228,259641,1,0,0:0:0:0:
78,196,259714,6,0,P|68:158|94:103,1,90,2|8,0:0|0:0,0:0:0:0:
258,42,260008,1,0,0:0:0:0:
160,165,260155,1,8,0:0:0:0:
359,211,260303,1,0,0:0:0:0:
374,201,260376,1,0,0:0:0:0:
387,189,260450,1,8,0:0:0:0:
398,174,260523,1,0,0:0:0:0:
406,158,260597,1,0,0:0:0:0:
410,141,260670,1,0,0:0:0:0:
411,123,260744,1,8,0:0:0:0:
409,105,260817,1,0,0:0:0:0:
404,88,260891,6,0,B|439:118|439:118|485:137,1,90,2|8,0:0|0:0,0:0:0:0:
504,267,261185,1,0,0:0:0:0:
331,360,261332,1,8,0:0:0:0:
359,211,261479,1,0,0:0:0:0:
348,196,261552,1,0,0:0:0:0:
336,182,261626,1,8,0:0:0:0:
322,171,261699,1,0,0:0:0:0:
307,162,261773,1,0,0:0:0:0:
290,156,261846,1,0,0:0:0:0:
272,152,261920,1,8,0:0:0:0:
254,151,261993,1,0,0:0:0:0:
236,153,262067,5,2,0:0:0:0:
86,89,262214,1,8,0:0:0:0:
228,166,262361,1,0,0:0:0:0:
57,199,262508,1,8,0:0:0:0:
218,187,262655,1,0,0:0:0:0:
229,202,262728,1,0,0:0:0:0:
241,215,262802,1,8,0:0:0:0:
255,226,262875,1,0,0:0:0:0:
270,235,262949,1,0,0:0:0:0:
287,242,263022,1,0,0:0:0:0:
305,245,263096,1,8,0:0:0:0:
323,247,263169,1,0,0:0:0:0:
341,245,263243,5,2,0:0:0:0:
473,149,263391,1,8,0:0:0:0:
356,261,263538,1,0,0:0:0:0:
401,75,263685,1,8,0:0:0:0:
370,279,263832,1,0,0:0:0:0:
291,40,263979,1,0,0:0:0:0:
274,48,264053,1,0,0:0:0:0:
258,56,264126,1,8,0:0:0:0:
174,215,264273,1,0,0:0:0:0:
175,35,264420,6,0,B|135:57|135:57|71:69,1,90,2|0,0:0|0:0,0:0:0:0:
15,160,264714,1,0,0:0:0:0:
289,134,264861,1,0,0:0:0:0:
86,337,265155,5,0,0:0:0:0:
102,330,265229,1,0,0:0:0:0:
118,323,265303,1,8,0:0:0:0:
174,215,265450,1,0,0:0:0:0:
192,216,265522,1,0,0:0:0:0:
209,216,265597,6,0,B|233:258|233:258|269:297,1,90,2|0,0:0|0:0,0:0:0:0:
331,364,265891,1,0,0:0:0:0:
379,88,266038,1,8,0:0:0:0:
142,59,266332,5,0,0:0:0:0:
135,75,266405,1,0,0:0:0:0:
129,92,266479,1,8,0:0:0:0:
224,299,266626,1,8,0:0:0:0:
33,119,266773,5,2,0:0:0:0:
281,51,266920,1,8,0:0:0:0:
81,263,267067,1,0,0:0:0:0:
288,69,267214,1,8,0:0:0:0:
224,299,267361,1,0,0:0:0:0:
239,307,267434,1,0,0:0:0:0:
256,313,267508,1,8,0:0:0:0:
274,316,267581,1,0,0:0:0:0:
292,316,267655,1,0,0:0:0:0:
310,312,267728,1,0,0:0:0:0:
326,306,267802,1,8,0:0:0:0:
342,296,267875,1,0,0:0:0:0:
355,285,267949,5,2,0:0:0:0:
442,49,268097,1,8,0:0:0:0:
500,275,268244,1,0,0:0:0:0:
435,31,268391,1,8,0:0:0:0:
225,189,268538,1,0,0:0:0:0:
196,154,268611,1,8,0:0:0:0:
155,137,268685,1,8,0:0:0:0:
111,141,268758,1,8,0:0:0:0:
74,166,268832,1,0,0:0:0:0:
63,180,268905,1,0,0:0:0:0:
53,194,268978,1,8,0:0:0:0:
45,210,269052,1,0,0:0:0:0:
41,228,269126,6,0,P|39:291|18:323,1,90,2|8,0:0|0:0,0:0:0:0:
143,223,269420,1,0,0:0:0:0:
217,370,269567,1,8,0:0:0:0:
316,180,269714,1,2,0:0:0:0:
333,182,269787,1,0,0:0:0:0:
350,187,269861,1,8,0:0:0:0:
366,196,269934,1,0,0:0:0:0:
379,208,270008,1,0,0:0:0:0:
390,223,270081,1,0,0:0:0:0:
397,239,270155,1,8,0:0:0:0:
401,257,270228,1,0,0:0:0:0:
401,275,270303,6,0,P|392:318|352:362,1,90,2|8,0:0|0:0,0:0:0:0:
189,366,270597,1,0,0:0:0:0:
308,276,270744,1,8,0:0:0:0:
293,90,270891,1,0,0:0:0:0:
275,94,270964,1,0,0:0:0:0:
259,102,271038,1,8,0:0:0:0:
245,114,271111,1,0,0:0:0:0:
234,128,271185,1,0,0:0:0:0:
227,144,271258,1,0,0:0:0:0:
224,162,271332,1,8,0:0:0:0:
224,180,271405,1,0,0:0:0:0:
227,198,271479,5,2,0:0:0:0:
64,48,271626,1,8,0:0:0:0:
233,215,271773,1,0,0:0:0:0:
7,266,271920,1,8,0:0:0:0:
305,171,272067,1,2,0:0:0:0:
322,166,272140,1,0,0:0:0:0:
338,158,272214,1,8,0:0:0:0:
352,146,272287,1,0,0:0:0:0:
362,132,272361,1,0,0:0:0:0:
370,115,272434,1,0,0:0:0:0:
373,98,272508,1,8,0:0:0:0:
373,80,272581,1,0,0:0:0:0:
368,63,272655,5,8,0:0:0:0:
412,65,272728,1,8,0:0:0:0:
447,91,272802,1,8,0:0:0:0:
462,133,272875,1,8,0:0:0:0:
450,176,272949,5,0,0:0:0:0:
436,188,273023,1,0,0:0:0:0:
425,201,273097,1,0,0:0:0:0:
417,217,273170,1,0,0:0:0:0:
413,235,273244,6,0,L|430:348,2,90,6|0|0,0:0|0:0|0:0,0:0:0:0:
316,268,273886,6,0,L|283:377,2,90,10|0|0,0:0|0:0|0:0,0:0:0:0:
118,261,274529,5,2,0:0:0:0:
243,187,274744,1,0,0:0:0:0:
118,112,274958,1,0,0:0:0:0:
158,186,275172,5,10,0:0:0:0:
283,112,275387,1,0,0:0:0:0:
158,37,275601,1,0,0:0:0:0:
199,112,275815,5,2,0:0:0:0:
324,186,276030,1,0,0:0:0:0:
324,37,276244,1,0,0:0:0:0:
283,112,276458,5,10,0:0:0:0:
276,256,276673,1,0,0:0:0:0:
407,183,276887,1,0,0:0:0:0:
366,302,277101,6,0,B|325:319|325:319|282:349,2,90,2|0|0,0:0|0:0|0:0,0:0:0:0:
370,302,277636,1,0,0:0:0:0:
374,302,277744,5,8,0:0:0:0:
390,101,277958,1,0,0:0:0:0:
448,338,278172,1,8,0:0:0:0:
295,337,278386,5,2,0:0:0:0:
150,344,278601,1,0,0:0:0:0:
6,350,278815,1,0,0:0:0:0:
68,235,279029,5,10,0:0:0:0:
213,228,279244,1,0,0:0:0:0:
357,222,279458,1,0,0:0:0:0:
486,234,279672,6,0,B|494:270|494:270|501:282|501:282|500:295|500:295|510:333,2,90,2|0|0,0:0|0:0|0:0,0:0:0:0:
357,222,280315,6,0,B|349:186|349:186|342:174|342:174|343:161|343:161|333:123,2,90,10|0|0,0:0|0:0|0:0,0:0:0:0:
282,329,280958,5,2,0:0:0:0:
196,213,281172,1,0,0:0:0:0:
58,255,281386,1,0,0:0:0:0:
299,324,281601,5,10,0:0:0:0:
213,208,281815,1,0,0:0:0:0:
75,250,282029,1,0,0:0:0:0:
151,85,282244,5,2,0:0:0:0:
232,204,282458,1,0,0:0:0:0:
314,321,282672,1,0,0:0:0:0:
500,250,282886,6,0,B|497:275|497:275|485:306,1,45,10|0,0:0|0:0,0:0:0:0:
384,231,283101,2,0,B|387:206|387:206|399:175,1,45
474,111,283315,1,8,0:0:0:0:
472,106,283422,1,8,0:0:0:0:
470,101,283529,6,0,B|432:99|432:99|407:87|407:87|345:81,2,90,2|0|0,0:0|0:0|0:0,0:0:0:0:
337,162,284172,6,0,B|375:164|375:164|400:176|400:176|462:182,2,90,10|0|0,0:0|0:0|0:0,0:0:0:0:
228,221,284815,5,2,0:0:0:0:
74,313,285029,1,0,0:0:0:0:
74,131,285244,1,0,0:0:0:0:
125,221,285458,5,10,0:0:0:0:
279,313,285672,1,0,0:0:0:0:
279,131,285887,1,0,0:0:0:0:
405,34,286101,5,2,0:0:0:0:
224,48,286315,1,0,0:0:0:0:
44,62,286529,1,0,0:0:0:0:
150,217,286744,5,10,0:0:0:0:
331,203,286958,1,0,0:0:0:0:
511,189,287172,1,0,0:0:0:0:
415,305,287386,6,0,B|414:287|414:287|329:324,2,90,2|0|0,0:0|0:0|0:0,0:0:0:0:
413,309,287922,1,0,0:0:0:0:
411,313,288029,5,8,0:0:0:0:
237,103,288244,1,0,0:0:0:0:
297,355,288458,1,8,0:0:0:0:
134,295,288672,6,0,B|88:287|88:287|43:285,2,90,2|0|0,0:0|0:0|0:0,0:0:0:0:
150,196,289315,6,0,B|137:153|137:153|137:101,2,90,10|0|0,0:0|0:0|0:0,0:0:0:0:
278,216,289958,5,2,0:0:0:0:
418,185,290172,1,0,0:0:0:0:
282,135,290386,1,0,0:0:0:0:
340,262,290601,5,10,0:0:0:0:
480,231,290815,1,0,0:0:0:0:
344,181,291029,1,0,0:0:0:0:
187,153,291244,6,0,P|159:118|154:55,2,90,2|0|0,0:0|0:0|0:0,0:0:0:0:
198,251,291886,6,0,L|96:267,2,90,10|0|0,0:0|0:0|0:0,0:0:0:0:
309,321,292529,5,0,0:0:0:0:
446,276,292744,1,0,0:0:0:0:
488,138,292958,6,0,L|526:150,3,30,0|0|0|8,0:0|0:0|0:0|0:0,0:0:0:0:
259,187,293386,1,0,0:0:0:0:
430,74,293601,1,8,0:0:0:0:
291,73,293815,6,0,L|296:23,3,45,12|0|8|0,0:0|0:0|0:0|0:0,0:0:0:0:
211,102,294103,2,0,L|216:52,3,45,8|0|8|0,0:0|0:0|0:0|0:0,0:0:0:0:
133,118,294391,5,8,0:0:0:0:
111,140,294463,1,0,0:0:0:0:
100,169,294535,1,8,0:0:0:0:
102,201,294607,1,0,0:0:0:0:
116,228,294680,1,8,0:0:0:0:
129,257,294752,1,0,0:0:0:0:
127,288,294824,1,8,0:0:0:0:
110,314,294896,1,0,0:0:0:0:
85,333,294968,5,8,0:0:0:0:
19,150,295113,1,8,0:0:0:0:
100,360,295257,5,8,0:0:0:0:
192,182,295402,1,8,0:0:0:0:
293,342,295545,5,8,0:0:0:0:
281,153,295690,1,8,0:0:0:0:
208,282,295834,5,8,0:0:0:0:
233,85,295979,1,8,0:0:0:0:
110,314,296122,5,12,0:0:0:0:
80,304,296194,1,0,0:0:0:0:
63,278,296266,1,8,0:0:0:0:
66,248,296338,1,0,0:0:0:0:
87,225,296410,1,8,0:0:0:0:
109,202,296483,1,0,0:0:0:0:
121,174,296555,1,8,0:0:0:0:
124,142,296627,1,0,0:0:0:0:
116,112,296699,5,8,0:0:0:0:
146,122,296771,1,0,0:0:0:0:
177,124,296843,1,8,0:0:0:0:
208,120,296915,1,0,0:0:0:0:
238,108,296987,1,8,0:0:0:0:
263,90,297060,1,0,0:0:0:0:
294,92,297132,1,8,0:0:0:0:
316,114,297204,1,0,0:0:0:0:
317,145,297276,5,8,0:0:0:0:
246,310,297420,1,8,0:0:0:0:
124,142,297565,5,8,0:0:0:0:
231,331,297709,1,8,0:0:0:0:
322,152,297853,5,0,0:0:0:0:
317,145,297925,1,8,0:0:0:0:
311,139,297997,2,0,B|288:139|288:139|254:128,1,45,2|8,0:0|0:0,0:0:0:0:
215,353,298141,6,0,B|238:353|238:353|272:364,1,45,2|0,0:0|0:0,0:0:0:0:
177,124,298286,1,8,0:0:0:0:
58,180,298430,5,12,0:0:0:0:
49,210,298502,1,0,0:0:0:0:
52,241,298574,1,8,0:0:0:0:
66,269,298646,1,0,0:0:0:0:
89,291,298718,1,8,0:0:0:0:
120,285,298790,1,0,0:0:0:0:
151,287,298862,1,8,0:0:0:0:
181,296,298934,1,0,0:0:0:0:
208,311,299006,5,8,0:0:0:0:
371,232,299151,1,8,0:0:0:0:
140,217,299295,5,8,0:0:0:0:
349,329,299440,1,8,0:0:0:0:
327,75,299584,6,0,B|303:77|303:77|278:84|278:84|261:78|261:78|219:82,1,90,10|8,0:0|0:0,0:0:0:0:
174,116,299800,6,0,L|151:117,2,22.5,0|0|8,0:0|0:0|0:0,0:0:0:0:
257,149,300016,2,0,P|282:153|321:138,1,45,8|0,0:0|0:0,0:0:0:0:
415,74,300161,5,0,0:0:0:0:
410,87,300233,1,0,0:0:0:0:
406,99,300305,1,0,0:0:0:0:
404,112,300377,1,0,0:0:0:0:
403,124,300449,1,8,0:0:0:0:
419,299,300593,1,0,0:0:0:0:
258,284,300738,5,4,0:0:0:0:
226,279,300810,1,0,0:0:0:0:
195,279,300882,1,0,0:0:0:0:
164,283,300954,1,0,0:0:0:0:
134,292,301026,1,8,0:0:0:0:
105,305,301098,1,0,0:0:0:0:
74,309,301170,1,8,0:0:0:0:
46,296,301242,1,0,0:0:0:0:
30,270,301314,5,8,0:0:0:0:
29,239,301386,1,0,0:0:0:0:
46,213,301459,1,8,0:0:0:0:
74,198,301531,1,0,0:0:0:0:
98,177,301603,1,8,0:0:0:0:
109,148,301675,1,0,0:0:0:0:
103,117,301747,1,8,0:0:0:0:
116,89,301819,1,0,0:0:0:0:
143,74,301891,5,8,0:0:0:0:
336,95,302036,1,8,0:0:0:0:
226,279,302180,5,8,0:0:0:0:
245,89,302325,1,8,0:0:0:0:
100,350,302468,5,8,0:0:0:0:
33,171,302613,1,8,0:0:0:0:
46,296,302757,5,8,0:0:0:0:
103,117,302902,1,8,0:0:0:0:
250,128,303045,5,4,0:0:0:0:
281,131,303117,1,0,0:0:0:0:
308,146,303189,1,8,0:0:0:0:
327,171,303261,1,0,0:0:0:0:
335,201,303333,1,8,0:0:0:0:
345,231,303406,1,0,0:0:0:0:
369,250,303478,1,8,0:0:0:0:
400,252,303550,1,0,0:0:0:0:
427,237,303622,5,8,0:0:0:0:
441,209,303694,1,0,0:0:0:0:
436,178,303766,1,8,0:0:0:0:
416,155,303838,1,0,0:0:0:0:
391,134,303911,1,8,0:0:0:0:
371,110,303983,1,0,0:0:0:0:
371,79,304055,1,8,0:0:0:0:
390,55,304127,1,0,0:0:0:0:
420,47,304199,5,8,0:0:0:0:
500,266,304343,1,8,0:0:0:0:
431,27,304488,5,8,0:0:0:0:
369,250,304632,1,8,0:0:0:0:
256,28,304776,5,0,0:0:0:0:
262,34,304848,1,8,0:0:0:0:
268,42,304920,2,0,B|274:66|274:66|272:91,1,45,0|8,0:0|0:0,0:0:0:0:
184,271,305065,5,8,0:0:0:0:
330,179,305209,1,8,0:0:0:0:
455,330,305353,5,4,0:0:0:0:
432,308,305425,1,0,0:0:0:0:
420,279,305497,1,8,0:0:0:0:
420,248,305569,1,0,0:0:0:0:
432,219,305641,1,8,0:0:0:0:
450,194,305713,1,0,0:0:0:0:
450,163,305785,1,8,0:0:0:0:
431,139,305857,1,0,0:0:0:0:
401,130,305929,5,8,0:0:0:0:
235,202,306074,1,0,0:0:0:0:
100,67,306218,5,8,0:0:0:0:
257,188,306363,1,0,0:0:0:0:
475,61,306507,5,0,0:0:0:0:
432,219,306651,1,0,0:0:0:0:
428,210,306723,1,0,0:0:0:0:
424,201,306795,1,0,0:0:0:0:
394,233,306867,1,0,0:0:0:0:
350,241,306939,1,0,0:0:0:0:
311,221,307011,1,0,0:0:0:0:
291,181,307083,5,8,0:0:0:0:
222,38,307228,1,0,0:0:0:0:
211,81,307300,1,0,0:0:0:0:
186,118,307372,1,8,0:0:0:0:
48,229,307516,1,0,0:0:0:0:
55,224,307589,1,0,0:0:0:0:
63,222,307661,6,0,B|95:247|95:247|153:271,1,90,4|8,0:0|0:0,0:0:0:0:
239,328,307877,1,0,0:0:0:0:
250,320,307949,1,2,0:0:0:0:
262,314,308021,1,2,0:0:0:0:
275,312,308093,2,0,B|273:264|273:264|283:206,1,90,8|2,0:0|0:0,0:0:0:0:
445,178,308382,2,0,B|447:226|447:226|437:284,1,90,8|2,0:0|0:0,0:0:0:0:
357,221,308598,1,2,0:0:0:0:
348,210,308670,1,8,0:0:0:0:
336,203,308742,1,0,0:0:0:0:
322,199,308815,6,0,B|316:176|316:176|315:154|315:154|303:133|303:133|296:109,1,90,4|8,0:0|0:0,0:0:0:0:
207,66,309031,1,0,0:0:0:0:
193,64,309103,1,2,0:0:0:0:
179,64,309175,1,2,0:0:0:0:
166,67,309247,2,0,B|176:114|176:114|181:181,1,90,8|2,0:0|0:0,0:0:0:0:
62,273,309536,2,0,B|52:226|52:226|47:159,1,90,8|2,0:0|0:0,0:0:0:0:
154,231,309752,1,2,0:0:0:0:
166,236,309824,1,8,0:0:0:0:
177,243,309896,1,0,0:0:0:0:
189,247,309968,6,0,B|190:283|190:283|201:308|201:308|201:342,1,90,4|8,0:0|0:0,0:0:0:0:
292,300,310185,1,0,0:0:0:0:
304,294,310257,1,2,0:0:0:0:
317,290,310329,1,2,0:0:0:0:
330,290,310401,2,0,P|334:245|391:200,1,90,8|2,0:0|0:0,0:0:0:0:
460,211,310617,1,0,0:0:0:0:
454,198,310690,1,8,0:0:0:0:
450,184,310762,1,0,0:0:0:0:
450,170,310834,2,0,L|412:139,1,45,2|2,0:0|0:0,0:0:0:0:
472,50,310978,1,8,0:0:0:0:
326,100,311122,6,0,B|297:91|297:91|274:95|274:95|209:80,1,90,4|8,0:0|0:0,0:0:0:0:
79,78,311411,2,0,L|123:89,1,45,2|2,0:0|0:0,0:0:0:0:
106,200,311555,2,0,P|108:238|67:279,1,90,8|2,0:0|0:0,0:0:0:0:
189,332,311843,1,8,0:0:0:0:
370,346,311988,1,2,0:0:0:0:
438,330,312060,1,2,0:0:0:0:
482,274,312132,1,2,0:0:0:0:
479,203,312204,1,2,0:0:0:0:
434,151,312276,6,0,B|390:163|390:163|331:171,1,90,4|8,0:0|0:0,0:0:0:0:
262,239,312492,1,0,0:0:0:0:
252,229,312565,1,2,0:0:0:0:
240,222,312637,1,0,0:0:0:0:
227,216,312709,2,0,B|229:171|229:171|220:124,1,90,8|2,0:0|0:0,0:0:0:0:
69,186,312997,2,0,B|67:231|67:231|76:278,1,90,8|2,0:0|0:0,0:0:0:0:
189,332,313214,1,2,0:0:0:0:
202,330,313286,1,8,0:0:0:0:
215,329,313358,1,0,0:0:0:0:
228,327,313430,6,0,B|274:324|274:324|339:306,1,90,4|8,0:0|0:0,0:0:0:0:
406,246,313646,1,0,0:0:0:0:
402,232,313718,1,2,0:0:0:0:
402,218,313790,1,2,0:0:0:0:
405,204,313863,2,0,P|357:191|326:120,1,90,8|2,0:0|0:0,0:0:0:0:
344,32,314151,2,0,P|392:45|423:116,1,90,8|2,0:0|0:0,0:0:0:0:
479,130,314367,1,2,0:0:0:0:
484,142,314439,1,0,0:0:0:0:
478,228,314584,5,8,0:0:0:0:
481,236,314656,1,0,0:0:0:0:
484,244,314728,5,8,0:0:0:0:
439,249,314800,1,8,0:0:0:0:
431,254,314872,5,0,0:0:0:0:
424,260,314944,1,0,0:0:0:0:
416,264,315016,1,0,0:0:0:0:
408,267,315088,1,0,0:0:0:0:
399,268,315160,1,0,0:0:0:0:
390,267,315232,5,8,0:0:0:0:
358,299,315305,1,0,0:0:0:0:
349,296,315377,1,0,0:0:0:0:
340,294,315449,5,8,0:0:0:0:
297,280,315521,1,0,0:0:0:0:
297,235,315593,1,8,0:0:0:0:
340,221,315665,1,8,0:0:0:0:
367,257,315738,5,4,0:0:0:0:
484,142,316026,5,4,0:0:0:0:
89,181,316170,2,0,B|92:216|92:216|106:259,1,67.5,4|0,0:0|0:0,0:0:0:0:
109,334,316459,5,0,0:0:0:0:
106,325,316531,1,0,0:0:0:0:
104,316,316603,1,8,0:0:0:0:
198,253,316747,1,0,0:0:0:0:
201,244,316819,1,0,0:0:0:0:
204,235,316891,5,4,0:0:0:0:
164,200,316963,1,0,0:0:0:0:
156,147,317035,1,8,0:0:0:0:
185,103,317107,1,0,0:0:0:0:
236,88,317179,5,2,0:0:0:0:
274,111,317252,1,2,0:0:0:0:
318,120,317324,1,8,0:0:0:0:
362,113,317396,1,0,0:0:0:0:
403,92,317468,5,2,0:0:0:0:
437,97,317540,1,0,0:0:0:0:
460,123,317612,1,8,0:0:0:0:
459,158,317684,1,0,0:0:0:0:
435,184,317757,5,2,0:0:0:0:
413,198,317829,1,2,0:0:0:0:
401,222,317901,1,8,0:0:0:0:
405,249,317973,1,0,0:0:0:0:
422,269,318045,5,4,0:0:0:0:
378,240,318117,1,0,0:0:0:0:
327,253,318189,1,8,0:0:0:0:
301,299,318261,1,0,0:0:0:0:
317,349,318333,5,2,0:0:0:0:
275,334,318406,1,2,0:0:0:0:
230,328,318478,1,8,0:0:0:0:
186,333,318550,1,0,0:0:0:0:
143,347,318622,5,2,0:0:0:0:
108,346,318694,1,0,0:0:0:0:
84,320,318766,1,8,0:0:0:0:
86,285,318838,1,0,0:0:0:0:
112,262,318911,5,2,0:0:0:0:
126,240,318983,1,2,0:0:0:0:
127,213,319055,1,8,0:0:0:0:
113,191,319127,1,0,0:0:0:0:
89,179,319199,5,4,0:0:0:0:
63,133,319271,1,0,0:0:0:0:
86,86,319343,1,8,0:0:0:0:
137,76,319415,1,0,0:0:0:0:
174,113,319488,5,2,0:0:0:0:
201,147,319560,1,2,0:0:0:0:
244,152,319632,1,8,0:0:0:0:
279,125,319704,1,0,0:0:0:0:
284,82,319776,5,2,0:0:0:0:
301,113,319848,1,0,0:0:0:0:
331,133,319920,1,8,0:0:0:0:
366,136,319992,1,0,0:0:0:0:
399,121,320064,5,2,0:0:0:0:
425,120,320136,1,2,0:0:0:0:
448,134,320208,1,8,0:0:0:0:
459,158,320280,1,0,0:0:0:0:
453,185,320353,5,4,0:0:0:0:
424,198,320425,1,0,0:0:0:0:
401,219,320497,1,8,0:0:0:0:
387,247,320569,1,0,0:0:0:0:
382,278,320641,5,2,0:0:0:0:
355,301,320713,1,2,0:0:0:0:
321,310,320785,1,8,0:0:0:0:
286,302,320857,1,0,0:0:0:0:
258,279,320929,5,2,0:0:0:0:
239,244,321002,1,2,0:0:0:0:
203,229,321074,1,2,0:0:0:0:
165,240,321146,1,2,0:0:0:0:
143,273,321218,5,8,0:0:0:0:
104,294,321290,1,0,0:0:0:0:
64,277,321362,1,0,0:0:0:0:
50,236,321434,1,0,0:0:0:0:
72,199,321507,5,4,0:0:0:0:
45,154,321579,1,0,0:0:0:0:
61,104,321651,1,8,0:0:0:0:
108,82,321723,1,0,0:0:0:0:
156,103,321795,5,2,0:0:0:0:
186,136,321867,1,0,0:0:0:0:
228,149,321939,1,8,0:0:0:0:
272,138,322011,1,0,0:0:0:0:
303,107,322084,5,2,0:0:0:0:
335,93,322156,1,0,0:0:0:0:
369,103,322228,1,8,0:0:0:0:
388,133,322300,1,0,0:0:0:0:
383,168,322372,5,2,0:0:0:0:
370,191,322444,1,0,0:0:0:0:
375,217,322516,1,8,0:0:0:0:
394,235,322588,1,0,0:0:0:0:
421,237,322660,5,4,0:0:0:0:
467,261,322733,1,0,0:0:0:0:
475,312,322805,1,8,0:0:0:0:
438,349,322877,1,0,0:0:0:0:
387,342,322949,5,2,0:0:0:0:
352,313,323021,1,0,0:0:0:0:
309,301,323093,1,8,0:0:0:0:
265,306,323165,1,0,0:0:0:0:
226,328,323237,5,2,0:0:0:0:
196,346,323310,1,0,0:0:0:0:
161,338,323382,1,8,0:0:0:0:
141,309,323454,1,0,0:0:0:0:
146,274,323526,5,2,0:0:0:0:
143,248,323598,1,0,0:0:0:0:
125,229,323670,1,8,0:0:0:0:
99,224,323742,1,0,0:0:0:0:
75,235,323814,5,4,0:0:0:0:
25,218,323886,1,0,0:0:0:0:
8,169,323958,1,8,0:0:0:0:
36,125,324030,1,0,0:0:0:0:
88,121,324102,5,2,0:0:0:0:
131,126,324175,1,0,0:0:0:0:
158,94,324247,1,8,0:0:0:0:
145,53,324319,1,0,0:0:0:0:
104,42,324391,5,2,0:0:0:0:
68,38,324463,1,0,0:0:0:0:
35,51,324535,1,8,0:0:0:0:
11,77,324607,1,0,0:0:0:0:
1,111,324680,5,2,0:0:0:0:
1,138,324752,1,0,0:0:0:0:
11,164,324824,1,8,0:0:0:0:
27,185,324896,1,0,0:0:0:0:
50,199,324968,5,4,0:0:0:0:
77,213,325040,1,0,0:0:0:0:
90,241,325112,1,8,0:0:0:0:
82,271,325184,1,0,0:0:0:0:
56,288,325256,5,2,0:0:0:0:
24,301,325329,1,0,0:0:0:0:
11,334,325401,1,8,0:0:0:0:
26,365,325473,1,0,0:0:0:0:
59,376,325545,5,8,0:0:0:0:
96,358,325617,1,0,0:0:0:0:
135,349,325689,1,2,0:0:0:0:
176,346,325761,1,2,0:0:0:0:
216,352,325833,5,8,0:0:0:0:
259,350,325906,1,0,0:0:0:0:
281,313,325978,1,2,0:0:0:0:
262,274,326050,1,2,0:0:0:0:
219,268,326122,5,4,0:0:0:0:
174,243,326194,1,0,0:0:0:0:
169,192,326266,1,8,0:0:0:0:
210,160,326338,1,0,0:0:0:0:
259,176,326410,5,2,0:0:0:0:
302,175,326483,1,0,0:0:0:0:
328,140,326555,1,8,0:0:0:0:
317,98,326627,1,0,0:0:0:0:
281,70,326699,5,2,0:0:0:0:
248,59,326771,1,0,0:0:0:0:
212,57,326843,1,8,0:0:0:0:
177,65,326915,1,0,0:0:0:0:
146,82,326988,5,2,0:0:0:0:
139,107,327060,1,0,0:0:0:0:
120,126,327132,1,8,0:0:0:0:
94,132,327204,1,0,0:0:0:0:
69,123,327276,5,4,0:0:0:0:
45,142,327348,1,0,0:0:0:0:
38,172,327420,1,8,0:0:0:0:
51,200,327492,1,0,0:0:0:0:
79,213,327564,5,2,0:0:0:0:
112,225,327636,1,0,0:0:0:0:
136,252,327708,1,8,0:0:0:0:
143,287,327780,1,0,0:0:0:0:
132,321,327852,5,2,0:0:0:0:
160,292,327925,1,0,0:0:0:0:
197,278,327997,1,8,0:0:0:0:
237,283,328069,1,0,0:0:0:0:
270,306,328141,5,2,0:0:0:0:
314,314,328213,1,0,0:0:0:0:
358,302,328285,1,8,0:0:0:0:
392,273,328357,1,0,0:0:0:0:
410,233,328430,5,4,0:0:0:0:
359,246,328502,1,0,0:0:0:0:
310,226,328574,1,8,0:0:0:0:
286,179,328646,1,0,0:0:0:0:
295,127,328718,5,2,0:0:0:0:
332,149,328790,1,0,0:0:0:0:
372,132,328862,1,8,0:0:0:0:
381,89,328934,1,0,0:0:0:0:
353,57,329007,5,2,0:0:0:0:
317,56,329079,1,0,0:0:0:0:
281,51,329151,1,8,0:0:0:0:
247,41,329223,1,0,0:0:0:0:
214,27,329295,5,2,0:0:0:0:
187,29,329367,1,0,0:0:0:0:
168,48,329439,1,8,0:0:0:0:
165,74,329511,1,0,0:0:0:0:
180,96,329583,5,4,0:0:0:0:
198,121,329656,1,0,0:0:0:0:
200,152,329728,1,8,0:0:0:0:
186,179,329800,1,0,0:0:0:0:
158,194,329872,5,2,0:0:0:0:
140,224,329944,1,0,0:0:0:0:
144,259,330016,1,8,0:0:0:0:
168,285,330088,1,0,0:0:0:0:
203,290,330160,5,2,0:0:0:0:
242,279,330233,1,0,0:0:0:0:
282,279,330305,1,8,0:0:0:0:
321,289,330377,1,0,0:0:0:0:
357,309,330449,5,2,0:0:0:0:
394,332,330521,1,0,0:0:0:0:
436,321,330593,1,8,0:0:0:0:
456,282,330665,1,0,0:0:0:0:
442,241,330738,5,4,0:0:0:0:
407,201,330810,1,0,0:0:0:0:
412,149,330882,1,8,0:0:0:0:
453,116,330954,1,0,0:0:0:0:
505,123,331026,5,2,0:0:0:0:
505,79,331098,1,0,0:0:0:0:
479,43,331170,1,8,0:0:0:0:
437,29,331242,1,0,0:0:0:0:
394,43,331314,5,2,0:0:0:0:
363,60,331386,1,0,0:0:0:0:
328,70,331458,1,8,0:0:0:0:
293,74,331530,1,0,0:0:0:0:
257,71,331603,5,2,0:0:0:0:
231,67,331675,1,0,0:0:0:0:
207,80,331747,1,8,0:0:0:0:
196,104,331819,1,0,0:0:0:0:
201,130,331891,5,4,0:0:0:0:
214,158,331963,1,0,0:0:0:0:
207,188,332035,1,8,0:0:0:0:
182,206,332107,1,0,0:0:0:0:
151,204,332179,5,2,0:0:0:0:
116,200,332252,1,0,0:0:0:0:
89,221,332324,1,8,0:0:0:0:
84,256,332396,1,0,0:0:0:0:
105,284,332468,5,2,0:0:0:0:
145,282,332540,1,0,0:0:0:0:
184,294,332612,1,8,0:0:0:0:
216,318,332684,1,0,0:0:0:0:
237,352,332756,5,2,0:0:0:0:
277,372,332829,1,0,0:0:0:0:
320,362,332901,1,8,0:0:0:0:
346,327,332973,1,0,0:0:0:0:
345,283,333045,5,4,0:0:0:0:
368,235,333117,1,0,0:0:0:0:
418,219,333189,1,8,0:0:0:0:
465,244,333261,1,0,0:0:0:0:
479,294,333334,5,2,0:0:0:0:
450,327,333406,1,0,0:0:0:0:
407,337,333478,1,8,0:0:0:0:
366,320,333550,1,0,0:0:0:0:
345,283,333622,5,2,0:0:0:0:
317,260,333694,1,0,0:0:0:0:
284,246,333766,1,8,0:0:0:0:
248,242,333838,1,0,0:0:0:0:
213,248,333911,5,2,0:0:0:0:
193,267,333983,1,0,0:0:0:0:
167,273,334055,1,8,0:0:0:0:
142,264,334127,1,0,0:0:0:0:
125,244,334199,5,4,0:0:0:0:
113,210,334271,1,0,0:0:0:0:
123,177,334343,1,8,0:0:0:0:
152,156,334415,1,0,0:0:0:0:
188,158,334487,5,2,0:0:0:0:
229,172,334560,1,0,0:0:0:0:
268,152,334632,1,8,0:0:0:0:
279,110,334704,1,0,0:0:0:0:
260,68,334776,5,2,0:0:0:0:
289,22,334848,1,8,0:0:0:0:
342,27,334920,1,8,0:0:0:0:
363,76,334992,1,8,0:0:0:0:
401,109,335064,5,2,0:0:0:0:
451,144,335136,1,0,0:0:0:0:
452,204,335208,1,8,0:0:0:0:
419,251,335280,1,0,0:0:0:0:
358,253,335352,5,4,0:0:0:0:
316,206,335425,1,0,0:0:0:0:
258,181,335497,1,8,0:0:0:0:
196,183,335569,1,0,0:0:0:0:
140,212,335641,5,2,0:0:0:0:
79,218,335713,1,0,0:0:0:0:
32,179,335785,1,8,0:0:0:0:
27,118,335857,1,0,0:0:0:0:
67,72,335930,5,2,0:0:0:0:
128,62,336002,1,0,0:0:0:0:
178,98,336074,1,8,0:0:0:0:
188,158,336146,1,0,0:0:0:0:
151,210,336218,5,2,0:0:0:0:
118,261,336290,1,0,0:0:0:0:
136,319,336362,1,8,0:0:0:0:
192,342,336434,1,0,0:0:0:0:
246,313,336506,5,4,0:0:0:0:
281,273,336579,1,0,0:0:0:0:
300,222,336651,1,8,0:0:0:0:
299,169,336723,1,0,0:0:0:0:
278,119,336795,5,2,0:0:0:0:
286,65,336867,1,0,0:0:0:0:
329,33,336939,2,0,B|381:35|381:35|398:26|398:26|419:35|419:35|499:35,1,135,10|0,0:0|0:0,0:0:0:0:
473,134,337228,2,0,L|400:136,1,45,10|0,0:0|0:0,0:0:0:0:
469,231,337372,5,2,0:0:0:0:
484,281,337444,1,0,0:0:0:0:
460,328,337516,1,8,0:0:0:0:
410,345,337588,1,0,0:0:0:0:
363,322,337661,5,4,0:0:0:0:
323,343,337733,1,0,0:0:0:0:
279,354,337805,1,8,0:0:0:0:
235,353,337877,1,0,0:0:0:0:
190,346,337949,5,2,0:0:0:0:
149,333,338021,1,0,0:0:0:0:
134,292,338093,1,8,0:0:0:0:
159,255,338165,1,0,0:0:0:0:
202,252,338237,5,2,0:0:0:0:
241,233,338310,1,0,0:0:0:0:
254,192,338382,1,8,0:0:0:0:
231,154,338454,1,0,0:0:0:0:
188,146,338526,5,2,0:0:0:0:
153,120,338598,1,0,0:0:0:0:
149,77,338670,1,8,0:0:0:0:
180,46,338742,1,0,0:0:0:0:
223,47,338814,5,4,0:0:0:0:
252,68,338887,1,0,0:0:0:0:
255,103,338959,1,8,0:0:0:0:
242,136,339031,1,0,0:0:0:0:
240,171,339103,5,2,0:0:0:0:
258,201,339175,1,0,0:0:0:0:
287,222,339247,2,0,B|311:218|311:218|340:222,1,45,8|0,0:0|0:0,0:0:0:0:
480,264,339391,5,2,0:0:0:0:
472,265,339464,1,8,0:0:0:0:
463,268,339536,1,8,0:0:0:0:
454,269,339608,1,8,0:0:0:0:
411,306,339680,5,2,0:0:0:0:
402,307,339752,1,8,0:0:0:0:
393,306,339824,1,8,0:0:0:0:
384,306,339896,1,8,0:0:0:0:
339,267,339968,6,0,B|315:260|316:228,1,45,6|0,0:0|0:0,0:0:0:0:
169,247,340113,1,8,0:0:0:0:
175,253,340185,2,0,B|199:260|198:292,1,45,2|0,0:0|0:0,0:0:0:0:
229,107,340329,1,0,0:0:0:0:
233,98,340401,2,0,B|256:99|256:99|305:84,1,45,10|0,0:0|0:0,0:0:0:0:
409,143,340545,6,0,P|417:122|416:78,1,45,2|0,0:0|0:0,0:0:0:0:
338,268,340689,1,8,0:0:0:0:
333,276,340762,2,0,P|352:287|395:294,1,45,2|0,0:0|0:0,0:0:0:0:
189,207,340906,1,0,0:0:0:0:
179,203,340978,2,0,P|170:224|172:268,1,45,10|0,0:0|0:0,0:0:0:0:
116,107,341122,6,0,B|116:79|116:79|128:51,5,45,4|0|8|0|0|0,0:0|0:0|0:0|0:0|0:0|0:0,0:0:0:0:
233,98,341555,6,0,B|233:126|233:126|221:154,5,45,12|0|0|0|8|0,0:0|0:0|0:0|0:0|0:0|0:0,0:0:0:0:
342,109,341988,6,0,L|334:71,6,22.5,4|0|0|0|8|0|0,0:0|0:0|0:0|0:0|0:0|0:0|0:0,0:0:0:0:
407,143,342276,5,4,0:0:0:0:
317,299,342420,1,12,0:0:0:0:
216,158,342564,5,4,0:0:0:0:
306,314,342708,1,12,0:0:0:0:
367,48,342853,5,4,0:0:0:0:
233,278,342997,1,12,0:0:0:0:
233,122,343141,5,4,0:0:0:0:
370,354,343285,1,12,0:0:0:0:
374,32,343430,5,4,0:0:0:0:
222,292,343574,1,12,0:0:0:0:
255,26,343718,5,4,0:0:0:0:
442,313,343863,1,12,0:0:0:0:
427,16,344007,6,0,B|391:39|391:39|374:31|374:31|362:58|362:58|336:63|315:90,1,135,6|0,0:0|2:0,0:0:0:0:
377,129,344295,6,0,L|396:167,6,22.5,14|0|0|0|0|0|0,0:0|0:0|0:0|0:0|0:0|0:0|0:0,0:0:0:0:
326,233,344584,5,4,0:0:0:0:
270,205,344656,1,0,0:0:0:0:
212,225,344728,1,8,0:0:0:0:
160,255,344800,1,0,0:0:0:0:
105,230,344872,5,2,0:0:0:0:
93,171,344944,1,0,0:0:0:0:
130,120,345017,1,8,0:0:0:0:
104,62,345089,1,0,0:0:0:0:
42,55,345161,5,4,0:0:0:0:
4,106,345233,1,0,0:0:0:0:
30,164,345305,1,8,0:0:0:0:
93,171,345377,1,0,0:0:0:0:
153,162,345449,5,2,0:0:0:0:
191,113,345521,1,0,0:0:0:0:
251,112,345593,1,8,0:0:0:0:
287,161,345665,1,0,0:0:0:0:
272,223,345738,5,4,0:0:0:0:
293,271,345810,1,0,0:0:0:0:
337,302,345882,1,8,0:0:0:0:
390,306,345954,1,0,0:0:0:0:
438,283,346026,5,2,0:0:0:0:
468,239,346098,1,0,0:0:0:0:
471,186,346170,1,8,0:0:0:0:
446,138,346242,1,0,0:0:0:0:
401,110,346314,5,4,0:0:0:0:
348,108,346387,1,0,0:0:0:0:
301,134,346459,1,8,0:0:0:0:
251,153,346531,1,0,0:0:0:0:
197,150,346603,5,2,0:0:0:0:
149,127,346675,1,0,0:0:0:0:
96,126,346747,1,8,0:0:0:0:
58,162,346819,1,0,0:0:0:0:
35,230,346891,6,0,B|34:284|34:284|47:321|47:321|47:371,2,135,6|0|8,0:0|0:0|0:0,0:0:0:0:
256,284,347468,6,0,B|254:243|254:243|243:215|243:215|251:189|251:189|250:148,1,135,6|0,0:0|0:0,0:0:0:0:
348,108,347757,6,0,L|349:158,3,45
248,57,348045,5,14,0:0:0:0:
56,287,348238,1,4,0:0:0:0:
350,338,348430,1,4,0:0:0:0:
250,39,348622,5,14,0:0:0:0:
39,291,348815,1,4,0:0:0:0:
361,347,349007,1,12,0:0:0:0:
479,59,349199,6,0,B|420:72|420:72|355:78,1,112.5,6|0,0:2|0:0,0:0:0:0:
285,93,349623,6,0,B|302:156|329:125|348:198,1,112.5,2|0,0:0|0:0,0:0:0:0:
267,203,350048,6,0,P|281:236|318:261,1,67.5,2|0,0:0|0:0,0:0:0:0:
213,269,350331,6,0,B|258:332|258:332|222:326,1,112.5,2|0,0:0|0:0,0:0:0:0:
133,343,350755,6,0,B|108:309|108:309|98:283,1,67.5,2|0,0:0|0:0,0:0:0:0:
61,185,351038,5,0,0:0:0:0:
63,181,351109,1,0,0:0:0:0:
63,176,351180,1,8,0:0:0:0:
104,192,351250,1,8,0:0:0:0:
147,183,351321,1,8,0:0:0:0:
177,150,351392,1,8,0:0:0:0:
183,107,351463,6,0,B|228:108|228:108|295:100,1,90,6|8,0:0|0:0,0:0:0:0:
402,103,351675,1,0,0:0:0:0:
395,129,351746,1,2,0:0:0:0:
393,155,351816,1,0,0:0:0:0:
397,181,351887,2,0,B|413:221|413:221|422:227|422:242|422:242|434:273,1,90,10|2,0:0|0:0,0:0:0:0:
373,336,352099,1,0,0:0:0:0:
352,318,352170,2,0,L|335:276,1,45,8|0,0:0|0:0,0:0:0:0:
142,248,352312,1,2,0:0:0:0:
181,227,352382,1,0,0:0:0:0:
205,190,352453,1,8,0:0:0:0:
205,145,352524,1,0,0:0:0:0:
183,107,352595,6,0,B|244:96|244:96|271:103,1,90,2|8,0:0|0:0,0:0:0:0:
345,192,352807,1,0,0:0:0:0:
370,182,352878,1,2,0:0:0:0:
397,181,352949,1,0,0:0:0:0:
421,191,353019,2,0,P|454:228|447:281,1,90,10|2,0:0|0:0,0:0:0:0:
352,318,353232,1,0,0:0:0:0:
326,310,353302,1,8,0:0:0:0:
298,310,353373,1,0,0:0:0:0:
273,320,353444,2,0,B|255:303|255:303|249:272,1,45
120,211,353585,2,0,B|138:228|138:228|144:259,1,45,10|0,0:0|0:0,0:0:0:0:
153,33,353727,6,0,P|202:30|252:62,1,90,2|8,0:0|0:0,0:0:0:0:
339,49,353939,1,0,0:0:0:0:
345,75,354010,2,0,L|383:104,1,45,2|0,0:0|0:0,0:0:0:0:
421,191,354151,2,0,L|396:290,1,90,10|2,0:0|0:0,0:0:0:0:
298,309,354364,1,0,0:0:0:0:
282,287,354434,1,8,0:0:0:0:
273,261,354505,1,0,0:0:0:0:
275,234,354576,1,2,0:0:0:0:
251,196,354646,1,0,0:0:0:0:
211,175,354717,1,8,0:0:0:0:
167,177,354788,1,0,0:0:0:0:
129,201,354859,6,0,B|114:172|114:172|97:159|97:159|71:110,1,90,2|8,0:0|0:0,0:0:0:0:
153,33,355071,1,0,0:0:0:0:
172,51,355142,1,2,0:0:0:0:
197,60,355213,1,0,0:0:0:0:
223,62,355283,2,0,P|271:72|317:138,1,90,10|2,0:0|0:0,0:0:0:0:
394,92,355496,6,0,P|389:124|378:146,2,45,8|0|8,0:0|0:0|0:0,0:0:0:0:
464,206,355708,2,0,L|475:279,1,45,2|0,0:0|0:0,0:0:0:0:
359,349,355849,2,0,L|353:305,1,45,10|0,0:0|0:0,0:0:0:0:
194,257,355991,6,0,L|205:330,1,45,6|0,0:0|0:0,0:0:0:0:
78,282,356132,1,8,0:0:0:0:
52,256,356203,1,0,0:0:0:0:
38,223,356274,1,2,0:0:0:0:
37,187,356344,1,0,0:0:0:0:
49,154,356415,1,8,0:0:0:0:
72,127,356485,1,0,0:0:0:0:
106,113,356557,1,2,0:0:0:0:
138,127,356627,1,0,0:0:0:0:
174,134,356698,1,8,0:0:0:0:
209,134,356769,1,0,0:0:0:0:
244,125,356840,1,2,0:0:0:0:
274,105,356910,1,0,0:0:0:0:
293,74,356981,1,8,0:0:0:0:
292,37,357052,1,0,0:0:0:0:
265,12,357123,6,0,B|245:22|245:22|203:30,1,45,6|0,0:0|0:0,0:0:0:0:
209,134,357265,1,8,0:0:0:0:
222,167,357335,1,0,0:0:0:0:
212,201,357406,1,2,0:0:0:0:
185,224,357477,1,0,0:0:0:0:
150,227,357548,1,8,0:0:0:0:
119,209,357618,1,0,0:0:0:0:
86,196,357688,1,2,0:0:0:0:
51,201,357759,1,0,0:0:0:0:
23,223,357830,1,8,0:0:0:0:
10,256,357901,1,0,0:0:0:0:
15,291,357971,1,2,0:0:0:0:
37,319,358042,1,0,0:0:0:0:
71,332,358113,1,8,0:0:0:0:
106,327,358184,1,0,0:0:0:0:
139,313,358255,6,0,B|157:301|157:301|192:293,1,45,6|0,0:0|0:0,0:0:0:0:
290,333,358397,1,8,0:0:0:0:
286,295,358467,1,0,0:0:0:0:
297,263,358538,1,2,0:0:0:0:
324,238,358609,1,0,0:0:0:0:
358,229,358680,2,0,B|363:208|363:208|378:188,1,45,14|0,0:0|0:0,0:0:0:0:
327,120,358821,1,2,0:0:0:0:
296,137,358891,1,0,0:0:0:0:
260,144,358962,1,8,0:0:0:0:
225,138,359033,1,0,0:0:0:0:
194,120,359104,2,0,L|141:140,1,45,6|0,0:0|0:0,0:0:0:0:
88,259,359246,2,0,L|130:243,1,45,14|0,0:0|0:0,0:0:0:0:
286,295,359387,6,0,L|232:314,1,45,6|0,0:0|0:0,0:0:0:0:
376,308,359529,1,8,0:0:0:0:
376,272,359599,1,0,0:0:0:0:
393,241,359670,1,2,0:0:0:0:
424,223,359741,1,0,0:0:0:0:
459,222,359812,2,0,L|452:159,1,45,14|0,0:0|0:0,0:0:0:0:
447,98,359953,1,2,0:0:0:0:
416,79,360023,1,0,0:0:0:0:
381,76,360094,1,8,0:0:0:0:
348,91,360165,1,0,0:0:0:0:
327,120,360236,2,0,L|264:141,1,45,6|0,0:0|0:0,0:0:0:0:
243,309,360378,2,0,L|286:295,1,45,6|0,0:0|0:0,0:0:0:0:
123,149,360519,6,0,L|60:170,1,45,6|0,0:0|0:0,0:0:0:0:
32,304,360661,1,8,0:0:0:0:
56,278,360731,1,0,0:0:0:0:
92,273,360802,1,2,0:0:0:0:
124,291,360873,1,0,0:0:0:0:
141,323,360943,1,8,0:0:0:0:
170,343,361015,1,0,0:0:0:0:
205,347,361085,1,2,0:0:0:0:
238,331,361156,1,0,0:0:0:0:
257,302,361227,1,8,0:0:0:0:
267,267,361298,1,0,0:0:0:0:
302,270,361368,1,2,0:0:0:0:
337,261,361439,1,0,0:0:0:0:
365,239,361510,1,8,0:0:0:0:
383,209,361581,1,0,0:0:0:0:
389,173,361651,6,0,B|410:170|410:170|458:175,1,45,6|0,0:0|0:0,0:0:0:0:
381,40,361793,1,8,0:0:0:0:
378,75,361863,1,0,0:0:0:0:
357,104,361934,1,2,0:0:0:0:
325,120,362005,1,0,0:0:0:0:
290,117,362076,1,8,0:0:0:0:
260,96,362146,1,0,0:0:0:0:
235,71,362217,1,2,0:0:0:0:
200,65,362288,1,0,0:0:0:0:
167,79,362359,1,8,0:0:0:0:
149,109,362430,1,0,0:0:0:0:
150,145,362500,1,2,0:0:0:0:
133,176,362570,1,0,0:0:0:0:
103,197,362642,1,8,0:0:0:0:
66,194,362713,1,0,0:0:0:0:
34,177,362783,6,0,B|33:205|33:205|19:241,1,45,6|0,0:0|0:0,0:0:0:0:
164,315,362925,1,2,0:0:0:0:
219,334,362996,1,2,0:0:0:0:
276,330,363066,1,8,0:0:0:0:
472,217,363208,1,2,0:0:0:0:
414,227,363279,1,2,0:0:0:0:
356,222,363349,1,8,0:0:0:0:
153,180,363491,1,2,0:0:0:0:
210,164,363562,1,2,0:0:0:0:
252,124,363632,1,8,0:0:0:0:
416,35,363774,1,2,0:0:0:0:
460,73,363845,1,2,0:0:0:0:
469,130,363915,5,8,0:0:0:0:
461,333,364057,1,2,0:0:0:0:
406,311,364128,1,2,0:0:0:0:
348,301,364199,1,8,0:0:0:0:
105,285,364340,1,2,0:0:0:0:
117,227,364411,1,2,0:0:0:0:
153,180,364482,1,8,0:0:0:0:
297,50,364623,1,0,0:0:0:0:
328,99,364694,1,0,0:0:0:0:
328,157,364765,2,0,L|317:233,1,45,14|8,0:0|0:0,0:0:0:0:
181,343,364906,2,0,L|187:298,1,45,14|8,0:0|0:0,0:0:0:0:
89,66,365048,6,0,L|78:142,1,45,6|0,0:0|0:0,0:0:0:0:
153,180,365189,1,0,0:0:0:0:
156,183,365260,1,0,0:0:0:0:
159,186,365331,1,2,0:0:0:0:
194,181,365401,1,8,0:0:0:0:
228,193,365472,1,2,0:0:0:0:
252,218,365543,1,8,0:0:0:0:
263,252,365614,1,2,0:0:0:0:
257,288,365684,1,8,0:0:0:0:
242,319,365754,1,2,0:0:0:0:
254,352,365825,1,8,0:0:0:0:
286,366,365896,1,2,0:0:0:0:
315,345,365967,1,8,0:0:0:0:
349,335,366038,1,2,0:0:0:0:
385,334,366109,1,8,0:0:0:0:
420,342,366180,6,0,L|460:319,1,45,6|8,0:0|0:0,0:0:0:0:
431,213,366321,1,2,0:0:0:0:
398,227,366391,1,8,0:0:0:0:
364,219,366462,1,2,0:0:0:0:
341,192,366533,1,8,0:0:0:0:
338,157,366604,1,2,0:0:0:0:
357,127,366675,1,8,0:0:0:0:
384,103,366745,1,2,0:0:0:0:
390,69,366816,1,8,0:0:0:0:
373,38,366887,1,2,0:0:0:0:
341,24,366958,1,8,0:0:0:0:
307,33,367028,1,2,0:0:0:0:
286,61,367099,1,8,0:0:0:0:
259,84,367169,1,2,0:0:0:0:
224,94,367240,1,8,0:0:0:0:
189,87,367312,6,0,L|171:46,1,45,6|8,0:0|0:0,0:0:0:0:
69,127,367453,1,2,0:0:0:0:
50,156,367523,1,8,0:0:0:0:
56,192,367594,1,2,0:0:0:0:
83,214,367665,1,8,0:0:0:0:
119,212,367736,2,0,B|135:224|135:224|177:246,1,45,6|8,0:0|0:0,0:0:0:0:
255,194,367878,1,2,0:0:0:0:
265,228,367948,1,8,0:0:0:0:
264,263,368019,1,2,0:0:0:0:
250,296,368090,1,8,0:0:0:0:
226,323,368161,2,0,L|169:337,1,45,6|8,0:0|0:0,0:0:0:0:
366,361,368302,2,0,L|409:351,1,45,6|8,0:0|0:0,0:0:0:0:
455,212,368444,6,0,L|397:225,1,45,6|8,0:0|0:0,0:0:0:0:
366,100,368585,1,2,0:0:0:0:
330,108,368656,1,8,0:0:0:0:
294,99,368727,6,0,L|265:76,2,22.5
189,87,368868,2,0,L|144:51,1,45,8|0,0:0|0:0,0:0:0:0:
105,154,369010,1,8,0:0:0:0:
76,174,369080,1,0,0:0:0:0:
70,209,369151,1,8,0:0:0:0:
91,237,369222,1,0,0:0:0:0:
126,242,369293,2,0,L|139:306,1,45,6|0,0:0|0:0,0:0:0:0:
265,228,369434,2,0,L|256:183,1,45,6|0,0:0|0:0,0:0:0:0:
357,316,369576,6,0,L|369:379,1,45,6|0,0:0|0:0,0:0:0:0:
476,183,369717,1,0,0:0:0:0:
473,179,369788,1,0,0:0:0:0:
470,175,369859,1,2,0:0:0:0:
434,179,369929,1,8,0:0:0:0:
400,164,370000,1,2,0:0:0:0:
386,130,370071,1,8,0:0:0:0:
389,94,370141,1,2,0:0:0:0:
369,63,370212,1,8,0:0:0:0:
336,47,370283,1,2,0:0:0:0:
300,53,370354,1,8,0:0:0:0:
277,81,370425,1,2,0:0:0:0:
244,96,370495,1,8,0:0:0:0:
207,96,370566,1,2,0:0:0:0:
173,83,370637,1,8,0:0:0:0:
149,55,370708,6,0,B|130:72|130:72|81:87,1,45,6|8,0:0|0:0,0:0:0:0:
45,145,370849,1,2,0:0:0:0:
10,171,370919,1,8,0:0:0:0:
2,214,370990,1,2,0:0:0:0:
26,251,371061,1,8,0:0:0:0:
69,262,371132,1,2,0:0:0:0:
115,235,371202,1,8,0:0:0:0:
167,242,371273,1,2,0:0:0:0:
205,279,371345,1,8,0:0:0:0:
216,331,371415,1,2,0:0:0:0:
267,346,371486,1,8,0:0:0:0:
316,325,371557,1,2,0:0:0:0:
310,262,371627,1,8,0:0:0:0:
356,219,371698,1,2,0:0:0:0:
417,233,371769,1,8,0:0:0:0:
459,279,371840,6,0,L|489:222,1,45,6|0,0:0|0:0,0:0:0:0:
359,35,371982,1,2,0:0:0:0:
361,38,372052,1,2,0:0:0:0:
362,42,372123,6,0,L|413:62,1,45,10|8,0:0|0:0,0:0:0:0:
150,42,372265,2,0,L|99:62,1,45,10|8,0:0|0:0,0:0:0:0:
386,137,372406,6,0,L|437:157,1,45,10|0,0:0|0:0,0:0:0:0:
139,132,372548,2,0,L|88:152,1,45,2|0,0:0|0:0,0:0:0:0:
417,233,372689,6,0,L|468:253,1,45,10|0,0:0|0:0,0:0:0:0:
115,235,372831,2,0,L|64:255,1,45,10|0,0:0|0:0,0:0:0:0:
418,323,372972,6,0,L|501:355,2,60,8|0|0,0:0|0:0|0:0,0:0:0:0:
92,323,373255,6,0,L|9:355,2,60,8|0|0,0:0|0:0|0:0,0:0:0:0:
195,355,373538,5,8,0:0:0:0:
218,300,373632,1,0,0:0:0:0:
265,263,373727,1,0,0:0:0:0:
348,231,373821,5,0,0:0:0:0:
395,194,373916,1,0,0:0:0:0:
418,139,374010,1,0,0:0:0:0:
432,57,374104,6,0,L|371:40,1,60,4|8,0:0|0:0,0:0:0:0:
271,90,374302,2,0,L|328:106,1,60,8|8,0:0|0:0,0:0:0:0:
17,211,374500,6,0,L|78:228,1,60,4|8,0:0|0:0,0:0:0:0:
178,178,374698,2,0,L|120:161,1,60,8|8,0:0|0:0,0:0:0:0:
218,300,374896,5,4,0:0:0:0:
290,328,374995,1,8,0:0:0:0:
364,305,375094,1,8,0:0:0:0:
422,252,375193,1,8,0:0:0:0:
449,183,375292,6,0,L|458:126,2,45,12|0|0,0:0|0:0|0:0,0:0:0:0:
353,98,375490,5,8,0:0:0:0:
330,104,375556,1,8,0:0:0:0:
308,110,375622,1,8,0:0:0:0:
271,90,375688,6,0,L|256:32,2,60,12|8|0,0:0|0:0|0:0,0:0:0:0:
178,178,375985,6,0,L|139:131,2,60,8|8|8,0:0|0:0|0:0,0:0:0:0:
96,281,376282,6,0,L|41:255,2,60,8|8|0,0:0|0:0|0:0,0:0:0:0:
218,300,376576,5,8,0:0:0:0:
293,250,376672,1,8,0:0:0:0:
364,305,376768,1,8,0:0:0:0:
449,183,376864,5,12,0:0:0:0:
256,192,376960,12,0,379941,2:0:0:0:
256,192,380013,12,0,382249,2:0:0:0:
256,192,382321,12,0,383258,2:0:0:0:
256,192,383330,12,0,384412,2:0:0:0:
256,192,384484,12,0,386864,2:0:0:0:
256,192,386936,12,0,389172,2:0:0:0:
256,192,389244,12,0,390470,2:0:0:0:
256,192,390542,12,0,393787,2:0:0:0:
256,192,393859,12,0,397249,2:0:0:0:
256,192,397321,12,0,399556,2:0:0:0:
256,192,399629,12,2,400710,2:0:0:0:
