osu file format v14

[General]
AudioFilename: 01. Cosmic Cortex.mp3
AudioLeadIn: 0
PreviewTime: 210408
Countdown: 0
SampleSet: Normal
StackLeniency: 0.7
Mode: 0
LetterboxInBreaks: 0
WidescreenStoryboard: 0

[Editor]
Bookmarks: 229820,263938,273349,305114,314526,319232,349820,373349,403938,422761,427467,546533
DistanceSpacing: 1.3
BeatDivisor: 4
GridSize: 4
TimelineZoom: 2.5

[Metadata]
Title:Cosmic Cortex
TitleUnicode:Cosmic Cortex
Artist:Vektor
ArtistUnicode:Vektor
Creator:Mazzerin
Version:Ascendancy
Source:
Tags:Outer Isolation sci-fi space blackened progressive technical thrash metal marathon deathstream rsi
BeatmapID:787307
BeatmapSetID:357996

[Difficulty]
HPDrainRate:6.2
CircleSize:4.7
OverallDifficulty:9
ApproachRate:9.7
SliderMultiplier:1.9
SliderTickRate:2

[Events]
//Background and Video events
0,0,"cortex.jpg",0,0
//Break Periods
2,21429,27147
//Storyboard Layer 0 (Background)
//Storyboard Layer 1 (Fail)
//Storyboard Layer 2 (Pass)
//Storyboard Layer 3 (Foreground)
//Storyboard Sound Samples

[TimingPoints]
3380,500,4,2,6,10,1,0
3630,535.714285714286,4,2,6,10,1,0
4165,521.739130434783,4,2,6,10,1,0
4425,545.454545454546,4,2,6,10,1,0
4970,526.315789473684,4,2,6,10,1,0
6022,571.428571428571,4,2,6,10,1,0
6593,461.538461538462,4,2,6,10,1,0
6900,461.538461538462,4,2,6,10,1,0
7707,461.538461538462,4,2,6,10,1,0
8399,530.973451327434,4,2,6,10,1,0
9726,491.803278688525,4,2,6,10,1,0
9971,550.45871559633,4,2,6,10,1,0
10796,530.973451327434,4,2,6,10,1,0
12123,517.241379310345,4,2,6,10,1,0
12381,535.714285714286,4,2,6,10,1,0
12916,512.820512820513,4,2,6,10,1,0
13172,545.454545454546,4,2,6,10,1,0
13717,483.870967741935,4,2,6,10,1,0
13958,540.540540540541,4,2,6,10,1,0
14498,521.739130434783,4,2,6,10,1,0
14758,560.747663551402,4,2,6,10,1,0
15318,480,4,2,6,10,1,0
15558,566.037735849057,4,2,6,10,1,0
16124,508.474576271186,4,2,6,10,1,0
16378,697.674418604651,4,2,6,10,1,0
17075,594.059405940594,4,2,6,10,1,0
17372,722.89156626506,4,2,6,10,1,0
18094,659.340659340659,4,2,6,10,1,0
18423,759.493670886076,4,2,6,10,1,0
19182,895.522388059701,4,2,6,10,1,0
19629,975.609756097561,4,2,6,10,1,0
20604,1250,4,2,6,10,1,0
27642,483.870967741935,4,2,6,40,1,0
28609,-133.333333333333,4,2,6,40,0,0
29577,-100,4,2,6,40,0,0
30545,-133.333333333333,4,2,6,40,0,0
31512,-100,4,2,6,40,0,0
32480,-133.333333333333,4,2,6,40,0,0
33448,-100,4,2,6,40,0,0
34416,-133.333333333333,4,2,6,40,0,0
35383,-100,4,2,5,40,0,0
105060,483.870967741935,3,1,5,60,1,0
128287,428.571428571429,4,1,5,60,1,0
128394,-100,4,1,6,60,0,0
135144,-100,4,1,6,60,0,1
182929,-100,4,1,5,60,0,0
208644,294.117647058824,4,1,6,60,1,0
208644,-133.333333333333,4,1,6,60,0,0
209820,-100,4,1,6,60,0,0
210996,-80,4,1,5,60,0,1
211144,-100,4,1,6,60,0,0
212320,-80,4,1,6,60,0,0
212761,-100,4,1,6,60,0,0
214673,-80,4,1,6,60,0,0
215114,-100,4,1,6,60,0,0
215408,-200,4,1,6,60,0,0
215482,-200,4,1,6,20,0,0
215702,-80,4,1,5,60,0,0
215849,-100,4,1,6,60,0,0
217026,-80,4,1,6,60,0,0
217467,-100,4,1,6,60,0,0
219379,-80,4,1,6,60,0,0
219820,-100,4,1,6,60,0,0
220408,-80,4,1,5,60,0,0
220555,-100,4,1,6,60,0,0
221732,-80,4,1,6,60,0,0
222173,-100,4,1,6,60,0,0
224085,-80,4,1,6,60,0,0
224526,-100,4,1,6,60,0,0
224820,-200,4,1,6,60,0,0
224894,-200,4,1,6,20,0,0
225114,-80,4,1,5,60,0,0
225261,-100,4,1,6,60,0,0
226438,-80,4,1,6,60,0,0
226879,-100,4,1,6,60,0,0
228791,-80,4,1,6,60,0,0
229232,-100,4,1,6,60,0,0
229526,-200,4,1,6,60,0,0
229599,-200,4,1,6,20,0,0
229820,-100,4,1,7,60,0,1
231585,-100,4,1,6,60,0,1
231879,-200,4,1,6,60,0,0
231952,-100,4,1,6,20,0,0
232173,-100,4,1,6,60,0,0
241144,-100,4,1,5,60,0,0
242026,-100,4,1,6,60,0,0
249820,-100,4,1,7,60,0,1
253349,-100,4,1,7,80,0,1
254526,-100,4,1,6,60,0,0
273055,-200,4,1,6,60,0,0
273129,-100,4,1,6,20,0,0
273349,-100,4,1,7,60,0,1
286585,-100,4,1,7,80,0,1
287467,-100,4,1,6,60,0,0
296438,-100,4,1,5,60,0,0
297026,-100,4,1,6,60,0,0
305114,-100,4,1,6,60,0,1
306364,-100,4,1,8,50,0,1
306585,-100,4,1,6,60,0,1
306658,-100,4,1,8,50,0,1
306805,-100,4,1,6,20,0,1
306879,-100,4,1,6,60,0,1
311144,-100,4,1,8,50,0,1
311291,-100,4,1,6,60,0,1
311438,-100,4,1,8,50,0,1
311511,-100,4,1,6,20,0,1
311585,-100,4,1,6,60,0,1
314526,-100,4,1,7,60,0,0
318055,-100,4,1,7,80,0,0
319232,-80,4,1,5,60,0,0
319379,-100,4,1,6,60,0,0
320555,-80,4,1,6,60,0,0
320996,-100,4,1,6,60,0,0
322908,-80,4,1,6,60,0,0
323349,-100,4,1,6,60,0,0
323644,-200,4,1,6,60,0,0
323717,-100,4,1,6,20,0,0
323938,-80,4,1,5,60,0,0
324085,-100,4,1,6,60,0,0
325261,-80,4,1,6,60,0,0
325702,-100,4,1,6,60,0,0
327614,-80,4,1,6,60,0,0
328055,-100,4,1,6,60,0,0
328349,-200,4,1,6,60,0,0
328423,-100,4,1,6,20,0,0
328644,-100,4,2,6,60,0,0
329526,-100,4,1,6,60,0,0
330996,-100,4,1,5,60,0,0
331144,-100,4,1,6,60,0,0
340408,-100,4,1,5,60,0,0
340482,-100,4,1,6,60,0,0
349820,-100,4,1,7,60,0,1
362761,-100,4,1,7,80,0,1
363938,-100,4,1,6,60,0,0
373349,-100,4,1,7,60,0,1
375114,-100,4,1,6,60,0,1
375408,-200,4,1,6,60,0,1
375482,-100,4,1,6,20,0,1
375702,-80,4,1,6,60,0,0
375776,-80,4,1,6,20,0,0
375996,-100,4,1,6,60,0,0
378055,-80,4,1,6,60,0,0
378129,-80,4,1,6,20,0,0
378349,-100,4,1,6,60,0,0
380114,-200,4,1,6,60,0,0
380188,-100,4,1,6,20,0,0
380408,-80,4,1,6,60,0,0
380482,-100,4,1,6,20,0,0
380702,-100,4,1,6,60,0,0
384820,-200,4,1,6,60,0,0
384894,-100,4,1,6,20,0,0
385114,-80,4,1,6,60,0,0
385188,-100,4,1,6,20,0,0
385408,-100,4,1,6,60,0,0
389526,-200,4,1,6,60,0,0
389599,-100,4,1,6,20,0,0
389820,-80,4,1,6,60,0,0
389894,-100,4,1,6,20,0,0
390114,-100,4,1,6,60,0,0
392173,-80,4,1,6,60,0,0
392246,-100,4,1,6,20,0,0
392467,-100,4,1,6,60,0,0
394232,-200,4,1,6,60,0,0
394305,-100,4,1,6,20,0,0
394526,-80,4,1,6,60,0,0
394599,-100,4,1,6,20,0,0
394820,-100,4,1,6,60,0,0
398938,-200,4,1,6,60,0,0
399011,-100,4,1,6,20,0,0
399232,-80,4,1,6,60,0,0
399305,-100,4,1,6,20,0,0
399526,-100,4,1,6,60,0,0
403938,-200,4,1,5,60,0,0
404011,-200,4,1,6,20,0,0
404232,-100,4,1,7,60,0,1
406291,-200,4,1,5,60,0,0
406364,-200,4,1,5,20,0,0
406585,-100,4,1,7,60,0,1
408644,-200,4,1,5,60,0,0
408717,-200,4,1,7,20,0,0
408938,-100,4,1,7,60,0,1
410996,-200,4,1,5,60,0,0
411070,-100,4,1,7,20,0,0
411291,-100,4,1,7,60,0,0
412173,-100,4,1,5,60,0,0
413349,-200,4,1,5,60,0,0
413423,-100,4,1,7,20,0,0
413644,-100,4,1,7,60,0,1
415702,-200,4,1,5,60,0,0
415776,-100,4,1,7,20,0,0
415996,-100,4,1,7,60,0,1
418055,-200,4,1,5,60,0,0
418129,-200,4,1,5,20,0,0
418349,-100,4,1,7,60,0,1
420408,-200,4,1,5,60,0,0
420482,-100,4,1,7,20,0,0
420702,-100,4,1,7,60,0,0
421585,-100,4,1,5,60,0,0
422761,-200,4,1,5,60,0,0
422835,-100,4,1,7,20,0,0
423055,-80,4,1,7,60,0,1
425114,-200,4,1,5,60,0,0
425188,-80,4,1,7,20,0,0
425408,-80,4,1,7,60,0,1
427467,-200,4,1,5,60,0,0
427541,-80,4,1,7,20,0,0
427761,-100,4,1,7,60,0,1
429820,-200,4,1,5,60,0,0
429894,-100,4,1,7,20,0,0
430114,-100,4,1,7,60,0,0
430996,-100,4,1,5,60,0,0
432541,-100,4,1,5,20,0,0
432761,-100,4,1,5,60,0,0
432835,-100,4,1,5,20,0,0
433055,-100,4,1,5,60,0,0
434894,-100,4,1,5,20,0,0
435114,-100,4,1,5,60,0,0
435188,-100,4,1,5,20,0,0
435408,-100,4,1,5,60,0,0
437246,-100,4,1,5,20,0,0
437467,-100,4,1,5,60,0,0
437541,-100,4,1,5,20,0,0
437761,-100,4,1,5,60,0,0
439599,-100,4,1,5,20,0,0
439820,-151.515151515152,4,1,5,60,0,0
440188,-100,4,1,5,20,0,0
440408,-151.515151515152,4,1,5,60,0,0
440482,-100,4,1,5,20,0,0
440996,483.870967741935,3,1,6,60,1,0
441237,483.870967741935,3,1,5,60,1,0
464462,428.571428571429,4,1,5,60,1,0
464569,-100,4,1,6,60,0,0
471319,-100,4,1,6,60,0,1
519104,-100,4,1,5,60,0,0
546640,-100,4,1,6,60,0,0
570533,-90.9090909090909,4,1,6,60,0,0
573961,-83.3333333333333,4,1,6,60,0,0
577390,-76.9230769230769,4,1,6,60,0,0
580818,-71.4285714285714,4,1,6,60,0,0
584247,-66.6666666666667,4,1,6,60,0,0
586818,405.405405405405,4,1,6,60,1,0
586818,-200,4,1,6,60,0,0
586919,-200,4,1,6,20,0,0
587223,-200,4,1,6,60,0,0
587324,-200,4,1,6,20,0,0
587628,-200,4,1,6,60,0,0
588135,-200,4,1,6,20,0,0
588439,-80,4,1,5,60,0,0
588540,-80,4,1,5,20,0,0
588845,-100,4,1,6,60,0,0
589655,-200,4,1,6,60,0,0
589757,-200,4,1,6,20,0,0
590061,-80,4,1,5,60,0,0
590162,-80,4,1,6,20,0,0
590466,-100,4,1,6,60,0,0
594926,-80,4,1,5,60,0,0
595027,-100,4,1,6,20,0,0
595331,-100,4,1,6,60,0,0
596142,-200,4,1,6,60,0,0
596243,-100,4,1,6,20,0,0
596547,-80,4,1,5,60,0,0
596649,-100,4,1,6,20,0,0
596953,-100,4,1,6,60,0,0
601412,-80,4,1,5,60,0,0
601513,-80,4,1,5,20,0,0
601818,-100,4,1,6,60,0,0
602628,-200,4,1,6,60,0,0
602730,-100,4,1,6,20,0,0
603034,-80,4,1,5,60,0,0
603135,-100,4,1,6,20,0,0
603439,-100,4,1,6,60,0,0
607899,-80,4,1,5,60,0,0
608000,-100,4,1,6,20,0,0
608304,-100,4,1,6,60,0,0
609115,-200,4,1,6,60,0,0
609216,-100,4,1,6,20,0,0
609520,-80,4,1,5,60,0,0
609622,-100,4,1,6,20,0,0
609926,-100,4,1,6,60,0,0
613574,-100,4,1,5,60,0,0

[Colours]
Combo1 : 179,0,0
Combo2 : 128,0,255
Combo3 : 169,24,143
Combo4 : 0,0,251
Combo5 : 56,180,245
Combo6 : 0,128,0
Combo7 : 0,64,0
Combo8 : 255,21,21

[HitObjects]
53,47,3380,6,0,L|173:51,1,95
63,61,4165,6,0,L|183:65,1,95
71,76,4970,6,0,L|189:81,1,95
80,91,5759,6,0,L|198:96,1,95
90,105,6593,70,0,L|208:110,1,95
101,122,7361,6,0,L|219:127,1,95
111,139,8168,6,0,L|229:144,1,95
121,155,8929,6,0,L|239:160,1,95
130,169,9726,70,0,L|248:174,1,95
138,184,10521,6,0,L|247:190,1,95
148,200,11326,6,0,L|257:206,1,95
158,217,12123,6,0,L|267:223,1,95
167,232,12916,70,0,L|276:238,1,95
176,248,13717,6,0,L|285:254,1,95
184,264,14498,6,0,L|293:270,1,95
192,279,15318,6,0,L|301:285,1,95
201,295,16124,70,0,L|310:301,1,95
211,309,17075,6,0,L|320:315,1,95
222,325,18094,6,0,L|331:331,1,95
229,339,19182,6,0,L|338:345,1,95
240,355,20604,70,0,L|349:361,1,95
93,97,27642,6,0,L|210:92,1,95,2|0,0:0|0:0,0:0:0:0:
268,175,28125,2,0,L|151:170,1,95
107,103,28609,6,0,L|205:99,1,71.2500027179719,2|0,0:0|0:0,0:0:0:0:
253,168,29093,2,0,L|155:164,1,71.2500027179719
61,52,29577,6,0,P|38:106|57:148,1,95,2|0,0:0|0:0,0:0:0:0:
110,191,30061,2,0,P|133:137|114:95,1,95
66,68,30545,70,0,P|46:113|62:148,1,71.2500027179719,2|0,0:0|0:0,0:0:0:0:
108,176,31029,2,0,P|127:130|111:95,1,71.2500027179719
207,135,31512,6,0,B|251:139|251:139|312:131,1,95,2|0,0:0|0:0,0:0:0:0:
347,51,31996,2,0,B|303:47|303:47|242:55,1,95
223,125,32480,6,0,B|257:128|257:128|303:122,1,71.2500027179719,2|0,0:0|0:0,0:0:0:0:
330,60,32964,2,0,B|296:57|296:57|250:63,1,71.2500027179719
364,298,33448,6,0,L|344:195,1,95,2|0,0:0|0:0,0:0:0:0:
439,238,33932,2,0,L|459:135,1,95
372,291,34416,70,0,L|356:211,1,71.2500027179719,2|0,0:0|0:0,0:0:0:0:
430,244,34900,2,0,L|446:164,1,71.2500027179719
125,159,35383,5,2,0:0:0:0:
204,131,35625,1,0,0:0:0:0:
134,83,35866,1,0,0:0:0:0:
65,35,36108,1,0,0:0:0:0:
126,148,36351,5,2,0:0:0:0:
191,125,36593,1,0,0:0:0:0:
134,86,36834,1,0,0:0:0:0:
77,47,37076,1,0,0:0:0:0:
242,307,37319,5,2,0:0:0:0:
163,279,37561,1,0,0:0:0:0:
232,231,37802,1,0,0:0:0:0:
301,183,38044,1,0,0:0:0:0:
240,296,38287,69,2,0:0:0:0:
175,273,38529,1,0,0:0:0:0:
232,234,38770,1,0,0:0:0:0:
289,195,39012,1,0,0:0:0:0:
127,151,39254,5,2,0:0:0:0:
127,64,39496,1,0,0:0:0:0:
52,106,39738,1,0,0:0:0:0:
127,151,39980,1,0,0:0:0:0:
63,106,40222,5,2,0:0:0:0:
122,72,40464,1,0,0:0:0:0:
122,141,40706,1,0,0:0:0:0:
63,106,40948,1,0,0:0:0:0:
265,155,41190,5,2,0:0:0:0:
302,228,41432,1,0,0:0:0:0:
350,158,41674,1,0,0:0:0:0:
307,83,41916,1,0,0:0:0:0:
272,155,42158,69,2,0:0:0:0:
302,214,42400,1,0,0:0:0:0:
341,157,42642,1,0,0:0:0:0:
306,96,42884,1,0,0:0:0:0:
127,251,43125,5,2,0:0:0:0:
127,164,43367,1,0,0:0:0:0:
202,206,43609,1,0,0:0:0:0:
127,251,43851,1,0,0:0:0:0:
191,206,44093,5,2,0:0:0:0:
132,172,44335,1,0,0:0:0:0:
132,241,44577,1,0,0:0:0:0:
191,206,44819,1,0,0:0:0:0:
318,296,45061,5,2,0:0:0:0:
355,223,45303,1,0,0:0:0:0:
403,293,45545,1,0,0:0:0:0:
360,368,45787,1,0,0:0:0:0:
325,295,46029,69,2,0:0:0:0:
355,236,46271,1,0,0:0:0:0:
394,293,46513,1,0,0:0:0:0:
359,354,46755,1,0,0:0:0:0:
376,129,46996,5,2,0:0:0:0:
291,140,47238,1,0,0:0:0:0:
241,70,47480,1,0,0:0:0:0:
326,81,47722,1,0,0:0:0:0:
362,124,47964,5,2,0:0:0:0:
294,133,48206,1,0,0:0:0:0:
254,77,48448,1,0,0:0:0:0:
322,85,48690,1,0,0:0:0:0:
119,260,48932,5,2,0:0:0:0:
204,271,49174,1,0,0:0:0:0:
254,201,49416,1,0,0:0:0:0:
169,212,49658,1,0,0:0:0:0:
132,255,49900,69,2,0:0:0:0:
200,264,50142,1,0,0:0:0:0:
240,208,50384,1,0,0:0:0:0:
172,216,50626,1,0,0:0:0:0:
170,211,50746,1,0,0:0:0:0:
168,206,50867,5,2,0:0:0:0:
125,131,51109,1,0,0:0:0:0:
202,93,51351,1,0,0:0:0:0:
279,56,51593,1,0,0:0:0:0:
173,189,51835,5,2,0:0:0:0:
138,129,52077,1,0,0:0:0:0:
200,98,52319,1,0,0:0:0:0:
261,69,52561,1,0,0:0:0:0:
36,63,52803,5,2,0:0:0:0:
118,80,53044,1,0,0:0:0:0:
200,98,53286,1,0,0:0:0:0:
282,115,53529,1,0,0:0:0:0:
57,86,53771,69,2,0:0:0:0:
124,100,54012,1,0,0:0:0:0:
190,114,54254,1,0,0:0:0:0:
257,129,54496,1,0,0:0:0:0:
356,214,54739,5,2,0:0:0:0:
273,231,54980,1,0,0:0:0:0:
191,249,55222,1,0,0:0:0:0:
109,266,55465,1,0,0:0:0:0:
335,237,55707,5,2,0:0:0:0:
268,251,55948,1,0,0:0:0:0:
202,265,56190,1,0,0:0:0:0:
135,280,56432,1,0,0:0:0:0:
142,60,56674,5,2,0:0:0:0:
158,145,56916,1,0,0:0:0:0:
74,163,57158,1,0,0:0:0:0:
56,76,57400,1,0,0:0:0:0:
134,71,57642,69,2,0:0:0:0:
146,137,57884,1,0,0:0:0:0:
81,151,58126,1,0,0:0:0:0:
67,84,58368,1,0,0:0:0:0:
64,80,58488,1,0,0:0:0:0:
61,76,58609,2,0,L|188:82,1,95,2|0,0:0|0:0,0:0:0:0:
265,180,59093,1,0,0:0:0:0:
275,31,59335,1,0,0:0:0:0:
469,76,59577,6,0,L|342:82,1,95,2|0,0:0|0:0,0:0:0:0:
265,180,60061,1,0,0:0:0:0:
255,31,60303,1,0,0:0:0:0:
108,168,60545,5,2,0:0:0:0:
108,168,60787,1,0,0:0:0:0:
71,292,61029,1,0,0:0:0:0:
207,243,61271,1,0,0:0:0:0:
306,168,61512,5,2,0:0:0:0:
306,168,61754,1,0,0:0:0:0:
343,292,61996,1,0,0:0:0:0:
207,243,62238,1,0,0:0:0:0:
205,238,62359,1,0,0:0:0:0:
203,233,62480,70,0,L|93:236,1,95,2|0,0:0|0:0,0:0:0:0:
54,163,62964,1,0,0:0:0:0:
218,158,63206,1,0,0:0:0:0:
203,233,63448,6,0,L|313:236,1,95,2|0,0:0|0:0,0:0:0:0:
352,163,63932,1,0,0:0:0:0:
188,158,64174,1,0,0:0:0:0:
265,45,64416,5,2,0:0:0:0:
265,45,64658,1,0,0:0:0:0:
356,177,64900,1,0,0:0:0:0:
192,172,65141,1,0,0:0:0:0:
271,316,65383,5,2,0:0:0:0:
271,316,65625,1,0,0:0:0:0:
362,184,65867,1,0,0:0:0:0:
198,189,66108,1,0,0:0:0:0:
86,277,66351,69,2,0:0:0:0:
86,277,66593,1,0,0:0:0:0:
101,133,66835,1,0,0:0:0:0:
131,345,67077,1,0,0:0:0:0:
198,189,67319,5,2,0:0:0:0:
198,189,67561,1,0,0:0:0:0:
183,45,67803,1,0,0:0:0:0:
153,257,68045,1,0,0:0:0:0:
225,112,68287,5,2,0:0:0:0:
225,112,68529,1,0,0:0:0:0:
240,256,68771,1,0,0:0:0:0:
270,44,69013,1,0,0:0:0:0:
253,186,69254,5,2,0:0:0:0:
253,186,69496,1,0,0:0:0:0:
268,330,69738,1,0,0:0:0:0:
298,118,69980,1,0,0:0:0:0:
302,126,70101,1,0,0:0:0:0:
305,134,70222,70,0,B|354:128|354:128|416:129,1,95,2|0,0:0|0:0,0:0:0:0:
436,219,70706,1,0,0:0:0:0:
473,61,70948,1,0,0:0:0:0:
296,147,71190,6,0,B|247:153|247:153|185:152,1,95,2|0,0:0|0:0,0:0:0:0:
165,62,71674,1,0,0:0:0:0:
128,220,71916,1,0,0:0:0:0:
227,297,72158,5,2,0:0:0:0:
344,273,72400,1,0,0:0:0:0:
266,170,72641,1,0,0:0:0:0:
295,341,72883,1,0,0:0:0:0:
128,220,73125,5,2,0:0:0:0:
11,196,73367,1,0,0:0:0:0:
89,93,73608,1,0,0:0:0:0:
60,264,73850,1,0,0:0:0:0:
269,264,74093,69,2,0:0:0:0:
300,184,74335,1,0,0:0:0:0:
293,98,74577,1,0,0:0:0:0:
241,30,74819,1,0,0:0:0:0:
270,240,75061,5,2,0:0:0:0:
295,176,75303,1,0,0:0:0:0:
289,107,75545,1,0,0:0:0:0:
247,52,75787,1,0,0:0:0:0:
172,350,76029,5,2,0:0:0:0:
141,270,76271,1,0,0:0:0:0:
148,184,76513,1,0,0:0:0:0:
200,116,76755,1,0,0:0:0:0:
170,326,76997,5,2,0:0:0:0:
145,262,77239,1,0,0:0:0:0:
151,193,77481,1,0,0:0:0:0:
193,138,77723,1,0,0:0:0:0:
489,196,77964,69,2,0:0:0:0:
420,245,78206,1,0,0:0:0:0:
333,249,78448,1,0,0:0:0:0:
255,216,78690,1,0,0:0:0:0:
466,202,78932,5,2,0:0:0:0:
410,242,79174,1,0,0:0:0:0:
342,245,79416,1,0,0:0:0:0:
278,218,79658,1,0,0:0:0:0:
136,173,79900,5,2,0:0:0:0:
205,124,80142,1,0,0:0:0:0:
292,120,80384,1,0,0:0:0:0:
370,153,80626,1,0,0:0:0:0:
159,167,80868,5,2,0:0:0:0:
215,127,81110,1,0,0:0:0:0:
283,124,81352,1,0,0:0:0:0:
347,151,81594,1,0,0:0:0:0:
372,291,81835,69,2,0:0:0:0:
372,291,82077,1,0,0:0:0:0:
281,314,82319,1,0,0:0:0:0:
281,314,82561,1,0,0:0:0:0:
362,293,82803,5,2,0:0:0:0:
362,293,83045,1,0,0:0:0:0:
290,311,83287,1,0,0:0:0:0:
290,311,83529,1,0,0:0:0:0:
83,222,83771,5,2,0:0:0:0:
83,222,84013,1,0,0:0:0:0:
174,245,84255,1,0,0:0:0:0:
174,245,84497,1,0,0:0:0:0:
92,224,84739,5,2,0:0:0:0:
92,224,84981,1,0,0:0:0:0:
164,242,85223,1,0,0:0:0:0:
164,242,85465,1,0,0:0:0:0:
252,152,85706,69,2,0:0:0:0:
269,68,85948,1,0,0:0:0:0:
332,125,86190,1,0,0:0:0:0:
349,41,86432,1,0,0:0:0:0:
261,140,86674,5,2,0:0:0:0:
275,73,86916,1,0,0:0:0:0:
325,119,87158,1,0,0:0:0:0:
339,52,87400,1,0,0:0:0:0:
199,249,87641,5,2,0:0:0:0:
182,165,87883,1,0,0:0:0:0:
119,222,88125,1,0,0:0:0:0:
102,138,88367,1,0,0:0:0:0:
189,237,88609,5,2,0:0:0:0:
175,170,88851,1,0,0:0:0:0:
125,216,89093,1,0,0:0:0:0:
111,149,89335,1,0,0:0:0:0:
181,322,89577,69,2,0:0:0:0:
266,313,89818,1,0,0:0:0:0:
351,305,90060,1,0,0:0:0:0:
436,297,90302,1,0,0:0:0:0:
338,213,90545,5,2,0:0:0:0:
338,213,90787,1,0,0:0:0:0:
224,93,91029,1,0,0:0:0:0:
419,194,91271,1,0,0:0:0:0:
261,210,91512,5,2,0:0:0:0:
261,210,91754,1,0,0:0:0:0:
375,90,91996,1,0,0:0:0:0:
180,191,92238,1,0,0:0:0:0:
149,299,92480,5,2,0:0:0:0:
149,299,92722,1,0,0:0:0:0:
35,179,92964,1,0,0:0:0:0:
230,280,93206,1,0,0:0:0:0:
361,327,93448,69,2,0:0:0:0:
369,241,93689,1,0,0:0:0:0:
377,156,93931,1,0,0:0:0:0:
386,71,94173,1,0,0:0:0:0:
270,151,94416,5,2,0:0:0:0:
270,151,94658,1,0,0:0:0:0:
144,66,94900,1,0,0:0:0:0:
140,232,95141,1,0,0:0:0:0:
262,162,95383,5,2,0:0:0:0:
262,162,95625,1,0,0:0:0:0:
136,77,95867,1,0,0:0:0:0:
132,243,96108,1,0,0:0:0:0:
255,173,96351,5,2,0:0:0:0:
255,173,96593,1,0,0:0:0:0:
129,88,96835,1,0,0:0:0:0:
125,254,97076,1,0,0:0:0:0:
230,341,97319,69,2,0:0:0:0:
314,328,97560,1,0,0:0:0:0:
399,315,97802,1,0,0:0:0:0:
483,303,98044,1,0,0:0:0:0:
398,215,98287,5,2,0:0:0:0:
383,130,98529,1,0,0:0:0:0:
277,193,98771,1,0,0:0:0:0:
506,158,99012,1,0,0:0:0:0:
398,45,99254,5,2,0:0:0:0:
383,130,99496,1,0,0:0:0:0:
277,67,99738,1,0,0:0:0:0:
506,102,99979,1,0,0:0:0:0:
292,152,100222,5,2,0:0:0:0:
277,67,100464,1,0,0:0:0:0:
171,130,100706,1,0,0:0:0:0:
400,95,100947,1,0,0:0:0:0:
411,240,101190,69,2,0:0:0:0:
325,246,101431,1,0,0:0:0:0:
240,253,101673,1,0,0:0:0:0:
155,260,101915,1,0,0:0:0:0:
83,143,102158,5,2,0:0:0:0:
167,128,102400,1,0,0:0:0:0:
49,42,102641,1,0,0:0:0:0:
251,187,102883,1,0,0:0:0:0:
419,143,103125,5,2,0:0:0:0:
335,128,103367,1,0,0:0:0:0:
453,42,103608,1,0,0:0:0:0:
251,187,103850,1,0,0:0:0:0:
251,187,104093,5,2,0:0:0:0:
335,202,104335,1,0,0:0:0:0:
217,288,104576,1,0,0:0:0:0:
468,211,104818,69,6,1:0:0:0:
287,342,105060,1,6,0:0:0:0:
335,202,105543,5,0,0:0:0:0:
284,100,105785,1,0,0:0:0:0:
217,192,106027,1,0,0:0:0:0:
82,73,106511,5,2,0:0:0:0:
94,186,106753,1,0,0:0:0:0:
105,299,106995,1,0,0:0:0:0:
108,295,107115,1,0,0:0:0:0:
111,292,107236,1,0,0:0:0:0:
115,289,107357,1,0,0:0:0:0:
118,286,107478,1,0,0:0:0:0:
234,130,107721,5,6,0:0:0:0:
211,356,107963,1,6,0:0:0:0:
445,217,108447,69,0,0:0:0:0:
423,208,108567,1,0,0:0:0:0:
399,206,108688,1,0,0:0:0:0:
376,211,108809,1,0,0:0:0:0:
355,223,108930,1,0,0:0:0:0:
399,107,109172,1,0,0:0:0:0:
403,313,109414,1,2,0:0:0:0:
151,186,109898,5,0,0:0:0:0:
248,149,110140,1,0,0:0:0:0:
164,86,110382,1,0,0:0:0:0:
143,275,110624,5,6,0:0:0:0:
319,207,110866,1,6,0:0:0:0:
414,248,111350,5,0,0:0:0:0:
403,144,111592,1,0,0:0:0:0:
319,207,111834,1,0,0:0:0:0:
126,114,112318,69,0,0:0:0:0:
229,106,112559,1,0,0:0:0:0:
107,265,112801,1,0,0:0:0:0:
108,255,112921,1,0,0:0:0:0:
110,246,113042,1,0,0:0:0:0:
111,236,113163,1,0,0:0:0:0:
113,227,113284,1,0,0:0:0:0:
168,338,113527,5,6,0:0:0:0:
37,168,113769,1,6,0:0:0:0:
282,221,114253,5,0,0:0:0:0:
283,187,114373,1,0,0:0:0:0:
284,154,114494,1,0,0:0:0:0:
285,121,114615,1,0,0:0:0:0:
286,88,114736,1,0,0:0:0:0:
195,211,114979,1,0,0:0:0:0:
388,135,115221,1,2,0:0:0:0:
427,278,115705,5,0,0:0:0:0:
330,318,115947,1,0,0:0:0:0:
342,214,116189,1,0,0:0:0:0:
228,331,116430,69,6,0:0:0:0:
246,172,116672,1,6,0:0:0:0:
94,156,117156,5,0,0:0:0:0:
179,95,117398,1,0,0:0:0:0:
83,53,117640,1,0,0:0:0:0:
270,267,118124,5,0,0:0:0:0:
246,172,118366,1,0,0:0:0:0:
154,346,118608,1,0,0:0:0:0:
158,322,118728,1,0,0:0:0:0:
162,299,118849,1,0,0:0:0:0:
166,275,118970,1,0,0:0:0:0:
170,252,119091,1,0,0:0:0:0:
227,353,119334,5,6,0:0:0:0:
131,172,119576,1,6,0:0:0:0:
338,163,120059,69,0,0:0:0:0:
346,167,120180,1,0,0:0:0:0:
355,168,120301,1,0,0:0:0:0:
364,168,120422,1,0,0:0:0:0:
373,167,120543,1,0,0:0:0:0:
305,253,120785,1,0,0:0:0:0:
363,83,121027,1,2,0:0:0:0:
46,162,121511,5,0,0:0:0:0:
150,115,121753,1,0,0:0:0:0:
127,226,121995,1,0,0:0:0:0:
265,78,122237,5,6,0:0:0:0:
220,293,122479,1,6,0:0:0:0:
366,258,122963,5,0,0:0:0:0:
479,249,123205,1,0,0:0:0:0:
412,156,123447,1,0,0:0:0:0:
167,167,123930,69,0,0:0:0:0:
340,107,124172,1,0,0:0:0:0:
169,86,124414,1,0,0:0:0:0:
201,93,124534,1,0,0:0:0:0:
227,112,124655,1,0,0:0:0:0:
243,141,124776,1,0,0:0:0:0:
246,174,124897,1,0,0:0:0:0:
380,141,125140,5,6,0:0:0:0:
167,167,125382,1,6,0:0:0:0:
197,348,125866,5,0,0:0:0:0:
308,372,126108,1,0,0:0:0:0:
268,264,126350,1,0,0:0:0:0:
416,261,126834,5,0,0:0:0:0:
410,232,126955,1,0,0:0:0:0:
404,204,127076,1,0,0:0:0:0:
497,313,127318,1,0,0:0:0:0:
309,196,127559,1,0,0:0:0:0:
466,50,127801,69,10,0:0:0:0:
144,227,128287,6,0,L|136:173,3,47.5,6|0|0|0,0:0|0:0|0:0|0:0,0:0:0:0:
216,302,128715,2,0,L|224:248,3,47.5
262,181,129144,6,0,L|254:127,3,47.5
326,280,129572,2,0,L|334:226,3,47.5
432,213,130001,5,0,0:0:0:0:
429,202,130108,1,0,0:0:0:0:
426,191,130215,1,0,0:0:0:0:
422,180,130322,1,0,0:0:0:0:
419,169,130429,2,0,L|467:151,3,47.5
337,104,130858,70,0,L|289:86,3,47.5
262,181,131287,2,0,L|214:199,3,47.5
86,256,131715,6,0,P|75:276|75:306,3,47.5,4|0|0|0,0:0|0:0|0:0|0:0,0:0:0:0:
158,307,132144,2,0,P|169:327|169:357,3,47.5,2|0|0|0,0:0|0:0|0:0|0:0,0:0:0:0:
303,270,132572,6,0,P|274:267|248:246,3,47.5,2|0|0|0,0:0|0:0|0:0|0:0,0:0:0:0:
262,181,133001,2,0,P|233:184|207:205,3,47.5,2|0|0|0,0:0|0:0|0:0|0:0,0:0:0:0:
261,93,133429,6,0,L|253:36,3,47.5,2|0|0|0,0:0|0:0|0:0|0:0,0:0:0:0:
357,139,133858,2,0,L|365:82,3,47.5,2|0|0|0,0:0|0:0|0:0|0:0,0:0:0:0:
452,203,134287,70,0,L|444:146,3,47.5,2|0|0|0,0:0|0:0|0:0|0:0,0:0:0:0:
453,298,134715,53,10,0:0:0:0:
421,283,134786,1,8,0:0:0:0:
390,278,134857,1,8,0:0:0:0:
358,283,134929,5,8,0:0:0:0:
326,294,135000,1,8,0:0:0:0:
293,298,135072,1,8,0:0:0:0:
262,288,135144,38,0,L|243:238,1,47.5,2|0,0:0|0:0,0:0:0:0:
165,217,135358,2,0,L|184:166,5,47.5,14|0|0|0|8|0,0:0|0:0|0:0|0:0|0:0|0:0,0:0:0:0:
78,78,136001,6,0,L|130:71,1,47.5,6|0,0:0|0:0,0:0:0:0:
281,82,136215,1,8,0:0:0:0:
276,105,136322,1,0,0:0:0:0:
272,128,136429,6,0,L|220:121,1,47.5,6|0,0:0|0:0,0:0:0:0:
117,223,136644,2,0,L|169:216,1,47.5,14|0,0:0|0:0,0:0:0:0:
272,295,136858,5,2,0:0:0:0:
292,282,136965,1,0,0:0:0:0:
314,274,137072,1,8,0:0:0:0:
338,271,137179,1,0,0:0:0:0:
361,274,137286,69,2,0:0:0:0:
383,282,137393,1,0,0:0:0:0:
404,294,137501,1,8,0:0:0:0:
423,307,137608,1,0,0:0:0:0:
447,308,137715,5,2,0:0:0:0:
468,298,137822,1,0,0:0:0:0:
481,279,137929,1,8,0:0:0:0:
483,255,138036,1,0,0:0:0:0:
474,234,138143,5,2,0:0:0:0:
457,217,138251,1,0,0:0:0:0:
446,196,138358,1,8,0:0:0:0:
441,172,138465,1,0,0:0:0:0:
445,148,138572,5,2,0:0:0:0:
439,125,138679,1,0,0:0:0:0:
427,103,138787,70,0,B|409:107|409:107|382:118,1,47.5,14|0,0:0|0:0,0:0:0:0:
347,236,139001,1,0,0:0:0:0:
344,226,139108,1,0,0:0:0:0:
341,216,139215,1,8,0:0:0:0:
338,206,139322,1,0,0:0:0:0:
335,196,139429,6,0,P|306:187|267:199,1,47.5,6|0,0:0|0:0,0:0:0:0:
127,252,139644,1,8,0:0:0:0:
130,262,139751,1,0,0:0:0:0:
133,272,139858,6,0,P|162:281|201:269,1,47.5,6|0,0:0|0:0,0:0:0:0:
279,99,140072,2,0,P|248:103|218:130,1,47.5,14|0,0:0|0:0,0:0:0:0:
174,173,140287,5,2,0:0:0:0:
159,154,140394,1,0,0:0:0:0:
150,132,140501,1,8,0:0:0:0:
147,109,140608,1,0,0:0:0:0:
151,85,140715,69,2,0:0:0:0:
162,64,140822,1,0,0:0:0:0:
178,47,140929,1,8,0:0:0:0:
199,36,141036,1,0,0:0:0:0:
222,32,141143,5,2,0:0:0:0:
246,33,141250,1,0,0:0:0:0:
268,40,141357,1,8,0:0:0:0:
288,53,141464,1,0,0:0:0:0:
304,71,141572,101,2,0:0:0:0:
324,84,141679,1,0,0:0:0:0:
346,92,141786,1,8,0:0:0:0:
370,94,141893,1,0,0:0:0:0:
393,90,142001,5,2,0:0:0:0:
416,89,142108,1,0,0:0:0:0:
439,92,142215,6,0,L|446:36,1,47.5,14|0,0:0|0:0,0:0:0:0:
276,229,142429,1,0,0:0:0:0:
295,215,142536,1,0,0:0:0:0:
318,210,142643,1,8,0:0:0:0:
341,212,142750,1,0,0:0:0:0:
362,223,142858,6,0,L|360:160,1,47.5,6|0,0:0|0:0,0:0:0:0:
327,313,143072,1,8,0:0:0:0:
326,322,143179,1,0,0:0:0:0:
325,331,143287,101,6,0:0:0:0:
250,344,143394,1,6,0:0:0:0:
268,270,143501,2,0,L|260:209,1,47.5,14|0,0:0|0:0,0:0:0:0:
100,328,143715,85,2,0:0:0:0:
115,310,143822,1,0,0:0:0:0:
126,289,143929,1,8,0:0:0:0:
130,265,144037,1,0,0:0:0:0:
127,242,144143,5,2,0:0:0:0:
118,220,144250,1,0,0:0:0:0:
103,202,144357,1,8,0:0:0:0:
90,182,144465,1,0,0:0:0:0:
85,159,144572,5,2,0:0:0:0:
86,135,144679,1,0,0:0:0:0:
96,114,144786,1,8,0:0:0:0:
111,96,144893,1,0,0:0:0:0:
132,84,145001,5,2,0:0:0:0:
155,79,145108,1,0,0:0:0:0:
178,82,145215,1,8,0:0:0:0:
200,93,145322,1,0,0:0:0:0:
216,109,145429,69,2,0:0:0:0:
219,119,145537,1,0,0:0:0:0:
221,128,145644,2,0,L|284:125,1,47.5,14|0,0:0|0:0,0:0:0:0:
435,169,145858,1,0,0:0:0:0:
411,168,145965,1,0,0:0:0:0:
388,174,146072,1,8,0:0:0:0:
369,188,146179,1,0,0:0:0:0:
356,208,146287,6,0,L|293:205,1,47.5,6|0,0:0|0:0,0:0:0:0:
101,276,146501,1,8,0:0:0:0:
124,276,146608,1,0,0:0:0:0:
147,270,146715,1,0,0:0:0:0:
166,256,146822,1,0,0:0:0:0:
180,237,146930,6,0,L|243:240,1,47.5,14|0,0:0|0:0,0:0:0:0:
281,43,147144,1,0,0:0:0:0:
279,66,147251,1,0,0:0:0:0:
278,90,147358,1,0,0:0:0:0:
276,114,147465,1,0,0:0:0:0:
275,137,147572,6,0,L|327:117,1,47.5,14|0,0:0|0:0,0:0:0:0:
438,133,147787,1,0,0:0:0:0:
439,156,147894,1,0,0:0:0:0:
440,180,148001,1,0,0:0:0:0:
442,204,148108,1,0,0:0:0:0:
443,227,148215,70,0,L|390:206,1,47.5,14|0,0:0|0:0,0:0:0:0:
255,332,148429,2,0,L|306:352,1,47.5,14|0,0:0|0:0,0:0:0:0:
386,275,148644,1,0,0:0:0:0:
389,283,148751,1,0,0:0:0:0:
392,291,148858,6,0,L|339:270,1,47.5,14|0,0:0|0:0,0:0:0:0:
221,225,149072,2,0,L|272:245,1,47.5,14|0,0:0|0:0,0:0:0:0:
366,176,149287,1,0,0:0:0:0:
371,152,149394,1,0,0:0:0:0:
375,128,149501,6,0,L|433:89,1,47.5,14|0,0:0|0:0,0:0:0:0:
279,92,149715,2,0,L|315:32,1,47.5,14|0,0:0|0:0,0:0:0:0:
178,86,149929,2,0,L|185:16,1,47.5,14|0,0:0|0:0,0:0:0:0:
80,129,150144,2,0,L|58:63,1,47.5,14|0,0:0|0:0,0:0:0:0:
43,234,150358,5,14,0:0:0:0:
89,243,150465,1,0,0:0:0:0:
142,273,150572,101,6,0:0:0:0:
188,262,150679,1,0,0:0:0:0:
249,273,150787,5,6,0:0:0:0:
256,290,150894,1,0,0:0:0:0:
295,301,151001,69,14,0:0:0:0:
288,318,151108,1,0,0:0:0:0:
234,348,151215,5,6,0:0:0:0:
186,346,151322,1,0,0:0:0:0:
135,311,151429,5,6,0:0:0:0:
88,299,151537,1,0,0:0:0:0:
45,254,151644,5,14,0:0:0:0:
37,236,151751,1,0,0:0:0:0:
72,217,151858,69,6,0:0:0:0:
80,199,151965,1,0,0:0:0:0:
87,137,152072,5,14,0:0:0:0:
117,100,152179,1,0,0:0:0:0:
177,86,152287,5,6,0:0:0:0:
224,87,152394,1,0,0:0:0:0:
282,105,152501,5,6,0:0:0:0:
288,123,152608,1,0,0:0:0:0:
326,136,152715,69,14,0:0:0:0:
320,154,152822,1,0,0:0:0:0:
299,212,152929,5,6,0:0:0:0:
319,255,153037,1,0,0:0:0:0:
313,316,153144,5,6,0:0:0:0:
293,359,153250,1,0,0:0:0:0:
236,381,153358,5,14,0:0:0:0:
217,376,153465,1,0,0:0:0:0:
192,344,153572,69,14,0:0:0:0:
173,349,153679,1,0,0:0:0:0:
114,326,153787,54,0,L|101:284,2,31.6666666666667,14|0|0,0:0|0:0|0:0,0:0:0:0:
177,261,154001,6,0,L|190:219,2,31.6666666666667,6|0|0,0:0|0:0|0:0,0:0:0:0:
53,191,154215,102,0,L|40:149,2,31.6666666666667,6|0|0,0:0|0:0|0:0,0:0:0:0:
233,160,154429,6,0,L|246:118,2,31.6666666666667,14|0|0,0:0|0:0|0:0,0:0:0:0:
144,169,154643,101,6,0:0:0:0:
140,153,154715,1,0,0:0:0:0:
140,137,154787,1,0,0:0:0:0:
142,121,154858,5,6,0:0:0:0:
146,105,154929,1,0,0:0:0:0:
146,89,155001,1,0,0:0:0:0:
122,62,155072,101,14,0:0:0:0:
168,72,155144,1,0,0:0:0:0:
214,66,155215,1,0,0:0:0:0:
260,53,155287,5,6,0:0:0:0:
306,47,155358,1,0,0:0:0:0:
352,57,155430,1,0,0:0:0:0:
393,78,155501,38,0,L|454:67,1,47.5,6|0,0:0|0:0,0:0:0:0:
512,186,155715,2,0,L|451:175,1,47.5,14|0,0:0|0:0,0:0:0:0:
366,194,155929,1,0,0:0:0:0:
328,185,156037,1,0,0:0:0:0:
290,186,156144,5,8,0:0:0:0:
292,199,156250,70,0,L|256:203,1,23.75
296,212,156358,22,0,L|241:219,1,47.5
122,62,156572,1,8,0:0:0:0:
135,81,156679,1,0,0:0:0:0:
141,104,156786,1,0,0:0:0:0:
141,127,156893,1,0,0:0:0:0:
133,150,157001,5,2,0:0:0:0:
129,173,157108,1,8,0:0:0:0:
132,196,157215,5,6,0:3:0:0:
122,194,157322,1,0,0:0:0:0:
112,193,157429,6,0,L|100:260,1,47.5,14|0,0:0|0:0,0:0:0:0:
188,326,157644,1,2,0:0:0:0:
198,328,157751,1,0,0:0:0:0:
208,329,157858,70,0,L|220:262,1,47.5,14|0,0:0|0:0,0:0:0:0:
326,144,158072,1,2,0:0:0:0:
316,142,158179,1,0,0:0:0:0:
306,141,158286,6,0,L|294:208,1,47.5,14|0,0:0|0:0,0:0:0:0:
360,320,158501,2,0,L|372:253,1,47.5,14|0,0:0|0:0,0:0:0:0:
474,174,158715,2,0,L|462:241,1,47.5,14|0,0:0|0:0,0:0:0:0:
278,253,158929,1,0,0:0:0:0:
273,244,159037,1,0,0:0:0:0:
268,235,159144,6,0,L|193:230,1,47.5,14|0,0:0|0:0,0:0:0:0:
136,277,159358,1,2,0:0:0:0:
127,254,159465,1,0,0:0:0:0:
125,231,159572,1,8,0:0:0:0:
128,207,159679,1,0,0:0:0:0:
137,185,159787,5,2,0:0:0:0:
151,166,159893,1,0,0:0:0:0:
169,151,160000,1,8,0:0:0:0:
190,139,160108,1,0,0:0:0:0:
204,120,160215,69,2,0:0:0:0:
212,98,160322,1,0,0:0:0:0:
211,74,160429,1,2,0:0:0:0:
204,52,160537,1,8,0:0:0:0:
188,33,160644,5,6,0:3:0:0:
178,33,160751,1,0,0:0:0:0:
168,34,160858,6,0,L|111:28,1,47.5,14|0,0:0|0:0,0:0:0:0:
0,144,161072,1,2,0:0:0:0:
10,144,161179,1,0,0:0:0:0:
19,144,161286,6,0,L|76:138,1,47.5,14|0,0:0|0:0,0:0:0:0:
246,221,161501,1,2,0:0:0:0:
236,221,161608,1,0,0:0:0:0:
227,221,161715,70,0,L|170:215,1,47.5,14|0,0:0|0:0,0:0:0:0:
30,299,161929,2,0,L|87:293,1,47.5,14|0,0:0|0:0,0:0:0:0:
233,352,162144,2,0,L|176:346,1,47.5,14|0,0:0|0:0,0:0:0:0:
93,217,162358,1,0,0:0:0:0:
91,207,162465,1,0,0:0:0:0:
89,197,162572,6,0,L|108:127,1,47.5,14|0,0:0|0:0,0:0:0:0:
189,51,162787,1,2,0:0:0:0:
211,58,162894,1,0,0:0:0:0:
235,61,163001,1,8,0:0:0:0:
258,61,163108,1,0,0:0:0:0:
282,57,163215,5,2,0:0:0:0:
305,51,163322,1,0,0:0:0:0:
328,49,163429,1,8,0:0:0:0:
352,51,163536,1,0,0:0:0:0:
375,56,163644,5,2,0:0:0:0:
397,64,163751,1,0,0:0:0:0:
415,80,163858,1,2,0:0:0:0:
425,101,163965,1,8,0:0:0:0:
427,125,164072,69,6,0:3:0:0:
436,121,164179,1,0,0:0:0:0:
445,120,164287,6,0,L|453:187,1,47.5,14|0,0:0|0:0,0:0:0:0:
390,292,164501,1,2,0:0:0:0:
381,296,164608,1,0,0:0:0:0:
372,297,164716,6,0,L|364:230,1,47.5,14|0,0:0|0:0,0:0:0:0:
222,236,164929,1,2,0:0:0:0:
230,241,165036,1,0,0:0:0:0:
239,242,165144,6,0,L|247:175,1,47.5,14|0,0:0|0:0,0:0:0:0:
163,159,165358,2,0,L|155:92,1,47.5,14|0,0:0|0:0,0:0:0:0:
61,140,165572,2,0,L|25:82,1,47.5,14|0,0:0|0:0,0:0:0:0:
52,269,165787,1,0,0:0:0:0:
47,277,165894,1,0,0:0:0:0:
42,285,166001,70,0,L|77:342,1,47.5,14|0,0:0|0:0,0:0:0:0:
163,159,166215,1,2,0:0:0:0:
183,146,166322,1,0,0:0:0:0:
205,138,166429,1,8,0:0:0:0:
229,135,166536,1,0,0:0:0:0:
252,135,166643,5,2,0:0:0:0:
275,141,166750,1,0,0:0:0:0:
297,151,166858,1,8,0:0:0:0:
319,159,166965,1,0,0:0:0:0:
342,162,167072,5,2,0:0:0:0:
366,160,167179,1,0,0:0:0:0:
388,152,167286,1,2,0:0:0:0:
407,138,167394,1,8,0:0:0:0:
419,118,167500,5,6,0:3:0:0:
422,126,167608,1,0,0:0:0:0:
424,135,167715,70,0,L|404:209,1,47.5,14|0,0:0|0:0,0:0:0:0:
319,344,167929,1,2,0:0:0:0:
316,336,168037,1,0,0:0:0:0:
314,327,168144,6,0,L|334:253,1,47.5,14|0,0:0|0:0,0:0:0:0:
260,198,168358,1,2,0:0:0:0:
263,190,168466,1,0,0:0:0:0:
265,181,168573,6,0,L|245:107,1,47.5,14|0,0:0|0:0,0:0:0:0:
122,52,168786,2,0,L|142:126,1,47.5,14|0,0:0|0:0,0:0:0:0:
61,238,169000,2,0,L|41:164,1,47.5,14|0,0:0|0:0,0:0:0:0:
211,75,169215,6,0,L|231:1,1,47.5,14|0,0:0|0:0,0:0:0:0:
354,76,169429,1,0,0:0:0:0:
357,104,169536,1,0,0:0:0:0:
357,132,169643,70,0,L|406:73,1,47.5,14|0,0:0|0:0,0:0:0:0:
422,222,169858,1,0,0:0:0:0:
423,250,169965,1,0,0:0:0:0:
422,278,170072,6,0,L|491:245,1,47.5,14|0,0:0|0:0,0:0:0:0:
318,350,170286,2,0,L|248:317,1,47.5,14|0,0:0|0:0,0:0:0:0:
122,52,170500,5,14,0:0:0:0:
124,128,170607,1,0,0:0:0:0:
55,94,170715,2,0,L|54:44,1,47.5,14|0,0:0|0:0,0:0:0:0:
89,279,170929,86,0,L|155:283,1,47.5,14|0,0:0|0:0,0:0:0:0:
327,236,171143,1,0,0:0:0:0:
322,207,171250,1,0,0:0:0:0:
315,179,171358,6,0,L|249:183,1,47.5,14|0,0:0|0:0,0:0:0:0:
433,125,171572,1,0,0:0:0:0:
428,96,171679,1,0,0:0:0:0:
421,68,171787,6,0,L|359:43,1,47.5,14|0,0:0|0:0,0:0:0:0:
212,81,172000,2,0,L|273:105,1,47.5,14|8,0:0|0:0,0:0:0:0:
403,276,172215,5,14,0:0:0:0:
400,352,172322,1,0,0:0:0:0:
468,314,172429,2,0,L|470:260,1,47.5,14|0,0:0|0:0,0:0:0:0:
433,125,172644,70,0,L|367:121,1,47.5,14|0,0:0|0:0,0:0:0:0:
212,81,172858,1,0,0:0:0:0:
215,109,172965,1,0,0:0:0:0:
217,137,173072,6,0,L|151:133,1,47.5,14|0,0:0|0:0,0:0:0:0:
80,182,173286,1,0,0:0:0:0:
95,206,173393,1,0,0:0:0:0:
109,230,173500,6,0,L|47:255,1,47.5,14|0,0:0|0:0,0:0:0:0:
242,290,173715,2,0,L|197:338,1,47.5,14|0,0:0|0:0,0:0:0:0:
379,79,173929,85,14,0:0:0:0:
417,144,174036,1,8,0:0:0:0:
454,77,174143,2,0,L|425:26,1,47.5,6|0,0:0|0:0,0:0:0:0:
434,296,174358,6,0,L|368:300,1,47.5,14|0,0:0|0:0,0:0:0:0:
242,290,174572,1,0,0:0:0:0:
243,261,174679,1,0,0:0:0:0:
244,232,174786,6,0,L|178:236,1,47.5,14|0,0:0|0:0,0:0:0:0:
92,221,175000,1,0,0:0:0:0:
105,195,175107,1,0,0:0:0:0:
118,169,175215,54,0,L|76:152,3,23.75,14|0|0|0,0:0|0:0|0:0|0:0,0:0:0:0:
185,124,175429,22,0,L|229:141,1,47.5,14|8,0:0|0:0,0:0:0:0:
434,296,175643,5,14,0:0:0:0:
458,223,175750,1,0,0:0:0:0:
381,232,175858,2,0,L|379:171,1,47.5,14|0,0:0|0:0,0:0:0:0:
401,69,176072,6,0,L|448:66,1,47.5,14|0,0:0|0:0,0:0:0:0:
303,213,176286,1,0,0:0:0:0:
305,198,176393,1,0,0:0:0:0:
308,184,176500,6,0,L|260:186,1,47.5,14|0,0:0|0:0,0:0:0:0:
181,302,176715,1,0,0:0:0:0:
190,290,176822,1,0,0:0:0:0:
198,278,176929,70,0,L|153:260,1,47.5,14|0,0:0|0:0,0:0:0:0:
63,155,177143,2,0,L|108:173,1,47.5,14|0,0:0|0:0,0:0:0:0:
401,69,177358,5,14,0:0:0:0:
382,63,177465,1,8,0:0:0:0:
346,76,177572,2,0,L|398:94,1,47.5,4|0,0:0|0:0,0:0:0:0:
207,56,177786,6,0,L|150:56,1,47.5,14|0,0:0|0:0,0:0:0:0:
108,173,178000,1,0,0:0:0:0:
112,186,178108,1,0,0:0:0:0:
116,199,178215,6,0,L|173:199,1,47.5,14|0,0:0|0:0,0:0:0:0:
297,261,178429,1,0,0:0:0:0:
293,274,178537,1,0,0:0:0:0:
289,287,178644,102,0,L|232:287,1,47.5,14|0,0:0|0:0,0:0:0:0:
437,342,178858,2,0,L|385:317,1,47.5,14|8,0:0|0:0,0:0:0:0:
385,18,179072,5,6,0:0:0:0:
382,37,179179,1,0,0:0:0:0:
401,69,179286,2,0,L|414:10,1,47.5,14|0,0:0|0:0,0:0:0:0:
412,160,179500,70,0,L|412:217,1,47.5,14|0,0:0|0:0,0:0:0:0:
289,287,179715,1,0,0:0:0:0:
276,280,179822,1,0,0:0:0:0:
264,272,179929,6,0,L|264:319,1,47.5,14|0,0:0|0:0,0:0:0:0:
130,187,180143,1,0,0:0:0:0:
143,180,180250,1,0,0:0:0:0:
155,172,180357,6,0,L|155:219,1,47.5,14|0,0:0|0:0,0:0:0:0:
261,100,180572,2,0,L|281:143,1,47.5,14|0,0:0|0:0,0:0:0:0:
405,327,180786,85,14,0:0:0:0:
408,308,180893,1,8,0:0:0:0:
383,279,181000,2,0,L|375:337,1,47.5,6|0,0:0|0:0,0:0:0:0:
412,160,181214,6,0,L|412:103,1,47.5,14|0,0:0|0:0,0:0:0:0:
261,100,181429,1,0,0:0:0:0:
266,113,181536,1,0,0:0:0:0:
273,125,181643,6,0,L|273:172,1,47.5,14|0,0:0|0:0,0:0:0:0:
134,154,181858,1,0,0:0:0:0:
145,164,181965,1,0,0:0:0:0:
155,172,182072,22,0,L|167:201,2,31.6666666666667,14|8|8,0:0|0:0|0:0,0:0:0:0:
88,274,182286,5,8,0:0:0:0:
111,294,182357,1,8,0:0:0:0:
140,307,182428,1,8,0:0:0:0:
172,310,182500,101,8,0:0:0:0:
203,304,182571,1,8,0:0:0:0:
231,289,182643,1,8,0:0:0:0:
253,267,182714,5,8,0:0:0:0:
282,255,182786,1,8,0:0:0:0:
313,254,182858,1,8,0:0:0:0:
296,325,182929,37,14,0:0:0:0:
411,345,183143,1,0,0:0:0:0:
366,140,183358,2,0,L|266:123,1,95,0|2,0:0|0:0,0:0:0:0:
127,205,183786,5,8,0:0:0:0:
119,82,184001,2,0,L|219:65,1,95
366,140,184429,1,0,0:0:0:0:
363,125,184536,1,0,0:0:0:0:
370,72,184643,5,6,0:0:0:0:
455,178,184858,1,6,0:0:0:0:
252,145,185072,5,0,0:0:0:0:
337,251,185286,2,0,L|242:249,1,95,2|0,0:0|0:0,0:0:0:0:
172,212,185572,5,0,0:0:0:0:
171,215,185643,1,0,0:0:0:0:
170,218,185715,1,8,0:0:0:0:
239,342,185929,54,0,L|286:342,1,47.5,2|0,0:0|0:0,0:0:0:0:
327,235,186143,2,0,L|279:234,1,47.5
407,325,186358,5,6,0:0:0:0:
445,150,186572,1,6,0:0:0:0:
337,251,186786,2,0,L|362:138,1,95,0|2,0:0|0:0,0:0:0:0:
219,134,187215,5,8,0:0:0:0:
327,235,187429,2,0,L|302:122,1,95
126,67,187858,1,0,0:0:0:0:
130,80,187965,1,0,0:0:0:0:
113,129,188072,5,6,0:0:0:0:
59,263,188286,2,0,B|110:253|110:253|181:254,1,95,6|0,0:0|0:0,0:0:0:0:
332,328,188715,2,0,B|281:338|281:338|210:337,1,95,14|0,0:0|0:0,0:0:0:0:
219,134,189143,69,6,0:0:0:0:
428,45,189358,2,0,B|422:72|422:72|424:89|424:89|419:107|419:107|415:127|425:163,1,95,0|8,0:0|0:0,0:0:0:0:
457,276,189786,5,6,0:0:0:0:
332,328,190000,1,0,0:0:0:0:
355,190,190215,2,0,L|464:146,1,95,0|2,0:0|0:0,0:0:0:0:
457,276,190643,5,8,0:0:0:0:
434,138,190858,2,0,L|325:94,1,95
223,173,191286,1,0,0:0:0:0:
219,159,191393,1,0,0:0:0:0:
183,120,191500,5,6,0:0:0:0:
159,301,191715,1,6,0:0:0:0:
355,190,191929,69,0,0:0:0:0:
210,267,192143,2,0,L|224:158,1,95,2|0,0:0|0:0,0:0:0:0:
183,120,192429,53,0,0:0:0:0:
182,123,192500,1,0,0:0:0:0:
181,126,192572,1,8,0:0:0:0:
86,216,192786,54,0,L|80:264,1,47.5
223,255,193000,2,0,L|229:207,1,47.5
335,107,193215,5,6,0:0:0:0:
314,262,193429,1,6,0:0:0:0:
457,197,193643,2,0,L|472:85,1,95,0|2,0:0|0:0,0:0:0:0:
457,327,194072,5,8,0:0:0:0:
314,262,194286,2,0,L|299:150,1,95
214,82,194715,1,8,0:0:0:0:
188,282,194929,5,6,0:0:0:0:
43,204,195143,2,0,B|94:204|94:204|145:191,1,95,6|0,0:0|0:0,0:0:0:0:
307,71,195572,2,0,B|256:71|256:71|205:84,1,95,14|0,0:0|0:0,0:0:0:0:
188,282,196000,69,6,0:0:0:0:
390,138,196215,2,0,B|380:173|380:173|385:197|385:197|371:248,1,95,0|8,0:0|0:0,0:0:0:0:
306,338,196643,5,6,0:0:0:0:
290,190,196858,1,0,0:0:0:0:
188,282,197072,2,0,L|176:163,1,95,0|2,0:0|0:0,0:0:0:0:
88,100,197500,5,8,0:0:0:0:
190,192,197714,2,0,L|202:73,1,95
290,190,198143,1,0,0:0:0:0:
293,176,198250,1,0,0:0:0:0:
338,148,198358,5,6,0:0:0:0:
306,338,198572,1,6,0:0:0:0:
351,163,198786,69,0,0:0:0:0:
424,244,199000,2,0,L|402:372,1,95,2|0,0:0|0:0,0:0:0:0:
475,348,199286,53,0,0:0:0:0:
474,351,199357,1,0,0:0:0:0:
473,354,199429,1,8,0:0:0:0:
305,337,199643,54,0,L|313:291,1,47.5
415,224,199858,2,0,L|407:270,1,47.5
401,342,200072,5,6,0:0:0:0:
351,163,200286,1,6,0:0:0:0:
503,228,200500,2,0,L|476:136,1,95,0|2,0:0|0:0,0:0:0:0:
360,181,200929,5,8,0:0:0:0:
208,246,201143,2,0,L|234:154,1,95
321,31,201572,1,0,0:0:0:0:
316,44,201679,1,0,0:0:0:0:
349,84,201786,5,6,0:0:0:0:
436,207,202000,2,0,B|480:263|480:263|449:265,1,95,6|0,0:0|0:0,0:0:0:0:
253,303,202429,2,0,B|208:246|208:246|239:244,1,95,14|0,0:0|0:0,0:0:0:0:
360,181,202858,69,6,0:0:0:0:
98,113,203072,2,0,B|135:107|135:107|144:103|144:103|154:104|154:104|213:94,1,95,0|8,0:0|0:0,0:0:0:0:
253,303,203500,5,6,0:0:0:0:
227,174,203715,1,0,0:0:0:0:
128,263,203929,2,0,L|149:368,1,95,0|2,0:0|0:0,0:0:0:0:
219,187,204358,5,8,0:0:0:0:
318,276,204572,2,0,L|297:381,1,95
427,263,205000,1,0,0:0:0:0:
430,249,205108,1,0,0:0:0:0:
397,209,205215,5,6,0:0:0:0:
423,88,205429,1,6,0:0:0:0:
219,187,205643,69,0,0:0:0:0:
402,101,205858,2,0,L|381:206,1,95
430,249,206143,53,0,0:0:0:0:
429,252,206214,1,0,0:0:0:0:
428,255,206286,1,8,0:0:0:0:
298,162,206500,54,0,L|307:115,1,47.5,2|0,0:0|0:0,0:0:0:0:
423,88,206715,2,0,L|413:134,1,47.5
353,236,206929,5,6,0:0:0:0:
335,45,207143,1,6,0:0:0:0:
219,187,207358,2,0,L|208:71,1,95,0|2,0:0|0:0,0:0:0:0:
110,58,207786,5,8,0:0:0:0:
226,200,208001,2,0,L|237:84,1,95
99,214,208429,1,8,0:0:0:0:
215,318,208644,6,0,L|268:309,5,35.625001358986,6|0|0|0|0|0,0:0|0:0|0:0|0:0|0:0|0:0,0:0:0:0:
333,203,209085,1,0,0:0:0:0:
337,212,209158,1,0,0:0:0:0:
341,221,209232,2,0,L|376:226,3,35.625001358986
409,66,209526,1,0,0:0:0:0:
384,81,209599,1,0,0:0:0:0:
357,87,209673,1,0,0:0:0:0:
329,85,209746,1,0,0:0:0:0:
303,73,209820,70,0,L|297:127,5,47.5,6|0|0|0|0|0,0:0|0:0|0:0|0:0|0:0|0:0,0:0:0:0:
237,202,210261,1,0,0:0:0:0:
200,195,210335,1,0,0:0:0:0:
163,189,210408,2,0,L|170:243,1,47.5
422,292,210555,5,2,0:0:0:0:
426,283,210629,1,2,0:0:0:0:
430,274,210702,5,8,0:0:0:0:
374,278,210775,1,8,0:0:0:0:
328,246,210849,1,8,0:0:0:0:
313,192,210922,1,8,0:0:0:0:
400,194,210996,6,0,L|521:185,1,118.75,6|8,0:0|0:0,0:0:0:0:
491,122,211217,1,0,0:0:0:0:
453,125,211290,1,0,0:0:0:0:
415,127,211364,1,0,0:0:0:0:
377,130,211437,1,8,0:0:0:0:
430,274,211585,69,6,0:0:0:0:
384,43,211732,1,14,0:0:0:0:
173,133,211879,1,0,0:0:0:0:
214,113,211952,1,0,0:0:0:0:
261,118,212026,1,8,0:0:0:0:
297,147,212099,1,0,0:0:0:0:
313,192,212173,1,0,0:0:0:0:
413,364,212320,6,0,L|435:240,1,118.75,14|0,0:0|0:0,0:0:0:0:
229,200,212614,2,0,L|208:77,1,118.75,14|0,0:0|0:0,0:0:0:0:
91,52,212908,5,14,0:0:0:0:
133,272,213055,1,6,0:0:0:0:
18,186,213202,1,14,0:0:0:0:
223,91,213349,6,0,L|238:184,1,95,6|8,0:0|0:0,0:0:0:0:
312,191,213570,1,0,0:0:0:0:
306,154,213643,1,0,0:0:0:0:
299,116,213717,1,0,0:0:0:0:
292,79,213790,1,8,0:0:0:0:
269,268,213938,69,6,0:0:0:0:
395,95,214085,1,14,0:0:0:0:
410,321,214232,1,0,0:0:0:0:
407,312,214305,1,0,0:0:0:0:
404,302,214379,1,8,0:0:0:0:
400,293,214452,1,0,0:0:0:0:
398,284,214526,1,0,0:0:0:0:
236,204,214673,6,0,P|198:268|226:327,1,118.75,14|0,0:0|0:0,0:0:0:0:
427,160,214967,2,0,P|465:96|437:37,1,118.75,14|0,0:0|0:0,0:0:0:0:
292,79,215261,5,14,0:0:0:0:
48,111,215408,2,0,L|136:100,1,71.25,14|0,0:0|0:0,0:0:0:0:
144,116,215702,6,0,L|26:131,1,118.75,6|8,0:0|0:0,0:0:0:0:
34,211,215923,1,0,0:0:0:0:
46,204,215996,1,0,0:0:0:0:
60,202,216070,1,0,0:0:0:0:
73,205,216144,1,8,0:0:0:0:
150,43,216291,69,6,0:0:0:0:
65,283,216438,1,14,0:0:0:0:
236,162,216585,1,0,0:0:0:0:
241,194,216658,1,0,0:0:0:0:
248,226,216732,1,8,0:0:0:0:
254,259,216805,1,0,0:0:0:0:
261,292,216879,1,0,0:0:0:0:
386,87,217026,2,0,L|362:204,1,118.75,14|0,0:0|0:0,0:0:0:0:
191,304,217320,2,0,L|164:176,1,118.75,14|0,0:0|0:0,0:0:0:0:
150,43,217614,5,14,0:0:0:0:
177,200,217761,1,6,0:0:0:0:
46,133,217908,1,14,0:0:0:0:
292,103,218055,6,0,L|401:85,1,95,6|8,0:0|0:0,0:0:0:0:
423,147,218276,1,0,0:0:0:0:
429,114,218349,1,0,0:0:0:0:
435,81,218423,1,0,0:0:0:0:
442,49,218496,1,8,0:0:0:0:
500,200,218644,5,6,0:0:0:0:
282,89,218791,1,14,0:0:0:0:
273,315,218938,1,0,0:0:0:0:
271,268,219011,1,0,0:0:0:0:
299,231,219085,1,8,0:0:0:0:
344,219,219158,1,0,0:0:0:0:
386,238,219232,1,0,0:0:0:0:
177,200,219379,70,0,B|173:162|173:162|157:127|157:127|151:68,1,118.75,14|0,0:0|0:0,0:0:0:0:
341,294,219673,2,0,B|345:256|345:256|361:221|361:221|367:162,1,118.75,14|0,0:0|0:0,0:0:0:0:
435,158,219894,1,0,0:0:0:0:
441,170,219967,2,0,L|435:229,1,47.5,14|8,0:0|0:0,0:0:0:0:
336,341,220114,2,0,L|342:282,1,47.5,14|8,0:0|0:0,0:0:0:0:
289,148,220261,2,0,L|283:207,1,47.5,14|8,0:0|0:0,0:0:0:0:
163,318,220408,6,0,L|178:183,1,118.75,6|8,0:0|0:0,0:0:0:0:
186,127,220629,1,0,0:0:0:0:
149,125,220702,1,0,0:0:0:0:
116,142,220776,1,0,0:0:0:0:
95,174,220849,1,8,0:0:0:0:
156,26,220996,5,6,0:0:0:0:
181,223,221144,1,14,0:0:0:0:
306,16,221291,1,0,0:0:0:0:
301,49,221364,1,0,0:0:0:0:
297,82,221438,1,8,0:0:0:0:
293,115,221511,1,0,0:0:0:0:
289,148,221585,1,0,0:0:0:0:
425,208,221732,6,0,L|410:84,1,118.75,14|0,0:0|0:0,0:0:0:0:
216,136,222026,2,0,L|231:16,1,118.75,14|0,0:0|0:0,0:0:0:0:
181,223,222320,69,14,0:0:0:0:
156,26,222467,1,6,0:0:0:0:
22,144,222614,1,14,0:0:0:0:
226,151,222761,6,0,L|213:261,1,95,6|8,0:0|0:0,0:0:0:0:
291,241,222982,1,0,0:0:0:0:
301,231,223055,1,0,0:0:0:0:
311,221,223129,1,0,0:0:0:0:
321,211,223202,1,8,0:0:0:0:
324,322,223349,5,6,0:0:0:0:
297,108,223496,1,14,0:0:0:0:
291,241,223644,1,0,0:0:0:0:
281,251,223717,1,0,0:0:0:0:
271,261,223791,1,8,0:0:0:0:
261,271,223864,1,0,0:0:0:0:
251,281,223938,1,0,0:0:0:0:
323,36,224085,6,0,P|367:88|332:174,1,118.75,14|0,0:0|0:0,0:0:0:0:
225,352,224379,2,0,P|181:300|216:214,1,118.75,14|0,0:0|0:0,0:0:0:0:
297,108,224673,69,14,0:0:0:0:
72,113,224820,2,0,L|159:110,1,71.25,14|0,0:0|0:0,0:0:0:0:
163,130,225114,6,0,B|88:133|88:133|44:148,1,118.75,6|8,0:0|0:0,0:0:0:0:
76,214,225335,1,0,0:0:0:0:
99,242,225408,1,0,0:0:0:0:
104,280,225482,1,0,0:0:0:0:
88,314,225555,1,8,0:0:0:0:
151,110,225702,5,6,0:0:0:0:
35,271,225849,1,14,0:0:0:0:
262,204,225996,1,0,0:0:0:0:
272,157,226069,1,0,0:0:0:0:
282,111,226143,1,8,0:0:0:0:
293,126,226217,1,0,0:0:0:0:
303,142,226291,1,0,0:0:0:0:
474,247,226438,6,0,B|454:341|454:341|431:302,1,118.75,14|0,0:0|0:0,0:0:0:0:
271,216,226732,2,0,B|291:122|291:122|314:161,1,118.75,14|0,0:0|0:0,0:0:0:0:
372,262,227026,69,14,0:0:0:0:
414,62,227173,1,6,0:0:0:0:
488,177,227320,1,14,0:0:0:0:
282,111,227467,6,0,B|241:113|241:113|216:104|216:104|158:107,1,95,6|8,0:0|0:0,0:0:0:0:
152,173,227688,1,0,0:0:0:0:
119,139,227761,1,0,0:0:0:0:
111,93,227835,1,0,0:0:0:0:
131,51,227908,1,8,0:0:0:0:
95,285,228055,5,6,0:0:0:0:
189,105,228202,1,14,0:0:0:0:
301,277,228349,1,0,0:0:0:0:
325,317,228422,1,0,0:0:0:0:
368,334,228496,1,8,0:0:0:0:
413,321,228569,1,0,0:0:0:0:
441,284,228643,1,0,0:0:0:0:
65,350,228791,6,0,P|122:350|163:309,1,118.75,14|0,0:0|0:0,0:0:0:0:
372,260,229085,2,0,P|424:215|498:241,1,118.75,14|8,0:0|0:0,0:0:0:0:
467,147,229305,1,0,0:0:0:0:
457,144,229379,2,0,P|432:143|395:152,1,47.5,6|2,0:0|0:0,0:0:0:0:
265,181,229526,70,0,P|290:182|341:166,1,71.25,14|2,0:0|0:0,0:0:0:0:
286,96,229820,5,6,0:0:0:0:
239,97,229893,1,8,0:0:0:0:
199,123,229967,1,0,0:0:0:0:
180,165,230040,1,8,0:0:0:0:
185,212,230114,5,6,0:0:0:0:
194,257,230187,1,8,0:0:0:0:
165,292,230261,1,0,0:0:0:0:
119,292,230334,1,8,0:0:0:0:
91,255,230408,5,6,0:0:0:0:
45,239,230481,1,8,0:0:0:0:
4,266,230555,1,0,0:0:0:0:
2,314,230628,1,8,0:0:0:0:
36,346,230702,69,6,0:0:0:0:
83,340,230776,1,8,0:0:0:0:
108,298,230849,1,0,0:0:0:0:
109,250,230923,1,8,0:0:0:0:
65,231,230996,6,0,L|108:201,1,47.5,6|8,0:0|0:0,0:0:0:0:
257,315,231144,2,0,L|214:345,1,47.5,6|8,0:0|0:0,0:0:0:0:
63,139,231291,6,0,L|106:109,1,47.5,6|8,0:0|0:0,0:0:0:0:
356,338,231438,2,0,L|313:368,1,47.5,6|8,0:0|0:0,0:0:0:0:
389,36,231585,5,8,0:0:0:0:
424,292,231732,1,8,0:0:0:0:
133,34,231879,2,0,P|101:23|50:34,1,71.25,14|0,0:0|0:0,0:0:0:0:
89,109,232173,69,6,0:0:0:0:
110,140,232246,1,0,0:0:0:0:
119,176,232320,1,8,0:0:0:0:
114,214,232393,1,0,0:0:0:0:
96,247,232467,1,2,0:0:0:0:
67,271,232540,1,0,0:0:0:0:
40,297,232614,1,8,0:0:0:0:
39,334,232688,1,0,0:0:0:0:
65,360,232761,6,0,P|87:364|115:352,1,47.5,6|0,0:0|0:0,0:0:0:0:
314,260,232908,2,0,P|292:256|264:268,1,47.5,14|0,0:0|0:0,0:0:0:0:
216,337,233055,1,2,0:0:0:0:
190,308,233128,1,0,0:0:0:0:
179,272,233202,1,8,0:0:0:0:
183,235,233276,1,0,0:0:0:0:
203,203,233349,6,0,P|208:177|204:147,1,47.5,6|0,0:0|0:0,0:0:0:0:
118,36,233496,2,0,P|113:62|117:92,1,47.5,14|0,0:0|0:0,0:0:0:0:
198,69,233643,1,0,0:0:0:0:
236,70,233716,1,0,0:0:0:0:
272,58,233791,6,0,L|330:63,1,47.5,14|0,0:0|0:0,0:0:0:0:
481,118,233938,2,0,L|423:122,1,47.5,6|0,0:0|0:0,0:0:0:0:
314,260,234085,70,0,L|303:194,1,47.5,14|0,0:0|0:0,0:0:0:0:
198,69,234232,2,0,L|190:115,1,47.5,6|0,0:0|0:0,0:0:0:0:
74,237,234379,2,0,L|56:172,1,47.5,14|0,0:0|0:0,0:0:0:0:
133,34,234526,5,6,0:0:0:0:
126,71,234599,1,0,0:0:0:0:
120,108,234673,1,8,0:0:0:0:
125,146,234746,1,0,0:0:0:0:
149,175,234820,1,0,0:0:0:0:
184,188,234893,1,0,0:0:0:0:
221,180,234967,1,8,0:0:0:0:
248,155,235040,1,0,0:0:0:0:
256,117,235114,6,0,L|264:70,1,47.5,6|0,0:0|0:0,0:0:0:0:
314,260,235261,2,0,L|322:213,1,47.5,14|0,0:0|0:0,0:0:0:0:
417,134,235408,1,2,0:0:0:0:
410,171,235482,1,0,0:0:0:0:
404,208,235555,1,8,0:0:0:0:
397,246,235628,1,0,0:0:0:0:
391,283,235702,6,0,P|378:309|356:328,1,47.5,6|0,0:0|0:0,0:0:0:0:
238,236,235849,2,0,P|251:210|273:191,1,47.5,14|0,0:0|0:0,0:0:0:0:
494,98,235996,1,2,0:0:0:0:
487,136,236069,1,0,0:0:0:0:
481,173,236144,70,0,L|470:235,1,47.5,14|0,0:0|0:0,0:0:0:0:
309,70,236291,1,2,0:0:0:0:
276,50,236364,1,0,0:0:0:0:
237,48,236438,6,0,P|210:53|177:52,1,47.5,14|0,0:0|0:0,0:0:0:0:
314,156,236585,2,0,P|340:149|370:134,1,47.5,6|0,0:0|0:0,0:0:0:0:
148,132,236732,2,0,P|126:114|106:88,1,47.5,14|0,0:0|0:0,0:0:0:0:
168,250,236879,5,6,0:0:0:0:
184,283,236952,1,0,0:0:0:0:
215,304,237026,1,8,0:0:0:0:
252,307,237099,1,0,0:0:0:0:
286,290,237173,1,2,0:0:0:0:
306,258,237246,1,0,0:0:0:0:
335,234,237319,1,8,0:0:0:0:
372,229,237393,1,0,0:0:0:0:
406,244,237467,6,0,L|416:185,1,47.5,6|0,0:0|0:0,0:0:0:0:
247,181,237614,2,0,L|237:240,1,47.5,14|0,0:0|0:0,0:0:0:0:
366,318,237761,69,2,0:0:0:0:
401,329,237834,1,0,0:0:0:0:
439,323,237908,1,8,0:0:0:0:
470,301,237981,1,0,0:0:0:0:
488,268,238055,6,0,L|497:208,1,47.5,6|0,0:0|0:0,0:0:0:0:
342,187,238202,2,0,L|334:233,1,47.5,14|0,0:0|0:0,0:0:0:0:
397,34,238349,1,2,0:0:0:0:
390,71,238422,1,0,0:0:0:0:
383,108,238496,6,0,P|357:101|307:104,1,47.5,14|0,0:0|0:0,0:0:0:0:
207,259,238644,2,0,P|233:266|283:263,1,47.5,6|0,0:0|0:0,0:0:0:0:
388,195,238791,6,0,P|364:193|341:186,1,47.5,14|0,0:0|0:0,0:0:0:0:
253,59,238938,2,0,P|266:39|283:22,1,47.5,6|0,0:0|0:0,0:0:0:0:
482,43,239085,2,0,P|492:64|498:87,1,47.5,14|0,0:0|0:0,0:0:0:0:
488,268,239232,69,2,0:0:0:0:
470,301,239306,1,0,0:0:0:0:
439,323,239379,1,8,0:0:0:0:
401,329,239453,1,0,0:0:0:0:
366,318,239526,1,2,0:0:0:0:
328,313,239599,1,0,0:0:0:0:
290,321,239673,6,0,P|263:329|215:326,1,47.5,14|0,0:0|0:0,0:0:0:0:
164,191,239820,2,0,P|191:183|239:186,1,47.5,6|0,0:0|0:0,0:0:0:0:
304,336,239967,2,0,P|277:344|229:341,1,47.5,14|0,0:0|0:0,0:0:0:0:
149,178,240114,1,2,0:0:0:0:
185,168,240187,1,0,0:0:0:0:
223,172,240261,1,8,0:0:0:0:
257,188,240334,1,0,0:0:0:0:
278,220,240408,6,0,L|314:188,1,47.5,6|0,0:0|0:0,0:0:0:0:
405,29,240555,1,14,0:0:0:0:
402,66,240628,1,0,0:0:0:0:
400,104,240702,1,0,0:0:0:0:
398,142,240775,1,0,0:0:0:0:
396,180,240849,6,0,L|459:155,1,47.5,14|0,0:0|0:0,0:0:0:0:
380,343,240996,1,0,0:0:0:0:
382,305,241069,1,0,0:0:0:0:
384,267,241143,70,0,L|321:292,1,47.5,14|0,0:0|0:0,0:0:0:0:
185,168,241291,2,0,L|248:193,1,47.5,6|0,0:0|0:0,0:0:0:0:
512,93,241438,2,0,L|449:118,1,47.5,6|0,0:0|0:0,0:0:0:0:
164,58,241585,6,0,L|259:97,1,95,6|8,0:0|0:0,0:0:0:0:
283,64,241806,1,0,0:0:0:0:
247,78,241879,1,0,0:0:0:0:
212,93,241953,1,0,0:0:0:0:
177,108,242026,6,0,P|136:134|138:207,1,95,14|0,0:0|0:0,0:0:0:0:
280,328,242320,2,0,P|321:302|319:229,1,95,14|0,0:0|0:0,0:0:0:0:
283,64,242614,1,8,0:0:0:0:
269,265,242761,5,6,0:0:0:0:
100,117,242908,1,8,0:0:0:0:
111,152,242981,1,0,0:0:0:0:
139,178,243055,1,0,0:0:0:0:
175,188,243128,1,0,0:0:0:0:
212,180,243202,1,8,0:0:0:0:
240,155,243275,1,0,0:0:0:0:
251,119,243349,1,0,0:0:0:0:
161,328,243496,69,14,0:0:0:0:
177,108,243644,1,6,0:0:0:0:
24,255,243791,1,14,0:0:0:0:
269,265,243938,5,14,0:0:0:0:
297,265,244011,1,0,0:0:0:0:
323,275,244085,1,0,0:0:0:0:
344,294,244158,1,0,0:0:0:0:
285,334,244232,5,14,0:0:0:0:
256,333,244305,1,0,0:0:0:0:
230,323,244379,1,0,0:0:0:0:
209,304,244452,1,0,0:0:0:0:
175,241,244526,5,14,0:0:0:0:
155,262,244599,1,0,0:0:0:0:
143,287,244673,1,0,0:0:0:0:
142,315,244746,1,0,0:0:0:0:
181,375,244820,69,10,0:0:0:0:
177,108,244967,1,10,0:0:0:0:
24,255,245114,2,0,L|23:160,1,95,6|8,0:0|0:0,0:0:0:0:
87,88,245335,1,0,0:0:0:0:
84,125,245408,1,0,0:0:0:0:
97,161,245482,1,0,0:0:0:0:
124,188,245555,1,8,0:0:0:0:
159,202,245629,1,0,0:0:0:0:
196,201,245702,1,0,0:0:0:0:
13,241,245849,5,14,0:0:0:0:
177,108,245996,1,6,0:0:0:0:
142,315,246144,1,14,0:0:0:0:
212,32,246291,6,0,P|249:61|248:142,1,95,6|8,0:0|0:0,0:0:0:0:
330,128,246511,1,0,0:0:0:0:
334,99,246585,1,0,0:0:0:0:
300,298,246732,6,0,L|284:204,1,95,14|0,0:0|0:0,0:0:0:0:
399,158,247026,2,0,L|414:64,1,95,14|0,0:0|0:0,0:0:0:0:
212,32,247320,1,14,0:0:0:0:
491,125,247467,69,6,0:0:0:0:
350,355,247614,1,8,0:0:0:0:
374,314,247687,1,0,0:0:0:0:
370,268,247761,1,0,0:0:0:0:
340,232,247835,1,0,0:0:0:0:
312,194,247908,1,8,0:0:0:0:
307,147,247982,1,0,0:0:0:0:
324,104,248055,1,2,0:0:0:0:
300,298,248202,5,14,0:0:0:0:
399,158,248349,1,6,0:0:0:0:
209,158,248496,1,14,0:0:0:0:
447,280,248644,5,14,0:0:0:0:
448,308,248717,1,0,0:0:0:0:
442,336,248791,1,0,0:0:0:0:
429,361,248864,1,0,0:0:0:0:
374,314,248938,5,14,0:0:0:0:
346,306,249011,1,0,0:0:0:0:
318,305,249085,1,0,0:0:0:0:
290,311,249158,1,0,0:0:0:0:
246,367,249232,69,14,0:0:0:0:
274,374,249305,1,0,0:0:0:0:
302,375,249379,1,0,0:0:0:0:
330,369,249452,1,0,0:0:0:0:
374,314,249526,5,10,0:0:0:0:
46,238,249673,1,10,0:0:0:0:
209,158,249820,5,6,0:0:0:0:
228,189,249893,1,8,0:0:0:0:
261,208,249967,1,0,0:0:0:0:
299,207,250040,1,8,0:0:0:0:
332,189,250114,1,0,0:0:0:0:
352,157,250187,1,8,0:0:0:0:
372,125,250261,1,0,0:0:0:0:
405,107,250335,1,8,0:0:0:0:
443,106,250408,5,6,0:0:0:0:
447,153,250481,1,8,0:0:0:0:
451,200,250555,1,0,0:0:0:0:
455,247,250628,1,8,0:0:0:0:
459,295,250702,69,6,0:0:0:0:
417,273,250775,1,8,0:0:0:0:
370,269,250849,1,0,0:0:0:0:
325,283,250922,1,8,0:0:0:0:
288,313,250996,5,0,0:0:0:0:
255,332,251069,1,8,0:0:0:0:
218,337,251143,1,0,0:0:0:0:
181,329,251216,1,8,0:0:0:0:
150,308,251290,1,0,0:0:0:0:
127,278,251363,1,8,0:0:0:0:
93,258,251438,1,0,0:0:0:0:
55,256,251511,1,8,0:0:0:0:
20,273,251585,5,6,0:0:0:0:
24,225,251658,1,8,0:0:0:0:
28,178,251732,1,0,0:0:0:0:
32,131,251805,1,8,0:0:0:0:
36,83,251879,5,6,0:0:0:0:
75,109,251952,1,8,0:0:0:0:
121,118,252026,1,0,0:0:0:0:
167,107,252099,1,8,0:0:0:0:
205,79,252173,69,6,0:0:0:0:
248,59,252246,1,8,0:0:0:0:
295,56,252320,1,0,0:0:0:0:
341,69,252393,1,8,0:0:0:0:
379,96,252467,5,6,0:0:0:0:
410,131,252540,1,8,0:0:0:0:
414,178,252614,1,0,0:0:0:0:
390,217,252687,1,8,0:0:0:0:
346,235,252761,5,6,0:0:0:0:
291,246,252834,1,8,0:0:0:0:
234,243,252908,1,0,0:0:0:0:
178,233,252981,1,8,0:0:0:0:
121,242,253055,5,6,0:0:0:0:
87,285,253128,1,8,0:0:0:0:
102,338,253202,1,0,0:0:0:0:
153,357,253276,1,8,0:0:0:0:
207,337,253349,69,14,0:0:0:0:
265,318,253422,1,8,0:0:0:0:
327,319,253496,1,8,0:0:0:0:
385,340,253569,1,8,0:0:0:0:
443,351,253643,5,14,0:0:0:0:
489,313,253717,1,8,0:0:0:0:
486,253,253790,1,8,0:0:0:0:
438,218,253864,1,8,0:0:0:0:
383,191,253937,5,14,0:0:0:0:
322,182,254011,1,8,0:0:0:0:
261,192,254084,1,8,0:0:0:0:
201,197,254158,1,8,0:0:0:0:
158,156,254232,5,14,0:0:0:0:
161,96,254305,1,8,0:0:0:0:
207,59,254379,1,8,0:0:0:0:
266,69,254452,1,8,0:0:0:0:
304,119,254526,70,0,P|350:134|419:117,1,95,6|8,0:0|0:0,0:0:0:0:
374,59,254746,1,0,0:0:0:0:
356,36,254820,1,0,0:0:0:0:
487,128,254967,6,0,P|468:183|430:213,1,95,14|0,0:0|0:0,0:0:0:0:
219,120,255261,2,0,P|238:65|276:35,1,95,14|0,0:0|0:0,0:0:0:0:
341,282,255555,1,14,0:0:0:0:
304,119,255702,5,6,0:0:0:0:
63,268,255849,1,8,0:0:0:0:
109,257,255922,1,0,0:0:0:0:
156,248,255996,1,2,0:0:0:0:
163,260,256070,1,2,0:0:0:0:
170,272,256144,1,8,0:0:0:0:
215,283,256217,1,0,0:0:0:0:
262,292,256291,1,2,0:0:0:0:
270,280,256364,1,2,0:0:0:0:
278,268,256438,1,8,0:0:0:0:
324,256,256511,1,0,0:0:0:0:
371,248,256585,1,2,0:0:0:0:
364,235,256658,1,2,0:0:0:0:
357,222,256732,1,8,0:0:0:0:
461,336,256879,6,0,L|511:250,1,95,6|8,0:0|0:0,0:0:0:0:
449,218,257099,1,0,0:0:0:0:
442,231,257173,1,0,0:0:0:0:
480,96,257320,70,0,B|431:112|431:112|353:117,1,95,14|0,0:0|0:0,0:0:0:0:
142,100,257614,2,0,B|191:84|191:84|269:79,1,95,14|0,0:0|0:0,0:0:0:0:
381,90,257908,1,8,0:0:0:0:
288,152,258055,5,2,0:0:0:0:
289,166,258128,1,0,0:0:0:0:
291,180,258202,1,0,0:0:0:0:
292,194,258275,1,0,0:0:0:0:
262,225,258349,5,2,0:0:0:0:
260,239,258422,1,0,0:0:0:0:
258,253,258496,1,0,0:0:0:0:
257,267,258569,1,0,0:0:0:0:
285,300,258644,6,0,L|290:352,1,47.5,8|0,0:0|0:0,0:0:0:0:
377,235,258791,1,0,0:0:0:0:
385,227,258865,1,0,0:0:0:0:
394,220,258938,70,0,L|398:172,2,47.5,8|0|0,0:0|0:0|0:0,0:0:0:0:
482,47,259232,5,6,0:0:0:0:
461,284,259379,1,8,0:0:0:0:
436,312,259452,1,0,0:0:0:0:
402,326,259526,1,0,0:0:0:0:
318,180,259673,6,0,P|365:140|407:135,1,95,14|0,0:0|0:0,0:0:0:0:
157,134,259967,2,0,P|110:94|68:89,1,95,14|0,0:0|0:0,0:0:0:0:
83,338,260261,1,14,0:0:0:0:
79,174,260408,5,6,0:0:0:0:
270,267,260555,1,8,0:0:0:0:
315,280,260629,1,0,0:0:0:0:
361,269,260702,1,2,0:0:0:0:
364,283,260776,1,2,0:0:0:0:
365,297,260849,1,8,0:0:0:0:
410,282,260923,1,0,0:0:0:0:
450,306,260996,1,2,0:0:0:0:
452,291,261070,1,2,0:0:0:0:
454,276,261144,1,8,0:0:0:0:
431,234,261217,1,0,0:0:0:0:
443,187,261291,1,2,0:0:0:0:
456,192,261364,1,2,0:0:0:0:
469,197,261438,1,8,0:0:0:0:
364,104,261585,70,0,L|268:71,1,95,6|8,0:0|0:0,0:0:0:0:
269,140,261805,1,0,0:0:0:0:
282,145,261879,1,0,0:0:0:0:
65,157,262026,6,0,L|49:271,1,95,14|0,0:0|0:0,0:0:0:0:
267,266,262320,2,0,L|283:380,1,95,14|0,0:0|0:0,0:0:0:0:
162,139,262614,1,8,0:0:0:0:
307,329,262761,5,6,0:0:0:0:
327,309,262834,1,0,0:0:0:0:
338,283,262908,1,0,0:0:0:0:
339,254,262981,1,0,0:0:0:0:
329,228,263055,1,8,0:0:0:0:
310,207,263129,1,0,0:0:0:0:
290,187,263202,1,0,0:0:0:0:
278,161,263276,1,8,0:0:0:0:
350,146,263349,5,8,0:0:0:0:
326,162,263422,1,8,0:0:0:0:
300,173,263496,1,8,0:0:0:0:
272,178,263569,1,8,0:0:0:0:
243,179,263643,1,0,0:0:0:0:
216,173,263716,1,0,0:0:0:0:
189,162,263790,1,0,0:0:0:0:
160,162,263864,1,0,0:0:0:0:
93,196,263938,70,0,P|87:148|113:103,1,95,6|8,0:0|0:0,0:0:0:0:
122,89,264158,1,0,0:0:0:0:
130,66,264232,1,0,0:0:0:0:
259,46,264379,6,0,L|369:33,1,95,14|0,0:0|0:0,0:0:0:0:
350,146,264673,2,0,L|444:154,1,95,14|0,0:0|0:0,0:0:0:0:
313,248,264967,2,0,L|418:280,1,95,14|0,0:0|0:0,0:0:0:0:
381,352,265188,1,0,0:0:0:0:
375,337,265261,5,8,0:0:0:0:
330,323,265335,1,0,0:0:0:0:
285,308,265408,1,2,0:0:0:0:
271,313,265482,1,2,0:0:0:0:
258,319,265555,1,8,0:0:0:0:
233,277,265629,1,0,0:0:0:0:
213,234,265702,1,2,0:0:0:0:
199,239,265776,1,2,0:0:0:0:
186,246,265849,1,8,0:0:0:0:
143,223,265923,1,0,0:0:0:0:
129,177,265996,1,2,0:0:0:0:
115,171,266070,1,2,0:0:0:0:
101,166,266144,1,8,0:0:0:0:
260,111,266291,6,0,L|377:165,1,95,6|8,0:0|0:0,0:0:0:0:
343,220,266511,1,0,0:0:0:0:
329,215,266585,1,0,0:0:0:0:
470,286,266732,70,0,B|477:209|477:209|503:248,1,95,14|0,0:0|0:0,0:0:0:0:
412,26,267026,2,0,B|405:103|405:103|379:64,1,95,14|0,0:0|0:0,0:0:0:0:
270,126,267320,1,14,0:0:0:0:
343,220,267467,54,0,L|415:257,2,63.3333333333333,6|8|8,0:0|0:0|0:0,0:0:0:0:
180,255,267761,6,0,L|108:292,2,63.3333333333333,8|8|8,0:0|0:0|0:0,0:0:0:0:
270,265,268055,101,10,0:0:0:0:
257,215,268153,1,8,0:0:0:0:
275,167,268251,1,8,0:0:0:0:
301,123,268349,5,10,0:0:0:0:
314,73,268447,1,8,0:0:0:0:
296,25,268545,1,8,0:0:0:0:
238,78,268644,38,0,B|195:76|195:76|138:85,1,95,6|8,0:0|0:0,0:0:0:0:
139,102,268864,1,0,0:0:0:0:
135,120,268938,1,0,0:0:0:0:
86,269,269085,6,0,L|184:254,1,95,14|0,0:0|0:0,0:0:0:0:
455,298,269379,2,0,L|357:283,1,95,14|0,0:0|0:0,0:0:0:0:
281,72,269673,2,0,L|275:167,1,95,14|0,0:0|0:0,0:0:0:0:
348,190,269894,1,0,0:0:0:0:
342,179,269967,5,8,0:0:0:0:
345,131,270041,1,0,0:0:0:0:
349,84,270114,1,2,0:0:0:0:
361,91,270188,1,2,0:0:0:0:
372,99,270261,1,8,0:0:0:0:
418,88,270335,1,0,0:0:0:0:
461,105,270408,1,2,0:0:0:0:
475,103,270482,1,2,0:0:0:0:
489,101,270555,1,8,0:0:0:0:
479,147,270629,1,0,0:0:0:0:
497,190,270702,1,2,0:0:0:0:
483,194,270776,1,2,0:0:0:0:
469,198,270849,1,8,0:0:0:0:
269,270,270996,6,0,L|361:246,1,95,6|8,0:0|0:0,0:0:0:0:
369,314,271217,1,0,0:0:0:0:
355,318,271290,1,0,0:0:0:0:
345,131,271438,70,0,L|360:22,1,95,14|0,0:0|0:0,0:0:0:0:
159,203,271732,2,0,L|146:108,1,95,14|0,0:0|0:0,0:0:0:0:
0,235,272026,1,14,0:0:0:0:
171,214,272173,6,0,L|177:261,1,47.5
269,270,272320,1,2,0:0:0:0:
299,256,272394,1,2,0:0:0:0:
331,255,272467,1,0,0:0:0:0:
339,251,272540,1,0,0:0:0:0:
347,246,272614,1,2,0:0:0:0:
378,236,272687,1,2,0:0:0:0:
410,230,272761,2,0,L|457:240,1,47.5,8|0,0:0|0:0,0:0:0:0:
463,135,272908,5,2,0:0:0:0:
459,143,272982,1,2,0:0:0:0:
455,151,273055,2,0,B|412:142|412:142|376:141,1,71.25,14|0,0:0|0:0,0:0:0:0:
339,76,273349,5,2,0:0:0:0:
305,93,273422,1,8,0:0:0:0:
268,102,273496,1,0,0:0:0:0:
230,103,273569,1,8,0:0:0:0:
193,95,273643,1,0,0:0:0:0:
161,74,273716,1,8,0:0:0:0:
122,71,273790,1,0,0:0:0:0:
86,85,273864,1,8,0:0:0:0:
70,119,273937,69,6,0:0:0:0:
85,164,274011,1,8,0:0:0:0:
126,187,274085,1,0,0:0:0:0:
172,182,274158,1,8,0:0:0:0:
211,155,274232,5,6,0:0:0:0:
258,152,274305,1,8,0:0:0:0:
301,172,274379,1,0,0:0:0:0:
326,211,274452,1,8,0:0:0:0:
326,258,274526,5,2,0:0:0:0:
325,295,274599,1,8,0:0:0:0:
308,329,274673,1,0,0:0:0:0:
278,352,274746,1,8,0:0:0:0:
241,358,274820,1,0,0:0:0:0:
221,327,274893,1,8,0:0:0:0:
198,296,274967,1,0,0:0:0:0:
166,273,275041,1,8,0:0:0:0:
129,263,275114,5,6,0:0:0:0:
83,257,275187,1,8,0:0:0:0:
55,220,275261,1,0,0:0:0:0:
63,174,275334,1,8,0:0:0:0:
101,148,275408,69,6,0:0:0:0:
143,129,275481,1,8,0:0:0:0:
158,85,275555,1,0,0:0:0:0:
136,45,275628,1,8,0:0:0:0:
92,32,275702,5,0,0:0:0:0:
58,48,275775,1,8,0:0:0:0:
41,81,275849,1,0,0:0:0:0:
47,118,275923,1,8,0:0:0:0:
74,144,275996,5,6,0:0:0:0:
113,170,276069,1,8,0:0:0:0:
130,213,276143,1,0,0:0:0:0:
120,259,276216,1,8,0:0:0:0:
85,291,276291,5,6,0:0:0:0:
63,320,276364,1,8,0:0:0:0:
68,357,276438,1,0,0:0:0:0:
98,379,276511,1,8,0:0:0:0:
134,374,276585,69,6,0:0:0:0:
161,364,276658,1,8,0:0:0:0:
189,360,276732,1,0,0:0:0:0:
217,362,276805,1,8,0:0:0:0:
245,370,276879,5,6,0:0:0:0:
281,377,276952,1,8,0:0:0:0:
317,365,277026,1,0,0:0:0:0:
344,339,277099,1,8,0:0:0:0:
355,303,277173,5,6,0:0:0:0:
366,277,277246,1,8,0:0:0:0:
387,258,277320,1,0,0:0:0:0:
414,251,277393,1,8,0:0:0:0:
442,256,277467,5,6,0:0:0:0:
488,255,277540,1,8,0:0:0:0:
512,218,277614,1,0,0:0:0:0:
499,174,277687,1,8,0:0:0:0:
452,162,277761,69,6,0:0:0:0:
414,203,277834,1,8,0:0:0:0:
358,219,277908,1,0,0:0:0:0:
305,198,277981,1,8,0:0:0:0:
272,150,278055,5,2,0:0:0:0:
269,187,278129,1,8,0:0:0:0:
250,220,278203,1,0,0:0:0:0:
219,240,278276,1,8,0:0:0:0:
182,244,278350,1,0,0:0:0:0:
146,231,278423,1,8,0:0:0:0:
114,212,278496,1,0,0:0:0:0:
75,214,278570,1,8,0:0:0:0:
42,235,278644,5,6,0:0:0:0:
26,190,278717,1,8,0:0:0:0:
29,143,278791,1,0,0:0:0:0:
52,102,278864,1,8,0:0:0:0:
90,74,278938,5,6,0:0:0:0:
134,57,279011,1,8,0:0:0:0:
181,50,279085,1,0,0:0:0:0:
228,47,279158,1,8,0:0:0:0:
276,53,279232,69,2,0:0:0:0:
311,65,279305,1,8,0:0:0:0:
336,94,279379,1,0,0:0:0:0:
343,130,279452,1,8,0:0:0:0:
331,166,279526,1,0,0:0:0:0:
315,200,279599,1,8,0:0:0:0:
284,221,279673,1,0,0:0:0:0:
253,242,279746,1,8,0:0:0:0:
241,277,279820,5,6,0:0:0:0:
251,323,279893,1,8,0:0:0:0:
290,348,279967,1,0,0:0:0:0:
335,340,280040,1,8,0:0:0:0:
363,303,280114,5,6,0:0:0:0:
401,276,280187,1,8,0:0:0:0:
447,276,280261,1,0,0:0:0:0:
485,304,280334,1,8,0:0:0:0:
498,349,280408,5,2,0:0:0:0:
478,317,280481,1,8,0:0:0:0:
468,280,280555,1,0,0:0:0:0:
470,243,280628,1,8,0:0:0:0:
483,207,280702,69,6,0:0:0:0:
492,161,280775,1,8,0:0:0:0:
481,115,280849,1,0,0:0:0:0:
453,77,280922,1,8,0:0:0:0:
413,53,280996,5,6,0:0:0:0:
377,41,281069,1,8,0:0:0:0:
339,42,281143,1,0,0:0:0:0:
304,56,281216,1,8,0:0:0:0:
276,81,281290,5,6,0:0:0:0:
252,96,281364,1,8,0:0:0:0:
224,104,281438,1,0,0:0:0:0:
196,107,281511,1,8,0:0:0:0:
168,104,281585,5,6,0:0:0:0:
130,104,281658,1,8,0:0:0:0:
95,117,281732,1,0,0:0:0:0:
67,142,281805,1,8,0:0:0:0:
49,176,281879,69,6,0:0:0:0:
37,202,281952,1,8,0:0:0:0:
31,230,282026,1,0,0:0:0:0:
31,258,282099,1,8,0:0:0:0:
36,286,282173,5,6,0:0:0:0:
80,267,282246,1,8,0:0:0:0:
127,262,282320,1,0,0:0:0:0:
173,272,282393,1,8,0:0:0:0:
215,294,282467,5,6,0:0:0:0:
267,311,282540,1,8,0:0:0:0:
311,278,282614,1,0,0:0:0:0:
310,223,282687,1,8,0:0:0:0:
265,192,282761,5,2,0:0:0:0:
228,165,282834,1,8,0:0:0:0:
223,119,282908,1,0,0:0:0:0:
253,84,282981,1,8,0:0:0:0:
299,83,283055,1,0,0:0:0:0:
344,97,283128,1,8,0:0:0:0:
379,129,283202,1,0,0:0:0:0:
395,173,283275,1,8,0:0:0:0:
391,220,283349,69,6,0:0:0:0:
369,272,283422,1,8,0:0:0:0:
324,304,283496,1,0,0:0:0:0:
267,307,283569,1,8,0:0:0:0:
218,280,283643,5,6,0:0:0:0:
172,247,283717,1,8,0:0:0:0:
116,240,283791,1,0,0:0:0:0:
64,261,283864,1,8,0:0:0:0:
28,305,283938,5,2,0:0:0:0:
27,257,284011,1,8,0:0:0:0:
26,210,284085,1,0,0:0:0:0:
26,162,284158,1,8,0:0:0:0:
25,115,284232,1,0,0:0:0:0:
70,130,284305,1,8,0:0:0:0:
117,132,284379,1,0,0:0:0:0:
163,120,284452,1,8,0:0:0:0:
204,97,284526,5,6,0:0:0:0:
258,79,284599,1,8,0:0:0:0:
315,85,284673,1,0,0:0:0:0:
364,113,284746,1,8,0:0:0:0:
398,157,284820,69,6,0:0:0:0:
439,192,284893,1,8,0:0:0:0:
492,178,284967,1,0,0:0:0:0:
509,126,285040,1,8,0:0:0:0:
476,83,285114,5,6,0:0:0:0:
423,62,285187,1,8,0:0:0:0:
366,69,285261,1,0,0:0:0:0:
324,107,285334,1,8,0:0:0:0:
271,130,285408,5,6,0:0:0:0:
216,143,285481,1,8,0:0:0:0:
158,145,285555,1,0,0:0:0:0:
104,126,285628,1,8,0:0:0:0:
78,74,285702,5,6,0:0:0:0:
117,27,285775,1,8,0:0:0:0:
179,25,285849,1,0,0:0:0:0:
219,72,285923,1,8,0:0:0:0:
215,133,285996,69,6,0:0:0:0:
203,194,286070,1,8,0:0:0:0:
210,255,286144,1,0,0:0:0:0:
254,297,286217,1,8,0:0:0:0:
313,313,286290,5,6,0:0:0:0:
375,294,286364,1,8,0:0:0:0:
418,244,286438,1,0,0:0:0:0:
426,179,286511,1,8,0:0:0:0:
396,120,286585,5,14,0:0:0:0:
340,88,286658,1,8,0:0:0:0:
274,91,286732,1,8,0:0:0:0:
222,131,286805,1,8,0:0:0:0:
179,180,286878,5,14,0:0:0:0:
115,182,286952,1,8,0:0:0:0:
70,136,287025,1,8,0:0:0:0:
72,71,287099,1,8,0:0:0:0:
122,30,287173,69,14,0:0:0:0:
186,38,287246,1,8,0:0:0:0:
243,73,287320,1,8,0:0:0:0:
276,130,287394,1,8,0:0:0:0:
293,193,287467,5,2,0:0:0:0:
300,229,287540,1,0,0:0:0:0:
323,260,287614,1,8,0:0:0:0:
356,277,287687,1,0,0:0:0:0:
394,279,287761,1,0,0:0:0:0:
429,265,287834,1,0,0:0:0:0:
454,238,287908,1,8,0:0:0:0:
466,202,287981,1,0,0:0:0:0:
454,165,288055,6,0,P|446:139|448:104,1,47.5,6|0,0:0|0:0,0:0:0:0:
300,229,288202,2,0,P|281:208|268:176,1,47.5,14|0,0:0|0:0,0:0:0:0:
383,201,288349,1,0,0:0:0:0:
386,238,288422,1,0,0:0:0:0:
373,274,288496,1,8,0:0:0:0:
347,301,288569,1,0,0:0:0:0:
312,314,288644,6,0,P|289:323|258:340,1,47.5,6|0,0:0|0:0,0:0:0:0:
74,274,288791,1,8,0:0:0:0:
111,271,288864,1,0,0:0:0:0:
149,268,288938,1,0,0:0:0:0:
187,265,289011,1,0,0:0:0:0:
225,262,289085,70,0,L|204:211,1,47.5,14|0,0:0|0:0,0:0:0:0:
93,123,289232,2,0,L|111:166,1,47.5,6|0,0:0|0:0,0:0:0:0:
278,347,289379,6,0,B|300:331|300:331|315:308,1,47.5,14|0,0:0|0:0,0:0:0:0:
383,201,289526,2,0,B|358:189|358:189|330:187,1,47.5,6|0,0:0|0:0,0:0:0:0:
189,211,289673,2,0,B|191:238|191:238|203:262,1,47.5,14|0,0:0|0:0,0:0:0:0:
288,357,289820,5,2,0:0:0:0:
317,332,289893,1,0,0:0:0:0:
336,300,289967,1,8,0:0:0:0:
345,263,290040,1,0,0:0:0:0:
340,226,290114,1,0,0:0:0:0:
324,192,290187,1,0,0:0:0:0:
307,158,290261,1,8,0:0:0:0:
306,121,290335,1,0,0:0:0:0:
323,87,290408,6,0,P|331:60|326:29,1,47.5,6|0,0:0|0:0,0:0:0:0:
405,191,290555,2,0,P|412:218|407:249,1,47.5,14|0,0:0|0:0,0:0:0:0:
231,254,290702,1,0,0:0:0:0:
198,272,290775,1,0,0:0:0:0:
161,267,290849,1,8,0:0:0:0:
133,242,290922,1,0,0:0:0:0:
125,206,290996,70,0,L|59:219,1,47.5,6|0,0:0|0:0,0:0:0:0:
0,264,291144,1,8,0:0:0:0:
9,227,291217,1,0,0:0:0:0:
18,190,291291,1,0,0:0:0:0:
27,153,291364,1,0,0:0:0:0:
36,116,291438,5,14,0:0:0:0:
55,129,291511,1,0,0:0:0:0:
78,134,291585,1,0,0:0:0:0:
101,131,291658,1,0,0:0:0:0:
122,120,291732,6,0,L|124:178,1,47.5,14|0,0:0|0:0,0:0:0:0:
162,314,291879,2,0,L|160:266,1,47.5,14|0,0:0|0:0,0:0:0:0:
187,74,292026,1,8,0:0:0:0:
137,48,292099,1,8,0:0:0:0:
81,56,292173,5,2,0:0:0:0:
63,89,292246,1,0,0:0:0:0:
57,127,292320,1,8,0:0:0:0:
63,164,292394,1,0,0:0:0:0:
82,197,292467,1,0,0:0:0:0:
87,234,292541,1,0,0:0:0:0:
78,271,292614,1,8,0:0:0:0:
56,302,292688,1,0,0:0:0:0:
25,323,292761,70,0,L|85:332,1,47.5,6|0,0:0|0:0,0:0:0:0:
207,259,292908,2,0,L|147:268,1,47.5,14|0,0:0|0:0,0:0:0:0:
0,230,293055,1,0,0:0:0:0:
37,225,293128,1,0,0:0:0:0:
75,220,293202,1,8,0:0:0:0:
113,216,293275,1,0,0:0:0:0:
82,197,293349,6,0,L|5:205,1,47.5,6|0,0:0|0:0,0:0:0:0:
306,180,293496,1,8,0:0:0:0:
268,175,293569,1,0,0:0:0:0:
230,170,293643,1,0,0:0:0:0:
192,166,293716,1,0,0:0:0:0:
224,147,293790,6,0,L|301:155,1,47.5,14|0,0:0|0:0,0:0:0:0:
480,138,293938,2,0,L|403:146,1,47.5,6|0,0:0|0:0,0:0:0:0:
260,25,294085,6,0,L|271:100,1,47.5,14|0,0:0|0:0,0:0:0:0:
374,267,294232,2,0,L|367:220,1,47.5,6|0,0:0|0:0,0:0:0:0:
434,17,294379,2,0,L|445:92,1,47.5,14|0,0:0|0:0,0:0:0:0:
260,255,294526,69,2,0:0:0:0:
222,253,294599,1,0,0:0:0:0:
186,264,294673,1,8,0:0:0:0:
156,288,294746,1,0,0:0:0:0:
126,309,294819,1,0,0:0:0:0:
88,310,294893,1,0,0:0:0:0:
57,290,294967,6,0,P|42:271|39:231,1,47.5,14|0,0:0|0:0,0:0:0:0:
171,124,295114,2,0,P|186:143|189:183,1,47.5,6|0,0:0|0:0,0:0:0:0:
50,311,295261,2,0,P|34:291|31:251,1,47.5,14|0,0:0|0:0,0:0:0:0:
178,105,295408,1,0,0:0:0:0:
198,136,295481,1,0,0:0:0:0:
203,173,295555,1,8,0:0:0:0:
189,208,295628,1,0,0:0:0:0:
161,233,295702,6,0,P|136:245|103:247,1,47.5,6|0,0:0|0:0,0:0:0:0:
290,189,295849,1,8,0:0:0:0:
324,173,295922,1,0,0:0:0:0:
362,168,295996,1,0,0:0:0:0:
399,174,296069,1,0,0:0:0:0:
434,190,296144,6,0,P|459:201|492:203,3,47.5,14|0|0|0,0:0|0:0|0:0|0:0,0:0:0:0:
360,284,296438,69,6,0:0:0:0:
478,88,296585,1,6,0:0:0:0:
426,348,296732,1,6,0:0:0:0:
359,100,296879,6,0,L|334:8,1,95,6|8,0:0|0:0,0:0:0:0:
269,30,297099,1,0,0:0:0:0:
278,66,297172,1,0,0:0:0:0:
288,103,297246,1,0,0:0:0:0:
298,140,297320,6,0,L|172:163,1,95,14|0,0:0|0:0,0:0:0:0:
360,284,297614,2,0,L|486:306,1,95,14|0,0:0|0:0,0:0:0:0:
268,268,297908,1,14,0:0:0:0:
359,100,298055,5,6,0:0:0:0:
156,223,298202,1,8,0:0:0:0:
129,196,298275,1,0,0:0:0:0:
117,160,298349,1,0,0:0:0:0:
122,123,298422,1,0,0:0:0:0:
144,92,298496,1,8,0:0:0:0:
177,75,298569,1,0,0:0:0:0:
215,74,298643,1,0,0:0:0:0:
7,171,298791,69,14,0:0:0:0:
204,157,298938,1,6,0:0:0:0:
36,45,299085,1,14,0:0:0:0:
66,314,299232,5,14,0:0:0:0:
77,288,299305,1,0,0:0:0:0:
79,260,299379,1,0,0:0:0:0:
70,233,299452,1,0,0:0:0:0:
15,187,299526,5,14,0:0:0:0:
3,212,299599,1,0,0:0:0:0:
1,240,299673,1,0,0:0:0:0:
10,267,299746,1,0,0:0:0:0:
70,233,299820,5,14,0:0:0:0:
81,207,299893,1,0,0:0:0:0:
83,179,299967,1,0,0:0:0:0:
74,152,300040,1,0,0:0:0:0:
12,117,300114,69,10,0:0:0:0:
66,314,300261,1,10,0:0:0:0:
144,131,300408,6,0,P|159:178|140:230,1,95,6|8,0:0|0:0,0:0:0:0:
83,179,300629,1,0,0:0:0:0:
119,169,300702,1,0,0:0:0:0:
157,169,300776,1,0,0:0:0:0:
194,177,300849,1,8,0:0:0:0:
232,176,300923,1,0,0:0:0:0:
263,155,300996,1,0,0:0:0:0:
66,314,301144,5,14,0:0:0:0:
204,89,301291,1,6,0:0:0:0:
269,266,301438,1,14,0:0:0:0:
389,173,301585,6,0,L|353:77,1,95,6|8,0:0|0:0,0:0:0:0:
422,60,301805,1,0,0:0:0:0:
434,95,301879,1,0,0:0:0:0:
276,81,302026,70,0,P|252:33|200:17,1,95,14|0,0:0|0:0,0:0:0:0:
67,169,302320,2,0,P|91:217|143:233,1,95,14|0,0:0|0:0,0:0:0:0:
389,173,302614,1,12,0:0:0:0:
140,160,302761,6,0,L|251:166,1,95,6|8,0:0|0:0,0:0:0:0:
278,240,302982,1,0,0:0:0:0:
305,214,303055,1,0,0:0:0:0:
319,179,303129,1,0,0:0:0:0:
318,141,303202,1,8,0:0:0:0:
300,108,303276,1,0,0:0:0:0:
271,84,303349,1,0,0:0:0:0:
347,328,303496,5,14,0:0:0:0:
234,165,303644,1,6,0:0:0:0:
462,235,303791,1,14,0:0:0:0:
278,240,303938,5,14,0:0:0:0:
251,250,304011,1,0,0:0:0:0:
223,252,304085,1,0,0:0:0:0:
195,245,304158,1,0,0:0:0:0:
146,191,304232,69,14,0:0:0:0:
172,180,304305,1,0,0:0:0:0:
200,178,304379,1,0,0:0:0:0:
228,185,304452,1,0,0:0:0:0:
278,240,304526,5,14,0:0:0:0:
294,216,304599,1,0,0:0:0:0:
299,187,304673,1,0,0:0:0:0:
296,158,304746,1,0,0:0:0:0:
242,110,304820,5,10,0:0:0:0:
462,235,304967,1,10,0:0:0:0:
331,28,305114,5,6,0:0:0:0:
332,42,305187,1,0,0:0:0:0:
333,56,305261,1,8,0:0:0:0:
334,70,305334,1,0,0:0:0:0:
310,106,305408,69,6,0:0:0:0:
308,120,305481,1,0,0:0:0:0:
307,134,305555,1,8,0:0:0:0:
306,148,305628,1,0,0:0:0:0:
336,178,305702,5,6,0:0:0:0:
300,165,305775,1,0,0:0:0:0:
262,163,305849,1,8,0:0:0:0:
224,169,305922,1,0,0:0:0:0:
190,185,305996,5,6,0:0:0:0:
148,204,306069,1,0,0:0:0:0:
108,182,306143,1,8,0:0:0:0:
103,137,306216,1,0,0:0:0:0:
136,106,306291,6,0,B|182:75|240:100|240:100|273:89|273:89|318:106|318:106|369:98|369:98|361:149|407:182,1,332.5,6|0,0:0|0:0,0:0:0:0:
453,110,306879,69,6,0:0:0:0:
480,148,306952,1,0,0:0:0:0:
482,194,307026,1,8,0:0:0:0:
459,235,307099,1,0,0:0:0:0:
418,258,307173,1,0,0:0:0:0:
461,103,307320,1,8,0:0:0:0:
376,344,307467,5,6,0:0:0:0:
334,305,307540,1,0,0:0:0:0:
325,250,307614,1,8,0:0:0:0:
350,200,307687,1,0,0:0:0:0:
400,176,307761,1,0,0:0:0:0:
372,357,307908,1,8,0:0:0:0:
400,85,308055,5,6,0:0:0:0:
460,110,308129,1,0,0:0:0:0:
488,169,308202,1,8,0:0:0:0:
470,231,308276,1,0,0:0:0:0:
416,267,308349,1,0,0:0:0:0:
405,73,308496,1,8,0:0:0:0:
264,265,308644,5,14,0:0:0:0:
230,247,308717,1,0,0:0:0:0:
193,247,308791,1,0,0:0:0:0:
159,264,308864,1,0,0:0:0:0:
108,314,308938,69,14,0:0:0:0:
141,332,309011,1,0,0:0:0:0:
178,332,309085,1,0,0:0:0:0:
212,315,309158,1,0,0:0:0:0:
264,265,309232,6,0,B|272:272|272:272|262:212,1,47.5,14|0,0:0|0:0,0:0:0:0:
19,344,309379,2,0,B|11:351|11:351|21:291,1,47.5,6|0,0:0|0:0,0:0:0:0:
132,41,309526,1,14,0:0:0:0:
135,97,309599,1,0,0:0:0:0:
139,154,309673,1,8,0:0:0:0:
143,211,309746,1,0,0:0:0:0:
147,268,309820,6,0,B|130:279|130:279|123:197,1,95,6|8,0:0|0:0,0:0:0:0:
60,229,310041,1,0,0:0:0:0:
60,229,310114,5,6,0:0:0:0:
61,243,310187,1,0,0:0:0:0:
62,257,310261,1,8,0:0:0:0:
63,271,310334,1,0,0:0:0:0:
66,299,310408,69,6,0:0:0:0:
80,324,310482,1,0,0:0:0:0:
103,340,310555,1,8,0:0:0:0:
130,346,310629,1,0,0:0:0:0:
159,342,310702,5,6,0:0:0:0:
199,328,310775,1,0,0:0:0:0:
241,323,310849,1,8,0:0:0:0:
284,328,310922,1,0,0:0:0:0:
324,341,310996,6,0,B|380:374|434:350|434:350|433:317|453:294|453:294|418:255|435:226|442:181|507:186|536:212,1,332.5,6|0,0:0|0:0,0:0:0:0:
489,250,311585,5,6,0:0:0:0:
432,253,311658,1,0,0:0:0:0:
375,256,311732,1,8,0:0:0:0:
318,259,311805,1,0,0:0:0:0:
261,263,311879,69,6,0:0:0:0:
313,240,311952,1,0,0:0:0:0:
365,217,312026,1,8,0:0:0:0:
418,194,312099,1,0,0:0:0:0:
470,171,312173,5,6,0:0:0:0:
424,170,312246,1,0,0:0:0:0:
396,134,312320,1,8,0:0:0:0:
406,89,312393,1,0,0:0:0:0:
447,69,312467,5,6,0:0:0:0:
393,52,312540,1,0,0:0:0:0:
336,57,312614,1,8,0:0:0:0:
286,84,312687,1,0,0:0:0:0:
236,111,312761,1,0,0:0:0:0:
180,113,312835,1,0,0:0:0:0:
128,91,312908,5,14,0:0:0:0:
82,83,312981,1,0,0:0:0:0:
42,107,313055,1,0,0:0:0:0:
26,150,313128,1,0,0:0:0:0:
43,194,313202,1,8,0:0:0:0:
83,217,313275,1,0,0:0:0:0:
151,196,313349,69,14,0:0:0:0:
153,233,313422,1,0,0:0:0:0:
136,267,313496,1,0,0:0:0:0:
103,286,313569,1,0,0:0:0:0:
32,269,313644,6,0,P|31:302|38:318,1,47.5,14|0,0:0|0:0,0:0:0:0:
171,331,313791,2,0,P|197:311|206:296,1,47.5,6|0,0:0|0:0,0:0:0:0:
324,175,313938,5,14,0:0:0:0:
326,213,314011,1,0,0:0:0:0:
328,251,314085,1,0,0:0:0:0:
330,289,314158,1,0,0:0:0:0:
400,273,314232,6,0,L|402:320,1,47.5,14|0,0:0|0:0,0:0:0:0:
255,241,314379,2,0,L|252:193,1,47.5,6|0,0:0|0:0,0:0:0:0:
236,111,314526,69,6,0:0:0:0:
215,79,314599,1,8,0:0:0:0:
181,63,314673,1,0,0:0:0:0:
144,65,314746,1,8,0:0:0:0:
112,86,314820,1,0,0:0:0:0:
96,120,314894,1,8,0:0:0:0:
87,156,314967,1,0,0:0:0:0:
92,194,315041,1,8,0:0:0:0:
108,228,315114,5,6,0:0:0:0:
138,264,315187,1,8,0:0:0:0:
182,279,315261,1,0,0:0:0:0:
228,271,315334,1,8,0:0:0:0:
263,240,315408,5,6,0:0:0:0:
304,217,315481,1,8,0:0:0:0:
351,211,315555,1,0,0:0:0:0:
397,224,315628,1,8,0:0:0:0:
433,254,315702,5,2,0:0:0:0:
398,241,315775,1,8,0:0:0:0:
372,214,315849,1,0,0:0:0:0:
362,178,315922,1,8,0:0:0:0:
369,141,315996,1,0,0:0:0:0:
392,111,316069,1,8,0:0:0:0:
418,85,316143,1,0,0:0:0:0:
414,49,316217,1,8,0:0:0:0:
383,29,316290,69,6,0:0:0:0:
337,18,316364,1,8,0:0:0:0:
291,30,316438,1,0,0:0:0:0:
256,60,316511,1,8,0:0:0:0:
238,104,316585,5,6,0:0:0:0:
218,147,316658,1,8,0:0:0:0:
179,173,316732,1,0,0:0:0:0:
132,175,316805,1,8,0:0:0:0:
91,152,316879,5,6,0:0:0:0:
138,146,316952,1,8,0:0:0:0:
182,161,317026,1,0,0:0:0:0:
215,195,317099,1,8,0:0:0:0:
230,240,317173,5,6,0:0:0:0:
250,282,317246,1,8,0:0:0:0:
289,308,317320,1,0,0:0:0:0:
336,309,317393,1,8,0:0:0:0:
376,285,317467,69,6,0:0:0:0:
413,243,317540,1,8,0:0:0:0:
421,187,317614,1,0,0:0:0:0:
397,136,317687,1,8,0:0:0:0:
350,106,317761,5,6,0:0:0:0:
298,82,317834,1,8,0:0:0:0:
243,70,317908,1,0,0:0:0:0:
186,72,317981,1,8,0:0:0:0:
131,86,318055,5,6,0:0:0:0:
79,116,318128,1,8,0:0:0:0:
68,175,318202,1,8,0:0:0:0:
105,221,318275,1,0,0:0:0:0:
165,223,318349,5,6,0:0:0:0:
224,233,318422,1,0,0:0:0:0:
250,286,318496,1,8,0:0:0:0:
223,339,318569,1,0,0:0:0:0:
164,348,318643,69,6,0:0:0:0:
102,342,318717,1,0,0:0:0:0:
53,303,318791,1,0,0:0:0:0:
32,245,318864,1,0,0:0:0:0:
57,188,318938,5,6,0:0:0:0:
102,147,319011,1,0,0:0:0:0:
113,85,319085,1,0,0:0:0:0:
75,36,319158,1,0,0:0:0:0:
12,32,319232,6,0,B|46:26|46:26|147:28,1,118.75,6|8,0:0|0:0,0:0:0:0:
166,95,319452,1,0,0:0:0:0:
128,94,319525,1,0,0:0:0:0:
90,93,319599,1,0,0:0:0:0:
52,92,319672,1,8,0:0:0:0:
224,233,319820,5,6,0:0:0:0:
192,23,319967,1,14,0:0:0:0:
338,255,320114,1,0,0:0:0:0:
344,217,320187,1,0,0:0:0:0:
350,179,320261,1,8,0:0:0:0:
355,142,320334,1,0,0:0:0:0:
361,104,320408,1,0,0:0:0:0:
454,316,320555,70,0,L|433:184,1,118.75,14|0,0:0|0:0,0:0:0:0:
224,233,320849,2,0,L|245:101,1,118.75,14|0,0:0|0:0,0:0:0:0:
338,255,321144,5,14,0:0:0:0:
361,104,321291,1,6,0:0:0:0:
456,213,321438,1,14,0:0:0:0:
242,115,321585,6,0,B|200:98|200:98|223:159,1,95,6|8,0:0|0:0,0:0:0:0:
167,195,321805,1,0,0:0:0:0:
153,159,321878,1,0,0:0:0:0:
139,124,321952,1,0,0:0:0:0:
126,89,322025,1,8,0:0:0:0:
133,274,322173,5,6,0:0:0:0:
201,98,322320,1,14,0:0:0:0:
279,310,322467,1,0,0:0:0:0:
260,276,322540,1,0,0:0:0:0:
259,239,322614,1,8,0:0:0:0:
275,205,322687,1,0,0:0:0:0:
305,182,322761,1,0,0:0:0:0:
72,318,322908,70,0,P|132:349|195:318,1,118.75,14|0,0:0|0:0,0:0:0:0:
336,256,323202,2,0,P|377:215|379:157,1,118.75,14|0,0:0|0:0,0:0:0:0:
201,98,323496,5,14,0:0:0:0:
443,42,323644,2,0,B|404:41|404:41|400:36|400:36|360:35,1,71.25,14|0,0:0|0:0,0:0:0:0:
341,45,323938,6,0,B|394:46|394:46|402:56|402:56|482:58,1,118.75,6|8,0:0|0:0,0:0:0:0:
478,125,324158,1,0,0:0:0:0:
440,124,324231,1,0,0:0:0:0:
402,123,324305,1,0,0:0:0:0:
364,122,324378,1,8,0:0:0:0:
483,277,324526,5,6,0:0:0:0:
443,42,324673,1,14,0:0:0:0:
332,205,324820,1,0,0:0:0:0:
295,175,324893,1,0,0:0:0:0:
278,132,324967,1,8,0:0:0:0:
285,85,325040,1,0,0:0:0:0:
315,49,325114,1,0,0:0:0:0:
203,241,325261,70,0,L|84:237,1,118.75,14|0,0:0|0:0,0:0:0:0:
364,122,325555,2,0,L|483:126,1,118.75,14|0,0:0|0:0,0:0:0:0:
332,205,325849,5,14,0:0:0:0:
315,49,325996,1,6,0:0:0:0:
480,139,326144,1,14,0:0:0:0:
139,129,326291,6,0,B|113:127|113:127|185:76,1,95,6|8,0:0|0:0,0:0:0:0:
142,27,326511,1,0,0:0:0:0:
111,49,326584,1,0,0:0:0:0:
80,71,326658,1,0,0:0:0:0:
49,93,326731,1,8,0:0:0:0:
241,37,326879,5,6,0:0:0:0:
113,127,327026,1,14,0:0:0:0:
372,203,327173,1,0,0:0:0:0:
332,205,327247,1,0,0:0:0:0:
294,206,327320,1,8,0:0:0:0:
256,207,327394,1,0,0:0:0:0:
218,208,327467,1,0,0:0:0:0:
55,305,327614,70,0,L|180:308,1,118.75,14|0,0:0|0:0,0:0:0:0:
255,134,327908,2,0,L|380:131,1,118.75,14|0,0:0|0:0,0:0:0:0:
485,269,328202,5,14,0:0:0:0:
261,276,328349,2,0,L|339:273,1,71.25,14|0,0:0|0:0,0:0:0:0:
321,311,328644,6,0,L|272:312,5,47.5,2|0|0|0|0|0,0:0|0:0|0:0|0:0|0:0|0:0,0:0:0:0:
432,309,329085,2,0,L|481:306,5,47.5,2|0|0|0|0|0,0:0|0:0|0:0|0:0|0:0|0:0,0:0:0:0:
398,199,329526,5,0,0:0:0:0:
392,180,329599,1,0,0:0:0:0:
390,160,329673,1,0,0:0:0:0:
393,141,329746,1,0,0:0:0:0:
400,123,329820,69,0,0:0:0:0:
409,87,329893,1,0,0:0:0:0:
390,55,329967,1,0,0:0:0:0:
354,48,330040,1,0,0:0:0:0:
318,61,330114,1,0,0:0:0:0:
281,65,330188,1,0,0:0:0:0:
243,61,330261,5,0,0:0:0:0:
279,51,330334,1,0,0:0:0:0:
314,63,330408,1,0,0:0:0:0:
337,93,330481,1,0,0:0:0:0:
339,131,330555,1,2,0:0:0:0:
335,139,330628,1,2,0:0:0:0:
331,148,330702,5,8,0:0:0:0:
386,153,330776,1,8,0:0:0:0:
422,196,330849,1,8,0:0:0:0:
418,251,330922,1,8,0:0:0:0:
351,223,330996,6,0,L|223:218,1,95,6|8,0:0|0:0,0:0:0:0:
265,289,331217,1,0,0:0:0:0:
303,290,331291,1,0,0:0:0:0:
113,305,331438,70,0,P|61:305|15:329,1,95,14|0,0:0|0:0,0:0:0:0:
244,203,331732,2,0,P|196:181|145:183,1,95,14|0,0:0|0:0,0:0:0:0:
12,207,332026,1,14,0:0:0:0:
178,265,332173,5,6,0:0:0:0:
159,112,332320,1,8,0:0:0:0:
196,111,332393,1,0,0:0:0:0:
233,119,332467,1,0,0:0:0:0:
268,135,332540,1,0,0:0:0:0:
298,159,332614,1,8,0:0:0:0:
322,188,332688,1,0,0:0:0:0:
349,213,332761,1,0,0:0:0:0:
386,224,332835,1,0,0:0:0:0:
423,217,332908,1,8,0:0:0:0:
453,194,332982,1,0,0:0:0:0:
469,161,333055,1,0,0:0:0:0:
469,123,333129,1,0,0:0:0:0:
453,89,333202,1,8,0:0:0:0:
488,266,333349,6,0,P|449:293|382:287,1,95,6|8,0:0|0:0,0:0:0:0:
386,224,333570,1,0,0:0:0:0:
423,217,333643,1,0,0:0:0:0:
243,305,333791,6,0,P|261:263|250:206,1,95,14|0,0:0|0:0,0:0:0:0:
391,144,334085,2,0,P|373:102|384:45,1,95,14|0,0:0|0:0,0:0:0:0:
196,51,334379,1,14,0:0:0:0:
188,250,334526,69,14,0:0:0:0:
180,222,334599,1,0,0:0:0:0:
183,194,334673,1,0,0:0:0:0:
196,169,334746,1,0,0:0:0:0:
254,215,334820,5,14,0:0:0:0:
261,242,334893,1,0,0:0:0:0:
258,270,334967,1,0,0:0:0:0:
245,295,335040,1,0,0:0:0:0:
209,358,335114,5,14,0:0:0:0:
236,365,335187,1,0,0:0:0:0:
264,362,335261,1,0,0:0:0:0:
289,349,335334,1,0,0:0:0:0:
335,294,335408,6,0,P|352:317|358:342,1,47.5,14|0,0:0|0:0,0:0:0:0:
91,279,335555,1,2,0:0:0:0:
98,291,335629,1,2,0:0:0:0:
104,303,335702,70,0,L|112:166,1,95,6|8,0:0|0:0,0:0:0:0:
118,219,335923,1,0,0:0:0:0:
125,231,335997,1,0,0:0:0:0:
216,69,336144,6,0,B|261:68|261:68|270:62|270:62|328:61,1,95,14|0,0:0|0:0,0:0:0:0:
472,188,336438,2,0,B|427:187|427:187|418:181|418:181|360:180,1,95,14|0,0:0|0:0,0:0:0:0:
196,169,336732,1,14,0:0:0:0:
404,76,336879,5,6,0:0:0:0:
329,245,337026,1,8,0:0:0:0:
300,207,337099,1,0,0:0:0:0:
299,159,337173,1,2,0:0:0:0:
291,147,337246,1,2,0:0:0:0:
281,136,337320,1,8,0:0:0:0:
257,94,337394,1,0,0:0:0:0:
216,69,337467,1,2,0:0:0:0:
213,54,337541,1,2,0:0:0:0:
210,40,337614,1,8,0:0:0:0:
162,48,337688,1,0,0:0:0:0:
115,58,337761,1,2,0:0:0:0:
104,48,337835,1,2,0:0:0:0:
93,38,337908,1,8,0:0:0:0:
82,182,338055,6,0,L|153:252,1,95,6|8,0:0|0:0,0:0:0:0:
184,185,338276,1,0,0:0:0:0:
173,175,338349,1,0,0:0:0:0:
291,312,338496,70,0,P|345:321|393:287,1,95,14|0,0:0|0:0,0:0:0:0:
369,127,338791,2,0,P|315:118|267:152,1,95,14|0,0:0|0:0,0:0:0:0:
145,278,339085,1,14,0:0:0:0:
332,217,339232,5,6,0:0:0:0:
387,223,339305,1,8,0:0:0:0:
437,197,339379,1,8,0:0:0:0:
465,148,339452,1,8,0:0:0:0:
462,92,339526,1,8,0:0:0:0:
428,47,339599,1,8,0:0:0:0:
375,28,339673,6,0,P|343:26|312:31,1,47.5,6|0,0:0|0:0,0:0:0:0:
386,355,339820,1,8,0:0:0:0:
382,298,339893,1,8,0:0:0:0:
378,241,339967,1,8,0:0:0:0:
373,184,340040,1,8,0:0:0:0:
369,127,340114,5,0,0:0:0:0:
363,140,340188,1,0,0:0:0:0:
357,152,340261,1,0,0:0:0:0:
351,165,340335,1,0,0:0:0:0:
346,178,340408,70,0,L|358:312,1,95,6|8,0:0|0:0,0:0:0:0:
343,263,340629,1,0,0:0:0:0:
331,254,340702,1,0,0:0:0:0:
160,322,340849,6,0,L|265:336,1,95,14|0,0:0|0:0,0:0:0:0:
95,234,341144,2,0,L|200:225,1,95,14|0,0:0|0:0,0:0:0:0:
28,151,341438,2,0,L|129:121,1,95,14|0,0:0|0:0,0:0:0:0:
73,58,341658,1,0,0:0:0:0:
84,66,341732,5,8,0:0:0:0:
129,52,341805,1,0,0:0:0:0:
175,39,341879,1,2,0:0:0:0:
174,53,341952,1,2,0:0:0:0:
175,67,342026,1,8,0:0:0:0:
209,98,342099,1,0,0:0:0:0:
240,133,342173,1,2,0:0:0:0:
250,124,342246,1,2,0:0:0:0:
261,115,342320,1,8,0:0:0:0:
293,149,342394,1,0,0:0:0:0:
325,182,342467,1,2,0:0:0:0:
339,180,342541,1,2,0:0:0:0:
353,179,342614,1,8,0:0:0:0:
203,270,342761,6,0,B|171:263|171:263|99:282,1,95,6|8,0:0|0:0,0:0:0:0:
147,338,342982,1,0,0:0:0:0:
111,346,343055,1,0,0:0:0:0:
196,192,343202,70,0,L|210:87,1,95,14|0,0:0|0:0,0:0:0:0:
367,268,343496,2,0,L|353:163,1,95,14|0,0:0|0:0,0:0:0:0:
257,349,343791,1,14,0:0:0:0:
388,284,343938,6,0,L|394:331,1,47.5
479,251,344085,1,2,0:0:0:0:
466,220,344158,1,2,0:0:0:0:
470,186,344232,5,0,0:0:0:0:
466,177,344305,1,0,0:0:0:0:
460,169,344379,1,2,0:0:0:0:
431,152,344452,1,2,0:0:0:0:
398,157,344526,5,0,0:0:0:0:
392,149,344599,1,0,0:0:0:0:
386,141,344673,1,2,0:0:0:0:
354,129,344746,1,2,0:0:0:0:
321,134,344820,70,0,L|310:82,1,47.5,8|0,0:0|0:0,0:0:0:0:
166,56,344967,1,2,0:0:0:0:
141,78,345041,1,2,0:0:0:0:
117,101,345114,6,0,L|135:194,1,95,6|8,0:0|0:0,0:0:0:0:
110,215,345335,1,0,0:0:0:0:
85,237,345409,1,0,0:0:0:0:
267,221,345555,6,0,B|343:214|343:214|330:240,1,95,14|0,0:0|0:0,0:0:0:0:
232,346,345849,2,0,B|156:353|156:353|169:327,1,95,14|0,0:0|0:0,0:0:0:0:
280,201,346144,2,0,B|356:194|356:194|343:220,1,95,14|0,0:0|0:0,0:0:0:0:
397,274,346364,1,0,0:0:0:0:
393,266,346438,5,8,0:0:0:0:
409,231,346511,1,0,0:0:0:0:
425,197,346585,1,2,0:0:0:0:
439,194,346658,1,2,0:0:0:0:
453,192,346732,1,8,0:0:0:0:
439,146,346805,1,0,0:0:0:0:
450,99,346879,1,2,0:0:0:0:
463,94,346952,1,2,0:0:0:0:
477,91,347026,1,8,0:0:0:0:
452,50,347099,1,0,0:0:0:0:
419,14,347173,1,2,0:0:0:0:
432,10,347246,1,2,0:0:0:0:
445,6,347320,1,8,0:0:0:0:
301,112,347467,70,0,L|193:143,1,95,6|8,0:0|0:0,0:0:0:0:
219,68,347688,1,0,0:0:0:0:
232,64,347762,1,0,0:0:0:0:
90,192,347908,6,0,B|113:220|113:220|124:291,1,95,14|0,0:0|0:0,0:0:0:0:
311,130,348202,2,0,B|288:158|288:158|277:229,1,95,14|0,0:0|0:0,0:0:0:0:
120,68,348496,1,14,0:0:0:0:
341,239,348644,6,0,L|349:191,1,47.5
426,114,348791,1,2,0:0:0:0:
444,141,348864,1,2,0:0:0:0:
450,173,348938,1,0,0:0:0:0:
446,181,349011,1,0,0:0:0:0:
441,189,349085,1,2,0:0:0:0:
448,221,349158,1,2,0:0:0:0:
469,246,349232,6,0,P|480:273|479:294,1,47.5,8|0,0:0|0:0,0:0:0:0:
263,246,349379,1,8,0:0:0:0:
287,296,349452,1,8,0:0:0:0:
338,317,349526,1,8,0:0:0:0:
391,298,349599,1,8,0:0:0:0:
418,250,349673,1,8,0:0:0:0:
405,195,349746,1,8,0:0:0:0:
359,163,349820,69,2,0:0:0:0:
332,138,349893,1,8,0:0:0:0:
327,101,349967,1,0,0:0:0:0:
337,65,350040,1,8,0:0:0:0:
316,35,350114,1,0,0:0:0:0:
281,24,350187,1,8,0:0:0:0:
246,39,350261,1,0,0:0:0:0:
230,72,350334,1,8,0:0:0:0:
244,108,350408,5,6,0:0:0:0:
253,153,350481,1,8,0:0:0:0:
236,196,350555,1,0,0:0:0:0:
196,222,350628,1,8,0:0:0:0:
150,220,350702,5,6,0:0:0:0:
108,202,350775,1,8,0:0:0:0:
71,229,350849,1,0,0:0:0:0:
76,274,350922,1,8,0:0:0:0:
117,293,350996,5,2,0:0:0:0:
153,303,351069,1,8,0:0:0:0:
191,304,351143,1,0,0:0:0:0:
228,297,351216,1,8,0:0:0:0:
263,281,351290,1,0,0:0:0:0:
293,258,351363,1,8,0:0:0:0:
328,244,351437,1,0,0:0:0:0:
366,243,351511,1,8,0:0:0:0:
402,254,351584,69,6,0:0:0:0:
447,265,351658,1,8,0:0:0:0:
482,236,351732,1,0,0:0:0:0:
481,191,351805,1,8,0:0:0:0:
443,164,351879,5,6,0:0:0:0:
405,138,351952,1,8,0:0:0:0:
403,92,352026,1,0,0:0:0:0:
438,63,352099,1,8,0:0:0:0:
483,72,352173,5,2,0:0:0:0:
447,85,352246,1,8,0:0:0:0:
410,91,352320,1,0,0:0:0:0:
372,89,352393,1,8,0:0:0:0:
335,79,352467,5,6,0:0:0:0:
289,67,352540,1,8,0:0:0:0:
242,67,352614,1,0,0:0:0:0:
196,80,352687,1,8,0:0:0:0:
156,104,352761,69,6,0:0:0:0:
130,131,352834,1,8,0:0:0:0:
93,130,352908,1,0,0:0:0:0:
70,101,352981,1,8,0:0:0:0:
75,65,353055,5,6,0:0:0:0:
94,44,353128,1,8,0:0:0:0:
121,38,353202,1,0,0:0:0:0:
147,49,353275,1,8,0:0:0:0:
161,73,353349,5,6,0:0:0:0:
170,110,353422,1,8,0:0:0:0:
166,147,353496,1,0,0:0:0:0:
150,181,353569,1,8,0:0:0:0:
153,219,353643,5,6,0:0:0:0:
167,242,353717,1,8,0:0:0:0:
192,255,353791,1,0,0:0:0:0:
220,253,353864,1,8,0:0:0:0:
243,237,353938,69,6,0:0:0:0:
285,216,354011,1,8,0:0:0:0:
332,220,354085,1,0,0:0:0:0:
369,249,354158,1,8,0:0:0:0:
384,293,354232,5,6,0:0:0:0:
409,342,354305,1,8,0:0:0:0:
464,346,354379,1,0,0:0:0:0:
495,301,354452,1,8,0:0:0:0:
474,251,354526,5,2,0:0:0:0:
450,221,354599,1,8,0:0:0:0:
442,185,354673,1,0,0:0:0:0:
449,148,354746,1,8,0:0:0:0:
472,118,354820,1,0,0:0:0:0:
497,90,354893,1,8,0:0:0:0:
495,53,354967,1,0,0:0:0:0:
467,29,355040,1,8,0:0:0:0:
430,32,355114,5,6,0:0:0:0:
406,72,355187,1,8,0:0:0:0:
424,116,355261,1,0,0:0:0:0:
397,154,355334,1,8,0:0:0:0:
349,162,355408,69,6,0:0:0:0:
319,124,355481,1,8,0:0:0:0:
275,103,355555,1,0,0:0:0:0:
227,101,355628,1,8,0:0:0:0:
183,121,355702,5,2,0:0:0:0:
155,147,355775,1,8,0:0:0:0:
140,181,355849,1,0,0:0:0:0:
138,219,355922,1,8,0:0:0:0:
150,255,355996,1,0,0:0:0:0:
174,284,356069,1,8,0:0:0:0:
207,302,356143,1,0,0:0:0:0:
245,307,356216,1,8,0:0:0:0:
283,300,356291,5,0,0:0:0:0:
273,253,356364,1,8,0:0:0:0:
276,206,356438,1,0,0:0:0:0:
291,161,356511,1,8,0:0:0:0:
319,123,356585,5,6,0:0:0:0:
311,169,356658,1,8,0:0:0:0:
295,214,356732,1,0,0:0:0:0:
296,261,356805,1,8,0:0:0:0:
300,308,356879,69,2,0:0:0:0:
323,278,356952,1,8,0:0:0:0:
358,263,357026,1,0,0:0:0:0:
395,265,357099,1,8,0:0:0:0:
431,279,357173,5,6,0:0:0:0:
402,316,357246,1,8,0:0:0:0:
360,339,357320,1,0,0:0:0:0:
314,343,357393,1,8,0:0:0:0:
268,329,357467,5,6,0:0:0:0:
303,315,357540,1,8,0:0:0:0:
331,290,357614,1,0,0:0:0:0:
350,256,357687,1,8,0:0:0:0:
356,219,357761,5,6,0:0:0:0:
332,234,357834,1,8,0:0:0:0:
305,243,357908,1,0,0:0:0:0:
277,244,357981,1,8,0:0:0:0:
249,239,358055,69,6,0:0:0:0:
213,229,358128,1,8,0:0:0:0:
181,247,358202,1,0,0:0:0:0:
172,283,358275,1,8,0:0:0:0:
191,315,358349,5,6,0:0:0:0:
199,341,358422,1,8,0:0:0:0:
189,367,358496,1,0,0:0:0:0:
164,380,358569,1,8,0:0:0:0:
137,374,358643,5,6,0:0:0:0:
98,348,358717,1,8,0:0:0:0:
75,307,358791,1,0,0:0:0:0:
74,260,358864,1,8,0:0:0:0:
94,218,358938,5,6,0:0:0:0:
123,169,359011,1,8,0:0:0:0:
126,113,359085,1,0,0:0:0:0:
102,62,359158,1,8,0:0:0:0:
58,27,359232,69,2,0:0:0:0:
75,71,359305,1,8,0:0:0:0:
112,100,359379,1,0,0:0:0:0:
158,108,359452,1,8,0:0:0:0:
202,92,359526,1,0,0:0:0:0:
248,79,359599,1,8,0:0:0:0:
295,83,359673,1,0,0:0:0:0:
336,105,359746,1,8,0:0:0:0:
367,141,359820,5,6,0:0:0:0:
409,180,359894,1,8,0:0:0:0:
463,162,359968,1,0,0:0:0:0:
476,107,360041,1,8,0:0:0:0:
434,68,360115,5,6,0:0:0:0:
380,84,360188,1,8,0:0:0:0:
355,134,360261,1,0,0:0:0:0:
375,187,360335,1,8,0:0:0:0:
426,210,360408,5,2,0:0:0:0:
398,236,360481,1,8,0:0:0:0:
360,243,360555,1,0,0:0:0:0:
323,232,360629,1,8,0:0:0:0:
287,219,360702,1,0,0:0:0:0:
249,213,360776,1,8,0:0:0:0:
211,214,360849,1,0,0:0:0:0:
174,222,360923,1,8,0:0:0:0:
139,237,360996,69,6,0:0:0:0:
135,293,361069,1,8,0:0:0:0:
187,317,361143,1,0,0:0:0:0:
241,300,361216,1,8,0:0:0:0:
300,291,361291,5,6,0:0:0:0:
353,281,361364,1,8,0:0:0:0:
386,323,361438,1,0,0:0:0:0:
363,372,361511,1,8,0:0:0:0:
309,374,361585,5,6,0:0:0:0:
258,351,361658,1,8,0:0:0:0:
228,303,361732,1,0,0:0:0:0:
227,247,361805,1,8,0:0:0:0:
257,200,361879,5,6,0:0:0:0:
286,153,361952,1,8,0:0:0:0:
265,102,362026,1,0,0:0:0:0:
212,90,362099,1,8,0:0:0:0:
171,127,362173,69,6,0:0:0:0:
127,166,362246,1,8,0:0:0:0:
69,153,362320,1,0,0:0:0:0:
48,97,362394,1,8,0:0:0:0:
82,49,362467,5,6,0:0:0:0:
139,26,362540,1,8,0:0:0:0:
200,17,362614,1,0,0:0:0:0:
262,22,362687,1,8,0:0:0:0:
320,41,362761,5,6,0:0:0:0:
371,82,362834,1,8,0:0:0:0:
385,146,362908,1,0,0:0:0:0:
359,206,362981,1,8,0:0:0:0:
302,237,363055,5,8,0:0:0:0:
237,228,363129,1,8,0:0:0:0:
174,215,363202,1,8,0:0:0:0:
123,255,363276,1,8,0:0:0:0:
120,320,363349,69,14,0:0:0:0:
166,364,363423,1,8,0:0:0:0:
230,359,363496,1,8,0:0:0:0:
294,340,363569,1,8,0:0:0:0:
360,339,363643,5,14,0:0:0:0:
423,348,363717,1,8,0:0:0:0:
467,302,363791,1,8,0:0:0:0:
454,239,363864,1,8,0:0:0:0:
395,214,363938,5,2,0:0:0:0:
359,205,364011,1,0,0:0:0:0:
333,178,364085,1,8,0:0:0:0:
327,141,364158,1,0,0:0:0:0:
342,106,364232,1,0,0:0:0:0:
373,86,364305,1,0,0:0:0:0:
408,74,364378,1,8,0:0:0:0:
427,41,364452,1,0,0:0:0:0:
420,5,364526,6,0,L|342:6,1,47.5,6|0,0:0|0:0,0:0:0:0:
193,94,364673,2,0,L|271:95,1,47.5,14|0,0:0|0:0,0:0:0:0:
403,150,364820,1,0,0:0:0:0:
437,165,364893,1,0,0:0:0:0:
456,196,364967,1,8,0:0:0:0:
455,234,365040,1,0,0:0:0:0:
432,264,365114,70,0,P|412:287|406:308,1,47.5,6|0,0:0|0:0,0:0:0:0:
173,224,365261,1,8,0:0:0:0:
207,240,365334,1,0,0:0:0:0:
244,244,365408,1,0,0:0:0:0:
281,236,365481,1,0,0:0:0:0:
314,217,365555,6,0,P|336:206|374:207,1,47.5,14|0,0:0|0:0,0:0:0:0:
474,324,365702,2,0,P|451:334|413:333,1,47.5,6|0,0:0|0:0,0:0:0:0:
437,165,365849,6,0,L|441:233,1,47.5,14|0,0:0|0:0,0:0:0:0:
329,351,365996,2,0,L|326:303,1,47.5,6|0,0:0|0:0,0:0:0:0:
240,94,366144,2,0,L|244:162,1,47.5,14|0,0:0|0:0,0:0:0:0:
145,293,366291,5,0,0:0:0:0:
114,271,366364,1,0,0:0:0:0:
97,237,366438,1,8,0:0:0:0:
99,200,366511,1,0,0:0:0:0:
119,168,366585,1,0,0:0:0:0:
152,150,366658,1,0,0:0:0:0:
185,132,366731,1,8,0:0:0:0:
196,97,366805,1,0,0:0:0:0:
181,63,366879,70,0,P|172:35|178:12,1,47.5,6|0,0:0|0:0,0:0:0:0:
307,171,367026,2,0,P|316:199|310:222,1,47.5,14|0,0:0|0:0,0:0:0:0:
171,222,367173,1,0,0:0:0:0:
137,238,367246,1,0,0:0:0:0:
100,235,367320,1,8,0:0:0:0:
69,214,367393,1,0,0:0:0:0:
55,179,367467,6,0,L|3:183,1,47.5,6|0,0:0|0:0,0:0:0:0:
175,310,367614,1,14,0:0:0:0:
212,308,367687,1,0,0:0:0:0:
250,306,367761,1,0,0:0:0:0:
288,304,367834,1,0,0:0:0:0:
326,303,367908,6,0,L|300:246,3,47.5,14|0|0|0,0:0|0:0|0:0|0:0,0:0:0:0:
307,171,368202,6,0,P|331:192|366:202,1,47.5,14|0,0:0|0:0,0:0:0:0:
390,352,368349,2,0,P|366:373|331:383,1,47.5,14|0,0:0|0:0,0:0:0:0:
371,126,368496,1,8,0:0:0:0:
322,94,368570,1,8,0:0:0:0:
266,108,368644,69,2,0:0:0:0:
240,135,368717,1,0,0:0:0:0:
231,171,368791,1,8,0:0:0:0:
240,208,368864,1,0,0:0:0:0:
267,235,368938,1,0,0:0:0:0:
302,246,369011,1,0,0:0:0:0:
338,258,369084,1,8,0:0:0:0:
356,290,369158,1,0,0:0:0:0:
347,326,369232,6,0,P|322:345|284:342,1,47.5,6|0,0:0|0:0,0:0:0:0:
307,171,369379,2,0,P|332:152|370:155,1,47.5,14|0,0:0|0:0,0:0:0:0:
141,323,369526,1,0,0:0:0:0:
164,293,369599,1,0,0:0:0:0:
173,257,369673,1,8,0:0:0:0:
165,220,369746,1,0,0:0:0:0:
143,190,369820,6,0,P|129:172|128:133,1,47.5,6|0,0:0|0:0,0:0:0:0:
287,28,369967,1,8,0:0:0:0:
249,29,370040,1,0,0:0:0:0:
211,30,370114,1,0,0:0:0:0:
173,32,370187,1,0,0:0:0:0:
135,33,370261,6,0,L|181:68,1,47.5,14|0,0:0|0:0,0:0:0:0:
314,157,370408,2,0,L|268:122,1,47.5,6|0,0:0|0:0,0:0:0:0:
67,218,370555,70,0,P|79:239|95:257,1,47.5,14|0,0:0|0:0,0:0:0:0:
241,306,370702,2,0,P|256:288|268:267,1,47.5,6|0,0:0|0:0,0:0:0:0:
271,96,370849,2,0,P|252:118|242:139,1,47.5,14|0,0:0|0:0,0:0:0:0:
380,298,370996,5,2,0:0:0:0:
408,321,371069,1,0,0:0:0:0:
445,325,371143,1,8,0:0:0:0:
478,307,371216,1,0,0:0:0:0:
496,274,371290,1,0,0:0:0:0:
491,237,371363,1,0,0:0:0:0:
467,209,371437,1,8,0:0:0:0:
451,174,371511,1,0,0:0:0:0:
456,136,371585,6,0,P|467:115|483:98,1,47.5,6|0,0:0|0:0,0:0:0:0:
432,260,371732,2,0,P|415:242|404:221,1,47.5,14|0,0:0|0:0,0:0:0:0:
271,96,371879,1,0,0:0:0:0:
240,118,371952,1,0,0:0:0:0:
204,130,372026,1,8,0:0:0:0:
166,131,372099,1,0,0:0:0:0:
130,121,372173,6,0,L|147:166,1,47.5,6|0,0:0|0:0,0:0:0:0:
124,334,372320,1,8,0:0:0:0:
110,298,372393,1,0,0:0:0:0:
97,262,372467,1,0,0:0:0:0:
84,227,372540,1,0,0:0:0:0:
70,191,372614,70,0,L|53:146,3,47.5,14|0|0|0,0:0|0:0|0:0|0:0,0:0:0:0:
43,323,372908,6,0,L|27:279,1,47.5,14|0,0:0|0:0,0:0:0:0:
130,121,373055,2,0,L|146:165,1,47.5,6|0,0:0|0:0,0:0:0:0:
311,257,373202,2,0,L|294:212,1,47.5,14|0,0:0|0:0,0:0:0:0:
421,56,373349,5,6,0:0:0:0:
396,96,373422,1,8,0:0:0:0:
384,142,373496,1,0,0:0:0:0:
387,189,373569,1,8,0:0:0:0:
403,233,373644,5,6,0:0:0:0:
405,279,373717,1,8,0:0:0:0:
383,321,373791,1,0,0:0:0:0:
344,347,373864,1,8,0:0:0:0:
297,351,373938,69,6,0:0:0:0:
250,347,374011,1,8,0:0:0:0:
203,347,374085,1,0,0:0:0:0:
155,352,374158,1,8,0:0:0:0:
109,361,374232,5,6,0:0:0:0:
64,353,374305,1,8,0:0:0:0:
47,310,374379,1,0,0:0:0:0:
72,273,374452,1,8,0:0:0:0:
118,273,374526,6,0,P|148:271|177:258,1,47.5,6|8,0:0|0:0,0:0:0:0:
315,156,374673,2,0,P|285:158|256:171,1,47.5,6|8,0:0|0:0,0:0:0:0:
46,261,374820,6,0,P|47:285|54:308,1,47.5,6|8,0:0|0:0,0:0:0:0:
388,164,374967,2,0,P|385:134|372:105,1,47.5,6|8,0:0|0:0,0:0:0:0:
106,38,375114,69,14,0:0:0:0:
250,347,375261,1,14,0:0:0:0:
397,36,375408,2,0,P|355:38|314:62,1,71.25,14|0,0:0|0:0,0:0:0:0:
284,75,375702,6,0,P|361:27|465:51,1,178.125,14|0,0:0|0:0,0:0:0:0:
388,164,375996,1,14,0:0:0:0:
230,159,376144,1,6,0:0:0:0:
445,215,376291,6,0,L|486:123,1,95,14|0,0:0|0:0,0:0:0:0:
357,317,376585,2,0,L|316:225,1,95,14|0,0:0|0:0,0:0:0:0:
91,315,376879,5,14,0:0:0:0:
249,256,377026,1,6,0:0:0:0:
164,188,377173,2,0,P|160:134|200:92,1,95,14|0,0:0|0:0,0:0:0:0:
336,53,377467,69,14,0:0:0:0:
230,159,377614,1,6,0:0:0:0:
445,215,377761,1,14,0:0:0:0:
431,218,377834,1,0,0:0:0:0:
417,222,377908,1,0,0:0:0:0:
403,225,377981,1,0,0:0:0:0:
350,197,378055,6,0,B|459:169|459:169|396:149,1,178.125,14|0,0:0|0:0,0:0:0:0:
336,53,378349,2,0,L|384:67,1,47.5,14|0,0:0|0:0,0:0:0:0:
494,100,378496,2,0,L|448:86,1,47.5,6|0,0:0|0:0,0:0:0:0:
284,105,378644,5,14,0:0:0:0:
269,86,378717,1,0,0:0:0:0:
262,63,378791,1,0,0:0:0:0:
263,40,378864,1,0,0:0:0:0:
271,18,378938,5,14,0:0:0:0:
292,36,379011,1,0,0:0:0:0:
306,55,379084,1,0,0:0:0:0:
313,78,379158,1,0,0:0:0:0:
312,101,379231,69,14,0:0:0:0:
306,148,379305,1,0,0:0:0:0:
314,194,379379,1,0,0:0:0:0:
334,237,379452,1,0,0:0:0:0:
366,272,379526,5,14,0:0:0:0:
384,314,379599,1,0,0:0:0:0:
361,354,379673,1,0,0:0:0:0:
316,360,379746,1,0,0:0:0:0:
283,328,379820,6,0,P|253:313|216:318,1,47.5,14|0,0:0|0:0,0:0:0:0:
425,153,379967,2,0,P|455:168|492:163,1,47.5,6|0,0:0|0:0,0:0:0:0:
186,138,380114,6,0,B|131:136|131:136|98:119,1,71.25,14|0,0:0|0:0,0:0:0:0:
63,127,380408,70,0,B|105:148|105:148|235:153,1,178.125,14|0,0:0|0:0,0:0:0:0:
160,234,380702,1,14,0:0:0:0:
31,229,380849,1,6,0:0:0:0:
116,322,380996,6,0,L|210:324,1,95,14|0,0:0|0:0,0:0:0:0:
442,256,381291,2,0,L|347:253,1,95,14|0,0:0|0:0,0:0:0:0:
264,147,381585,5,14,0:0:0:0:
291,330,381732,1,6,0:0:0:0:
341,120,381879,2,0,B|361:100|361:100|436:74,1,95,14|0,0:0|0:0,0:0:0:0:
246,162,382173,5,14,0:0:0:0:
219,345,382320,1,6,0:0:0:0:
169,135,382467,2,0,B|149:115|149:115|74:89,1,95,14|0,0:0|0:0,0:0:0:0:
292,234,382761,69,14,0:0:0:0:
347,253,382835,1,0,0:0:0:0:
400,272,382908,1,0,0:0:0:0:
341,120,383055,2,0,L|386:136,1,47.5,14|0,0:0|0:0,0:0:0:0:
411,294,383202,2,0,L|366:278,1,47.5,6|0,0:0|0:0,0:0:0:0:
157,131,383349,5,14,0:0:0:0:
179,138,383422,1,0,0:0:0:0:
201,146,383496,1,0,0:0:0:0:
224,154,383569,1,0,0:0:0:0:
246,162,383643,5,14,0:0:0:0:
223,168,383717,1,0,0:0:0:0:
201,175,383790,1,0,0:0:0:0:
179,183,383864,1,0,0:0:0:0:
156,191,383937,5,14,0:0:0:0:
119,218,384011,1,0,0:0:0:0:
121,264,384085,1,0,0:0:0:0:
159,289,384158,1,0,0:0:0:0:
202,272,384232,69,14,0:0:0:0:
245,255,384305,1,0,0:0:0:0:
293,255,384379,1,0,0:0:0:0:
336,273,384452,1,0,0:0:0:0:
369,307,384526,6,0,L|372:363,1,47.5,14|0,0:0|0:0,0:0:0:0:
363,113,384673,2,0,L|360:57,1,47.5,6|0,0:0|0:0,0:0:0:0:
461,232,384820,6,0,L|458:141,1,71.25,14|0,0:0|0:0,0:0:0:0:
434,105,385114,6,0,L|440:283,1,178.125,14|0,0:0|0:0,0:0:0:0:
273,363,385408,1,14,0:0:0:0:
267,185,385555,1,6,0:0:0:0:
95,298,385702,70,0,B|119:314|119:314|116:245,1,95,14|0,0:0|0:0,0:0:0:0:
46,137,385996,1,14,0:0:0:0:
82,134,386069,1,0,0:0:0:0:
120,132,386143,1,0,0:0:0:0:
34,230,386291,5,14,0:0:0:0:
284,210,386438,1,6,0:0:0:0:
109,118,386585,2,0,L|-4:126,1,95,14|0,0:0|0:0,0:0:0:0:
273,229,386879,5,14,0:0:0:0:
23,209,387026,1,6,0:0:0:0:
198,117,387173,2,0,L|311:125,1,95,14|0,0:0|0:0,0:0:0:0:
446,318,387467,5,14,0:0:0:0:
431,262,387541,1,0,0:0:0:0:
417,206,387614,1,0,0:0:0:0:
372,335,387761,1,14,0:0:0:0:
471,139,387908,1,6,0:0:0:0:
315,144,388055,70,0,L|262:249,1,95,14|0,0:0|0:0,0:0:0:0:
131,313,388349,2,0,L|179:222,1,95,14|0,0:0|0:0,0:0:0:0:
205,23,388644,5,14,0:0:0:0:
182,65,388717,1,0,0:0:0:0:
160,107,388791,1,0,0:0:0:0:
138,149,388864,1,0,0:0:0:0:
114,190,388938,5,14,0:0:0:0:
150,160,389011,1,0,0:0:0:0:
196,159,389085,1,0,0:0:0:0:
234,186,389158,1,0,0:0:0:0:
248,231,389232,6,0,P|260:256|299:283,1,47.5,14|0,0:0|0:0,0:0:0:0:
410,137,389379,2,0,P|398:112|359:85,1,47.5,6|0,0:0|0:0,0:0:0:0:
176,229,389526,70,0,P|189:273|208:301,1,71.25,14|0,0:0|0:0,0:0:0:0:
222,339,389820,6,0,P|169:271|166:166,1,178.125,14|0,0:0|0:0,0:0:0:0:
212,86,390114,1,14,0:0:0:0:
302,214,390261,1,6,0:0:0:0:
410,137,390408,6,0,L|353:55,1,95,14|0,0:0|0:0,0:0:0:0:
303,233,390702,2,0,L|360:315,1,95,14|0,0:0|0:0,0:0:0:0:
222,339,390996,5,14,0:0:0:0:
432,236,391144,1,0,0:0:0:0:
183,191,391291,2,0,L|300:134,1,95,14|0,0:0|0:0,0:0:0:0:
303,233,391585,69,14,0:0:0:0:
93,130,391733,1,0,0:0:0:0:
336,80,391880,1,14,0:0:0:0:
323,73,391953,1,0,0:0:0:0:
310,67,392027,1,0,0:0:0:0:
297,61,392099,86,0,L|320:30,1,23.75,2|2,0:0|0:0,0:0:0:0:
251,29,392173,22,0,B|216:76|216:76|171:104|171:104|117:182,1,178.125,14|0,0:0|0:0,0:0:0:0:
84,94,392467,2,0,L|112:55,1,47.5,14|0,0:0|0:0,0:0:0:0:
310,67,392614,2,0,L|281:105,1,47.5,6|0,0:0|0:0,0:0:0:0:
158,238,392761,5,14,0:0:0:0:
171,218,392834,1,0,0:0:0:0:
185,199,392908,1,0,0:0:0:0:
199,180,392981,1,0,0:0:0:0:
245,196,393055,5,14,0:0:0:0:
231,216,393129,1,0,0:0:0:0:
217,235,393202,1,0,0:0:0:0:
203,254,393276,1,0,0:0:0:0:
244,275,393349,5,14,0:0:0:0:
287,257,393422,1,0,0:0:0:0:
334,257,393496,1,0,0:0:0:0:
378,275,393569,1,0,0:0:0:0:
411,309,393644,69,14,0:0:0:0:
453,329,393717,1,0,0:0:0:0:
494,309,393791,1,0,0:0:0:0:
503,264,393864,1,0,0:0:0:0:
474,229,393938,6,0,P|458:206|454:170,1,47.5,14|0,0:0|0:0,0:0:0:0:
320,343,394085,2,0,P|313:365|299:384,1,47.5,6|0,0:0|0:0,0:0:0:0:
350,145,394232,6,0,B|342:108|342:108|307:67,1,71.25,14|0,0:0|0:0,0:0:0:0:
307,28,394526,6,0,B|368:101|368:101|385:182,1,178.125,14|0,0:0|0:0,0:0:0:0:
271,212,394820,1,14,0:0:0:0:
410,37,394967,1,6,0:0:0:0:
474,229,395114,70,0,L|415:303,1,95,14|0,0:0|0:0,0:0:0:0:
224,272,395408,1,14,0:0:0:0:
247,241,395482,1,0,0:0:0:0:
271,212,395555,1,0,0:0:0:0:
298,340,395702,5,14,0:0:0:0:
179,188,395849,1,6,0:0:0:0:
183,351,395996,2,0,L|125:275,1,95,14|0,0:0|0:0,0:0:0:0:
195,193,396291,5,14,0:0:0:0:
314,345,396438,1,6,0:0:0:0:
310,182,396585,2,0,L|367:257,1,95,14|0,0:0|0:0,0:0:0:0:
464,21,396879,5,14,0:0:0:0:
458,77,396952,1,0,0:0:0:0:
452,134,397026,1,0,0:0:0:0:
446,191,397099,1,0,0:0:0:0:
440,247,397173,70,0,L|406:196,1,47.5,14|0,0:0|0:0,0:0:0:0:
354,41,397320,2,0,L|388:92,1,47.5,6|0,0:0|0:0,0:0:0:0:
283,253,397467,5,14,0:0:0:0:
262,241,397540,1,0,0:0:0:0:
246,223,397614,1,0,0:0:0:0:
237,201,397687,1,0,0:0:0:0:
235,177,397761,5,14,0:0:0:0:
257,187,397835,1,0,0:0:0:0:
277,199,397908,1,0,0:0:0:0:
293,216,397982,1,0,0:0:0:0:
302,238,398055,5,14,0:0:0:0:
325,278,398128,1,0,0:0:0:0:
368,296,398202,1,0,0:0:0:0:
413,283,398275,1,0,0:0:0:0:
440,246,398349,69,14,0:0:0:0:
453,200,398422,1,0,0:0:0:0:
451,153,398496,1,0,0:0:0:0:
436,108,398569,1,0,0:0:0:0:
408,70,398644,6,0,L|401:137,1,47.5,14|0,0:0|0:0,0:0:0:0:
257,288,398791,2,0,L|262:240,1,47.5,6|0,0:0|0:0,0:0:0:0:
375,217,398938,6,0,L|367:287,1,71.25,14|0,0:0|0:0,0:0:0:0:
394,342,399232,6,0,L|416:140,1,178.125,14|0,0:0|0:0,0:0:0:0:
257,288,399526,1,14,0:0:0:0:
238,111,399673,1,6,0:0:0:0:
396,179,399820,70,0,L|386:273,1,95,14|0,0:0|0:0,0:0:0:0:
227,196,400114,2,0,L|218:102,1,95,14|0,0:0|0:0,0:0:0:0:
315,48,400408,5,14,0:0:0:0:
120,114,400555,1,6,0:0:0:0:
240,204,400702,2,0,L|331:174,1,95,14|0,0:0|0:0,0:0:0:0:
204,274,400996,5,14,0:0:0:0:
399,208,401143,1,6,0:0:0:0:
188,148,401290,2,0,L|280:117,1,95,14|2,0:0|0:0,0:0:0:0:
315,48,401511,1,2,0:0:0:0:
325,57,401585,5,14,0:0:0:0:
366,93,401658,1,0,0:0:0:0:
421,86,401732,1,0,0:0:0:0:
196,71,401879,2,0,L|242:58,1,47.5,14|0,0:0|0:0,0:0:0:0:
331,174,402026,2,0,L|285:187,1,47.5,6|0,0:0|0:0,0:0:0:0:
98,179,402173,69,14,0:0:0:0:
120,171,402246,1,0,0:0:0:0:
143,163,402320,1,0,0:0:0:0:
165,156,402393,1,0,0:0:0:0:
207,133,402467,5,14,0:0:0:0:
185,125,402540,1,0,0:0:0:0:
162,117,402614,1,0,0:0:0:0:
140,110,402687,1,0,0:0:0:0:
94,123,402761,5,14,0:0:0:0:
53,145,402834,1,0,0:0:0:0:
45,190,402908,1,0,0:0:0:0:
74,226,402981,1,0,0:0:0:0:
120,227,403055,5,14,0:0:0:0:
167,222,403128,1,0,0:0:0:0:
212,237,403202,1,0,0:0:0:0:
246,270,403275,1,0,0:0:0:0:
264,313,403349,69,14,0:0:0:0:
305,351,403422,1,0,0:0:0:0:
361,350,403496,1,0,0:0:0:0:
401,311,403569,1,0,0:0:0:0:
404,256,403643,5,14,0:0:0:0:
389,201,403717,1,0,0:0:0:0:
395,145,403791,1,0,0:0:0:0:
423,95,403864,1,0,0:0:0:0:
467,60,403938,6,0,L|376:60,1,71.25,14|0,0:0|0:0,0:0:0:0:
395,145,404232,6,0,L|347:144,1,47.5,6|8,0:0|0:0,0:0:0:0:
168,79,404379,2,0,L|215:78,1,47.5,6|8,0:0|0:0,0:0:0:0:
408,149,404526,70,0,L|355:148,1,47.5,6|8,0:0|0:0,0:0:0:0:
154,74,404673,2,0,L|207:74,1,47.5,6|8,0:0|0:0,0:0:0:0:
422,152,404820,6,0,L|363:152,1,47.5,6|8,0:0|0:0,0:0:0:0:
140,71,404967,2,0,L|199:70,1,47.5,6|8,0:0|0:0,0:0:0:0:
310,56,405114,5,6,0:0:0:0:
276,89,405187,1,8,0:0:0:0:
258,132,405261,1,0,0:0:0:0:
260,180,405334,1,8,0:0:0:0:
280,222,405408,5,6,0:0:0:0:
298,265,405481,1,8,0:0:0:0:
279,306,405555,1,0,0:0:0:0:
235,320,405628,1,8,0:0:0:0:
195,297,405702,69,6,0:0:0:0:
150,285,405775,1,8,0:0:0:0:
103,293,405849,1,0,0:0:0:0:
64,319,405922,1,8,0:0:0:0:
38,359,405996,5,6,0:0:0:0:
78,319,406069,1,10,0:0:0:0:
100,267,406143,1,2,0:0:0:0:
102,210,406217,1,10,0:0:0:0:
82,157,406291,6,0,P|76:127|85:73,1,71.25,14|0,0:0|0:0,0:0:0:0:
157,61,406585,6,0,P|160:91|153:119,1,47.5,6|8,0:0|0:0,0:0:0:0:
298,265,406732,2,0,P|295:235|302:207,1,47.5,6|8,0:0|0:0,0:0:0:0:
146,46,406879,70,0,P|164:76|170:108,1,47.5,6|8,0:0|0:0,0:0:0:0:
308,279,407026,2,0,P|290:249|284:217,1,47.5,6|8,0:0|0:0,0:0:0:0:
136,31,407173,6,0,P|168:53|190:83,1,47.5,6|8,0:0|0:0,0:0:0:0:
318,294,407320,2,0,P|286:272|264:242,1,47.5,6|8,0:0|0:0,0:0:0:0:
169,181,407467,5,6,0:0:0:0:
215,172,407540,1,8,0:0:0:0:
255,147,407614,1,0,0:0:0:0:
282,108,407687,1,8,0:0:0:0:
292,62,407761,5,6,0:0:0:0:
321,27,407834,1,8,0:0:0:0:
367,27,407908,1,0,0:0:0:0:
396,62,407981,1,8,0:0:0:0:
387,107,408055,69,6,0:0:0:0:
378,153,408128,1,8,0:0:0:0:
395,197,408202,1,0,0:0:0:0:
432,226,408275,1,8,0:0:0:0:
478,231,408349,5,6,0:0:0:0:
430,202,408423,1,10,0:0:0:0:
374,193,408496,1,2,0:0:0:0:
318,204,408569,1,10,0:0:0:0:
270,234,408644,6,0,P|227:255|189:250,1,71.25,14|0,0:0|0:0,0:0:0:0:
215,172,408938,6,0,L|210:121,1,47.5,6|8,0:0|0:0,0:0:0:0:
396,62,409085,2,0,L|401:113,1,47.5,6|8,0:0|0:0,0:0:0:0:
190,158,409232,70,0,L|196:98,1,47.5,6|8,0:0|0:0,0:0:0:0:
421,76,409379,2,0,L|414:136,1,47.5,6|8,0:0|0:0,0:0:0:0:
166,135,409526,6,0,L|187:70,1,47.5,6|8,0:0|0:0,0:0:0:0:
445,98,409673,2,0,L|423:164,1,47.5,6|8,0:0|0:0,0:0:0:0:
253,94,409820,5,6,0:0:0:0:
239,49,409893,1,8,0:0:0:0:
202,21,409967,1,0,0:0:0:0:
155,21,410040,1,8,0:0:0:0:
118,50,410114,5,6,0:0:0:0:
97,92,410188,1,8,0:0:0:0:
85,138,410261,1,0,0:0:0:0:
84,186,410334,1,8,0:0:0:0:
94,232,410408,69,6,0:0:0:0:
112,274,410481,1,8,0:0:0:0:
89,314,410555,1,0,0:0:0:0:
43,318,410628,1,8,0:0:0:0:
13,284,410702,5,6,0:0:0:0:
61,314,410775,1,10,0:0:0:0:
116,329,410849,1,2,0:0:0:0:
173,330,410922,1,2,0:0:0:0:
227,315,410996,6,0,P|261:307|316:317,1,71.25,14|0,0:0|0:0,0:0:0:0:
371,358,411291,5,2,0:0:0:0:
385,323,411364,1,8,0:0:0:0:
384,285,411438,1,0,0:0:0:0:
368,251,411511,1,8,0:0:0:0:
338,227,411585,1,2,0:0:0:0:
302,218,411658,1,8,0:0:0:0:
266,207,411731,1,0,0:0:0:0:
241,179,411805,1,8,0:0:0:0:
235,142,411878,69,2,0:0:0:0:
273,170,411952,1,10,0:0:0:0:
292,213,412026,1,2,0:0:0:0:
286,259,412099,1,10,0:0:0:0:
258,297,412173,5,14,0:0:0:0:
235,142,412320,1,2,0:0:0:0:
240,95,412393,1,2,0:0:0:0:
268,58,412467,5,14,0:0:0:0:
151,190,412614,1,2,0:0:0:0:
114,219,412687,1,2,0:0:0:0:
68,226,412761,5,14,0:0:0:0:
338,227,412908,1,2,0:0:0:0:
375,198,412981,1,2,0:0:0:0:
421,191,413055,69,14,0:0:0:0:
210,224,413202,1,8,0:0:0:0:
338,47,413349,2,0,L|267:57,1,71.25,14|0,0:0|0:0,0:0:0:0:
235,142,413644,6,0,L|285:135,1,47.5,6|8,0:0|0:0,0:0:0:0:
456,260,413791,2,0,L|408:266,1,47.5,6|8,0:0|0:0,0:0:0:0:
230,104,413938,6,0,L|290:108,1,47.5,6|8,0:0|0:0,0:0:0:0:
460,297,414085,2,0,L|403:293,1,47.5,6|8,0:0|0:0,0:0:0:0:
234,58,414232,6,0,L|304:78,1,47.5,6|8,0:0|0:0,0:0:0:0:
456,343,414379,2,0,L|390:324,1,47.5,6|8,0:0|0:0,0:0:0:0:
402,31,414526,69,6,0:0:0:0:
369,65,414599,1,8,0:0:0:0:
349,108,414673,1,0,0:0:0:0:
343,155,414746,1,8,0:0:0:0:
352,202,414820,5,6,0:0:0:0:
359,248,414893,1,8,0:0:0:0:
335,288,414967,1,0,0:0:0:0:
291,304,415040,1,8,0:0:0:0:
247,289,415114,5,6,0:0:0:0:
202,274,415187,1,8,0:0:0:0:
155,271,415261,1,0,0:0:0:0:
109,282,415334,1,8,0:0:0:0:
68,305,415408,5,6,0:0:0:0:
120,284,415481,1,10,0:0:0:0:
154,239,415555,1,2,0:0:0:0:
160,183,415628,1,10,0:0:0:0:
137,132,415702,70,0,P|125:103|137:51,1,71.25,14|0,0:0|0:0,0:0:0:0:
212,91,415996,6,0,B|237:85|237:85|261:92,1,47.5,6|8,0:0|0:0,0:0:0:0:
335,288,416144,2,0,B|310:294|310:294|286:287,1,47.5,6|8,0:0|0:0,0:0:0:0:
225,58,416291,6,0,B|256:57|256:57|283:71,1,47.5,6|8,0:0|0:0,0:0:0:0:
321,320,416439,2,0,B|290:321|290:321|263:307,1,47.5,6|8,0:0|0:0,0:0:0:0:
250,23,416585,6,0,B|286:30|286:30|314:53,1,47.5,6|8,0:0|0:0,0:0:0:0:
296,355,416733,2,0,B|260:348|260:348|232:325,1,47.5,6|8,0:0|0:0,0:0:0:0:
371,101,416879,69,6,0:0:0:0:
411,78,416952,1,8,0:0:0:0:
455,90,417026,1,0,0:0:0:0:
478,130,417099,1,8,0:0:0:0:
466,175,417173,5,6,0:0:0:0:
433,208,417246,1,8,0:0:0:0:
389,225,417320,1,0,0:0:0:0:
342,223,417393,1,8,0:0:0:0:
300,202,417467,5,6,0:0:0:0:
258,180,417540,1,8,0:0:0:0:
212,172,417614,1,0,0:0:0:0:
165,180,417687,1,8,0:0:0:0:
124,203,417761,5,6,0:0:0:0:
179,191,417834,1,10,0:0:0:0:
216,150,417908,1,2,0:0:0:0:
223,94,417981,1,10,0:0:0:0:
195,45,418055,70,0,P|162:27|109:22,1,71.25,14|0,0:0|0:0,0:0:0:0:
133,112,418349,6,0,P|158:129|187:135,1,47.5,6|8,0:0|0:0,0:0:0:0:
365,80,418496,2,0,P|340:63|311:57,1,47.5,6|8,0:0|0:0,0:0:0:0:
116,143,418644,6,0,P|150:157|185:157,1,47.5,6|8,0:0|0:0,0:0:0:0:
381,48,418791,2,0,P|347:34|312:34,1,47.5,6|8,0:0|0:0,0:0:0:0:
105,184,418938,6,0,P|148:192|190:183,1,47.5,6|8,0:0|0:0,0:0:0:0:
392,9,419085,2,0,P|349:1|307:10,1,47.5,6|8,0:0|0:0,0:0:0:0:
185,255,419232,69,6,0:0:0:0:
184,300,419305,1,8,0:0:0:0:
217,332,419379,1,0,0:0:0:0:
264,332,419452,1,8,0:0:0:0:
296,298,419526,5,6,0:0:0:0:
334,270,419599,1,8,0:0:0:0:
380,264,419673,1,0,0:0:0:0:
425,279,419746,1,8,0:0:0:0:
456,314,419820,5,6,0:0:0:0:
499,298,419893,1,8,0:0:0:0:
512,259,419967,1,0,0:0:0:0:
512,212,420040,1,8,0:0:0:0:
497,175,420114,5,6,0:0:0:0:
448,146,420187,1,10,0:0:0:0:
393,134,420261,1,2,0:0:0:0:
337,141,420334,1,10,0:0:0:0:
285,165,420408,70,0,P|254:178|203:178,1,71.25,14|0,0:0|0:0,0:0:0:0:
231,91,420702,5,2,0:0:0:0:
193,92,420775,1,8,0:0:0:0:
159,109,420849,1,0,0:0:0:0:
135,138,420923,1,8,0:0:0:0:
126,174,420996,1,2,0:0:0:0:
132,211,421069,1,8,0:0:0:0:
144,247,421143,1,0,0:0:0:0:
130,281,421217,1,8,0:0:0:0:
97,298,421291,5,2,0:0:0:0:
135,270,421364,1,8,0:0:0:0:
180,258,421438,1,0,0:0:0:0:
227,264,421511,1,8,0:0:0:0:
268,287,421585,5,14,0:0:0:0:
159,109,421732,1,0,0:0:0:0:
112,102,421805,1,0,0:0:0:0:
71,79,421879,69,14,0:0:0:0:
243,263,422026,1,0,0:0:0:0:
282,289,422099,1,0,0:0:0:0:
310,327,422173,5,14,0:0:0:0:
95,104,422320,1,0,0:0:0:0:
56,78,422393,1,0,0:0:0:0:
28,39,422467,5,14,0:0:0:0:
130,281,422614,1,8,0:0:0:0:
233,37,422761,2,0,L|260:102,1,71.25,14|0,0:0|0:0,0:0:0:0:
159,109,423055,6,0,L|182:163,1,59.375,6|8,0:0|0:0,0:0:0:0:
414,245,423202,2,0,L|390:190,1,59.375,6|8,0:0|0:0,0:0:0:0:
113,167,423349,70,0,L|166:214,1,59.375,6|8,0:0|0:0,0:0:0:0:
459,186,423496,2,0,L|406:139,1,59.375,6|8,0:0|0:0,0:0:0:0:
87,237,423644,6,0,L|166:268,1,59.375,6|8,0:0|0:0,0:0:0:0:
485,116,423791,2,0,L|406:85,1,59.375,6|8,0:0|0:0,0:0:0:0:
255,64,423938,5,6,0:0:0:0:
196,74,424011,1,8,0:0:0:0:
160,120,424085,1,0,0:0:0:0:
163,179,424158,1,8,0:0:0:0:
201,221,424232,5,6,0:0:0:0:
230,272,424305,1,8,0:0:0:0:
201,324,424379,1,0,0:0:0:0:
141,324,424453,1,8,0:0:0:0:
111,272,424526,69,6,0:0:0:0:
140,221,424599,1,8,0:0:0:0:
190,190,424673,1,0,0:0:0:0:
249,187,424746,1,8,0:0:0:0:
302,212,424820,5,6,0:0:0:0:
362,234,424893,1,10,0:0:0:0:
418,206,424967,1,2,0:0:0:0:
435,145,425040,1,10,0:0:0:0:
402,91,425114,6,0,P|396:61|419:16,1,71.25,14|0,0:0|0:0,0:0:0:0:
485,71,425408,6,0,P|491:101|483:128,1,59.375,6|8,0:0|0:0,0:0:0:0:
249,187,425555,2,0,P|242:156|250:129,1,59.375,6|8,0:0|0:0,0:0:0:0:
505,126,425702,70,0,P|498:158|478:180,1,59.375,6|8,0:0|0:0,0:0:0:0:
228,131,425849,2,0,P|235:99|255:77,1,59.375,6|8,0:0|0:0,0:0:0:0:
503,189,425996,6,0,P|481:217|452:229,1,59.375,6|8,0:0|0:0,0:0:0:0:
229,67,426143,2,0,P|251:39|280:27,1,59.375,6|8,0:0|0:0,0:0:0:0:
356,191,426291,5,6,0:0:0:0:
347,248,426364,1,8,0:0:0:0:
303,287,426438,1,0,0:0:0:0:
245,288,426511,1,8,0:0:0:0:
200,251,426585,5,6,0:0:0:0:
149,225,426658,1,8,0:0:0:0:
92,244,426732,1,0,0:0:0:0:
65,297,426805,1,8,0:0:0:0:
84,352,426879,69,6,0:0:0:0:
137,379,426953,1,8,0:0:0:0:
194,360,427026,1,0,0:0:0:0:
221,308,427100,1,8,0:0:0:0:
200,251,427173,5,6,0:0:0:0:
179,189,427246,1,10,0:0:0:0:
191,126,427320,1,2,0:0:0:0:
234,78,427393,1,10,0:0:0:0:
295,57,427467,6,0,B|352:54|352:54|339:39,1,71.25,14|0,0:0|0:0,0:0:0:0:
390,118,427761,6,0,L|342:121,1,47.5,6|8,0:0|0:0,0:0:0:0:
200,251,427908,2,0,L|247:247,1,47.5,6|8,0:0|0:0,0:0:0:0:
389,82,428055,70,0,L|335:98,1,47.5,6|8,0:0|0:0,0:0:0:0:
200,286,428202,2,0,L|254:270,1,47.5,6|8,0:0|0:0,0:0:0:0:
381,41,428349,6,0,L|320:73,1,47.5,6|8,0:0|0:0,0:0:0:0:
208,327,428496,2,0,L|269:295,1,47.5,6|8,0:0|0:0,0:0:0:0:
347,195,428644,5,6,0:0:0:0:
389,176,428717,1,8,0:0:0:0:
432,193,428791,1,0,0:0:0:0:
451,235,428864,1,8,0:0:0:0:
434,278,428938,5,6,0:0:0:0:
396,306,429011,1,8,0:0:0:0:
350,316,429085,1,0,0:0:0:0:
303,307,429158,1,8,0:0:0:0:
264,280,429232,69,6,0:0:0:0:
229,249,429305,1,8,0:0:0:0:
186,229,429379,1,0,0:0:0:0:
139,221,429452,1,8,0:0:0:0:
92,226,429526,5,6,0:0:0:0:
148,233,429599,1,10,0:0:0:0:
198,207,429673,1,2,0:0:0:0:
223,157,429746,1,10,0:0:0:0:
216,101,429820,6,0,B|221:78|221:78|219:60|219:60|226:28,1,71.25,14|0,0:0|0:0,0:0:0:0:
123,129,430114,5,2,0:0:0:0:
87,115,430187,1,8,0:0:0:0:
51,123,430261,1,0,0:0:0:0:
24,150,430334,1,8,0:0:0:0:
17,186,430408,1,2,0:0:0:0:
30,221,430482,1,8,0:0:0:0:
45,256,430555,1,0,0:0:0:0:
43,293,430629,1,8,0:0:0:0:
36,330,430702,69,2,0:0:0:0:
65,293,430775,1,10,0:0:0:0:
109,279,430849,1,2,0:0:0:0:
153,295,430922,1,10,0:0:0:0:
180,333,430996,5,14,0:0:0:0:
123,129,431144,1,2,0:0:0:0:
78,113,431217,1,2,0:0:0:0:
52,75,431291,5,14,0:0:0:0:
176,245,431438,1,2,0:0:0:0:
192,289,431511,1,2,0:0:0:0:
180,333,431585,5,14,0:0:0:0:
56,163,431732,1,2,0:0:0:0:
40,119,431805,1,2,0:0:0:0:
52,75,431879,69,14,0:0:0:0:
65,293,432026,1,8,0:0:0:0:
288,193,432173,5,2,0:0:0:0:
176,245,432320,1,2,0:0:0:0:
52,75,432467,2,0,B|56:163|56:163|103:114,1,142.5,10|0,0:0|0:0,0:0:0:0:
161,250,432761,2,0,B|157:162|157:162|110:211,1,142.5,10|0,0:0|0:0,0:0:0:0:
221,64,433055,5,2,0:0:0:0:
228,225,433202,2,0,L|225:171,1,47.5,2|0,0:0|0:0,0:0:0:0:
306,233,433349,22,0,L|303:296,2,63.3333333333333,8|8|8,0:0|0:0|0:0,0:0:0:0:
424,268,433644,5,0,0:0:0:0:
388,215,433742,1,0,0:0:0:0:
397,152,433840,1,0,0:0:0:0:
465,200,433938,102,0,P|476:171|476:128,2,63.3333333333333,10|0|2,0:0|0:0|0:0,0:0:0:0:
424,268,434232,1,0,0:0:0:0:
87,265,434526,53,2,0:0:0:0:
96,141,434673,1,2,0:0:0:0:
95,276,434820,2,0,L|80:104,1,142.5,10|0,0:0|0:0,0:0:0:0:
152,185,435114,2,0,L|167:357,1,142.5,10|0,0:0|0:0,0:0:0:0:
221,167,435408,5,2,0:0:0:0:
232,325,435555,2,0,L|228:277,1,47.5,2|0,0:0|0:0,0:0:0:0:
310,274,435702,6,0,L|313:226,1,47.5,8|0,0:0|0:0,0:0:0:0:
399,147,435849,2,0,L|395:194,1,47.5,8|0,0:0|0:0,0:0:0:0:
221,167,435996,1,0,0:0:0:0:
217,158,436070,1,0,0:0:0:0:
212,149,436144,6,0,L|259:145,1,47.5,8|0,0:0|0:0,0:0:0:0:
473,260,436291,2,0,L|425:263,1,47.5,8|0,0:0|0:0,0:0:0:0:
320,141,436438,1,0,0:0:0:0:
312,103,436511,1,0,0:0:0:0:
306,65,436585,69,8,0:0:0:0:
310,274,436732,1,2,0:0:0:0:
212,149,436879,5,2,0:0:0:0:
209,269,437026,1,2,0:0:0:0:
106,339,437173,2,0,L|108:169,1,142.5,10|0,0:0|0:0,0:0:0:0:
41,164,437467,2,0,B|41:261|41:261|1:210,1,142.5,10|0,0:0|0:0,0:0:0:0:
173,269,437761,6,0,L|173:221,1,47.5,2|0,0:0|0:0,0:0:0:0:
41,261,437908,2,0,L|40:324,1,47.5,2|0,0:0|0:0,0:0:0:0:
107,196,438055,22,0,L|107:132,2,63.3333333333333,10|8|2,0:0|0:0|0:0,0:0:0:0:
173,269,438349,5,0,0:0:0:0:
227,237,438447,1,0,0:0:0:0:
286,258,438545,1,0,0:0:0:0:
236,322,438644,102,0,P|266:336|311:336,2,63.3333333333333,8|0|2,0:0|0:0|0:0,0:0:0:0:
286,258,438938,5,0,0:0:0:0:
345,279,439036,1,0,0:0:0:0:
399,247,439134,1,0,0:0:0:0:
336,192,439232,37,2,0:0:0:0:
236,322,439379,1,2,0:0:0:0:
198,145,439526,2,0,L|285:257,1,142.5,10|0,0:0|0:0,0:0:0:0:
322,196,439820,5,2,0:0:0:0:
239,304,439967,1,2,0:0:0:0:
207,157,440114,2,0,L|283:254,1,94.0499997129822,10|0,0:0|0:0,0:0:0:0:
322,196,440408,2,0,B|256:111|256:111|285:105|304:79|304:79|331:85|369:62,1,219.449999330292,10|0,0:0|0:0,0:0:0:0:
241,39,440996,5,2,0:0:0:0:
316,5,441237,1,2,0:0:0:0:
322,196,441720,5,0,0:0:0:0:
219,280,441962,1,0,0:0:0:0:
192,149,442204,1,0,0:0:0:0:
461,77,442688,69,2,0:0:0:0:
423,204,442930,1,0,0:0:0:0:
263,77,443172,1,0,0:0:0:0:
286,71,443292,1,0,0:0:0:0:
309,66,443413,1,0,0:0:0:0:
332,60,443534,1,0,0:0:0:0:
355,55,443655,1,0,0:0:0:0:
187,66,443898,5,6,0:0:0:0:
402,116,444140,1,6,0:0:0:0:
98,179,444624,5,0,0:0:0:0:
130,173,444744,1,0,0:0:0:0:
163,178,444865,1,0,0:0:0:0:
193,191,444986,1,0,0:0:0:0:
218,213,445107,1,0,0:0:0:0:
187,66,445349,1,0,0:0:0:0:
133,285,445591,1,2,0:0:0:0:
445,287,446075,5,0,0:0:0:0:
362,182,446317,1,0,0:0:0:0:
492,157,446559,1,0,0:0:0:0:
213,262,446801,69,6,0:0:0:0:
343,287,447043,1,6,0:0:0:0:
87,70,447527,5,0,0:0:0:0:
216,102,447769,1,0,0:0:0:0:
348,86,448011,1,0,0:0:0:0:
358,104,448495,5,0,0:0:0:0:
226,120,448737,1,0,0:0:0:0:
97,88,448978,1,0,0:0:0:0:
99,121,449098,1,0,0:0:0:0:
101,154,449219,1,0,0:0:0:0:
104,187,449340,1,0,0:0:0:0:
106,220,449461,1,0,0:0:0:0:
226,120,449704,5,6,0:0:0:0:
211,327,449946,1,6,0:0:0:0:
301,67,450430,69,0,0:0:0:0:
314,97,450550,1,0,0:0:0:0:
317,130,450671,1,0,0:0:0:0:
308,161,450792,1,0,0:0:0:0:
289,188,450913,1,0,0:0:0:0:
397,103,451156,1,0,0:0:0:0:
226,120,451398,1,2,0:0:0:0:
51,224,451882,5,0,0:0:0:0:
153,309,452124,1,0,0:0:0:0:
67,206,452366,1,0,0:0:0:0:
326,289,452607,5,6,0:0:0:0:
83,190,452849,1,6,0:0:0:0:
387,94,453333,5,0,0:0:0:0:
283,177,453575,1,0,0:0:0:0:
415,167,453817,1,2,0:0:0:0:
83,190,454301,69,2,0:0:0:0:
166,83,454543,1,0,0:0:0:0:
129,289,454785,1,0,0:0:0:0:
139,267,454905,1,0,0:0:0:0:
150,245,455026,1,0,0:0:0:0:
160,224,455147,1,0,0:0:0:0:
170,202,455268,1,0,0:0:0:0:
165,363,455511,5,6,0:0:0:0:
83,190,455753,1,6,0:0:0:0:
341,210,456237,5,0,0:0:0:0:
350,209,456357,1,0,0:0:0:0:
359,208,456478,1,0,0:0:0:0:
369,207,456599,1,0,0:0:0:0:
378,206,456720,1,0,0:0:0:0:
316,137,456962,1,0,0:0:0:0:
436,332,457204,1,2,0:0:0:0:
114,235,457688,5,0,0:0:0:0:
246,222,457930,1,0,0:0:0:0:
378,206,458172,1,0,0:0:0:0:
118,232,458414,69,6,0:0:0:0:
382,203,458656,1,6,0:0:0:0:
191,68,459140,5,0,0:0:0:0:
283,163,459382,1,0,0:0:0:0:
324,36,459624,1,2,0:0:0:0:
229,321,460107,5,2,0:0:0:0:
360,299,460349,1,0,0:0:0:0:
198,241,460591,1,0,0:0:0:0:
230,239,460711,1,0,0:0:0:0:
259,223,460832,1,0,0:0:0:0:
278,196,460953,1,0,0:0:0:0:
283,163,461074,1,0,0:0:0:0:
153,345,461317,5,6,0:0:0:0:
196,156,461559,1,6,0:0:0:0:
153,345,462043,69,0,0:0:0:0:
83,231,462285,1,0,0:0:0:0:
196,156,462527,1,2,0:0:0:0:
400,253,463011,5,2,0:0:0:0:
397,243,463132,1,0,0:0:0:0:
395,233,463253,1,0,0:0:0:0:
196,156,463495,1,0,0:0:0:0:
200,175,463616,1,0,0:0:0:0:
204,194,463737,1,0,0:0:0:0:
366,51,463978,5,8,0:0:0:0:
130,285,464462,6,0,L|52:298,3,47.5,6|0|0|0,0:0|0:0|0:0|0:0,0:0:0:0:
204,194,464890,2,0,L|126:181,3,47.5
372,160,465319,70,0,L|450:147,3,47.5
298,251,465747,2,0,L|376:264,3,47.5
191,331,466176,6,0,B|196:308|196:308|196:277,3,47.5
94,240,466604,2,0,B|91:262|91:262|89:294,3,47.5
194,112,467033,6,0,B|230:120|230:120|253:140,3,47.5
64,144,467462,2,0,B|28:136|28:136|5:116,3,47.5
58,271,467890,6,0,L|93:239,3,47.5,6|0|0|0,0:0|0:0|0:0|0:0,0:0:0:0:
195,258,468319,2,0,L|240:244,3,47.5,2|0|0|0,0:0|0:0|0:0|0:0,0:0:0:0:
388,280,468747,70,0,L|340:286,3,47.5,2|0|0|0,0:0|0:0|0:0|0:0,0:0:0:0:
259,335,469176,2,0,L|219:360,3,47.5,2|0|0|0,0:0|0:0|0:0|0:0,0:0:0:0:
302,221,469604,6,0,P|286:198|285:150,3,47.5,2|0|0|0,0:0|0:0|0:0|0:0,0:0:0:0:
377,154,470033,2,0,P|372:126|391:82,3,47.5,2|0|0|0,0:0|0:0|0:0|0:0,0:0:0:0:
473,131,470462,6,0,P|480:103|516:72,3,47.5,2|0|0|0,0:0|0:0|0:0|0:0,0:0:0:0:
353,40,470890,21,10,0:0:0:0:
323,72,470961,1,8,0:0:0:0:
279,76,471032,1,8,0:0:0:0:
237,58,471104,5,8,0:0:0:0:
193,64,471175,1,8,0:0:0:0:
165,98,471246,1,8,0:0:0:0:
162,143,471319,38,0,L|91:162,1,47.5,2|0,0:0|0:0,0:0:0:0:
40,252,471533,2,0,L|111:271,1,47.5,14|0,0:0|0:0,0:0:0:0:
321,298,471747,1,0,0:0:0:0:
299,287,471854,1,0,0:0:0:0:
276,281,471961,1,8,0:0:0:0:
253,281,472068,1,0,0:0:0:0:
229,286,472176,6,0,L|224:238,1,47.5,6|0,0:0|0:0,0:0:0:0:
232,81,472390,1,8,0:0:0:0:
255,81,472497,1,0,0:0:0:0:
279,76,472605,6,0,L|284:124,1,47.5,6|0,0:0|0:0,0:0:0:0:
321,298,472819,2,0,L|316:250,1,47.5,14|0,0:0|0:0,0:0:0:0:
440,142,473033,5,2,0:0:0:0:
441,127,473140,1,0,0:0:0:0:
442,112,473247,1,14,0:0:0:0:
420,121,473354,1,0,0:0:0:0:
396,126,473461,69,2,0:0:0:0:
373,126,473568,1,0,0:0:0:0:
349,122,473675,1,8,0:0:0:0:
327,114,473782,1,0,0:0:0:0:
307,101,473889,5,2,0:0:0:0:
289,85,473996,1,0,0:0:0:0:
275,66,474104,1,8,0:0:0:0:
255,54,474211,1,0,0:0:0:0:
233,46,474318,5,2,0:0:0:0:
209,43,474425,1,0,0:0:0:0:
186,46,474532,1,8,0:0:0:0:
164,55,474639,1,0,0:0:0:0:
144,68,474746,5,2,0:0:0:0:
125,82,474854,1,0,0:0:0:0:
103,91,474962,2,0,P|79:100|34:100,1,47.5,14|0,0:0|0:0,0:0:0:0:
207,129,475176,1,0,0:0:0:0:
220,148,475283,1,0,0:0:0:0:
238,164,475390,1,8,0:0:0:0:
257,177,475497,1,0,0:0:0:0:
279,186,475604,70,0,L|287:240,1,47.5,6|0,0:0|0:0,0:0:0:0:
226,332,475819,1,8,0:0:0:0:
206,318,475926,1,0,0:0:0:0:
184,309,476033,6,0,L|176:255,1,47.5,6|0,0:0|0:0,0:0:0:0:
58,247,476247,2,0,L|73:195,1,47.5,14|0,0:0|0:0,0:0:0:0:
137,102,476462,5,2,0:0:0:0:
133,79,476569,1,0,0:0:0:0:
128,55,476676,1,14,0:0:0:0:
147,68,476783,1,0,0:0:0:0:
168,78,476890,5,2,0:0:0:0:
191,85,476997,1,0,0:0:0:0:
215,88,477104,1,8,0:0:0:0:
238,88,477211,1,0,0:0:0:0:
262,83,477318,69,2,0:0:0:0:
284,75,477425,1,0,0:0:0:0:
305,64,477533,1,8,0:0:0:0:
322,48,477640,1,0,0:0:0:0:
344,41,477747,5,2,0:0:0:0:
368,44,477854,1,0,0:0:0:0:
387,57,477961,1,8,0:0:0:0:
400,77,478068,1,0,0:0:0:0:
402,100,478175,5,2,0:0:0:0:
394,123,478282,1,0,0:0:0:0:
378,139,478390,2,0,P|363:164|366:203,1,47.5,14|0,0:0|0:0,0:0:0:0:
268,268,478604,1,0,0:0:0:0:
266,263,478712,1,0,0:0:0:0:
264,258,478819,1,8,0:0:0:0:
262,253,478926,1,0,0:0:0:0:
259,248,479033,6,0,P|229:258|185:252,1,47.5,6|0,0:0|0:0,0:0:0:0:
116,120,479247,1,8,0:0:0:0:
118,125,479354,1,0,0:0:0:0:
121,130,479462,69,6,0:0:0:0:
51,99,479569,1,6,0:0:0:0:
109,50,479676,2,0,L|170:52,1,47.5,14|0,0:0|0:0,0:0:0:0:
336,84,479890,5,2,0:0:0:0:
327,106,479997,1,0,0:0:0:0:
323,129,480104,1,14,0:0:0:0:
309,109,480211,1,0,0:0:0:0:
288,99,480318,5,2,0:0:0:0:
264,100,480425,1,0,0:0:0:0:
244,112,480532,1,8,0:0:0:0:
232,132,480639,1,0,0:0:0:0:
231,155,480746,85,2,0:0:0:0:
242,176,480853,1,0,0:0:0:0:
261,190,480961,1,8,0:0:0:0:
282,201,481069,1,0,0:0:0:0:
298,219,481176,5,2,0:0:0:0:
306,241,481283,1,0,0:0:0:0:
307,264,481390,1,8,0:0:0:0:
299,287,481497,1,0,0:0:0:0:
284,305,481604,5,2,0:0:0:0:
264,317,481711,1,0,0:0:0:0:
240,321,481819,2,0,P|211:321|172:310,1,47.5,14|0,0:0|0:0,0:0:0:0:
27,258,482033,1,0,0:0:0:0:
34,235,482140,1,0,0:0:0:0:
49,217,482247,1,8,0:0:0:0:
70,205,482354,1,0,0:0:0:0:
93,201,482462,6,0,P|122:201|161:212,1,47.5,6|0,0:0|0:0,0:0:0:0:
250,133,482676,1,8,0:0:0:0:
273,137,482783,1,0,0:0:0:0:
296,131,482890,1,0,0:0:0:0:
315,117,482997,1,0,0:0:0:0:
327,97,483104,70,0,P|345:79|384:68,1,47.5,14|0,0:0|0:0,0:0:0:0:
425,305,483319,1,0,0:0:0:0:
426,267,483426,1,0,0:0:0:0:
428,229,483533,1,0,0:0:0:0:
429,191,483640,1,0,0:0:0:0:
431,153,483747,6,0,L|385:187,1,47.5,14|0,0:0|0:0,0:0:0:0:
268,268,483962,1,0,0:0:0:0:
266,263,484069,1,0,0:0:0:0:
264,258,484176,2,0,P|234:263|192:250,1,47.5
84,88,484390,6,0,L|69:165,1,47.5,14|0,0:0|0:0,0:0:0:0:
219,109,484604,2,0,L|234:186,1,47.5,14|0,0:0|0:0,0:0:0:0:
260,324,484819,1,0,0:0:0:0:
258,319,484926,1,0,0:0:0:0:
258,314,485033,6,0,L|273:237,1,47.5,14|0,0:0|0:0,0:0:0:0:
123,293,485247,2,0,L|108:216,1,47.5,14|0,0:0|0:0,0:0:0:0:
84,88,485462,1,0,0:0:0:0:
121,116,485569,1,0,0:0:0:0:
168,121,485676,70,0,B|191:109|191:109|218:110,1,47.5,14|0,0:0|0:0,0:0:0:0:
302,302,485890,2,0,B|279:314|279:314|252:313,1,47.5,14|0,0:0|0:0,0:0:0:0:
288,112,486104,2,0,B|309:128|309:128|319:153,1,47.5,14|0,0:0|0:0,0:0:0:0:
181,310,486318,2,0,B|160:294|160:294|150:269,1,47.5,14|0,0:0|0:0,0:0:0:0:
306,233,486533,5,14,0:0:0:0:
352,224,486640,1,0,0:0:0:0:
385,190,486747,5,6,0:0:0:0:
431,181,486854,1,0,0:0:0:0:
482,147,486961,5,6,0:0:0:0:
463,152,487068,1,0,0:0:0:0:
460,109,487175,69,14,0:0:0:0:
444,121,487282,1,0,0:0:0:0:
412,67,487390,5,6,0:0:0:0:
365,59,487497,1,0,0:0:0:0:
307,80,487604,5,6,0:0:0:0:
260,72,487711,1,0,0:0:0:0:
212,32,487818,5,14,0:0:0:0:
217,50,487925,1,0,0:0:0:0:
219,93,488033,69,6,0:0:0:0:
214,111,488140,1,0,0:0:0:0:
185,165,488247,5,14,0:0:0:0:
195,211,488354,1,0,0:0:0:0:
206,271,488461,5,6,0:0:0:0:
196,317,488568,1,0,0:0:0:0:
144,351,488675,5,6,0:0:0:0:
127,360,488783,1,0,0:0:0:0:
140,319,488890,69,14,0:0:0:0:
121,315,488998,1,0,0:0:0:0:
159,267,489104,5,6,0:0:0:0:
206,271,489211,1,0,0:0:0:0:
258,238,489318,5,6,0:0:0:0:
305,234,489425,1,0,0:0:0:0:
351,275,489533,5,14,0:0:0:0:
358,292,489640,1,0,0:0:0:0:
385,237,489747,69,6,0:0:0:0:
392,254,489854,1,0,0:0:0:0:
430,205,489961,54,0,L|413:166,2,31.6666666666667,12|0|0,0:0|0:0|0:0,0:0:0:0:
490,159,490176,6,0,L|473:120,2,31.6666666666667,4|0|0,0:0|0:0|0:0,0:0:0:0:
412,77,490390,101,6,0:0:0:0:
409,76,490461,1,0,0:0:0:0:
406,75,490533,1,0,0:0:0:0:
403,74,490604,5,14,0:0:0:0:
400,73,490675,1,0,0:0:0:0:
397,72,490747,1,0,0:0:0:0:
387,72,490818,101,6,0:0:0:0:
377,71,490890,1,0,0:0:0:0:
367,72,490961,1,0,0:0:0:0:
358,75,491033,5,6,0:0:0:0:
339,80,491104,1,0,0:0:0:0:
320,81,491175,1,0,0:0:0:0:
283,42,491247,101,14,0:0:0:0:
301,88,491318,1,0,0:0:0:0:
297,138,491390,1,0,0:0:0:0:
273,182,491461,5,6,0:0:0:0:
255,228,491532,1,0,0:0:0:0:
259,278,491604,1,0,0:0:0:0:
284,321,491675,38,0,P|288:348|282:376,1,47.5,6|0,0:0|0:0,0:0:0:0:
183,249,491890,2,0,P|179:222|185:194,1,47.5,14|0,0:0|0:0,0:0:0:0:
359,244,492104,1,0,0:0:0:0:
405,235,492211,1,0,0:0:0:0:
451,242,492318,5,8,0:0:0:0:
448,232,492425,70,0,L|481:227,1,23.75
445,221,492533,22,0,P|473:218|505:204,1,47.5,4|0,0:0|0:0,0:0:0:0:
446,94,492747,1,8,0:0:0:0:
426,107,492854,1,0,0:0:0:0:
404,116,492961,1,0,0:0:0:0:
381,120,493068,1,0,0:0:0:0:
357,118,493175,5,2,0:0:0:0:
335,110,493282,1,8,0:0:0:0:
314,98,493389,5,6,0:3:0:0:
317,112,493497,1,0,0:0:0:0:
318,126,493604,6,0,B|297:142|297:142|257:148,1,47.5,14|0,0:0|0:0,0:0:0:0:
131,229,493818,1,0,0:0:0:0:
128,215,493926,1,0,0:0:0:0:
127,201,494033,70,0,B|148:185|148:185|188:179,1,47.5,14|0,0:0|0:0,0:0:0:0:
349,226,494247,1,0,0:0:0:0:
352,240,494355,1,0,0:0:0:0:
353,254,494461,6,0,B|332:270|332:270|292:276,1,47.5,14|0,0:0|0:0,0:0:0:0:
272,117,494675,2,0,B|293:101|293:101|333:95,1,47.5,14|0,0:0|0:0,0:0:0:0:
367,271,494890,2,0,B|346:287|346:287|306:293,1,47.5,14|0,0:0|0:0,0:0:0:0:
256,100,495104,1,0,0:0:0:0:
275,86,495211,1,0,0:0:0:0:
297,80,495318,6,0,P|321:78|356:62,1,47.5,14|0,0:0|0:0,0:0:0:0:
466,58,495533,1,2,0:0:0:0:
457,80,495640,1,0,0:0:0:0:
450,102,495747,1,8,0:0:0:0:
447,126,495854,1,0,0:0:0:0:
445,150,495961,5,2,0:0:0:0:
447,173,496068,1,0,0:0:0:0:
450,197,496175,1,8,0:0:0:0:
459,219,496282,1,0,0:0:0:0:
462,242,496389,69,2,0:0:0:0:
459,266,496496,1,0,0:0:0:0:
450,288,496603,1,2,0:0:0:0:
436,307,496712,1,8,0:0:0:0:
417,322,496819,5,6,0:3:0:0:
414,313,496925,1,0,0:0:0:0:
411,303,497033,6,0,L|337:300,1,47.5,14|0,0:0|0:0,0:0:0:0:
240,189,497247,1,0,0:0:0:0:
243,198,497355,1,0,0:0:0:0:
246,208,497461,6,0,L|320:211,1,47.5,14|0,0:0|0:0,0:0:0:0:
392,62,497675,1,0,0:0:0:0:
384,109,497783,1,0,0:0:0:0:
376,155,497890,70,0,L|345:114,1,47.5,14|0,0:0|0:0,0:0:0:0:
287,230,498104,2,0,L|241:205,1,47.5,14|0,0:0|0:0,0:0:0:0:
259,336,498318,2,0,L|207:333,1,47.5,14|0,0:0|0:0,0:0:0:0:
48,180,498533,1,0,0:0:0:0:
57,201,498640,1,0,0:0:0:0:
68,221,498747,6,0,L|129:217,1,47.5,14|0,0:0|0:0,0:0:0:0:
287,230,498961,1,2,0:0:0:0:
264,223,499068,1,0,0:0:0:0:
246,208,499175,1,8,0:0:0:0:
234,187,499282,1,0,0:0:0:0:
231,164,499389,5,2,0:0:0:0:
237,141,499496,1,0,0:0:0:0:
251,122,499604,1,8,0:0:0:0:
270,109,499711,1,0,0:0:0:0:
282,88,499818,5,2,0:0:0:0:
283,65,499925,1,0,0:0:0:0:
274,43,500032,1,2,0:0:0:0:
255,28,500139,1,8,0:0:0:0:
233,23,500246,69,6,0:3:0:0:
234,32,500354,1,0,0:0:0:0:
235,41,500461,6,0,B|210:44|210:44|166:28,1,47.5,14|0,0:0|0:0,0:0:0:0:
76,157,500675,1,0,0:0:0:0:
75,148,500783,1,0,0:0:0:0:
74,139,500890,6,0,B|98:135|98:135|143:152,1,47.5,14|0,0:0|0:0,0:0:0:0:
268,268,501104,1,0,0:0:0:0:
254,248,501211,1,0,0:0:0:0:
243,226,501318,6,0,P|267:237|315:237,1,47.5,14|0,0:0|0:0,0:0:0:0:
295,138,501533,2,0,P|321:137|364:117,1,47.5,14|0,0:0|0:0,0:0:0:0:
303,36,501747,2,0,P|326:24|357:-12,1,47.5,14|0,0:0|0:0,0:0:0:0:
173,118,501961,1,0,0:0:0:0:
171,113,502068,1,0,0:0:0:0:
170,108,502175,70,0,P|146:96|115:59,1,47.5,14|0,0:0|0:0,0:0:0:0:
64,169,502390,1,2,0:0:0:0:
64,192,502497,1,0,0:0:0:0:
65,216,502604,1,8,0:0:0:0:
66,240,502711,1,0,0:0:0:0:
67,263,502818,5,2,0:0:0:0:
67,287,502925,1,0,0:0:0:0:
68,311,503032,1,8,0:0:0:0:
69,335,503140,1,0,0:0:0:0:
88,321,503247,5,2,0:0:0:0:
109,311,503354,1,0,0:0:0:0:
132,304,503461,1,2,0:0:0:0:
156,301,503568,1,8,0:0:0:0:
179,303,503675,5,6,0:3:0:0:
176,289,503783,1,0,0:0:0:0:
172,275,503890,2,0,L|237:289,1,47.5,14|0,0:0|0:0,0:0:0:0:
356,164,504104,1,0,0:0:0:0:
359,178,504212,1,0,0:0:0:0:
363,192,504319,70,0,L|298:178,1,47.5,14|0,0:0|0:0,0:0:0:0:
147,105,504533,1,0,0:0:0:0:
144,91,504641,1,0,0:0:0:0:
140,77,504748,6,0,L|205:91,1,47.5,14|0,0:0|0:0,0:0:0:0:
134,184,504961,2,0,L|88:195,1,47.5,14|0,0:0|0:0,0:0:0:0:
134,303,505175,2,0,L|186:262,1,47.5,14|0,0:0|0:0,0:0:0:0:
356,164,505390,6,0,P|327:169|291:161,1,47.5,14|0,0:0|0:0,0:0:0:0:
335,67,505604,1,0,0:0:0:0:
319,48,505711,1,0,0:0:0:0:
303,29,505818,6,0,P|274:21|245:-1,1,47.5,14|0,0:0|0:0,0:0:0:0:
140,77,506033,1,0,0:0:0:0:
131,72,506140,1,0,0:0:0:0:
122,68,506247,70,0,L|158:141,1,47.5,14|0,0:0|0:0,0:0:0:0:
134,303,506461,2,0,L|98:230,1,47.5,6|0,0:0|0:0,0:0:0:0:
319,48,506675,5,14,0:0:0:0:
312,124,506783,1,8,0:0:0:0:
382,95,506890,2,0,L|388:34,1,47.5,6|0,0:0|0:0,0:0:0:0:
315,241,507104,6,0,L|308:310,1,47.5,14|0,0:0|0:0,0:0:0:0:
231,63,507318,1,0,0:0:0:0:
238,74,507425,1,0,0:0:0:0:
245,86,507533,86,0,L|249:38,1,47.5,14|0,0:0|0:0,0:0:0:0:
129,163,507747,1,0,0:0:0:0:
122,174,507854,1,0,0:0:0:0:
115,186,507962,6,0,L|110:138,1,47.5,14|0,0:0|0:0,0:0:0:0:
272,247,508175,2,0,L|276:199,1,47.5,14|8,0:0|0:0,0:0:0:0:
466,65,508390,5,6,0:0:0:0:
395,93,508497,1,0,0:0:0:0:
400,17,508604,2,0,L|461:-7,1,47.5,14|0,0:0|0:0,0:0:0:0:
245,86,508818,6,0,L|200:103,1,47.5,14|0,0:0|0:0,0:0:0:0:
11,162,509033,1,0,0:0:0:0:
29,156,509140,1,0,0:0:0:0:
47,152,509247,70,0,L|91:169,1,47.5,14|0,0:0|0:0,0:0:0:0:
272,247,509461,1,0,0:0:0:0:
254,241,509568,1,0,0:0:0:0:
235,236,509675,6,0,L|190:253,1,47.5,14|0,0:0|0:0,0:0:0:0:
38,294,509890,2,0,L|82:311,1,47.5,6|0,0:0|0:0,0:0:0:0:
431,290,510104,5,14,0:0:0:0:
374,340,510211,1,8,0:0:0:0:
359,265,510318,2,0,L|399:231,1,47.5,6|0,0:0|0:0,0:0:0:0:
237,311,510533,6,0,B|221:308|221:308|161:340,1,47.5,14|0,0:0|0:0,0:0:0:0:
206,149,510747,1,0,0:0:0:0:
214,170,510854,1,0,0:0:0:0:
223,191,510961,70,0,B|238:193|238:193|298:161,1,47.5,14|0,0:0|0:0,0:0:0:0:
436,55,511175,1,0,0:0:0:0:
428,76,511282,1,0,0:0:0:0:
419,97,511390,86,0,B|403:99|403:99|387:89,3,23.75,14|2|0|0,0:0|0:0|0:0|0:0,0:0:0:0:
359,155,511604,22,0,L|318:132,1,47.5,14|8,0:0|0:0,0:0:0:0:
98,36,511818,5,6,0:0:0:0:
38,83,511925,1,0,0:0:0:0:
108,113,512033,2,0,L|163:82,1,47.5,14|0,0:0|0:0,0:0:0:0:
121,267,512247,6,0,L|104:321,1,47.5,14|0,0:0|0:0,0:0:0:0:
251,185,512461,1,0,0:0:0:0:
242,173,512568,1,0,0:0:0:0:
233,161,512675,86,0,L|247:115,1,47.5,14|0,0:0|0:0,0:0:0:0:
281,285,512890,1,0,0:0:0:0:
287,297,512997,1,0,0:0:0:0:
292,310,513104,6,0,L|277:355,1,47.5,14|0,0:0|0:0,0:0:0:0:
411,261,513318,2,0,L|425:215,1,47.5,14|0,0:0|0:0,0:0:0:0:
116,120,513533,5,14,0:0:0:0:
132,116,513640,1,8,0:0:0:0:
160,142,513747,2,0,L|108:151,1,47.5,6|0,0:0|0:0,0:0:0:0:
271,147,513961,86,0,L|320:153,1,47.5,14|0,0:0|0:0,0:0:0:0:
302,282,514175,1,0,0:0:0:0:
295,275,514283,1,0,0:0:0:0:
287,268,514390,6,0,L|239:262,1,47.5,14|0,0:0|0:0,0:0:0:0:
45,278,514604,1,0,0:0:0:0:
52,271,514712,1,0,0:0:0:0:
60,264,514819,6,0,L|107:258,1,47.5,14|0,0:0|0:0,0:0:0:0:
160,142,515033,2,0,L|207:147,1,47.5,6|8,0:0|0:0,0:0:0:0:
426,184,515247,5,6,0:0:0:0:
443,185,515354,1,0,0:0:0:0:
473,160,515461,2,0,L|420:155,1,47.5,14|0,0:0|0:0,0:0:0:0:
349,276,515675,86,0,P|320:273|299:282,1,47.5,14|0,0:0|0:0,0:0:0:0:
143,328,515890,1,0,0:0:0:0:
147,309,515997,1,0,0:0:0:0:
150,290,516104,6,0,P|179:293|199:283,1,47.5,14|0,0:0|0:0,0:0:0:0:
160,142,516318,1,0,0:0:0:0:
156,123,516425,1,0,0:0:0:0:
153,104,516533,6,0,P|124:107|103:97,1,47.5,14|0,0:0|0:0,0:0:0:0:
256,184,516747,2,0,P|285:187|305:177,1,47.5,6|0,0:0|0:0,0:0:0:0:
366,350,516961,69,14,0:0:0:0:
347,353,517068,1,8,0:0:0:0:
316,330,517175,2,0,L|362:321,1,47.5,6|0,0:0|0:0,0:0:0:0:
478,230,517390,6,0,L|401:221,1,47.5,14|0,0:0|0:0,0:0:0:0:
256,184,517604,1,0,0:0:0:0:
263,171,517711,1,0,0:0:0:0:
272,160,517818,6,0,L|349:151,1,47.5,14|0,0:0|0:0,0:0:0:0:
467,95,518033,1,0,0:0:0:0:
460,82,518140,1,0,0:0:0:0:
451,71,518247,22,0,L|396:66,2,31.6666666666667,2|0|0,0:0|0:0|0:0,0:0:0:0:
335,43,518461,6,0,L|280:48,2,31.6666666666667,10|0|0,0:0|0:0|0:0,0:0:0:0:
214,52,518675,101,8,0:0:0:0:
167,60,518746,1,8,0:0:0:0:
130,89,518819,1,8,0:0:0:0:
109,133,518890,5,8,0:0:0:0:
71,161,518961,1,8,0:0:0:0:
23,155,519033,1,8,0:0:0:0:
51,88,519104,37,6,0:0:0:0:
79,273,519318,1,0,0:0:0:0:
210,158,519533,2,0,L|224:251,1,95,0|2,0:0|0:0,0:0:0:0:
345,355,519961,5,8,0:0:0:0:
214,240,520176,2,0,L|199:333,1,95,0|2,0:0|0:0,0:0:0:0:
79,273,520604,1,0,0:0:0:0:
71,260,520711,1,0,0:0:0:0:
84,209,520818,5,6,0:0:0:0:
57,371,521033,1,6,0:0:0:0:
214,240,521247,5,0,0:0:0:0:
196,129,521461,2,0,L|216:7,1,95,2|0,0:0|0:0,0:0:0:0:
277,42,521747,5,0,0:0:0:0:
277,44,521818,1,0,0:0:0:0:
278,46,521890,1,8,0:0:0:0:
135,72,522104,54,0,L|127:118,1,47.5,2|8,0:0|0:0,0:0:0:0:
259,168,522318,2,0,L|266:121,1,47.5,0|8,0:0|0:0,0:0:0:0:
71,212,522533,5,6,0:0:0:0:
214,240,522747,1,6,0:0:0:0:
134,309,522961,2,0,L|40:290,1,95,0|2,0:0|0:0,0:0:0:0:
199,231,523390,5,8,0:0:0:0:
279,300,523604,2,0,L|372:281,1,95
420,196,524033,1,0,0:0:0:0:
414,182,524140,1,0,0:0:0:0:
431,133,524247,5,6,0:0:0:0:
353,270,524461,2,0,B|279:285|279:285|262:303,1,95,6|0,0:0|0:0,0:0:0:0:
111,260,524890,2,0,B|185:245|185:245|202:227,1,95,14|0,0:0|0:0,0:0:0:0:
199,58,525318,69,6,0:0:0:0:
353,270,525533,2,0,B|350:233|350:233|361:204|361:204|359:157,1,95,0|8,0:0|0:0,0:0:0:0:
254,135,525961,5,6,0:0:0:0:
111,260,526175,1,0,0:0:0:0:
127,120,526390,2,0,L|199:57,1,95,0|2,0:0|0:0,0:0:0:0:
127,264,526818,5,8,0:0:0:0:
111,124,527033,2,0,L|39:61,1,95
31,199,527461,1,0,0:0:0:0:
35,212,527568,1,0,0:0:0:0:
15,260,527675,5,6,0:0:0:0:
205,206,527890,1,6,0:0:0:0:
127,264,528104,69,0,0:0:0:0:
317,318,528318,2,0,L|408:292,1,95,2|0,0:0|0:0,0:0:0:0:
381,225,528604,53,0,0:0:0:0:
379,222,528675,1,0,0:0:0:0:
377,219,528747,1,8,0:0:0:0:
428,356,528961,54,0,L|382:368,1,47.5,0|8,0:0|0:0,0:0:0:0:
257,265,529175,2,0,L|302:252,1,47.5,0|8,0:0|0:0,0:0:0:0:
471,256,529390,5,6,0:0:0:0:
333,115,529604,1,6,0:0:0:0:
257,265,529818,2,0,B|305:315|305:315|318:292,1,95,0|2,0:0|0:0,0:0:0:0:
162,111,530247,5,8,0:0:0:0:
238,261,530461,2,0,B|190:311|190:311|177:288,1,95
63,321,530890,1,8,0:0:0:0:
69,308,530997,1,0,0:0:0:0:
48,260,531104,5,6,0:0:0:0:
296,194,531318,2,0,L|182:165,1,95,6|0,0:0|0:0,0:0:0:0:
22,75,531747,2,8,L|136:46,1,95,14|0,0:0|0:0,0:0:0:0:
296,86,532175,69,6,0:0:0:0:
387,322,532390,2,0,B|384:297|384:297|387:286|387:286|385:278|385:278|383:219,1,95,0|8,0:0|0:0,0:0:0:0:
278,311,532818,5,6,0:0:0:0:
150,265,533033,1,0,0:0:0:0:
296,194,533247,2,0,B|372:222|372:222|407:215,1,95,0|2,0:0|0:0,0:0:0:0:
132,240,533675,5,8,0:0:0:0:
278,311,533889,2,0,B|354:283|354:283|389:290,1,95
460,217,534318,1,0,0:0:0:0:
456,203,534425,1,0,0:0:0:0:
481,157,534533,5,6,0:0:0:0:
288,296,534747,1,6,0:0:0:0:
287,104,534961,69,0,0:0:0:0:
106,121,535175,2,0,P|158:115|203:147,1,95,2|0,0:0|0:0,0:0:0:0:
140,191,535461,53,0,0:0:0:0:
141,193,535533,1,0,0:0:0:0:
142,195,535604,1,8,0:0:0:0:
110,54,535818,54,0,P|148:50|197:69,1,47.5,2|8,0:0|0:0,0:0:0:0:
253,188,536033,2,0,P|218:208|167:211,1,47.5,0|8,0:0|0:0,0:0:0:0:
20,122,536247,5,6,0:0:0:0:
55,267,536461,1,0,0:0:0:0:
194,269,536675,2,0,L|169:377,1,95,0|2,0:0|0:0,0:0:0:0:
253,188,537104,5,8,0:0:0:0:
114,186,537318,2,0,L|139:78,1,95
257,93,537747,1,0,0:0:0:0:
251,80,537854,1,0,0:0:0:0:
269,31,537961,5,6,0:0:0:0:
253,188,538175,2,0,B|299:174|299:174|375:178,1,95,6|0,0:0|0:0,0:0:0:0:
467,265,538604,2,0,B|421:279|421:279|345:275,1,95,14|0,0:0|0:0,0:0:0:0:
205,269,539033,69,6,0:0:0:0:
133,72,539247,2,0,B|150:119|150:119|88:99,1,95,0|8,0:0|0:0,0:0:0:0:
24,113,539675,5,6,0:0:0:0:
253,188,539890,1,0,0:0:0:0:
133,56,540104,2,0,L|223:85,1,95,0|2,0:0|0:0,0:0:0:0:
266,209,540533,5,8,0:0:0:0:
386,77,540747,2,0,L|295:106,1,95
142,155,541175,1,0,0:0:0:0:
145,169,541283,1,0,0:0:0:0:
94,156,541390,5,6,0:0:0:0:
118,322,541604,1,6,0:0:0:0:
266,209,541818,69,0,0:0:0:0:
290,43,542033,2,0,L|304:146,1,95,2|0,0:0|0:0,0:0:0:0:
369,138,542318,53,0,0:0:0:0:
371,135,542390,1,0,0:0:0:0:
373,132,542461,1,8,0:0:0:0:
235,119,542675,54,0,L|227:72,1,47.5,0|8,0:0|0:0,0:0:0:0:
355,22,542890,2,0,L|364:80,1,47.5,0|8,0:0|0:0,0:0:0:0:
266,209,543104,5,6,0:0:0:0:
359,327,543318,1,6,0:0:0:0:
175,309,543533,2,0,L|65:297,1,95,0|2,0:0|0:0,0:0:0:0:
82,227,543961,5,8,0:0:0:0:
266,209,544176,2,0,L|376:197,1,95
387,126,544604,1,0,0:0:0:0:
381,113,544711,1,0,0:0:0:0:
331,96,544818,5,6,0:0:0:0:
185,58,545033,2,0,P|197:109|174:152,1,95,6|0,0:0|0:0,0:0:0:0:
82,227,545461,2,0,P|70:176|93:133,1,95,14|0,0:0|0:0,0:0:0:0:
172,312,545890,69,6,0:0:0:0:
394,259,546104,2,0,B|374:251|374:251|320:253|320:253|278:237,1,95,0|8,0:0|0:0,0:0:0:0:
188,195,546533,5,12,0:0:0:0:
150,167,546640,1,0,0:0:0:0:
146,122,546747,1,0,0:0:0:0:
177,88,546854,1,0,0:0:0:0:
223,90,546961,1,2,0:0:0:0:
225,99,547068,1,0,0:0:0:0:
226,108,547175,6,0,L|291:108,1,47.5,6|0,0:0|0:0,0:0:0:0:
394,259,547390,2,0,L|346:259,1,47.5,12|0,0:0|0:0,0:0:0:0:
45,341,547604,1,0,0:0:0:0:
74,303,547711,1,0,0:0:0:0:
114,278,547818,1,2,0:0:0:0:
160,269,547925,1,0,0:0:0:0:
207,276,548032,1,0,0:0:0:0:
188,254,548140,1,0,0:0:0:0:
169,232,548247,6,0,L|237:233,1,47.5,14|0,0:0|0:0,0:0:0:0:
356,332,548461,1,0,0:0:0:0:
322,299,548568,1,0,0:0:0:0:
312,253,548675,1,2,0:0:0:0:
328,209,548782,1,0,0:0:0:0:
366,181,548890,70,0,P|381:161|386:130,1,47.5,6|0,0:0|0:0,0:0:0:0:
150,210,549104,2,0,L|218:211,1,47.5,14|0,0:0|0:0,0:0:0:0:
230,52,549318,1,0,0:0:0:0:
234,60,549425,1,0,0:0:0:0:
236,69,549533,6,0,P|221:89|216:120,1,47.5,14|0,0:0|0:0,0:0:0:0:
292,295,549747,2,0,P|306:274|311:243,1,47.5,14|0,0:0|0:0,0:0:0:0:
424,93,549961,6,0,L|356:94,1,47.5,14|0,0:0|0:0,0:0:0:0:
151,46,550175,1,0,0:0:0:0:
155,92,550282,1,0,0:0:0:0:
180,132,550389,1,2,0:0:0:0:
177,141,550497,1,0,0:0:0:0:
174,150,550604,6,0,P|146:165|132:192,1,47.5,14|0,0:0|0:0,0:0:0:0:
255,322,550818,2,0,P|283:307|297:280,1,47.5,14|0,0:0|0:0,0:0:0:0:
323,43,551033,1,0,0:0:0:0:
332,89,551140,1,0,0:0:0:0:
342,136,551247,1,2,0:0:0:0:
351,182,551354,1,0,0:0:0:0:
361,229,551461,1,0,0:0:0:0:
348,222,551568,1,0,0:0:0:0:
335,215,551675,70,0,L|326:166,1,47.5,14|0,0:0|0:0,0:0:0:0:
194,57,551890,1,0,0:0:0:0:
184,103,551997,1,0,0:0:0:0:
174,150,552104,1,2,0:0:0:0:
165,196,552211,1,0,0:0:0:0:
155,242,552318,6,0,L|146:193,1,47.5,14|0,0:0|0:0,0:0:0:0:
326,261,552533,2,0,L|335:212,1,47.5,14|0,0:0|0:0,0:0:0:0:
55,115,552747,1,0,0:0:0:0:
65,162,552854,1,0,0:0:0:0:
75,208,552961,6,0,B|84:245|84:245|73:257,1,47.5,14|0,0:0|0:0,0:0:0:0:
174,150,553175,2,0,B|202:175|202:175|200:191,1,47.5,14|0,0:0|0:0,0:0:0:0:
194,57,553390,6,0,B|231:61|231:61|239:75,1,47.5,14|0,0:0|0:0,0:0:0:0:
456,215,553604,1,0,0:0:0:0:
447,211,553711,1,0,0:0:0:0:
440,204,553818,1,2,0:0:0:0:
437,195,553925,1,0,0:0:0:0:
438,186,554033,70,0,P|444:161|435:134,1,47.5,14|0,0:0|0:0,0:0:0:0:
174,150,554247,2,0,P|168:175|177:202,1,47.5,14|0,0:0|0:0,0:0:0:0:
403,283,554461,1,0,0:0:0:0:
356,274,554568,1,0,0:0:0:0:
309,280,554675,1,2,0:0:0:0:
267,300,554783,1,0,0:0:0:0:
222,317,554890,1,0,0:0:0:0:
175,319,554997,1,0,0:0:0:0:
130,307,555104,6,0,P|101:303|64:312,1,47.5,14|0,0:0|0:0,0:0:0:0:
256,197,555318,1,0,0:0:0:0:
253,187,555425,1,0,0:0:0:0:
249,178,555533,1,2,0:0:0:0:
294,180,555640,1,0,0:0:0:0:
323,145,555747,6,0,L|379:167,1,47.5,14|0,0:0|0:0,0:0:0:0:
181,70,555961,2,0,L|125:91,1,47.5,14|0,0:0|0:0,0:0:0:0:
130,307,556175,1,0,0:0:0:0:
120,260,556282,1,0,0:0:0:0:
111,213,556390,6,0,L|80:282,1,47.5,14|0,0:0|0:0,0:0:0:0:
304,51,556604,1,0,0:0:0:0:
314,98,556711,1,0,0:0:0:0:
323,145,556819,70,0,L|354:76,1,47.5,14|0,0:0|0:0,0:0:0:0:
419,339,557033,1,0,0:0:0:0:
395,342,557140,1,0,0:0:0:0:
373,335,557247,1,2,0:0:0:0:
357,317,557354,1,0,0:0:0:0:
352,294,557461,6,0,P|336:266|297:259,1,47.5,14|0,0:0|0:0,0:0:0:0:
111,213,557675,2,0,P|127:241|166:248,1,47.5,14|0,0:0|0:0,0:0:0:0:
323,145,557890,1,0,0:0:0:0:
322,154,557997,1,0,0:0:0:0:
320,163,558104,1,2,0:0:0:0:
273,167,558211,1,0,0:0:0:0:
234,142,558318,1,0,0:0:0:0:
218,98,558425,1,0,0:0:0:0:
234,54,558533,6,0,L|168:64,1,47.5,14|0,0:0|0:0,0:0:0:0:
111,213,558747,1,0,0:0:0:0:
137,251,558854,1,0,0:0:0:0:
136,297,558961,1,2,0:0:0:0:
107,334,559068,1,0,0:0:0:0:
62,345,559175,6,0,L|125:355,1,47.5,14|0,0:0|0:0,0:0:0:0:
317,260,559390,2,0,L|254:269,1,47.5,14|0,0:0|0:0,0:0:0:0:
107,64,559604,1,0,0:0:0:0:
130,107,559711,1,0,0:0:0:0:
152,149,559818,70,0,L|174:78,1,47.5,14|0,0:0|0:0,0:0:0:0:
303,93,560033,2,0,L|292:19,1,47.5,2|0,0:0|0:0,0:0:0:0:
461,185,560247,6,0,L|420:122,1,47.5,14|0,0:0|0:0,0:0:0:0:
317,260,560461,1,0,0:0:0:0:
335,257,560568,1,0,0:0:0:0:
353,253,560675,1,2,0:0:0:0:
332,294,560782,1,0,0:0:0:0:
289,313,560890,6,0,L|222:304,1,47.5,6|0,0:0|0:0,0:0:0:0:
104,155,561104,2,0,L|171:146,1,47.5,14|0,0:0|0:0,0:0:0:0:
382,43,561318,1,0,0:0:0:0:
347,74,561425,1,0,0:0:0:0:
303,93,561532,1,2,0:0:0:0:
256,95,561639,1,0,0:0:0:0:
211,83,561747,6,0,P|181:74|137:75,1,47.5,14|0,0:0|0:0,0:0:0:0:
75,236,561961,1,2,0:0:0:0:
122,234,562068,1,0,0:0:0:0:
167,246,562176,70,0,P|197:255|241:254,1,47.5,14|0,0:0|0:0,0:0:0:0:
391,272,562390,1,2,0:0:0:0:
387,253,562497,1,0,0:0:0:0:
383,234,562604,6,0,B|376:219|376:219|332:197,1,47.5,6|0,0:0|0:0,0:0:0:0:
116,320,562818,2,0,B|123:335|123:335|167:357,1,47.5,14|0,0:0|0:0,0:0:0:0:
203,130,563033,1,0,0:0:0:0:
211,83,563140,1,0,0:0:0:0:
219,36,563247,6,0,L|247:91,1,47.5,14|0,0:0|0:0,0:0:0:0:
391,272,563461,1,0,0:0:0:0:
383,225,563568,1,0,0:0:0:0:
375,178,563675,6,0,L|347:233,1,47.5,14|0,0:0|0:0,0:0:0:0:
150,231,563890,1,0,0:0:0:0:
148,226,563997,1,0,0:0:0:0:
145,221,564104,1,2,0:0:0:0:
119,182,564211,1,0,0:0:0:0:
73,173,564318,70,0,P|48:172|19:158,1,47.5,14|0,0:0|0:0,0:0:0:0:
211,83,564533,2,0,P|236:82|265:68,1,47.5,14|0,0:0|0:0,0:0:0:0:
269,268,564747,1,0,0:0:0:0:
265,249,564854,1,0,0:0:0:0:
261,230,564961,1,2,0:0:0:0:
279,235,565068,1,0,0:0:0:0:
297,240,565175,6,0,L|284:174,1,47.5,14|0,0:0|0:0,0:0:0:0:
101,290,565390,1,0,0:0:0:0:
83,295,565497,1,0,0:0:0:0:
65,300,565604,6,0,L|78:234,1,47.5,14|0,0:0|0:0,0:0:0:0:
211,83,565818,1,0,0:0:0:0:
202,129,565925,1,0,0:0:0:0:
193,176,566033,6,0,L|171:116,1,47.5,14|0,0:0|0:0,0:0:0:0:
359,296,566247,2,0,L|381:235,1,47.5,14|0,0:0|0:0,0:0:0:0:
65,300,566461,1,0,0:0:0:0:
110,287,566568,1,0,0:0:0:0:
156,275,566675,70,0,P|151:308|127:333,1,47.5,14|0,0:0|0:0,0:0:0:0:
409,154,566890,1,0,0:0:0:0:
363,141,566997,1,0,0:0:0:0:
317,129,567104,6,0,P|322:161|346:186,1,47.5,14|0,0:0|0:0,0:0:0:0:
359,296,567318,5,0,0:0:0:0:
353,288,567425,1,0,0:0:0:0:
347,280,567533,6,0,L|349:330,1,47.5,6|0,0:0|0:0,0:0:0:0:
181,318,567747,2,0,L|183:368,1,47.5,14|0,0:0|0:0,0:0:0:0:
317,129,567961,2,0,L|319:79,1,47.5,14|0,0:0|0:0,0:0:0:0:
193,303,568175,1,0,0:0:0:0:
191,255,568282,1,0,0:0:0:0:
190,208,568390,1,2,0:0:0:0:
166,213,568497,1,0,0:0:0:0:
143,206,568604,70,0,P|116:205|81:219,1,47.5,14|0,0:0|0:0,0:0:0:0:
297,199,568818,1,2,0:0:0:0:
321,204,568925,1,0,0:0:0:0:
344,197,569032,6,0,P|371:196|406:210,1,47.5,14|0,0:0|0:0,0:0:0:0:
106,74,569247,1,0,0:0:0:0:
153,75,569354,1,0,0:0:0:0:
200,76,569461,6,0,B|233:60|233:60|232:100,1,47.5,14|0,0:0|0:0,0:0:0:0:
409,100,569675,2,0,B|376:116|376:116|377:76,1,47.5,14|0,0:0|0:0,0:0:0:0:
304,293,569890,1,0,0:0:0:0:
300,245,569997,1,0,0:0:0:0:
297,199,570104,6,0,L|255:250,1,47.5,14|0,0:0|0:0,0:0:0:0:
110,381,570318,1,0,0:0:0:0:
113,333,570425,1,0,0:0:0:0:
117,287,570532,70,0,L|167:349,1,47.5,14|0,0:0|0:0,0:0:0:0:
153,75,570747,1,0,0:0:0:0:
161,100,570854,1,0,0:0:0:0:
166,125,570961,1,2,0:0:0:0:
217,118,571068,1,0,0:0:0:0:
269,120,571175,6,0,P|297:125|328:123,1,52.2500015945435,14|0,0:0|0:0,0:0:0:0:
438,42,571390,2,0,P|410:37|379:39,1,52.2500015945435,14|0,0:0|0:0,0:0:0:0:
226,209,571604,1,0,0:0:0:0:
177,228,571711,1,0,0:0:0:0:
126,220,571818,1,2,0:0:0:0:
86,188,571925,1,0,0:0:0:0:
66,141,572033,6,0,L|62:218,1,52.2500015945435,14|0,0:0|0:0,0:0:0:0:
166,289,572247,1,2,0:0:0:0:
206,257,572354,1,0,0:0:0:0:
226,209,572462,6,0,L|230:285,1,52.2500015945435,14|0,0:0|0:0,0:0:0:0:
361,308,572675,1,2,0:0:0:0:
366,317,572783,1,0,0:0:0:0:
372,326,572890,70,0,L|451:332,1,52.2500015945435,14|0,0:0|0:0,0:0:0:0:
212,200,573104,2,0,L|133:206,1,52.2500015945435,14|0,0:0|0:0,0:0:0:0:
372,171,573318,1,0,0:0:0:0:
384,120,573425,1,0,0:0:0:0:
397,69,573533,6,0,L|329:99,1,52.2500015945435,14|0,0:0|0:0,0:0:0:0:
149,191,573747,1,0,0:0:0:0:
136,140,573854,1,0,0:0:0:0:
123,89,573962,6,0,L|195:124,1,56.9999982604981,14|0,0:0|0:0,0:0:0:0:
372,171,574175,1,0,0:0:0:0:
353,224,574282,1,0,0:0:0:0:
355,281,574389,1,2,0:0:0:0:
346,274,574497,1,0,0:0:0:0:
337,266,574604,6,0,P|304:258|271:261,1,56.9999982604981,14|0,0:0|0:0,0:0:0:0:
104,263,574818,2,0,P|137:271|170:268,1,56.9999982604981,14|0,0:0|0:0,0:0:0:0:
225,133,575033,1,0,0:0:0:0:
243,80,575140,1,0,0:0:0:0:
290,49,575247,1,2,0:0:0:0:
346,52,575354,1,0,0:0:0:0:
388,88,575461,70,0,L|386:25,1,56.9999982604981,14|0,0:0|0:0,0:0:0:0:
353,224,575675,1,2,0:0:0:0:
297,227,575782,1,0,0:0:0:0:
254,263,575889,6,0,L|256:199,1,56.9999982604981,14|0,0:0|0:0,0:0:0:0:
41,202,576104,1,0,0:0:0:0:
92,178,576211,1,0,0:0:0:0:
147,188,576318,6,0,L|144:244,1,56.9999982604981,14|0,0:0|0:0,0:0:0:0:
243,80,576533,2,0,L|240:136,1,56.9999982604981,14|0,0:0|0:0,0:0:0:0:
428,265,576747,1,0,0:0:0:0:
386,302,576854,1,0,0:0:0:0:
330,306,576961,6,0,P|302:302|246:312,1,56.9999982604981,14|0,0:0|0:0,0:0:0:0:
106,151,577175,1,0,0:0:0:0:
147,188,577282,1,0,0:0:0:0:
203,192,577389,70,0,P|231:187|292:199,1,56.9999982604981,14|0,0:0|0:0,0:0:0:0:
453,46,577604,1,0,0:0:0:0:
411,91,577711,1,0,0:0:0:0:
392,149,577818,1,2,0:0:0:0:
397,210,577925,1,0,0:0:0:0:
428,265,578033,6,0,P|445:303|429:337,1,61.7499971733095,14|0,0:0|0:0,0:0:0:0:
215,248,578247,2,0,P|198:210|214:176,1,61.7499971733095,14|0,0:0|0:0,0:0:0:0:
329,35,578461,1,0,0:0:0:0:
325,96,578568,1,0,0:0:0:0:
322,158,578675,1,2,0:0:0:0:
310,187,578783,1,0,0:0:0:0:
307,217,578890,6,0,P|308:260|320:286,1,61.7499971733095,14|0,0:0|0:0,0:0:0:0:
106,151,579104,1,2,0:0:0:0:
118,122,579212,1,0,0:0:0:0:
121,92,579319,6,0,P|120:49|108:23,1,61.7499971733095,14|0,0:0|0:0,0:0:0:0:
32,200,579533,1,2,0:0:0:0:
78,238,579640,1,0,0:0:0:0:
138,234,579747,70,0,P|168:227|210:231,1,61.7499971733095,14|0,0:0|0:0,0:0:0:0:
382,335,579961,2,0,P|352:342|310:338,1,61.7499971733095,14|0,0:0|0:0,0:0:0:0:
297,93,580175,1,0,0:0:0:0:
301,154,580282,1,0,0:0:0:0:
306,216,580390,6,0,L|357:166,1,61.7499971733095,14|0,0:0|0:0,0:0:0:0:
453,21,580604,1,0,0:0:0:0:
448,82,580711,1,0,0:0:0:0:
443,144,580819,6,0,L|383:83,1,66.4999979705811,14|0,0:0|0:0,0:0:0:0:
210,323,581033,1,0,0:0:0:0:
150,344,581140,1,0,0:0:0:0:
106,298,581247,1,2,0:0:0:0:
129,240,581354,1,0,0:0:0:0:
192,236,581461,6,0,P|229:228|251:199,1,66.4999979705811,14|0,0:0|0:0,0:0:0:0:
211,50,581675,2,0,P|174:58|152:87,1,66.4999979705811,14|0,0:0|0:0,0:0:0:0:
329,252,581890,1,0,0:0:0:0:
359,264,581997,1,0,0:0:0:0:
381,291,582104,70,0,L|435:240,1,66.4999979705811,6|0,0:0|0:0,0:0:0:0:
448,82,582318,2,0,L|394:133,1,66.4999979705811,14|0,0:0|0:0,0:0:0:0:
192,236,582533,1,2,0:0:0:0:
247,205,582640,1,0,0:0:0:0:
241,143,582747,6,0,L|235:73,1,66.4999979705811,14|0,0:0|0:0,0:0:0:0:
379,345,582961,1,2,0:0:0:0:
323,314,583068,1,0,0:0:0:0:
329,252,583175,6,0,L|335:181,1,66.4999979705811,14|0,0:0|0:0,0:0:0:0:
181,171,583390,2,0,L|174:100,1,66.4999979705811,14|0,0:0|0:0,0:0:0:0:
448,82,583604,1,0,0:0:0:0:
454,148,583711,1,0,0:0:0:0:
460,214,583818,6,0,L|398:182,1,66.4999979705811,14|0,0:0|0:0,0:0:0:0:
194,304,584033,1,0,0:0:0:0:
187,237,584140,1,0,0:0:0:0:
181,171,584247,70,0,L|246:206,1,71.2500027179719,14|0,0:0|0:0,0:0:0:0:
386,301,584461,1,0,0:0:0:0:
380,288,584568,1,0,0:0:0:0:
372,276,584675,1,2,0:0:0:0:
389,229,584782,1,0,0:0:0:0:
385,180,584890,6,0,P|381:137|393:104,1,71.2500027179719,14|0,0:0|0:0,0:0:0:0:
248,31,585104,2,0,P|252:74|240:107,1,71.2500027179719,14|0,0:0|0:0,0:0:0:0:
97,323,585318,1,0,0:0:0:0:
63,261,585425,1,0,0:0:0:0:
73,192,585532,1,2,0:0:0:0:
68,179,585640,1,0,0:0:0:0:
61,166,585747,6,0,L|147:165,1,71.2500027179719,14|0,0:0|0:0,0:0:0:0:
372,276,585961,1,2,0:0:0:0:
307,246,586068,1,0,0:0:0:0:
242,217,586175,6,0,L|328:216,1,71.2500027179719,14|0,0:0|0:0,0:0:0:0:
501,167,586390,1,2,0:0:0:0:
436,137,586497,1,0,0:0:0:0:
371,108,586604,70,0,L|457:107,1,71.2500027179719,14|0,0:0|0:0,0:0:0:0:
385,292,586818,6,0,L|511:291,2,95,14|0|0,0:0|3:0|3:0,0:0:0:0:
135,253,587932,69,0,0:0:0:0:
133,248,587983,1,0,0:0:0:0:
130,243,588034,2,0,L|200:232,1,71.25,14|0,0:0|0:0,0:0:0:0:
250,192,588439,22,0,L|73:219,1,178.125,14|0,0:0|0:0,0:0:0:0:
10,145,588845,5,8,0:0:0:0:
186,117,589047,1,0,0:0:0:0:
306,271,589250,5,2,0:0:0:0:
130,243,589452,1,2,0:0:0:0:
250,192,589655,6,0,L|320:181,1,71.25,14|0,0:0|0:0,0:0:0:0:
365,143,590061,70,0,L|188:170,1,178.125,14|0,0:0|0:0,0:0:0:0:
81,85,590466,5,8,0:0:0:0:
130,243,590669,1,0,0:0:0:0:
217,73,590872,5,2,0:0:0:0:
137,329,591075,1,2,0:0:0:0:
299,151,591277,5,8,0:0:0:0:
250,309,591480,1,8,0:0:0:0:
254,300,591581,1,8,0:0:0:0:
258,291,591682,70,0,L|327:287,1,47.5,2|0,0:0|0:0,0:0:0:0:
444,227,591885,2,0,L|375:223,1,47.5,2|0,0:0|0:0,0:0:0:0:
299,151,592088,5,10,0:0:0:0:
291,138,592189,1,0,0:0:0:0:
287,125,592290,1,0,0:0:0:0:
285,111,592392,1,0,0:0:0:0:
254,75,592493,5,10,0:0:0:0:
240,70,592594,1,0,0:0:0:0:
226,69,592695,1,0,0:0:0:0:
212,71,592797,1,0,0:0:0:0:
169,92,592899,5,10,0:0:0:0:
155,97,593000,1,0,0:0:0:0:
141,98,593101,1,0,0:0:0:0:
127,96,593203,1,0,0:0:0:0:
82,110,593304,69,10,0:0:0:0:
82,124,593405,1,0,0:0:0:0:
83,138,593506,1,0,0:0:0:0:
84,152,593608,1,0,0:0:0:0:
107,194,593709,5,10,0:0:0:0:
108,208,593810,1,0,0:0:0:0:
109,222,593911,1,0,0:0:0:0:
110,237,594013,1,0,0:0:0:0:
147,267,594115,69,8,0:0:0:0:
147,267,594165,1,8,0:0:0:0:
147,267,594216,1,8,0:0:0:0:
147,267,594267,1,8,0:0:0:0:
147,267,594318,6,2,L|170:239,3,23.75
192,328,594520,5,8,0:0:0:0:
305,207,594723,1,2,0:0:0:0:
208,175,594926,6,0,B|203:45|203:45|241:107,1,178.125,14|0,0:0|0:0,0:0:0:0:
313,219,595331,5,8,0:0:0:0:
319,46,595534,1,0,0:0:0:0:
136,223,595736,5,2,0:0:0:0:
130,50,595939,1,2,0:0:0:0:
140,306,596142,70,0,P|86:290|65:265,1,71.25,14|0,0:0|0:0,0:0:0:0:
27,263,596547,6,0,P|105:317|199:331,1,178.125,14|0,0:0|0:0,0:0:0:0:
229,236,596953,5,8,0:0:0:0:
70,167,597155,1,0,0:0:0:0:
261,161,597358,5,2,0:0:0:0:
27,263,597560,1,2,0:0:0:0:
297,267,597763,69,8,0:0:0:0:
138,336,597965,1,0,0:0:0:0:
132,322,598068,1,8,0:0:0:0:
129,308,598169,6,0,P|134:282|118:232,1,47.5,2|0,0:0|0:0,0:0:0:0:
72,120,598372,2,0,P|67:146|83:196,1,47.5,2|0,0:0|0:0,0:0:0:0:
261,161,598574,5,10,0:0:0:0:
275,158,598675,1,0,0:0:0:0:
289,156,598776,1,0,0:0:0:0:
303,154,598878,1,0,0:0:0:0:
328,114,598980,5,10,0:0:0:0:
313,111,599081,1,0,0:0:0:0:
299,109,599182,1,0,0:0:0:0:
285,107,599284,1,0,0:0:0:0:
277,60,599385,69,10,0:0:0:0:
291,58,599486,1,0,0:0:0:0:
305,56,599587,1,0,0:0:0:0:
320,53,599689,1,0,0:0:0:0:
360,28,599790,5,10,0:0:0:0:
374,26,599892,70,0,L|407:23,2,23.75,2|2|8,0:0|0:0|0:0,0:0:0:0:
427,88,600095,6,0,L|460:85,2,23.75,2|2|8,0:0|0:0|0:0,0:0:0:0:
420,182,600297,101,2,0:0:0:0:
420,182,600348,1,2,0:0:0:0:
420,182,600399,1,8,0:0:0:0:
373,264,600500,5,2,0:0:0:0:
373,264,600551,1,2,0:0:0:0:
373,264,600602,1,8,0:0:0:0:
278,274,600703,101,2,0:0:0:0:
278,274,600754,1,2,0:0:0:0:
278,274,600805,1,8,0:0:0:0:
204,216,600905,5,2,0:0:0:0:
204,216,600956,1,2,0:0:0:0:
204,216,601007,101,10,0:0:0:0:
195,207,601057,1,2,0:0:0:0:
183,202,601108,1,2,0:0:0:0:
171,200,601159,1,2,0:0:0:0:
159,201,601209,5,10,0:0:0:0:
75,262,601412,6,0,P|59:204|122:106,1,178.125,14|0,0:0|0:0,0:0:0:0:
278,274,601818,5,8,0:0:0:0:
237,120,602020,1,0,0:0:0:0:
284,354,602223,5,2,0:0:0:0:
338,147,602425,1,2,0:0:0:0:
178,228,602628,6,0,L|196:296,1,71.25,14|0,0:0|0:0,0:0:0:0:
182,356,603034,70,0,L|131:168,1,178.125,14|0,0:0|0:0,0:0:0:0:
113,97,603439,5,8,0:0:0:0:
66,269,603642,1,0,0:0:0:0:
37,111,603845,5,2,0:0:0:0:
99,339,604048,1,2,0:0:0:0:
229,184,604250,5,8,0:0:0:0:
182,356,604453,1,8,0:0:0:0:
179,337,604554,1,8,0:0:0:0:
176,318,604655,70,0,B|210:317|210:317|238:340,1,47.5,2|0,0:0|0:0,0:0:0:0:
345,275,604858,2,0,B|311:276|311:276|283:253,1,47.5,2|0,0:0|0:0,0:0:0:0:
152,193,605061,5,10,0:0:0:0:
151,178,605162,1,0,0:0:0:0:
152,164,605263,1,0,0:0:0:0:
156,151,605365,1,0,0:0:0:0:
165,104,605466,5,10,0:0:0:0:
166,90,605567,1,0,0:0:0:0:
164,76,605668,1,0,0:0:0:0:
160,62,605770,1,0,0:0:0:0:
195,29,605872,5,10,0:0:0:0:
209,29,605973,1,0,0:0:0:0:
223,29,606074,1,0,0:0:0:0:
237,30,606176,1,0,0:0:0:0:
279,52,606277,37,10,0:0:0:0:
279,52,606328,1,0,0:0:0:0:
279,52,606378,1,0,0:0:0:0:
279,52,606429,1,0,0:0:0:0:
279,52,606480,22,0,L|287:118,1,47.5
357,81,606682,54,0,L|363:132,3,31.6666666666667,10|0|0|0,0:0|0:0|0:0|0:0,0:0:0:0:
429,96,606986,21,2,0:0:0:0:
429,96,607037,1,2,0:0:0:0:
429,96,607088,1,0,0:0:0:0:
432,190,607189,5,2,0:0:0:0:
432,190,607240,1,2,0:0:0:0:
432,190,607291,1,0,0:0:0:0:
362,253,607392,101,2,0:0:0:0:
362,253,607443,1,2,0:0:0:0:
362,253,607494,21,8,0:0:0:0:
173,193,607696,1,2,0:0:0:0:
338,150,607899,6,0,L|162:95,1,178.125,14|0,0:0|0:0,0:0:0:0:
79,98,608304,5,8,0:0:0:0:
250,45,608507,1,0,0:0:0:0:
2,140,608709,5,2,0:0:0:0:
173,193,608912,1,2,0:0:0:0:
109,317,609115,70,0,L|40:296,1,71.25,14|0,0:0|0:0,0:0:0:0:
0,248,609520,6,0,L|192:306,1,178.125,14|0,0:0|0:0,0:0:0:0:
248,139,609926,5,8,0:0:0:0:
77,191,610128,1,0,0:0:0:0:
305,193,610331,5,2,0:0:0:0:
61,119,610533,1,2,0:0:0:0:
322,91,610736,69,8,0:0:0:0:
151,39,610938,1,2,0:0:0:0:
154,52,611040,1,8,0:0:0:0:
156,61,611142,6,0,P|181:68|218:52,1,47.5,2|0,0:0|0:0,0:0:0:0:
305,193,611345,2,0,P|280:186|243:202,1,47.5,2|0,0:0|0:0,0:0:0:0:
61,119,611547,5,10,0:0:0:0:
63,133,611648,1,0,0:0:0:0:
65,147,611749,1,0,0:0:0:0:
68,161,611851,1,0,0:0:0:0:
101,194,611953,5,10,0:0:0:0:
99,208,612054,1,0,0:0:0:0:
96,223,612155,1,0,0:0:0:0:
94,237,612257,1,0,0:0:0:0:
56,265,612358,69,10,0:0:0:0:
58,279,612459,1,0,0:0:0:0:
60,293,612560,1,0,0:0:0:0:
63,307,612662,1,0,0:0:0:0:
108,320,612763,5,10,0:0:0:0:
119,311,612864,1,0,0:0:0:0:
132,306,612965,1,0,0:0:0:0:
146,304,613067,1,0,0:0:0:0:
191,322,613169,5,10,0:0:0:0:
205,320,613271,1,0,0:0:0:0:
218,315,613372,1,0,0:0:0:0:
229,306,613473,1,0,0:0:0:0:
252,265,613574,5,14,0:0:0:0:
0,142,613777,1,6,0:0:0:0:
366,201,614250,5,0,0:0:0:0:
364,194,614318,1,0,0:0:0:0:
362,188,614385,1,14,0:0:0:0:
0,200,614588,1,6,0:0:0:0:
448,112,615061,5,0,0:0:0:0:
446,105,615129,1,0,0:0:0:0:
444,99,615196,1,14,0:0:0:0:
0,256,615399,1,6,0:0:0:0:
506,13,615872,101,0,0:0:0:0:
504,6,615940,1,0,0:0:0:0:
502,0,616007,1,14,0:0:0:0:
0,312,616210,1,6,0:0:0:0:
224,203,616818,21,14,0:0:0:0:
230,196,616919,2,0,L|225:163,5,23.75
326,117,617223,85,14,0:0:0:0:
319,107,617358,2,0,L|335:53,3,31.6666666666667
385,188,617628,5,14,0:0:0:0:
461,143,617763,1,0,0:0:0:0:
459,136,617831,1,2,0:0:0:0:
457,129,617899,1,2,0:0:0:0:
455,123,617966,1,2,0:0:0:0:
453,116,618034,37,14,0:0:0:0:
230,196,618236,2,0,L|181:204,1,47.5,2|2,0:0|0:0,0:0:0:0:
275,279,618439,53,14,0:0:0:0:
268,269,618574,2,0,L|224:276,2,31.6666666666667
364,319,618845,6,0,L|426:308,2,63.3333333333333,14|0|0,0:0|0:0|0:0,0:0:0:0:
230,196,619250,53,14,0:0:0:0:
170,112,619351,1,10,0:0:0:0:
73,144,619453,1,10,0:0:0:0:
73,245,619554,1,10,0:0:0:0:
170,278,619655,1,14,0:0:0:0:
