osu file format v12

[General]
AudioFilename: I miss you -the orig.mp3
AudioLeadIn: 0
PreviewTime: 60550
Countdown: 0
SampleSet: Soft
StackLeniency: 0.7
Mode: 0
LetterboxInBreaks: 0

[Editor]
Bookmarks: 19249
DistanceSpacing: 0.9
BeatDivisor: 4
GridSize: 4

[Metadata]
Title:I miss you
TitleUnicode:I miss you
Artist:Veil
ArtistUnicode:Veil
Creator:Xinely
Version:Miss Him
Source:FORTUNE ARTERIAL: Akai Yakusoku
Tags:ending hinsvar romantic love
BeatmapID:264708
BeatmapSetID:70921

[Difficulty]
HPDrainRate:3
CircleSize:3
OverallDifficulty:3
ApproachRate:4
SliderMultiplier:1.4
SliderTickRate:2

[Events]
//Background and Video events
0,0,"BG.jpg",0,0
//Break Periods
2,80621,91569
2,158543,168322
//Storyboard Layer 0 (Background)
//Storyboard Layer 1 (Fail)
//Storyboard Layer 2 (Pass)
//Storyboard Layer 3 (Foreground)
//Storyboard Sound Samples
//Background Colour Transformations
3,100,163,162,255

[TimingPoints]
-617,779.220779220779,4,2,1,30,1,0
2693,-100,4,2,1,40,0,0
13408,-100,4,2,1,20,0,0
14187,-100,4,2,1,5,0,0
14966,-100,4,2,1,30,0,0
18083,-100,4,2,1,40,0,0
36784,-100,4,2,0,30,0,0
36979,-100,4,2,1,40,0,0
54511,-100,4,2,2,40,0,0
54901,-100,4,2,1,40,0,0
59187,-100,4,2,2,40,0,0
59576,-100,4,2,1,40,0,0
61719,-100,4,2,1,60,0,1
78862,-100,4,2,1,60,0,0
80421,-100,4,2,1,50,0,0
92109,-100,4,2,1,40,0,0
132434,-100,4,2,2,40,0,0
132823,-100,4,2,1,40,0,0
135550,-100,4,2,2,40,0,0
135940,-100,4,2,1,40,0,0
139641,-100,4,2,1,60,0,1
156784,-100,4,2,1,60,0,0
158343,-100,4,2,1,45,0,0
170810,-100,4,2,1,45,0,0
177044,-100,4,2,1,60,0,1
186979,-100,4,2,2,60,0,1
187369,-100,4,2,1,60,0,1
187953,-100,4,2,1,60,0,0
189511,-100,4,2,1,40,0,0
198862,-100,4,2,1,5,0,0

[Colours]
Combo1 : 255,64,159
Combo2 : 231,84,235
Combo3 : 234,234,234

[HitObjects]
52,216,2499,2,0,P|116:192|196:236,1,140,2|2,0:0|0:0,0:0:0:0:
200,276,3668,2,0,P|263:300|327:276,1,140,0|2,0:0|0:0,0:0:0:0:
380,240,4837,1,0,0:0:0:0:
476,152,5616,6,0,P|500:88|475:24,1,140,2|0,0:0|0:0,0:0:0:0:
412,24,6785,2,0,P|372:40|348:80,1,70,2|0,0:0|0:0,0:0:0:0:
332,120,7564,1,0,0:0:0:0:
304,176,7954,2,0,P|287:196|247:212,1,70,0|2,0:0|0:0,0:0:0:0:
184,212,8733,6,0,P|156:144|188:84,1,140,2|0,0:0|0:0,0:0:0:0:
228,44,9902,2,0,P|296:16|356:48,1,140,2|0,0:0|0:0,0:0:0:0:
384,96,11071,1,2,0:0:0:0:
256,192,11850,12,0,14967,0:0:0:0:
20,196,16525,5,2,0:0:0:0:
244,80,18084,6,0,P|304:44|392:80,1,140,2|0,0:0|0:0,0:0:0:0:
404,112,19253,1,0,0:0:0:0:
388,172,19642,2,0,P|328:208|240:172,1,140,2|0,0:0|0:0,0:0:0:0:
208,160,20811,1,0,0:0:0:0:
152,128,21201,6,0,P|88:92|20:108,2,140,2|0|2,0:0|0:0|0:0,0:0:0:0:
208,240,23538,1,0,0:0:0:0:
248,288,23928,1,0,0:0:0:0:
300,324,24318,6,0,P|368:332|436:276,1,140,2|0,0:0|0:0,0:0:0:0:
440,232,25486,1,0,0:0:0:0:
448,168,25876,2,0,P|456:136|444:88,1,70,2|0,0:0|0:0,0:0:0:0:
452,36,26655,2,0,P|419:28|372:39,1,70
340,80,27434,6,0,P|276:104|200:72,2,140,2|0|2,0:0|0:0|0:0,0:0:0:0:
456,128,29772,2,0,P|452:200|404:260,1,140,0|2,0:0|0:0,0:0:0:0:
380,308,30941,5,0,0:0:0:0:
344,360,31331,2,0,L|256:320,1,70,0|2,0:0|0:0,0:0:0:0:
224,300,32110,2,0,P|200:228|248:156,1,140,2|0,0:0|0:0,0:0:0:0:
308,76,33668,5,2,0:0:0:0:
436,296,35227,1,2,0:0:0:0:
184,296,36785,5,4,0:0:0:0:
100,200,37564,1,8,0:0:0:0:
148,160,37954,2,0,L|228:104,1,70,0|2,0:0|0:0,0:0:0:0:
268,120,38733,2,0,L|348:176,1,70,0|8,0:0|0:0,0:0:0:0:
372,200,39512,1,0,0:0:0:0:
412,248,39902,6,0,P|360:296|280:296,1,140,2|8,0:0|0:0,0:0:0:0:
372,200,41460,2,0,P|424:152|504:152,2,140,2|10|2,0:0|0:0|0:0,0:0:0:0:
288,296,43798,5,8,0:0:0:0:
208,200,44577,2,0,P|156:152|76:152,1,140,2|8,0:0|0:0,0:0:0:0:
44,192,45746,1,0,0:0:0:0:
40,256,46136,6,0,P|92:304|172:304,1,140,2|8,0:0|0:0,0:0:0:0:
280,340,47694,2,0,L|280:260,1,70,2|0,0:0|0:0,0:0:0:0:
324,224,48473,1,8,0:0:0:0:
316,160,48863,1,0,0:0:0:0:
272,112,49253,6,0,P|200:92|144:136,1,140,2|8,0:0|0:0,0:0:0:0:
132,188,50421,2,0,P|104:248|132:320,1,140,2|0,0:0|0:0,0:0:0:0:
160,368,51590,2,0,L|240:368,1,70,8|0,0:0|0:0,0:0:0:0:
292,360,52370,6,0,P|348:316|348:234,1,140,2|8,0:0|0:0,0:0:0:0:
348,188,53538,2,0,L|412:124,1,70,0|2,0:0|0:0,0:0:0:0:
432,84,54318,2,8,P|370:52|303:65,1,140,0|0,0:0|0:0,0:0:0:0:
272,120,55486,6,0,P|208:144|132:116,1,140,2|8,0:0|0:0,0:0:0:0:
92,88,56655,1,0,0:0:0:0:
32,200,57434,2,8,B|44:260|96:240|120:320,1,140,0|2,0:0|0:0,0:0:0:0:
144,364,58603,6,0,P|228:264|124:172,1,280,2|2,0:0|0:0,0:0:0:0:
88,144,60551,2,0,L|116:60,1,70,0|8,0:0|0:0,0:0:0:0:
228,32,61720,5,4,0:0:0:0:
320,120,62499,2,0,P|368:80|437:98,1,140,8|2,0:0|0:0,0:0:0:0:
480,144,63668,1,0,0:0:0:0:
456,200,64058,2,0,P|408:240|338:221,1,140,8|2,0:0|0:0,0:0:0:0:
272,112,65616,5,8,0:0:0:0:
232,160,66006,2,0,P|212:200|208:240,1,70,0|2,0:0|0:0,0:0:0:0:
216,288,66785,1,0,0:0:0:0:
260,332,67175,2,0,P|332:332|388:268,1,140,8|2,0:0|0:0,0:0:0:0:
344,168,68733,6,0,P|272:168|224:211,2,140,8|2|8,0:0|0:0|0:0,0:0:0:0:
396,200,70681,1,0,0:0:0:0:
424,256,71071,6,0,P|432:300|408:340,1,70,2|0,0:0|0:0,0:0:0:0:
368,352,71850,2,0,P|312:376|216:344,1,140,8|2,0:0|0:0,0:0:0:0:
180,328,73019,1,0,0:0:0:0:
128,292,73408,2,0,P|88:236|8:212,1,140,8|4,0:0|0:0,0:0:0:0:
144,176,74967,6,0,P|136:140|144:106,1,70,8|0,0:0|0:0,0:0:0:0:
160,48,75746,2,0,P|226:19|282:46,1,140,2|2,0:0|0:0,0:0:0:0:
320,168,77305,6,0,B|268:124|220:236|288:304|368:356|368:356|448:304|516:236|468:124|416:168,1,560,4|4,0:0|0:0,0:0:0:0:
80,324,92889,5,2,0:0:0:0:
248,240,94058,2,0,P|284:232|336:192,2,70,0|2|0,0:0|0:0|0:0,0:0:0:0:
260,44,96006,5,4,0:0:0:0:
168,128,96785,1,8,0:0:0:0:
160,192,97175,1,0,0:0:0:0:
208,232,97564,2,0,P|280:272|344:232,1,140,2|8,0:0|0:0,0:0:0:0:
376,212,98733,1,0,0:0:0:0:
412,160,99123,6,0,P|436:92|388:36,1,140,2|8,0:0|0:0,0:0:0:0:
344,76,100292,1,0,0:0:0:0:
292,112,100681,2,0,P|220:132|144:104,2,140,2|8|2,0:0|0:0|0:0,0:0:0:0:
412,160,103019,5,8,0:0:0:0:
412,284,103798,2,0,P|344:312|276:280,1,140,2|8,0:0|0:0,0:0:0:0:
236,252,104967,1,0,0:0:0:0:
188,212,105357,6,0,P|129:189|61:217,1,140,2|8,0:0|0:0,0:0:0:0:
68,344,106915,2,0,P|126:366|194:338,1,140,2|8,0:0|0:0,0:0:0:0:
240,296,108084,1,0,0:0:0:0:
284,252,108473,6,0,P|352:223|410:245,1,140,2|8,0:0|0:0,0:0:0:0:
500,156,110032,1,2,0:0:0:0:
452,40,110811,1,8,0:0:0:0:
352,116,111590,6,0,P|288:140|200:104,1,140,2|4,0:0|3:2,0:0:0:0:
228,248,113149,2,0,P|292:224|380:260,1,140,2|8,0:0|0:0,0:0:0:0:
476,200,114707,5,4,0:0:0:0:
424,84,115486,1,8,0:0:0:0:
376,44,115876,1,0,0:0:0:0:
316,64,116266,2,0,L|188:176,1,140,2|8,0:0|0:0,0:0:0:0:
176,208,117434,1,0,0:0:0:0:
176,272,117824,6,0,P|232:308|314:287,1,140,2|8,0:0|0:0,0:0:0:0:
412,236,119382,2,0,P|356:200|274:221,2,140,2|8|2,0:0|0:0|0:0,0:0:0:0:
356,348,121720,5,8,0:0:0:0:
232,340,122499,2,0,P|168:320|144:236,2,140,2|8|2,0:0|0:0|0:0,0:0:0:0:
304,236,124837,5,8,0:0:0:0:
272,112,125616,2,0,P|212:72|144:88,1,140,2|8,0:0|0:0,0:0:0:0:
92,116,126785,1,0,0:0:0:0:
44,156,127175,6,0,P|32:220|76:316,1,140,2|8,0:0|0:0,0:0:0:0:
80,348,128344,2,0,P|140:308|232:332,1,140,2|0,0:0|0:0,0:0:0:0:
260,344,129512,1,8,0:0:0:0:
324,348,129902,6,0,P|360:248|324:124,1,210,2|8,0:0|0:0,0:0:0:0:
308,92,131460,2,0,P|268:100|236:132,1,70,0|2,0:0|0:0,0:0:0:0:
220,176,132240,2,0,P|204:224|260:312,1,140,0|2,0:0|0:0,0:0:0:0:
268,356,133408,6,0,P|332:332|420:348,1,140,2|8,0:0|0:0,0:0:0:0:
464,324,134577,2,0,P|476:284|464:252,1,70,0|2,0:0|0:0,0:0:0:0:
472,196,135357,2,0,P|412:156|344:168,1,140
300,208,136525,6,0,P|240:248|172:236,1,140,2|8,0:0|0:0,0:0:0:0:
120,208,137694,1,0,0:0:0:0:
104,148,138084,1,2,0:0:0:0:
136,96,138473,1,0,0:0:0:0:
188,64,138863,2,0,P|240:36|316:52,1,140,8|4,0:0|0:0,0:0:0:0:
368,88,140032,5,0,0:0:0:0:
412,136,140421,2,0,L|404:216,1,70,8|0,0:0|0:0,0:0:0:0:
396,268,141201,2,0,P|324:292|260:264,1,140,2|8,0:0|0:0,0:0:0:0:
212,240,142370,1,0,0:0:0:0:
156,208,142759,6,0,P|100:168|24:172,1,140,2|8,0:0|0:0,0:0:0:0:
28,232,143928,2,0,P|20:272|28:308,1,70,0|2,0:0|0:0,0:0:0:0:
80,336,144707,1,0,0:0:0:0:
136,364,145097,2,0,P|200:372|264:324,1,140,8|4,0:0|0:0,0:0:0:0:
300,284,146266,5,0,0:0:0:0:
324,228,146655,2,0,P|264:203|190:233,1,140,8|2,0:0|0:0,0:0:0:0:
200,352,148214,2,0,P|259:376|333:346,1,140,8|2,0:0|0:0,0:0:0:0:
372,304,149382,5,0,0:0:0:0:
404,252,149772,2,8,P|428:193|398:119,1,140,8|2,0:0|0:0,0:0:0:0:
348,92,150941,1,0,0:0:0:0:
288,76,151331,2,0,P|220:100|148:68,1,140,8|4,0:0|0:0,0:0:0:0:
44,132,152889,6,0,P|64:192|40:272,2,140,8|2|8,0:0|0:0|0:0,0:0:0:0:
92,92,154837,1,0,0:0:0:0:
140,52,155227,6,0,P|200:32|280:56,2,140,4|8|2,0:0|0:0|0:0,0:0:0:0:
92,92,157175,1,0,0:0:0:0:
108,152,157564,2,0,B|152:188|152:188|192:160|236:180,1,140,8|4,0:0|0:0,0:0:0:0:
44,348,169642,6,0,L|92:284,1,70,0|2,0:0|0:0,0:0:0:0:
164,192,170811,5,6,0:0:0:0:
256,104,171590,2,0,P|286:116|314:152,1,70,8|0,0:0|0:0,0:0:0:0:
352,192,172370,2,0,P|356:264|300:324,1,140,2|8,0:0|0:0,0:0:0:0:
252,320,173538,1,0,0:0:0:0:
200,284,173928,6,0,P|196:212|252:152,2,140,0|8|2,0:0|0:0|0:0,0:0:0:0:
252,320,175876,1,0,0:0:0:0:
312,296,176266,2,0,L|392:296,1,70,8|0,0:0|0:0,0:0:0:0:
428,336,177045,6,0,P|409:269|433:205,1,140,4|8,0:0|0:0,0:0:0:0:
468,152,178214,1,0,0:0:0:0:
432,100,178603,2,0,P|368:124|301:105,1,140,4|8,0:0|0:0,0:0:0:0:
248,72,179772,1,0,0:0:0:0:
196,40,180162,6,0,P|129:21|65:45,1,140,2|8,0:0|0:0,0:0:0:0:
32,100,181331,2,0,P|16:136|18:168,1,70,0|2,0:0|0:0,0:0:0:0:
60,212,182110,2,0,L|140:212,2,70,0|8|0,0:0|0:0|0:0,0:0:0:0:
44,272,183279,6,0,P|92:312|168:308,1,140,4|8,0:0|0:0,0:0:0:0:
220,280,184447,1,0,0:0:0:0:
276,308,184837,2,0,P|350:311|398:271,1,140,2|8,0:0|0:0,0:0:0:0:
504,204,186395,6,0,P|388:140|252:208,1,280,4|2,0:0|0:0,0:0:0:0:
224,248,188344,2,0,P|184:252|144:248,1,70,0|0,0:0|0:0,0:0:0:0:
96,228,189123,1,0,0:0:0:0:
44,192,189512,5,4,0:0:0:0:
92,76,190292,2,0,L|232:76,1,140,0|2,0:0|0:0,0:0:0:0:
324,164,191850,1,0,0:0:0:0:
232,248,192629,6,0,L|92:248,1,140,2|0,0:0|0:0,0:0:0:0:
60,300,193798,2,0,P|84:239|60:171,1,140,2|0,0:0|0:0,0:0:0:0:
12,132,194967,2,0,P|24:96|56:68,1,70,8|0,0:0|0:0,0:0:0:0:
108,80,195746,6,0,P|173:97|241:77,1,140,2|8,0:0|0:0,0:0:0:0:
292,40,196915,2,0,P|274:105|294:173,1,140,2|0,0:0|0:0,0:0:0:0:
312,232,198084,1,8,0:0:0:0:
256,192,198863,12,0,201980,0:0:0:0:
