osu file format v11

[General]
AudioFilename: I miss you.mp3
AudioLeadIn: 1500
PreviewTime: 59323
Countdown: 0
SampleSet: Soft
StackLeniency: 0.7
Mode: 0
LetterboxInBreaks: 1

[Editor]
Bookmarks: 17045,68473,86785
DistanceSpacing: 1
BeatDivisor: 8
GridSize: 4

[Metadata]
Title:I miss you (TV Size)
TitleUnicode:I miss you (TV Size)
Artist:Veil
ArtistUnicode:Veil
Creator:-Kirito
Version:Normal
Source:FORTUNE ARTERIAL: Akai Yakusoku
Tags:ending aka Aoi Tada Misuzu Togashi
BeatmapID:198159
BeatmapSetID:68326

[Difficulty]
HPDrainRate:3
CircleSize:3
OverallDifficulty:4
ApproachRate:4
SliderMultiplier:1.3
SliderTickRate:2

[Events]
//Background and Video events
0,0,"BG.jpg"
Video,0,"kirito hentai.avi"
//Break Periods
//Storyboard Layer 0 (Background)
//Storyboard Layer 1 (Fail)
//Storyboard Layer 2 (Pass)
//Storyboard Layer 3 (Foreground)
//Storyboard Sound Samples
//Background Colour Transformations
3,100,163,162,255

[TimingPoints]
1260,779.220779220779,4,2,1,50,1,0
10611,-100,4,2,1,40,0,0
11390,-100,4,2,1,30,0,0
12170,-100,4,2,1,20,0,0
12949,-100,4,2,1,10,0,0
13337,-100,4,2,1,5,0,0
13630,-100,4,2,1,30,0,0
14897,-100,4,2,1,30,0,0
16856,779.220779220779,4,2,1,40,1,0
32440,-100,4,2,1,50,0,0
33998,-100,4,2,1,35,0,0
35557,-100,4,2,1,40,0,0
36336,-100,4,2,1,60,0,0
41011,-100,4,2,2,60,0,0
41401,-100,4,2,1,60,0,0
58933,-100,4,2,1,40,0,0
59713,-100,4,2,1,50,0,0
60102,-100,4,2,1,35,0,0
60492,-100,4,2,1,65,0,1
65167,-100,4,2,1,65,0,0
66726,-100,4,2,1,65,0,1
77635,-100,4,2,1,50,0,0
87765,-100,4,2,1,30,0,0
88544,-100,4,2,1,40,0,0
88933,-100,4,2,1,35,0,0
89323,-100,4,2,1,30,0,0
89713,-100,4,2,1,25,0,0
90102,-100,4,2,1,20,0,0
90492,-100,4,2,1,15,0,0
90881,-100,4,2,1,10,0,0
91271,-100,4,2,1,5,0,0

[Colours]
Combo1 : 255,128,0
Combo2 : 255,255,0
Combo3 : 0,0,255
Combo4 : 192,192,192

[HitObjects]
176,96,1260,2,0,P|256:48|336:96,2,195,2|2|2,0:0|0:0|0:0,0:0:0
224,216,4376,2,0,P|256:220|288:216,1,65,0|2,0:0|0:0,0:0:0
392,296,5545,6,0,P|416:168,1,130,2|0,0:0|0:0,0:0:0
416,104,6714,2,0,P|388:84|368:56,1,65,2|0,0:0|0:0,0:0:0
308,60,7493,2,0,P|216:60|216:60|164:60|124:20,2,195,2|2|2,0:0|0:0|0:0,0:0:0
256,192,10610,12,2,13630,0:0:0
256,48,14896,6,0,P|256:112,1,65,0|2,0:0|0:0,0:0:0
116,332,16856,5,2,0:0:0
44,224,17634,1,2,0:0:0
76,100,18413,2,0,P|140:100|192:60,1,130,2|2,0:0|0:0,0:0:0
321,61,19972,6,0,P|372:100|436:100,1,130,2|2,0:0|0:0,0:0:0
488,220,21530,2,0,P|476:288,1,65,2|0,0:0|0:0,0:0:0
416,308,22310,2,0,P|348:296,1,65,2|0,0:0|0:0,0:0:0
288,308,23089,2,0,P|228:332|152:320,1,130,2|2,0:0|0:0,0:0:0
40,288,24647,5,2,0:0:0
32,224,25037,1,0,0:0:0
24,160,25426,2,0,P|84:136|160:148,1,130,2|2,0:0|0:0,0:0:0
256,52,26985,1,2,0:0:0
320,164,27764,6,0,P|372:172|424:152,2,97.5,2|0|0,0:0|0:0|0:0,0:0:0
256,156,29322,2,0,P|256:288,1,130,2|2,0:0|0:0,0:0:0
224,344,30491,2,0,P|256:352|288:344,1,65,0|2,0:0|0:0,0:0:0
112,152,32439,5,2,0:0:0
368,192,33900,5,2,0:0:0
152,336,35556,5,4,0:0:0
256,260,36335,1,8,0:0:0
316,280,36725,1,0,0:0:0
376,252,37115,2,0,P|368:188|408:140,1,130,2|8,0:0|0:0,0:0:0
428,80,38283,1,0,0:0:0
364,64,38673,2,0,P|300:72|252:32,1,130,2|8,0:0|0:0,0:0:0
128,64,40232,5,2,0:0:0
128,64,40621,2,0,P|136:128|104:196,1,130
64,232,41790,2,0,P|120:256|160:316,1,130,2|8,0:0|0:0,0:0:0
256,224,43348,6,0,P|256:160,2,65,2|0|8,0:0|0:0|0:0,0:0:0
288,280,44517,1,0,0:0:0
353,311,44907,2,0,P|392:256|448:232,1,130,2|8,0:0|0:0,0:0:0
500,192,46076,1,0,0:0:0
492,128,46465,2,0,P|480:92|484:64,2,65,2|2|8,0:0|0:0|0:0,0:0:0
400,220,48024,6,0,P|340:236|268:212,1,130,2|8,0:0|0:0,0:0:0
180,132,49582,2,0,P|196:192|172:264,1,130,2|8,0:0|0:0,0:0:0
116,276,50751,1,0,0:0:0
48,276,51141,6,0,P|32:216|56:144,1,130,2|8,0:0|0:0,0:0:0
64,88,52309,2,0,P|56:56|20:28,2,65,0|2|2,0:0|0:0|0:0,0:0:0
64,152,53478,1,8,0:0:0
104,200,53868,1,0,0:0:0
168,224,54258,6,0,P|232:240|296:224,1,130,2|8,0:0|0:0,0:0:0
344,184,55426,2,0,P|360:120|344:56,1,130,2|0,0:0|0:0,0:0:0
296,16,56595,1,8,0:0:0
256,192,57374,12,4,58933,0:0:0
248,232,59712,5,4,0:0:0
184,280,60102,1,2,0:0:0
256,312,60491,1,4,0:0:0
320,200,61270,2,0,P|348:216|388:220,2,65,8|0|2,0:0|0:0|0:0,0:0:0
189,200,62829,6,0,P|159:216|119:220,2,65,8|0|2,0:0|0:0|0:0,0:0:0
256,196,63998,1,0,0:0:0
280,136,64387,2,0,P|288:60|336:44,1,130,8|2,0:0|0:0,0:0:0
396,56,65556,5,2,0:0:0
448,100,65946,1,10,0:0:0
444,164,66335,1,2,0:0:0
400,208,66725,2,0,P|360:260|368:328,1,130,4|8,0:0|0:0,0:0:0
256,372,68283,6,0,P|204:332|136:340,1,130,2|8,0:0|0:0,0:0:0
28,272,69842,2,0,P|28:236|16:200,1,65,2|0,0:0|0:0,0:0:0
40,148,70621,2,0,P|40:112|52:76,1,65,8|0,0:0|0:0,0:0:0
100,48,71400,2,0,P|164:64|236:56,1,130,2|8,0:0|0:0,0:0:0
256,184,72959,6,0,P|320:168|392:176,1,130,4|8,0:0|0:0,0:0:0
440,208,74128,1,0,0:0:0
452,272,74517,2,0,P|440:312|440:336,2,65,2|0|8,0:0|0:0|0:0,0:0:0
440,208,75686,1,0,0:0:0
256,192,76076,12,4,77634,0:0:0
256,192,78413,5,2,0:0:0
304,312,79193,2,0,P|416:312|460:208|460:208,2,195,0|0|2,0:0|0:0|0:0,0:0:0
240,316,81920,1,2,0:0:0
180,292,82310,6,0,P|156:268|120:272|120:272,1,65,0|2,0:0|0:0,0:0:0
60,156,83478,2,0,P|64:96|108:32,1,130,2|0,0:0|0:0,0:0:0
164,28,84647,2,0,P|200:36|240:36,1,65,2|0,0:0|0:0,0:0:0
292,52,85426,6,0,P|324:107|292:164,1,130,2|0,0:0|0:0,0:0:0
248,208,86596,2,0,P|232:308|300:360,1,195,2|2,0:0|0:0,0:0:0
256,192,88543,12,0,91271,0:0:0
