osu file format v5

[General]
AudioFilename: Veggie Tales - Bellybutton.mp3
AudioLeadIn: 3000
PreviewTime: -1
Countdown: 1
SampleSet: Normal
StackLeniency: 0.7
Mode: 0
LetterboxInBreaks: 1

[Metadata]
Title:Bellybutton
Artist:Veggie Tales
Creator:Agent_J
Version:
Source:
Tags:

[Difficulty]
HPDrainRate:4
CircleSize:4
OverallDifficulty:6
SliderMultiplier:0.999999999999999
SliderTickRate:4

[Events]
//Background and Video events
//Break Periods
2,27574,32678
2,75169,76334
2,125004,129813
//Storyboard Layer 0 (Background)
//Storyboard Layer 1 (Failing)
//Storyboard Layer 2 (Passing)
//Storyboard Layer 3 (Foreground)
//Storyboard Sound Samples
//Background Colour Transformations
3,100,163,162,255

[TimingPoints]
11345,590.93508255124,4,1,0,100,1

[Colours]
Combo1 : 255,255,255
Combo2 : 5,240,5
Combo3 : 192,192,192
Combo4 : 240,5,5

[HitObjects]
256,192,708,12,8,3958
128,96,6174,6,8,B|320:288|384:192,3,300
352,224,12674,1,8
160,160,13265,5,8
160,160,13487,1,8
320,160,15481,1,8
224,160,15998,1,8
128,160,16885,1,8
128,160,17180,1,8
128,256,18288,1,8
224,256,19174,1,8
352,256,20061,1,8
320,160,21464,5,8
224,160,22646,1,8
224,160,23385,2,8,B|320:160,1,87.4999999999999
192,256,24641,5,8
256,192,25158,1,8
192,160,26192,1,8
192,160,26192,1,8
192,160,26857,2,8,B|288:160,1,87.4999999999999
128,160,32840,6,8,B|320:192|320:288|352:352,2,312.5
128,160,36755,1,8
160,224,38158,5,8
160,224,38454,1,8
288,256,39340,1,8
288,256,39636,1,8
320,192,40448,1,8
320,192,40744,1,8
320,192,40965,1,8
96,160,42738,1,8
96,160,42960,1,8
96,160,43255,1,8
224,192,43846,1,8
224,192,44141,1,8
160,128,49164,6,8,B|416:288,1,287.5
256,256,52267,1,8
256,256,52562,1,8
320,224,53227,1,8
160,128,54630,1,8
288,128,55221,1,8
352,192,55665,1,8
288,288,56256,1,8
192,256,56847,1,8
128,192,57437,1,8
160,128,57955,1,8
224,160,58545,1,8
288,128,59136,1,8
320,160,59727,1,8
320,192,61426,5,8
224,192,61943,1,8
160,192,62534,1,8
96,192,63125,1,8
96,128,63642,1,8
160,128,64159,5,8
224,128,64824,1,8
256,160,65415,1,8
288,224,65932,1,8
224,224,66523,1,8
224,224,67114,1,8
224,160,67705,1,8
288,160,68222,1,8
288,160,69108,5,8
192,128,69847,1,8
192,128,70143,1,8
416,96,72728,5,8
128,96,73836,1,8
128,288,74944,1,8
160,192,77308,5,8
160,96,78120,1,8
288,128,78933,5,8
288,128,79228,1,8
288,256,80115,1,8
288,256,80410,1,8
224,256,81223,5,8
224,256,81518,1,8
128,96,83143,2,8,B|288:288|416:224|320:96,1,375
128,128,86319,1,8
256,224,87132,1,8
352,128,88240,1,8
192,128,89422,5,8
96,160,90308,1,8
96,160,90530,1,8
224,64,92598,2,8,B|352:320|256:192|416:96|384:96,1,300
96,128,95405,1,8
224,192,96218,1,8
288,128,97104,1,8
288,128,97326,1,8
352,160,97621,1,8
352,224,98434,1,8
384,224,99837,1,12
288,160,100428,1,12
224,224,100945,1,12
352,160,102127,1,12
352,192,104417,1,8
320,96,105008,1,8
256,192,105599,1,8
288,256,106190,5,8
416,224,106707,1,8
352,160,107298,1,8
288,160,107815,1,8
320,224,108332,1,8
384,224,108923,1,8
384,160,109440,1,8
448,96,111286,1,14
224,160,111803,1,14
160,256,112321,1,14
160,128,112911,1,14
160,128,113207,1,14
160,128,113502,1,14
384,192,114610,1,10
384,288,115201,1,10
288,224,115718,1,10
320,128,116309,1,10
256,128,116900,1,10
256,128,117122,1,10
256,128,117491,1,10
352,192,117934,1,10
352,192,118525,5,10
416,224,119116,1,10
448,160,119707,1,10
384,128,120224,1,10
288,160,120815,1,10
320,224,121406,1,10
448,224,121997,1,10
448,128,122514,1,10
192,96,124582,2,8,B|256:320|352:32|320:160|416:256,2,325
128,128,132265,1,8
256,128,133446,5,8
256,128,133742,1,8
256,128,133890,1,8
256,128,134259,1,8
352,128,134924,5,8
320,256,136106,1,8
320,256,136475,1,8
320,256,136623,1,8
320,256,136918,1,8
160,224,137583,5,8
224,160,138839,1,8
224,160,139134,1,8
224,160,139282,1,8
224,160,139651,1,8
320,96,140316,1,8
352,224,141498,5,8
352,224,141793,1,8
352,224,141941,1,8
352,224,142310,1,8
160,224,142975,5,8
192,128,144231,1,8
192,128,144526,1,8
192,128,144674,1,8
192,128,145044,1,8
320,160,145708,5,8
256,288,146890,1,8
256,288,147038,1,8
256,288,147260,1,8
256,288,147407,1,8
256,288,147555,1,8
256,288,147777,1,8
256,288,147924,1,8
256,128,149032,5,8
160,160,149697,1,8
224,224,150436,1,8
320,224,151027,1,8
320,160,151765,1,8
256,160,152356,1,8
224,224,152726,1,8
160,160,153095,1,8
96,224,153391,1,8
160,160,153834,5,8
288,256,154794,1,8
288,192,155311,1,8
288,192,155459,1,8
192,192,156124,1,8
160,256,156493,1,8
288,160,157453,5,8
352,224,157896,1,8
352,224,158044,1,8
256,128,160112,5,8
192,224,161220,1,8
192,128,161516,1,8
256,192,161811,1,8
320,224,162033,1,8
128,96,164323,2,8,B|288:288|448:160|416:320,1,387.5
64,160,167721,1,8
224,224,168312,1,8
320,192,168903,1,8
416,288,169420,1,8
320,320,170011,1,8
320,224,170602,1,8
224,224,171119,1,8
224,288,172300,1,8
256,192,174590,5,8
128,192,175698,1,8
384,192,176880,1,8
192,224,177914,1,8
224,160,178210,1,8
256,224,178505,1,8
320,192,179170,1,8
320,128,179687,1,8
128,160,181386,5,8
192,64,183233,2,8,B|288:320|480:160|96:288|352:160,1,350
160,160,187369,1,8
160,160,187665,1,8
160,160,187960,1,8
160,160,188477,1,8
160,160,188699,1,8
256,224,189955,5,8
256,192,190915,12,8,193057
