osu file format v9

[General]
AudioFilename: osu! deathstream compilation.mp3
AudioLeadIn: 3000
PreviewTime: 248833
Countdown: 0
SampleSet: Soft
StackLeniency: 0.7
Mode: 0
LetterboxInBreaks: 1

[Editor]
Bookmarks: 173881
DistanceSpacing: 0.8
BeatDivisor: 4
GridSize: 4

[Metadata]
Title:osu! ~ Deathstream Compilation
Artist:Various Artists
Creator:jesse1412
Version:Marathon
Source:
Tags:touche osu compilation death stream humanoid mendes yeahyeahyeahhh dbu zun touhou shinkou fuuka kyoku native faith saymun shiraishi shinsekai r20 xi ascension to heaven shiirn Rasupi vs YasimiKiller as Apricot respect for P.S.C hogehoge +4 chipscape t+pazolite goreshit matzcore _lrj_ syrsa mad machine louis cyphre Suzaku Genbu Himiko Tkiller Hatsune Miku Hyper LATiON Lan wings FREEDOM DIVE Nakagawa-Kanon

[Difficulty]
HPDrainRate:3
CircleSize:4
OverallDifficulty:6
ApproachRate:9
SliderMultiplier:2
SliderTickRate:1

[Events]
//Background and Video events
0,0,"BG.jpg"
//Break Periods
2,34120,37491
2,53640,56191
2,93321,96878
2,127444,133618
2,165309,172647
2,211847,214718
2,243154,248580
2,258107,263270
2,302950,306504
2,340178,342374
2,366730,373041
//Storyboard Layer 0 (Background)
//Storyboard Layer 1 (Fail)
//Storyboard Layer 2 (Pass)
//Storyboard Layer 3 (Foreground)
//Storyboard Sound Samples
//Background Colour Transformations
3,100,0,0,0

[TimingPoints]
705,357.142857142857,4,2,1,80,1,0
705,-142.857142857143,4,2,1,80,0,0
38091,348.837209302326,4,1,0,70,1,0
38091,-125,4,1,0,70,0,0
40881,-125,4,1,0,70,0,1
52044,-125,4,1,0,70,0,0
56791,324.324324324324,4,2,0,80,1,0
56791,-142.857142857143,4,2,0,80,0,1
77547,-142.857142857143,4,2,0,80,0,0
93115,-142.857142857143,4,2,0,5,0,0
97478,310.880829015544,4,2,0,100,1,0
97478,-126.582278481013,4,2,1,100,0,0
134215,297.029702970297,4,1,2,100,1,0
134215,-125,4,1,2,100,0,0
146096,-125,4,2,0,100,0,0
155601,-125,4,2,0,100,0,0
173247,300,4,2,0,100,1,0
173247,-111.111111111111,4,2,0,100,0,1
192446,-111.111111111111,4,2,0,100,0,0
192447,-111.111111111111,4,2,0,100,0,1
211647,-111.111111111111,4,2,0,100,0,0
215318,283.446712018141,4,2,0,100,1,0
215318,-125,4,2,0,100,0,0
249180,272.727272727273,4,2,2,100,1,0
249180,-117.647058823529,4,2,2,65,0,1
257907,-117.647058823529,4,1,0,65,0,0
263870,270.002700027,4,1,0,65,1,0
263870,-105.263157894737,4,1,0,65,0,0
307094,256.328099967959,4,1,0,50,1,0
307094,-125,4,1,0,70,0,1
314783,-125,4,2,0,100,0,1
315296,-125,4,1,0,70,0,1
325523,-83.3333333333333,4,1,0,70,0,1
327061,-125,4,1,0,70,0,1
331188,-125,4,2,0,100,0,1
331701,-125,4,1,0,70,0,1
333664,-83.3333333333333,4,1,0,70,0,1
334690,-125,4,1,0,70,0,1
339968,-125,4,1,0,5,0,0
342975,222.222222222222,4,2,0,75,1,0
342975,-125,4,1,1,75,0,0
345197,-125,4,1,1,75,0,1
359419,-125,4,1,1,75,0,0
366530,-125,4,1,1,100,0,1
366586,-125,4,1,1,75,0,0
389197,-125,4,1,1,55,0,0
390530,-125,4,1,1,60,0,0

[Colours]
Combo1 : 235,192,45
Combo2 : 251,0,0
Combo3 : 255,255,255
Combo4 : 7,157,207
Combo5 : 193,254,67

[HitObjects]
160,364,706,5,8
133,369,795,1,0
106,366,884,1,0
81,355,973,1,0
59,340,1063,5,2
44,317,1152,1,0
37,291,1241,1,0
36,264,1330,1,0
43,237,1420,5,2
56,216,1509,1,0
72,200,1598,1,0
96,192,1688,1,0
120,192,1777,5,2
144,192,1866,1,0
168,192,1955,1,0
192,192,2045,1,0
216,192,2134,5,2
240,192,2223,1,0
264,192,2313,1,0
288,192,2402,1,0
312,192,2491,5,2
336,192,2580,1,0
360,192,2670,1,0
384,192,2759,1,0
408,192,2848,5,2
435,189,2938,1,2
460,178,3027,1,2
482,163,3116,1,2
497,140,3205,1,2
504,114,3295,1,2
505,87,3384,1,2
497,60,3473,1,2
488,40,3563,6,0,B|472:8,3,35,2|0|0|0
432,48,3920,6,0,B|416:16,3,35,2|0|0|0
376,56,4277,6,0,B|360:24,3,35,2|0|0|0
320,64,4634,6,0,B|304:32,3,35,2|0|0|0
264,72,4991,6,0,B|280:112,3,35,2|0|0|0
220,112,5348,6,0,B|208:80,3,35,2|0|0|0
192,56,5706,5,2
168,40,5795,1,2
143,31,5884,1,2
115,31,5973,1,2
89,36,6063,5,2
66,51,6152,1,2
49,72,6241,1,2
37,97,6331,1,0
32,124,6420,5,8
35,149,6509,1,0
43,169,6598,1,0
63,186,6688,1,0
80,192,6777,5,2
104,192,6866,1,0
128,192,6956,1,0
152,192,7045,1,0
176,192,7134,5,2
200,192,7223,1,0
224,192,7313,1,0
248,192,7402,1,0
272,192,7491,5,2
296,192,7581,1,0
320,192,7670,1,0
344,192,7759,1,0
368,192,7848,5,2
392,192,7938,1,0
419,195,8027,1,0
444,206,8116,1,0
466,221,8206,5,2
481,244,8295,1,0
488,270,8384,1,0
489,297,8473,1,0
481,324,8563,5,2
464,336,8652,1,2
440,344,8741,1,2
416,344,8831,1,2
392,344,8920,5,10
368,336,9009,1,2
344,328,9098,1,2
320,320,9188,1,2
296,312,9277,6,0,B|280:352,3,35,10|0|0|0
235,320,9634,6,0,B|248:288,3,35,2|0|0|0
200,264,9991,6,0,B|184:312,3,35,10|0|0|0
136,272,10348,6,0,B|148:239,3,35,2|0|0|0
112,216,10706,5,10
88,208,10795,1,2
64,192,10884,1,2
48,168,10973,1,2
48,143,11063,5,10
63,123,11152,1,2
85,110,11241,1,2
112,104,11331,1,0
141,101,11420,5,10
168,101,11509,1,2
192,103,11598,1,2
216,111,11688,1,2
240,119,11777,5,2
264,127,11866,1,2
288,135,11955,1,2
312,143,12045,1,2
336,151,12134,5,10
360,159,12223,1,2
384,167,12313,1,2
408,167,12402,1,2
432,159,12491,1,2
456,143,12580,1,2
470,123,12670,1,2
478,99,12759,1,2
478,75,12848,5,2
470,51,12937,1,0
446,35,13026,1,0
422,27,13115,1,0
398,19,13205,5,2
374,19,13294,1,0
350,27,13383,1,0
326,35,13472,1,0
302,43,13562,5,2
278,51,13651,1,0
254,59,13740,1,0
230,67,13830,1,0
206,75,13919,6,0,B|230:155,2,70,8|4|2
182,75,14365,1,0
150,75,14455,1,0
126,67,14544,1,0
102,59,14633,5,2
78,51,14722,1,0
46,51,14812,1,0
22,59,14901,1,0
6,83,14990,5,8
6,115,15080,2,0,B|6:147|38:171|86:171,1,105,4|4
174,171,15526,1,8
254,139,15705,5,2
278,131,15794,1,0
302,123,15883,1,0
326,123,15972,1,0
350,123,16062,5,2
374,123,16151,1,0
398,131,16240,1,0
422,139,16330,1,0
446,155,16419,5,2
462,179,16508,1,0
470,203,16597,1,0
470,227,16687,1,0
468,251,16776,2,0,B|460:283|436:299|388:299,2,70,8|4|8
376,232,17312,5,4
256,216,17490,1,8
256,216,17580,1,4
256,56,17847,1,8
256,56,17937,1,4
256,216,18205,1,4
136,232,18383,1,8
80,168,18562,5,6
59,188,18651,1,0
48,214,18740,1,0
45,239,18830,1,0
49,263,18919,5,2
60,288,19008,1,0
74,307,19097,1,0
93,320,19187,1,0
118,323,19276,5,2
144,320,19365,1,0
168,312,19455,1,0
192,296,19544,1,0
208,272,19633,5,8
256,192,19812,1,4
296,112,19990,5,2
312,88,20080,1,0
336,72,20169,1,0
360,64,20258,1,0
386,61,20347,5,2
411,64,20437,1,0
431,76,20526,1,0
449,94,20615,1,0
461,118,20705,5,0
469,142,20794,2,0,B|474:181|458:213|418:221,1,105,4|4
320,208,21240,1,8
232,184,21419,6,0,B|216:224,3,35,2|0|0|0
176,168,21776,6,0,B|160:208,3,35,2|0|0|0
120,152,22133,6,0,B|104:192,3,35,2|0|0|0
64,136,22490,5,12
56,40,22669,1,8
160,32,22847,5,4
248,80,23026,1,4
336,128,23205,1,4
360,128,23294,1,8
384,120,23383,1,8
464,64,23562,1,8
464,64,23651,2,0,B|496:80|512:128|496:160,1,105,8|4
432,216,24097,1,8
336,168,24276,5,4
312,160,24365,1,0
288,152,24455,1,0
264,152,24544,1,0
240,152,24633,5,2
216,160,24722,1,0
192,176,24812,1,0
168,192,24901,1,0
144,208,24990,5,2
120,216,25080,1,0
96,216,25169,1,0
72,208,25258,1,0
48,200,25347,5,2
24,184,25437,1,0
8,160,25526,1,0
7,132,25615,1,0
8,104,25705,5,2
17,79,25794,1,0
32,56,25883,1,0
56,48,25972,1,0
80,48,26062,5,2
104,48,26151,1,0
128,56,26240,1,0
152,72,26330,1,0
168,88,26419,5,8
191,102,26508,2,0,B|223:126|271:126|319:94,1,105,4|4
384,72,26955,1,8
476,102,27133,5,2
492,126,27222,1,0
500,150,27312,1,0
500,174,27401,1,0
492,198,27490,5,2
471,211,27580,1,0
448,216,27669,1,0
424,216,27758,1,0
400,216,27847,5,2
376,216,27937,1,0
352,216,28026,1,0
328,216,28115,1,0
304,216,28205,5,2
280,216,28294,1,0
256,216,28383,1,0
232,216,28472,1,0
208,216,28562,6,0,B|160:216|128:264,1,70,8|4
200,320,28919,1,4
200,320,29008,1,8
56,344,29276,1,8
56,344,29365,1,4
32,224,29633,1,4
112,272,29812,1,4
200,320,29990,5,4
224,328,30080,1,0
248,336,30169,1,0
272,336,30258,1,0
296,328,30347,5,2
320,320,30437,1,0
344,312,30526,1,0
368,312,30615,1,0
392,320,30705,5,2
416,328,30794,1,0
440,336,30883,1,0
464,328,30972,1,0
488,312,31062,5,2
496,288,31151,1,0
496,264,31240,1,0
488,240,31330,1,0
472,216,31419,5,4
448,200,31508,1,0
424,192,31597,1,0
394,196,31687,1,0
368,208,31776,5,2
344,216,31865,1,0
320,224,31955,1,0
296,232,32044,1,0
272,240,32133,5,8
248,248,32222,2,0,B|224:264|176:264|144:240,1,105,4|4
64,200,32669,1,8
148,142,32847,5,4
176,152,32937,1,0
200,160,33026,1,0
224,168,33115,1,0
240,144,33205,5,2
264,152,33294,1,0
288,160,33383,1,0
312,168,33472,1,0
328,144,33562,5,6
352,152,33651,1,0
376,160,33740,1,0
400,168,33830,1,0
416,144,33920,5,12
288,336,38091,6,0,B|344:328,7,40
296,272,38789,2,0,B|240:264,7,40,0|0|0|0|0|0|0|0
280,208,39486,2,0,B|336:200,15,40
335,190,40882,5,4
345,173,40969,1,0
349,153,41056,1,0
346,133,41143,1,0
337,115,41230,1,0
324,99,41318,1,0
307,87,41405,1,0
289,77,41492,1,0
270,70,41579,1,0
250,65,41666,1,0
229,64,41754,1,0
209,66,41841,1,0
189,71,41928,1,0
170,79,42015,1,0
153,89,42102,1,0
138,103,42190,1,0
126,118,42277,5,4
115,134,42364,1,0
107,152,42451,1,0
102,171,42539,1,0
100,190,42626,1,0
102,209,42713,1,0
106,228,42800,1,0
113,246,42887,1,0
124,262,42975,1,0
137,277,43062,1,0
152,289,43149,1,0
168,299,43236,1,0
186,307,43323,1,0
205,312,43411,1,0
224,315,43498,1,0
243,316,43585,1,0
262,316,43672,5,4
281,312,43759,1,0
300,307,43847,1,0
318,300,43934,1,0
336,292,44021,1,0
351,279,44108,1,0
363,263,44195,1,0
372,245,44283,1,0
378,226,44370,1,0
382,206,44457,1,0
379,186,44544,1,0
374,166,44632,1,0
366,147,44719,1,0
353,131,44806,1,0
338,117,44893,1,0
320,107,44980,1,0
300,101,45068,5,4
280,102,45155,1,0
261,109,45242,1,0
244,120,45329,1,0
232,136,45416,1,0
230,156,45504,1,0
236,174,45591,1,0
249,188,45678,1,0
264,200,45765,1,0
283,203,45852,1,0
303,201,45940,1,0
322,195,46027,1,0
340,186,46114,1,0
349,168,46201,1,0
357,149,46289,1,0
360,129,46376,1,0
353,110,46463,5,4
341,93,46550,1,0
325,80,46637,1,0
307,69,46725,1,0
288,60,46812,1,0
268,57,46899,1,0
248,55,46986,1,0
228,57,47073,1,0
209,64,47161,1,4
191,74,47248,1,0
175,86,47335,1,0
162,101,47422,1,0
153,118,47509,1,0
146,137,47597,1,0
147,156,47684,1,0
150,175,47771,1,0
158,193,47858,5,4
167,210,47945,1,0
178,226,48033,1,0
178,245,48120,1,0
170,263,48207,1,0
156,277,48294,1,0
139,288,48382,1,0
119,292,48469,1,0
99,289,48556,1,4
81,279,48643,1,0
68,263,48730,1,0
61,243,48818,1,0
62,223,48905,1,0
70,204,48992,1,0
81,187,49079,1,0
96,174,49166,1,0
113,164,49254,5,4
132,158,49341,1,0
151,153,49428,1,0
170,154,49515,1,0
189,159,49602,1,0
205,170,49690,1,0
220,182,49777,1,0
234,196,49864,1,0
247,210,49951,1,4
262,223,50039,1,0
278,233,50126,1,0
297,238,50213,1,0
316,239,50300,1,0
335,238,50387,1,0
352,228,50475,1,0
367,215,50562,1,0
378,198,50649,5,4
385,179,50736,1,0
386,159,50823,1,0
382,139,50911,1,4
373,121,50998,1,0
361,104,51085,1,0
342,96,51172,1,4
322,92,51259,1,0
302,96,51347,1,0
282,101,51434,1,4
264,111,51521,1,0
253,127,51608,1,0
246,145,51695,1,4
244,165,51783,1,0
247,184,51870,1,0
254,202,51957,1,4
264,219,52044,5,0
268,238,52132,1,0
266,257,52219,1,0
261,276,52306,1,0
247,290,52393,1,0
230,301,52480,1,0
211,308,52568,1,0
191,310,52655,1,0
171,310,52742,1,0
151,304,52829,1,0
133,294,52916,1,0
120,278,53004,2,0,L|103:249,2,20
120,278,53440,5,4
139,40,56791,5,12
146,44,56872,1,0
153,49,56953,1,0
159,54,57035,1,0
165,59,57116,1,10
171,64,57197,1,0
177,69,57278,1,0
183,74,57359,1,0
189,80,57440,1,8
195,86,57521,1,0
201,92,57602,1,0
207,98,57683,1,0
212,104,57764,1,10
217,110,57845,1,0
222,116,57926,1,0
227,122,58007,1,0
232,129,58089,1,8
237,136,58170,1,0
241,143,58251,1,0
245,150,58332,1,0
249,157,58413,1,10
253,164,58494,1,0
257,171,58575,1,0
261,178,58656,1,0
265,185,58737,1,10
268,192,58818,1,8
271,199,58899,1,10
274,206,58980,1,0
277,214,59062,1,10
280,222,59143,1,0
283,230,59224,1,8
286,238,59305,1,0
289,246,59386,5,12
292,254,59467,1,0
295,262,59548,1,0
297,270,59629,1,0
299,278,59710,1,10
301,286,59791,1,0
302,294,59872,1,0
302,302,59953,1,0
302,310,60035,1,8
301,318,60116,1,0
299,326,60197,1,0
296,334,60278,1,0
293,342,60359,1,10
289,350,60440,1,0
284,357,60521,1,0
278,363,60602,1,0
271,368,60683,1,8
264,373,60764,1,0
256,376,60845,1,0
248,373,60926,1,0
241,368,61007,1,10
234,363,61088,1,0
228,357,61169,1,0
223,350,61250,1,0
219,342,61331,1,10
216,334,61412,1,8
213,326,61493,1,10
211,318,61574,1,10
210,310,61655,1,10
210,302,61737,1,0
210,294,61818,1,8
211,286,61899,1,0
213,278,61980,1,12
215,270,62061,1,0
217,262,62142,1,0
220,254,62223,1,0
223,246,62304,1,10
226,238,62385,5,0
229,230,62466,1,0
232,222,62547,1,0
235,214,62628,1,8
238,206,62710,1,0
241,199,62791,1,0
244,192,62872,1,0
247,185,62953,1,10
251,178,63034,1,0
255,171,63115,1,0
259,164,63196,1,0
263,157,63277,1,8
267,150,63358,1,0
271,143,63439,1,0
275,136,63520,1,0
280,129,63601,1,10
285,122,63683,1,0
290,116,63764,1,0
295,110,63845,1,0
300,104,63926,1,10
305,98,64007,1,0
311,92,64088,1,10
317,86,64169,1,0
323,80,64250,1,10
329,74,64331,1,0
335,69,64412,1,10
341,64,64493,1,0
347,59,64574,5,12
353,54,64655,1,0
359,49,64737,1,0
366,44,64818,1,0
373,40,64899,1,10
380,35,64980,1,0
387,30,65062,1,0
394,26,65143,1,0
401,22,65224,1,8
409,19,65305,1,0
417,16,65386,1,0
425,14,65467,1,0
433,13,65548,1,10
441,12,65629,1,0
449,10,65710,1,0
457,10,65791,1,0
465,11,65872,1,12
473,13,65953,1,0
478,19,66035,1,12
482,26,66116,1,0
486,33,66197,1,2
489,41,66278,1,0
491,49,66359,1,0
491,57,66440,1,0
491,65,66521,1,0
490,73,66602,1,0
488,81,66683,1,0
485,89,66764,1,0
481,97,66845,1,12
478,105,66926,1,0
475,113,67007,1,0
472,121,67089,1,0
468,129,67170,5,12
464,137,67251,1,0
460,145,67332,1,0
457,153,67413,1,0
454,161,67494,1,10
450,169,67575,1,0
446,177,67656,1,0
442,184,67737,1,0
438,191,67818,1,8
433,198,67899,1,0
428,205,67980,1,0
423,213,68062,1,0
418,220,68143,1,10
413,227,68224,1,0
407,233,68305,1,0
401,239,68386,1,0
395,245,68467,1,8
389,251,68548,1,0
382,257,68629,1,0
376,263,68710,1,0
369,268,68791,5,10
362,273,68872,1,0
354,277,68953,1,0
346,281,69035,1,0
338,285,69116,1,10
330,289,69197,1,8
322,293,69278,1,10
314,297,69359,1,0
306,300,69440,1,10
298,303,69521,1,0
290,306,69602,1,8
282,309,69683,1,0
274,312,69764,1,12
265,315,69845,1,0
256,320,69926,1,0
247,315,70007,1,0
238,312,70088,1,10
230,309,70169,1,0
222,306,70250,1,0
214,303,70331,1,0
206,300,70412,1,8
198,297,70493,1,0
190,293,70574,1,0
182,289,70655,1,0
174,285,70736,1,10
166,281,70817,1,0
158,277,70899,1,0
150,273,70980,1,0
143,268,71061,1,8
136,263,71142,5,0
130,257,71223,1,0
123,251,71304,1,0
117,245,71385,1,10
111,239,71466,1,0
105,233,71547,1,0
99,227,71628,1,0
94,220,71709,1,14
89,213,71790,1,8
84,205,71872,1,10
79,198,71953,1,10
74,191,72034,1,10
70,184,72115,1,0
66,177,72196,1,10
62,169,72277,1,0
58,161,72358,1,12
55,153,72439,1,0
52,145,72520,1,8
48,137,72601,1,0
44,129,72682,1,2
40,121,72763,1,0
37,113,72845,5,0
34,105,72926,1,0
31,97,73007,1,12
27,89,73088,1,0
24,81,73169,1,8
22,73,73250,1,8
21,65,73331,1,14
21,57,73412,1,0
21,49,73493,1,8
23,41,73574,1,8
26,33,73655,1,12
30,26,73736,1,0
34,19,73817,1,8
39,13,73899,1,0
47,11,73980,1,2
55,10,74061,1,0
63,10,74142,1,0
71,12,74223,1,0
79,13,74304,1,12
87,14,74385,1,0
95,16,74466,1,8
103,19,74547,1,8
111,22,74628,1,14
118,26,74709,1,0
125,30,74790,1,8
132,35,74872,1,8
139,40,74953,5,12
145,48,75035,1,0
151,56,75116,1,0
156,65,75197,1,0
160,74,75278,1,10
164,83,75359,1,0
168,92,75440,1,0
173,101,75521,1,0
176,110,75602,1,12
179,121,75683,1,0
183,132,75764,1,0
189,142,75845,1,0
195,152,75926,1,10
202,161,76007,1,0
209,171,76089,1,0
217,180,76170,1,0
226,190,76251,1,12
236,198,76332,1,0
247,205,76413,1,0
258,212,76494,1,0
273,219,76575,1,10
289,225,76656,1,0
305,230,76737,1,0
321,234,76818,1,0
341,236,76899,1,14
361,236,76980,1,0
381,231,77062,1,12
401,224,77143,1,0
423,215,77224,1,14
442,199,77305,1,0
455,178,77386,1,12
466,156,77467,1,0
472,132,77548,1,14
360,80,78097,6,0,B|360:160,1,70,0|2
152,304,78611,2,0,B|152:224,1,70,2|0
128,136,78954,2,0,B|72:80,1,70
384,248,79468,2,0,B|440:304,1,70,0|2
448,72,79983,6,0,B|432:112|400:128,1,70,2|0
320,120,80325,2,0,B|340:204,1,70
192,264,80840,2,0,B|172:180,1,70,0|2
64,312,81354,6,0,B|80:272|112:256,1,70,2|0
192,264,81696,2,0,B|172:180,1,70
320,120,82211,2,0,B|340:204,1,70,0|2
136,72,82683,5,2
146,85,82768,1,0
150,101,82854,1,0
148,118,82940,1,0
141,133,83025,1,0
64,213,83376,1,0
60,229,83461,1,0
61,247,83547,1,0
67,262,83633,1,0
79,273,83718,1,2
433,273,84082,5,2
445,262,84167,1,0
451,247,84253,1,0
452,229,84339,1,0
448,213,84424,1,0
371,133,84775,1,0
364,118,84860,1,0
362,101,84946,1,0
366,85,85032,1,0
376,72,85117,1,2
256,40,85494,5,2
252,57,85583,1,0
243,72,85671,1,0
231,85,85759,1,0
217,96,85847,1,2
202,105,85935,1,0
186,113,86023,1,0
170,121,86112,1,0
66,123,86376,1,0
60,139,86465,1,0
61,156,86553,1,0
67,172,86641,1,2
77,186,86729,1,0
139,289,86906,1,0
155,282,86995,1,0
168,271,87083,1,0
180,258,87171,1,0
188,242,87259,1,2
355,157,87712,1,2
355,157,87803,1,0
355,157,87893,1,0
355,157,87984,1,0
396,301,88712,1,4
256,192,88757,12,0,93121
112,280,97478,5,4
102,272,97556,5,0
92,264,97634,5,0
82,256,97711,1,0
74,246,97789,1,8
68,235,97867,1,0
63,224,97944,1,0
58,212,98022,5,0
57,200,98100,1,0
59,187,98178,1,0
61,175,98255,1,0
63,163,98333,5,0
68,151,98411,1,8
76,141,98488,1,0
83,130,98566,1,0
90,120,98644,1,0
99,112,98722,6,0,B|137:80,3,39.3749988265336,0|0|0|0
140,83,99033,2,0,B|182:76,3,39.3749988265336,8|0|0|0
187,69,99343,2,0,B|208:29,3,39.3749988265336,0|8|0|0
217,33,99654,6,0,B|264:25,3,39.3749988265336,8|0|0|0
267,29,99965,5,0
278,32,100043,1,0
289,35,100121,1,0
300,38,100198,1,0
311,39,100276,1,8
322,39,100354,1,0
333,36,100432,1,0
344,32,100509,1,0
354,26,100587,1,0
365,24,100665,1,0
376,24,100742,1,0
386,28,100820,1,0
396,34,100898,1,8
405,41,100976,1,0
411,50,101053,1,0
416,60,101131,5,0
420,71,101209,6,0,B|436:120,3,39.3749988265336
440,116,101520,2,0,B|472:146,3,39.3749988265336,8|0|0|0
470,154,101830,1,0
471,165,101908,1,0
472,176,101986,1,0
473,187,102064,1,8
474,198,102141,1,8
475,209,102219,1,0
476,220,102297,1,8
478,231,102375,1,0
479,242,102452,6,0,B|459:283,3,39.3749988265336
449,277,102763,2,0,B|400:292,3,39.3749988265336,8|0|0|0
400,292,103074,2,0,B|356:336,3,39.3749988265336
365,329,103385,2,0,B|355:370,3,39.3749988265336,8|0|0|0
344,370,103696,5,0
332,372,103773,1,0
320,371,103851,1,0
308,368,103929,1,0
297,363,104007,1,8
287,355,104084,1,0
277,348,104162,1,0
267,341,104240,1,0
257,334,104318,1,0
246,329,104395,1,8
234,324,104473,1,0
222,321,104551,1,0
210,319,104628,1,8
198,318,104706,1,0
186,319,104784,1,0
174,322,104862,1,0
162,325,104939,5,0
150,328,105017,1,0
138,331,105095,1,0
127,335,105172,1,0
116,341,105250,1,8
106,347,105328,1,0
94,350,105406,1,0
82,350,105483,1,0
70,349,105561,1,0
59,344,105639,1,0
49,336,105717,1,0
41,327,105794,1,0
33,317,105872,1,8
28,306,105950,1,0
26,294,106027,1,0
26,282,106105,1,0
31,271,106183,6,0,B|50:225,7,39.3749988265336,0|0|0|0|8|0|0|0
48,222,106805,1,0
49,210,106882,1,0
46,198,106960,1,0
42,186,107038,1,8
36,175,107115,1,8
32,163,107193,1,0
33,151,107271,1,8
36,139,107349,1,0
40,128,107426,5,4
46,118,107504,1,0
54,109,107582,1,0
63,101,107660,1,0
73,96,107737,1,8
84,93,107815,1,0
95,92,107893,1,0
106,94,107970,1,0
116,100,108048,1,0
124,108,108126,1,0
131,117,108204,1,0
138,126,108281,1,0
146,134,108359,1,8
156,140,108437,1,0
166,144,108514,1,0
176,148,108592,1,0
187,149,108670,6,0,B|240:154,3,39.3749988265336
235,160,108981,2,0,B|260:204,3,39.3749988265336,8|0|0|0
255,206,109292,2,0,B|252:258,3,39.3749988265336,0|8|0|0
249,256,109603,2,0,B|222:300,3,39.3749988265336,8|0|0|0
219,296,109913,6,0,B|161:314,3,39.3749988265336
170,302,110224,2,0,B|124:285,3,39.3749988265336,8|0|0|0
126,278,110535,2,0,B|104:234,3,39.3749988265336
108,230,110846,2,0,B|127:184,3,39.3749988265336,8|0|0|0
131,185,111157,5,0
139,176,111235,1,0
149,170,111312,1,0
160,165,111390,1,0
171,162,111468,1,8
182,161,111546,1,0
193,161,111623,1,0
204,162,111701,1,0
214,166,111779,1,0
224,171,111856,1,0
233,177,111934,1,0
242,183,112012,1,8
250,191,112090,1,8
257,199,112167,1,0
263,208,112245,1,8
269,217,112323,1,0
278,224,112400,6,0,B|321:270,3,39.3749988265336,4|0|0|0
314,259,112711,1,0
323,266,112789,1,0
334,269,112867,1,8
344,273,112944,1,8
355,274,113022,6,0,B|405:275,3,39.3749988265336,4|0|0|0
406,274,113333,1,0
417,269,113411,1,0
426,262,113489,1,8
431,251,113566,1,8
434,239,113644,6,0,B|448:199,3,39.3749988265336,4|0|0|0
449,190,113955,2,0,B|483:158,3,39.3749988265336,8|0|0|0
479,151,114266,2,0,B|482:104,7,39.3749988265336,0|0|0|0|8|0|8|8
480,100,114887,5,4
474,89,114965,1,0
468,78,115043,1,0
460,68,115121,1,0
452,59,115198,1,8
442,51,115276,1,0
431,44,115354,1,0
420,38,115432,1,0
408,35,115509,1,0
396,32,115587,1,0
384,32,115665,1,0
372,34,115742,1,0
361,38,115820,1,8
350,43,115898,1,0
339,48,115976,1,0
329,54,116053,1,0
320,62,116131,5,0
311,70,116209,1,0
303,78,116286,1,0
293,85,116364,1,0
282,91,116442,1,0
271,96,116520,1,0
260,101,116597,1,0
248,104,116675,1,0
236,106,116753,1,0
224,108,116830,1,0
212,107,116908,1,0
200,105,116986,1,0
188,102,117064,1,0
176,99,117141,1,0
164,99,117219,1,0
152,102,117297,1,0
141,106,117375,6,0,B|95:123,7,39.3749988265336,4|0|0|0|0|0|0|0
94,126,117996,1,0
86,134,118074,1,0
82,145,118152,1,0
79,156,118229,1,0
77,167,118307,1,8
77,178,118385,1,0
78,189,118463,1,0
81,200,118540,1,0
87,210,118618,6,0,B|112:256,7,39.3749988265336
113,253,119240,1,0
121,261,119318,1,0
131,266,119395,1,0
141,270,119473,1,0
152,273,119551,1,8
163,276,119628,1,0
174,277,119706,1,0
185,276,119784,1,0
196,274,119862,6,0,B|245:313,7,39.3749988265336
235,306,120483,1,0
245,312,120561,1,0
256,315,120639,1,0
267,317,120717,1,0
278,319,120794,1,8
289,318,120872,1,0
300,316,120950,1,0
311,312,121027,1,0
321,305,121105,6,0,B|355:264,7,39.3749988265336
353,265,121727,1,0
361,256,121805,1,0
370,249,121882,1,0
379,242,121960,1,0
389,236,122038,1,8
399,231,122115,1,0
410,227,122193,1,0
421,224,122271,1,0
432,224,122349,6,0,B|477:231,7,39.3749988265336,4|0|0|0|0|0|0|0
477,220,122970,1,0
482,209,123048,1,0
483,197,123126,1,0
482,185,123204,1,0
477,174,123281,1,8
471,163,123359,1,0
463,154,123437,1,0
453,147,123514,1,0
442,142,123592,6,0,B|400:125,7,39.3749988265336
393,126,124214,1,0
381,123,124292,1,0
369,119,124369,1,0
358,112,124447,1,0
348,104,124525,1,8
340,95,124603,1,0
333,84,124680,1,0
326,73,124758,1,0
320,62,124836,6,0,B|274:68,7,39.3749988265336,0|0|0|0|0|0|0|0
269,68,125457,1,0
257,70,125535,1,0
245,71,125613,1,0
233,70,125691,1,0
221,67,125768,1,8
209,63,125846,1,0
197,58,125924,1,0
186,52,126001,1,0
175,46,126079,6,0,B|144:16,7,39.3749988265336
134,17,126701,6,0,B|68:21,3,39.3749988265336
85,26,127012,2,0,B|57:64,3,39.3749988265336,8|0|0|0
256,192,134218,5,0
256,192,134812,1,0
384,192,135406,1,0
336,236,135703,1,0
284,276,136000,1,0
232,312,136297,1,0
48,260,136594,5,4
80,240,136668,1,0
112,220,136743,1,0
144,200,136817,1,0
176,180,136891,1,2
208,160,136965,1,0
240,140,137040,1,0
272,120,137114,1,0
304,104,137188,1,0
336,88,137262,1,0
368,68,137337,1,0
400,48,137411,1,0
432,36,137485,2,0,B|476:36,3,40,2|0|0|0
484,84,137782,5,0
452,104,137856,1,0
420,124,137931,1,0
388,144,138005,1,0
356,164,138079,1,2
324,184,138153,1,0
292,204,138228,1,0
260,224,138302,1,0
228,240,138376,1,0
196,256,138450,1,0
164,276,138525,1,0
132,292,138599,1,0
96,292,138673,2,0,B|24:292,3,40,2|0|0|0
28,252,138970,5,4
64,252,139045,1,0
100,252,139119,1,0
136,252,139193,1,0
172,252,139267,1,2
208,252,139342,1,0
244,252,139416,1,0
280,252,139490,1,0
316,252,139564,1,0
352,252,139639,1,0
388,252,139713,1,0
424,252,139787,1,0
460,252,139861,2,0,B|500:252,3,40,2|0|0|0
480,208,140158,5,0
448,192,140233,1,0
416,176,140307,1,0
384,160,140381,1,0
352,144,140455,1,2
320,128,140530,1,0
288,112,140604,1,0
256,96,140678,1,0
224,80,140752,1,0
192,64,140827,1,0
160,48,140901,1,0
128,32,140975,1,0
92,32,141049,2,0,B|24:32,3,40,2|0|0|0
4,32,141347,5,4
16,56,141421,1,0
28,80,141495,1,0
40,104,141569,1,0
52,128,141644,1,2
64,152,141718,1,0
76,176,141792,1,0
88,200,141866,1,0
100,220,141941,2,0,B|132:284,6,40,0|0|0|0|2|0|0
176,300,142535,5,0
184,272,142609,1,0
192,244,142683,1,0
200,216,142757,1,0
208,188,142832,1,2
216,160,142906,1,0
224,132,142980,1,0
232,104,143054,1,0
240,76,143129,2,0,B|256:16,6,40,0|0|0|0|2|0|0
344,32,143723,5,4
360,56,143797,1,0
376,76,143871,1,0
393,98,143946,1,0
412,120,144020,1,2
428,140,144094,1,0
444,160,144168,1,0
460,180,144243,1,0
476,200,144317,2,0,B|512:244,6,40,0|0|0|0|2|0|0
392,276,144911,5,0
372,272,144985,1,0
352,268,145059,1,0
332,264,145134,1,0
312,260,145208,1,2
292,256,145282,1,0
272,252,145356,1,2
252,248,145431,1,0
232,244,145505,1,0
212,240,145579,1,0
192,236,145653,1,0
172,232,145728,1,0
156,228,145802,1,2
140,224,145876,1,0
124,220,145950,1,0
40,169,146099,6,0,B|1:92,1,80,8|0
99,91,146396,2,0,B|98:46,2,40,8|0|0
152,171,146693,2,0,B|191:94,1,80,8|0
248,175,146990,5,8
260,187,147064,1,0
272,199,147139,1,0
352,251,147287,1,8
352,252,147436,1,0
432,199,147584,1,8
444,187,147658,1,0
456,175,147733,1,0
511,111,147881,6,0,B|443:47,1,80,8|0
357,72,148178,2,0,B|308:20,2,40,8|0|0
320,164,148475,2,0,B|248:228,1,80,8|0
240,124,148772,1,8
228,136,148847,1,0
216,148,148921,1,0
156,76,149069,6,0,B|100:152,1,80,8|0
24,188,149366,1,8
36,200,149441,1,0
48,212,149515,1,0
60,224,149589,1,0
72,236,149663,2,0,B|116:276,2,40,8|0|0
168,228,149960,5,8
180,240,150035,1,0
192,252,150109,1,0
276,296,150257,1,8
284,284,150332,1,0
292,272,150406,1,0
300,260,150480,1,0
308,248,150554,2,0,B|364:160,1,80,8|0
352,164,150777,5,0
352,148,150851,2,0,B|400:72,1,80,8|0
488,52,151148,1,8
488,68,151223,1,0
488,84,151297,1,0
448,172,151446,2,0,B|448:216,2,40,8|0|0
388,248,151743,1,8
388,264,151817,1,0
388,280,151891,1,0
320,212,152040,6,0,B|320:156,2,40,8|0|0
224,192,152337,1,8
208,192,152411,1,0
192,192,152485,1,0
176,192,152559,1,0
160,192,152634,1,8
76,240,152782,1,0
76,144,152931,5,8
76,128,153005,1,0
76,112,153079,1,0
168,144,153228,2,0,B|168:76,2,40,8|0|0
168,240,153525,2,0,B|168:280,2,40,8|0|0
252,192,153822,5,8
279,192,153896,1,0
306,192,153970,1,0
334,193,154045,1,0
361,193,154119,1,8
388,193,154193,1,0
415,193,154267,1,0
443,193,154342,1,0
470,193,154416,1,8
408,268,154564,5,8
408,268,154713,1,8
312,268,154861,5,8
300,256,154936,1,0
288,244,155010,1,0
192,244,155158,1,8
180,232,155233,1,0
168,220,155307,1,8
72,212,155455,1,8
60,200,155530,1,0
48,188,155604,6,0,B|4:148,2,40,4|0|2
100,108,155901,2,0,B|80:48,2,40,0|0|2
196,108,156198,2,0,B|204:168,2,40,2|0|2
288,76,156495,5,0
376,116,156644,1,2
396,144,156718,1,0
404,180,156792,1,0
404,216,156866,1,0
392,248,156941,1,2
364,272,157015,1,0
332,288,157089,6,0,B|292:300,3,40,0|0|2|0
256,300,157386,2,0,B|204:300,3,40,0|0|2|0
180,288,157683,5,2
152,264,157757,1,0
136,232,157832,1,2
128,196,157906,1,0
124,160,157980,1,0
132,124,158054,1,0
144,92,158129,1,2
168,64,158203,1,0
200,48,158277,6,0,B|260:44,3,40,0|0|2|0
276,48,158574,2,0,B|336:76,3,40,2|0|2|0
336,92,158871,5,0
344,128,158946,1,0
336,164,159020,1,2
308,188,159094,1,0
272,192,159168,2,0,B|220:184,3,40,0|0|2|0
200,172,159465,5,0
168,152,159540,1,0
152,120,159614,1,2
124,96,159688,1,0
92,84,159762,2,0,B|40:104,3,40,0|0|2|0
28,120,160059,6,0,B|8:176,3,40,2|0|2|0
24,192,160356,2,0,B|60:224,3,40,0|0|2|0
60,220,160653,5,0
68,220,160728,1,0
76,220,160802,1,2
84,220,160876,1,0
92,220,160950,1,0
100,220,161025,1,0
108,220,161099,5,2
116,220,161173,1,0
124,220,161248,1,2
132,220,161322,1,0
140,220,161396,1,2
148,220,161470,1,0
156,220,161545,5,2
164,220,161619,1,0
172,220,161693,1,2
180,220,161767,1,0
188,220,161842,1,0
196,220,161916,1,0
204,220,161990,5,2
212,220,162064,1,0
220,220,162139,1,2
228,220,162213,1,0
236,220,162287,1,2
244,220,162361,1,0
252,220,162436,5,2
260,220,162510,1,0
268,220,162584,1,2
276,220,162658,1,0
284,220,162733,1,2
292,220,162807,1,0
300,220,162881,5,0
308,220,162955,1,0
316,220,163030,1,0
324,220,163104,1,0
332,220,163178,1,2
340,220,163252,1,2
348,220,163327,5,2
356,220,163401,1,2
364,220,163475,1,2
372,220,163549,1,2
380,220,163624,1,2
388,220,163698,1,2
396,220,163772,5,2
404,220,163847,1,2
412,220,163921,1,2
420,220,163995,1,2
428,220,164069,1,2
436,220,164144,1,2
444,220,164218,5,2
452,220,164292,1,2
460,220,164366,1,2
468,220,164441,1,2
256,192,164515,12,4,165109
64,32,173247,5,10
65,45,173322,5,0
67,58,173397,5,0
70,71,173472,5,0
73,84,173547,5,6
76,97,173622,1,0
80,109,173697,1,0
87,120,173772,5,0
94,131,173847,5,2
101,142,173922,5,0
109,152,173997,5,0
118,161,174072,1,0
128,169,174147,5,6
139,175,174222,5,0
150,181,174297,5,0
162,186,174372,5,0
173,192,174447,5,10
184,199,174522,1,0
195,205,174597,1,0
206,212,174672,1,0
216,220,174747,1,6
224,230,174822,1,0
231,241,174897,1,0
238,252,174972,1,0
242,264,175047,5,2
247,276,175122,1,0
248,289,175197,1,0
246,302,175272,1,0
242,315,175347,1,6
236,327,175422,1,0
226,336,175497,5,0
214,342,175572,5,0
201,346,175647,5,10
187,343,175722,1,0
173,339,175797,1,0
161,332,175872,1,0
152,321,175947,5,6
144,309,176022,1,0
138,296,176097,1,0
134,282,176172,1,0
133,268,176247,5,6
136,254,176322,1,0
141,241,176397,1,0
148,230,176472,1,0
158,221,176547,5,6
170,215,176622,1,0
182,209,176697,1,0
194,203,176772,1,0
206,198,176847,5,10
219,196,176922,5,0
232,194,176997,1,0
245,193,177072,1,0
258,192,177147,5,6
271,193,177222,1,0
284,194,177297,1,0
297,195,177372,1,0
310,193,177447,5,6
323,189,177522,1,0
335,183,177597,1,0
346,175,177672,1,0
355,165,177747,5,6
363,154,177822,1,0
370,142,177897,1,0
375,129,177972,1,0
392,96,178047,6,0,B|408:47,3,45.25,10|0|2|0
334,48,178347,2,0,B|320:92,3,45.25,6|0|2|0
248,88,178647,2,0,B|264:39,3,45.25,2|0|2|0
190,40,178947,2,0,B|176:84,3,45.25,6|0|2|0
112,48,179247,6,0,B|64:96,1,45.25,10|0
96,88,179397,2,0,B|128:136,1,45.25
152,128,179547,2,0,B|216:152,1,45.25,6|0
192,168,179697,2,0,B|224:216,1,45.25
248,176,179847,6,0,B|304:136,1,45.25,2|0
304,112,179997,2,0,B|368:80,1,45.25
368,48,180147,2,0,B|424:16,1,45.25,6|0
440,48,180297,2,0,B|496:72,1,45.25
504,112,180447,5,10
488,128,180522,1,0
472,128,180597,1,0
456,144,180672,1,0
440,144,180747,1,6
424,160,180822,1,0
408,160,180897,1,0
392,176,180972,1,0
376,176,181047,1,2
360,192,181122,1,0
344,192,181197,1,0
328,208,181272,1,0
312,208,181347,1,6
296,224,181422,1,0
280,224,181497,1,0
264,240,181572,1,0
248,240,181647,5,10
230,234,181722,1,0
215,223,181797,1,0
205,207,181872,1,0
195,191,181947,1,6
183,177,182022,1,0
169,164,182097,1,0
153,155,182172,1,0
136,148,182247,1,2
119,142,182322,1,0
101,135,182397,1,0
83,131,182472,1,0
65,127,182547,1,6
46,126,182622,1,0
27,125,182697,1,0
8,124,182772,1,0
9,142,182847,5,10
11,159,182922,1,0
13,176,182997,1,0
15,193,183072,1,0
17,210,183147,1,6
20,227,183222,1,0
23,244,183297,1,0
26,261,183372,1,0
70,238,183447,5,2
82,251,183522,1,0
94,264,183597,1,0
106,277,183672,1,0
119,289,183747,1,6
132,301,183822,1,0
145,313,183897,1,0
158,325,183972,1,0
196,296,184047,5,10
214,294,184122,1,0
232,292,184197,1,0
250,290,184272,1,0
268,288,184347,1,6
286,286,184422,1,0
304,285,184497,1,0
322,284,184572,1,0
336,272,184647,6,0,B|400:240,1,45.25,2|0
384,240,184797,2,0,B|416:176,1,45.25
400,176,184947,2,0,B|368:128,1,45.25,6|0
352,128,185097,2,0,B|304:112,1,45.25
288,104,185247,5,10
280,82,185322,1,0
269,61,185397,1,0
250,48,185472,1,0
227,45,185547,1,6
204,46,185622,1,0
182,51,185697,1,0
162,61,185772,1,0
144,74,185847,5,2
128,90,185922,1,0
116,109,185997,1,0
109,130,186072,1,0
105,152,186147,1,6
103,174,186222,1,0
105,196,186297,1,2
110,218,186372,1,0
120,238,186447,5,10
133,255,186522,1,0
150,268,186597,1,0
170,278,186672,1,0
191,286,186747,1,6
212,292,186822,1,0
234,296,186897,1,0
256,299,186972,1,0
278,300,187047,5,2
300,298,187122,1,0
322,293,187197,1,0
343,285,187272,1,0
362,274,187347,1,6
379,259,187422,1,0
391,240,187497,1,0
400,219,187572,1,0
406,197,187647,5,10
411,175,187722,1,0
414,152,187797,1,0
410,129,187872,1,0
402,107,187947,1,6
386,90,188022,1,0
367,77,188097,1,0
346,68,188172,1,0
324,62,188247,5,2
300,60,188322,1,0
272,56,188397,1,0
256,48,188472,1,0
232,56,188547,1,6
208,64,188622,1,0
186,56,188697,1,2
163,56,188772,1,0
143,67,188847,6,0,B|112:113,3,45.25,10|0|0|0
120,128,189147,2,0,B|136:184,3,45.25,10|0|0|0
128,192,189447,2,0,B|104:256,3,45.25,10|0|0|0
88,232,189747,2,0,B|64:280,3,45.25,10|0|0|0
80,296,190047,5,4
104,304,190122,1,0
128,312,190197,1,0
152,312,190272,1,0
176,320,190347,1,4
200,328,190422,1,0
224,328,190497,1,0
248,336,190572,1,0
272,316,190647,5,2
296,324,190722,1,0
320,332,190797,1,0
344,332,190872,1,0
368,340,190947,1,6
392,348,191022,1,0
416,348,191097,1,0
440,356,191172,1,0
480,344,191247,6,8,B|480:288,15,45.25,10|10|10|10|10|10|10|10|10|10|10|10|10|10|10|10
480,264,192447,5,10
473,237,192522,1,0
465,210,192597,1,0
455,184,192672,1,0
441,160,192747,1,6
423,138,192822,1,0
404,118,192897,1,0
383,100,192972,1,0
360,84,193047,5,2
336,71,193122,1,0
311,60,193197,1,0
285,51,193272,1,0
258,47,193347,1,6
227,51,193422,1,0
201,60,193497,1,0
176,71,193572,1,0
152,84,193647,5,10
129,100,193722,1,0
108,118,193797,1,0
89,138,193872,1,2
71,160,193947,1,6
57,184,194022,1,0
47,210,194097,1,0
39,237,194172,1,0
32,264,194247,6,0,B|45:312,3,45.25,2|0|0|0
71,310,194547,2,0,B|135:319,3,45.25,6|0|0|0
138,301,194847,5,10
161,287,194922,1,0
186,277,194997,1,0
212,269,195072,1,0
239,269,195147,1,10
265,273,195222,1,0
291,278,195297,1,2
318,280,195372,1,0
344,274,195447,5,2
367,261,195522,1,0
385,240,195597,1,0
399,217,195672,1,0
410,192,195747,1,10
415,165,195822,1,0
416,137,195897,1,0
412,110,195972,1,0
398,86,196047,5,10
379,66,196122,1,0
355,52,196197,1,0
328,46,196272,1,0
301,42,196347,1,4
273,40,196422,1,0
245,41,196497,1,0
218,45,196572,1,0
192,53,196647,5,6
167,63,196722,1,0
143,76,196797,1,0
120,91,196872,1,0
99,109,196947,1,6
81,129,197022,1,0
65,151,197097,1,2
52,174,197172,1,0
45,200,197247,5,10
44,227,197322,1,0
49,253,197397,1,0
62,276,197472,1,0
78,297,197547,1,6
97,316,197622,1,2
121,328,197697,1,0
146,336,197772,1,0
172,342,197847,5,2
198,345,197922,1,0
225,347,197997,1,0
252,349,198072,1,0
279,351,198147,1,4
306,353,198222,1,0
333,354,198297,1,0
360,355,198372,1,0
387,353,198447,5,10
413,346,198522,1,0
431,325,198597,1,0
442,300,198672,1,0
451,274,198747,1,4
456,247,198822,1,0
459,220,198897,1,0
461,192,198972,1,0
448,168,199047,5,2
433,145,199122,1,2
413,125,199197,1,0
391,108,199272,1,2
367,94,199347,1,6
342,83,199422,1,0
316,74,199497,1,0
289,67,199572,1,0
264,64,199647,6,0,B|245:112,3,45.25,10|0|0|0
259,130,199947,2,0,B|283:179,3,45.25,6|0|0|0
256,186,200247,2,0,B|206:236,1,45.25,6|0
198,208,200397,2,0,B|132:181,1,45.25
131,179,200547,2,0,B|62:188,1,45.25,6|0
59,191,200697,2,0,B|43:236,1,45.25
50,260,200847,5,10
75,278,200922,1,0
101,296,200997,1,0
123,318,201072,1,0
150,334,201147,1,6
181,336,201222,1,0
211,329,201297,1,0
242,334,201372,1,0
272,344,201447,5,2
303,349,201522,1,0
334,349,201597,1,0
363,336,201672,1,0
388,317,201747,1,6
410,294,201822,1,0
441,292,201897,1,0
470,279,201972,1,0
484,250,202047,5,10
486,218,202122,1,2
476,187,202197,1,0
453,164,202272,1,0
423,152,202347,1,6
391,152,202422,1,0
360,161,202497,1,2
336,182,202572,1,0
317,207,202647,5,2
299,233,202722,1,0
278,257,202797,1,0
250,272,202872,1,0
219,279,202947,1,6
187,280,203022,1,0
156,271,203097,1,0
125,260,203172,1,0
106,239,203247,5,10
96,213,203322,1,0
97,185,203397,1,2
106,159,203472,1,0
122,137,203547,1,6
142,119,203622,1,0
165,105,203697,1,0
190,96,203772,1,2
217,94,203847,5,2
243,98,203922,1,0
269,103,203997,1,0
295,109,204072,1,0
321,113,204147,1,6
347,116,204222,1,0
374,116,204297,1,2
400,111,204372,1,0
423,97,204447,5,10
436,73,204522,1,0
427,47,204597,1,0
409,26,204672,1,0
382,18,204747,1,6
354,18,204822,1,0
327,21,204897,1,0
300,28,204972,1,0
273,35,205047,5,2
247,43,205122,1,0
220,50,205197,1,2
193,55,205272,1,0
166,58,205347,1,6
138,59,205422,1,0
111,62,205497,1,0
86,73,205572,1,0
65,90,205647,5,6
47,110,205722,1,0
35,134,205797,1,0
34,161,205872,1,0
41,186,205947,1,6
52,210,206022,5,0
60,235,206097,1,2
70,259,206172,1,0
81,283,206247,1,2
95,305,206322,5,0
115,323,206397,1,0
140,331,206472,1,0
167,332,206547,1,6
192,322,206622,5,0
210,302,206697,1,0
225,279,206772,1,0
209,256,206847,1,10
197,231,206922,5,0
212,209,206997,1,2
227,186,207072,1,0
253,179,207147,1,6
278,187,207222,1,0
303,195,207297,1,0
322,213,207372,1,0
337,234,207447,5,2
364,231,207522,1,0
390,224,207597,1,2
414,211,207672,1,0
439,203,207747,1,6
456,182,207822,1,0
472,160,207897,1,0
470,132,207972,1,0
432,120,208047,5,10
450,87,208122,1,0
413,93,208197,1,0
420,56,208272,1,0
390,71,208347,1,14
388,29,208422,1,0
366,55,208497,1,0
350,12,208572,1,0
331,46,208647,5,14
307,13,208722,1,2
295,47,208797,1,0
267,26,208872,1,0
260,57,208947,1,10
228,44,209022,1,0
224,80,209097,1,0
194,68,209172,1,0
193,100,209247,5,10
161,94,209322,1,0
159,127,209397,1,0
128,120,209472,1,0
132,152,209547,1,6
96,147,209622,1,0
101,181,209697,1,0
70,180,209772,1,0
83,213,209847,5,10
47,217,209922,1,0
73,248,209997,1,2
36,257,210072,1,0
73,284,210147,1,6
43,299,210222,1,0
83,311,210297,1,2
61,337,210372,1,0
88,339,210447,6,0,B|124:349,7,22.625,14|0|0|0|6|0|0|0
148,296,210747,2,0,B|164:318,7,22.625,6|0|0|0|6|0|0|0
218,274,211047,6,0,B|219:315,7,22.625,6|0|4|0|6|0|4|0
296,283,211347,6,0,B|274:314,6,22.625,4|4|4|4|4|4|4
256,220,211647,5,6
80,72,215318,5,0
104,72,215389,1,0
128,72,215460,1,0
152,72,215531,1,0
176,72,215602,1,0
200,72,215673,1,0
224,72,215744,1,0
248,72,215815,1,0
272,72,215885,1,0
296,72,215956,1,0
320,72,216027,1,0
344,72,216098,1,0
368,72,216169,1,0
392,72,216240,1,0
408,80,216311,1,0
424,96,216382,1,0
432,112,216453,1,0
432,128,216524,1,0
424,144,216594,1,0
408,160,216665,1,0
392,168,216736,1,0
368,168,216807,1,0
344,168,216878,1,0
320,168,216949,1,0
296,168,217020,1,0
272,168,217091,1,0
248,168,217162,1,0
224,168,217233,1,0
200,168,217303,1,0
176,168,217374,1,0
152,168,217444,1,0
128,168,217515,6,0,B|72:208,3,40
80,208,217799,2,0,B|88:264,3,40
88,272,218082,2,0,B|136:320,3,40
136,312,218366,2,0,B|208:312,3,40
200,312,218649,1,2
224,304,218720,1,0
248,296,218791,1,0
272,288,218862,1,0
296,280,218932,1,2
320,272,219003,1,0
344,264,219074,1,0
368,256,219145,1,0
392,248,219216,6,0,B|432:200,3,40,2|0|0|0
432,200,219499,2,0,B|392:152,3,40,2|0|0|0
376,168,219783,1,0
352,168,219854,1,0
328,168,219924,1,0
304,168,219995,1,0
280,168,220066,1,0
256,168,220137,1,0
232,168,220208,1,0
208,168,220279,1,0
184,168,220350,1,0
160,168,220421,1,0
136,168,220491,1,0
112,168,220562,1,0
88,168,220633,1,0
104,152,220704,1,0
120,136,220775,1,0
136,120,220846,1,0
152,104,220917,1,0
168,88,220987,1,0
184,72,221058,1,0
208,72,221129,1,0
232,72,221200,1,0
256,72,221271,1,0
280,72,221342,1,0
304,72,221413,1,0
328,72,221483,6,0,B|392:80,3,40
392,80,221767,2,0,B|376:128,3,40
368,144,222050,1,2
352,168,222121,1,0
336,192,222192,1,0
320,216,222263,1,0
304,240,222334,1,2
288,264,222405,1,0
272,288,222476,1,0
256,312,222546,1,0
240,288,222617,5,2
224,264,222688,1,0
208,240,222759,1,0
192,216,222830,1,0
176,192,222901,1,2
160,168,222972,1,0
144,144,223042,1,0
128,120,223113,1,0
112,96,223184,2,0,B|48:72,3,40,2|0|0|0
112,96,223468,2,0,B|160:80,3,40,2|0|0|0
112,96,223751,2,0,B|112:40,7,40,2|0|0|0|2|0|0|0
184,88,224389,6,2,B|184:40,1,40
256,112,224531,2,2,B|320:112,1,40
244,180,224672,2,2,B|244:228,1,40
172,176,224814,2,2,B|132:176,1,40
72,168,224956,5,0
80,144,225027,1,0
96,120,225097,1,0
112,104,225168,1,0
136,88,225239,1,0
160,80,225310,1,0
184,80,225381,1,0
208,80,225452,1,2
232,88,225523,1,0
256,104,225593,1,0
272,128,225664,1,0
280,152,225735,1,0
296,176,225805,1,0
312,192,225876,1,0
336,208,225947,1,0
360,216,226018,1,2
384,216,226089,1,0
408,216,226160,1,0
432,208,226231,1,0
456,192,226301,1,0
472,168,226373,1,0
480,144,226444,1,0
488,120,226515,1,0
488,96,226586,1,2
480,72,226656,1,0
464,56,226727,1,0
448,40,226798,1,0
424,32,226869,1,0
392,32,226940,1,0
368,40,227011,1,0
344,56,227082,1,0
328,72,227152,1,2
312,96,227223,6,0,B|248:72,3,40
248,72,227507,2,0,B|216:32,3,40
200,32,227790,2,0,B|136:40,3,40,2|0|0|0
144,56,228074,2,0,B|96:112,3,40
104,104,228357,1,2
88,128,228428,1,0
80,152,228499,1,0
80,176,228570,1,0
88,200,228640,1,2
104,216,228711,1,0
120,232,228782,1,0
144,240,228853,1,0
168,240,228924,1,2
192,232,228995,1,0
208,216,229066,1,0
224,192,229137,1,0
232,168,229207,1,2
248,152,229278,1,0
272,136,229349,1,0
296,128,229420,1,0
320,128,229491,5,2
344,136,229561,1,0
360,152,229632,1,0
376,168,229703,1,0
384,192,229774,1,0
384,216,229845,1,0
376,240,229916,1,0
360,256,229987,1,0
336,272,230058,1,0
312,280,230128,1,0
288,280,230199,1,0
264,272,230270,1,0
248,256,230341,1,0
232,232,230412,1,0
224,208,230483,1,0
216,184,230554,1,2
208,160,230625,2,0,B|224:96,3,40
232,104,230908,2,0,B|280:56,3,40
280,64,231192,2,0,B|336:40,3,40
336,40,231475,2,0,B|400:40,3,40
400,56,231758,5,2
400,80,231829,1,0
400,104,231900,1,0
400,128,231971,1,0
376,128,232042,5,2
360,152,232113,1,0
344,176,232184,1,0
328,200,232254,1,0
304,200,232325,5,2
280,208,232396,1,0
256,216,232467,1,0
232,224,232538,1,0
224,200,232609,5,2
200,200,232680,1,0
176,200,232750,1,0
152,200,232821,1,0
136,176,232892,6,0,B|88:120,3,40,2|0|0|0
136,136,233176,2,0,B|184:80,3,40,2|0|0|0
136,104,233459,2,0,B|88:48,3,40,2|0|0|0
136,64,233743,2,0,B|184:8,3,40,2|0|0|0
184,48,234026,5,2
200,64,234097,1,0
216,80,234168,1,0
232,96,234239,1,0
248,112,234309,2,0,B|288:72,3,40
264,128,234593,5,2
280,144,234664,1,0
296,160,234735,1,0
312,176,234805,1,0
328,192,234876,2,0,B|288:232,3,40
344,208,235160,5,2
360,224,235231,1,0
376,240,235302,1,0
392,256,235373,1,0
408,272,235443,2,0,B|448:232,3,40
456,224,235727,5,2
456,200,235798,1,0
456,176,235868,1,0
456,152,235939,1,0
456,128,236010,1,2
456,104,236081,1,0
456,80,236152,1,0
456,56,236223,1,0
432,56,236294,2,0,B|392:96,3,40,2|0|0|0
392,56,236577,2,0,B|352:16,3,40
352,56,236860,2,0,B|312:96,3,40,2|0|0|0
312,56,237144,2,0,B|272:16,3,40
272,56,237427,5,2
248,64,237498,1,0
224,56,237569,1,0
200,64,237640,1,0
176,56,237711,1,0
152,64,237782,1,0
128,56,237853,1,0
104,64,237923,1,2
80,56,237994,1,0
64,80,238065,1,0
80,104,238136,1,0
64,128,238207,1,0
80,144,238278,1,0
64,168,238349,1,0
80,192,238419,1,0
64,208,238490,1,0
80,232,238561,6,0,B|56:280,3,40,2|0|0|0
64,296,238845,2,0,B|88:344,3,40
104,320,239128,2,0,B|152:296,3,40,2|0|0|0
160,296,239411,2,0,B|208:320,3,40
216,296,239695,1,2
240,312,239766,1,0
264,296,239837,1,0
288,312,239908,1,0
312,296,239978,1,0
336,312,240049,1,0
360,296,240120,1,0
384,312,240191,1,0
408,296,240262,6,0,B|408:248,3,40,2|0|0|0
408,232,240545,2,0,B|384:192,3,40,2|0|0|0
360,192,240829,1,2
320,192,240900,1,0
288,192,240970,1,0
256,192,241041,1,0
224,192,241112,1,2
192,192,241183,1,0
160,192,241254,1,0
128,192,241325,1,0
96,192,241396,2,0,B|96:128,3,40,2|0|0|0
96,128,241679,6,0,B|128:80,3,40,2|0|0|0
200,72,241962,6,0,B|200:32,2,40,2|0|0
288,192,242246,2,0,B|328:192,2,40,2|0|0
200,296,242529,2,0,B|200:344,2,40,2|0|0
112,192,242813,2,0,B|72:192,2,40,2|0|0
108,76,249180,37,0
100,100,249248,5,0
92,124,249316,5,0
84,148,249384,5,0
80,172,249453,1,0
76,196,249521,1,0
76,220,249589,1,0
80,244,249657,5,0
88,268,249725,5,0
100,292,249793,1,0
116,312,249862,1,0
136,328,249930,1,0
160,340,249998,1,0
184,348,250066,5,0
208,352,250134,1,0
232,356,250203,1,0
264,308,250271,5,0
240,308,250339,1,0
216,304,250407,1,0
192,300,250475,1,0
168,292,250543,1,0
148,280,250612,1,0
128,264,250680,1,0
112,244,250748,1,0
104,220,250816,37,0
120,200,250884,1,0
136,180,250953,1,0
152,160,251021,1,0
168,140,251089,1,0
180,120,251157,1,0
192,100,251225,1,0
204,80,251293,1,0
236,120,251362,5,0
252,140,251430,1,0
272,156,251498,5,0
292,172,251566,1,0
316,184,251634,1,0
340,188,251703,1,0
364,180,251771,1,2
384,164,251839,1,0
400,144,251907,5,0
408,120,251975,1,0
412,96,252043,1,0
396,76,252112,1,0
372,64,252180,1,0
348,60,252248,1,0
320,52,252316,1,0
296,52,252384,1,0
272,56,252453,37,0
248,60,252521,1,0
224,68,252589,1,0
200,76,252657,1,0
180,92,252725,1,0
164,108,252793,5,0
148,128,252862,1,0
132,148,252930,5,0
116,168,252998,1,0
108,192,253066,1,0
104,216,253134,1,0
108,240,253203,1,0
120,264,253271,1,0
140,280,253339,1,0
164,292,253407,1,0
188,300,253475,1,0
248,336,253543,6,0,B|204:336,1,42.5
264,296,253680,2,0,B|308:296,1,42.5,0|0
248,240,253816,2,0,B|204:240,1,42.5
264,200,253953,2,0,B|308:200,1,42.5,0|0
248,152,254089,38,0,B|204:152,1,42.5
264,112,254225,2,0,B|308:112,1,42.5,0|0
248,56,254362,2,0,B|204:56,1,42.5
264,16,254498,2,0,B|308:16,1,42.5,0|0
324,24,254634,5,0
336,48,254703,1,0
348,72,254771,1,0
360,96,254839,1,0
372,120,254907,1,0
384,144,254975,1,0
392,168,255043,1,0
400,192,255112,5,0
404,216,255180,1,0
404,240,255248,1,0
400,264,255316,1,0
388,288,255384,1,0
372,308,255453,1,0
352,320,255521,1,0
328,328,255589,1,0
304,332,255657,1,0
280,336,255725,37,0
264,316,255793,1,0
248,296,255862,1,0
232,276,255930,1,0
216,256,255998,1,0
200,236,256066,1,0
184,216,256134,1,0
168,196,256203,1,0
160,220,256271,5,0
144,200,256339,1,0
128,180,256407,1,0
112,160,256475,1,0
96,140,256543,1,0
84,120,256612,1,0
72,100,256680,5,0
56,80,256748,5,0
72,60,256816,5,0
96,64,256884,1,0
120,72,256953,1,0
144,80,257021,1,0
168,88,257089,1,0
192,100,257157,1,0
216,108,257225,1,0
240,120,257293,1,0
244,144,257362,37,0
248,168,257430,1,0
252,192,257498,1,0
260,216,257566,1,0
280,232,257634,1,0
300,248,257703,1,0
324,260,257771,1,0
348,268,257839,1,0
368,276,257907,5,4
256,192,263870,12,0,265760
56,192,266030,5,2
51,229,266098,1,0
65,263,266165,1,0
96,284,266233,1,0
133,283,266300,1,0
166,264,266368,1,0
181,229,266435,1,0
184,190,266503,1,0
168,155,266570,1,2
162,117,266638,1,0
174,81,266705,1,0
200,53,266773,1,0
235,40,266840,1,0
273,40,266908,1,0
304,60,266975,1,0
328,89,267043,1,0
480,56,267178,6,0,B|501:133|462:204,2,142.5,2|2|2
248,336,267785,2,0,B|227:259|266:188,1,142.5,2|2
388,314,268190,5,2
415,341,268258,1,0
452,344,268325,1,0
487,322,268393,1,0
502,287,268460,1,2
494,249,268528,1,0
478,214,268595,1,0
443,198,268663,1,0
405,199,268730,1,2
373,220,268798,1,0
335,216,268865,1,0
312,184,268933,1,0
308,146,269000,1,2
330,114,269068,1,0
366,106,269135,1,2
403,113,269203,1,0
104,48,269405,6,0,B|88:88|112:176,1,95,2|2
184,184,269675,1,0
96,224,269810,2,0,B|16:240|32:352,2,142.5,2|2|2
176,280,270350,5,2
212,291,270418,1,0
243,311,270485,1,0
267,340,270553,1,0
298,360,270620,1,0
330,339,270688,1,0
331,301,270755,1,2
356,272,270823,1,0
393,270,270890,1,0
431,267,270958,1,0
458,240,271025,1,0
470,203,271093,1,0
472,165,271160,1,2
458,129,271228,1,0
423,113,271295,1,0
384,116,271363,1,0
353,137,271430,5,2
343,174,271498,1,0
313,197,271565,1,0
275,203,271633,1,0
238,193,271700,1,2
215,162,271768,1,0
212,124,271835,1,0
229,90,271903,1,0
258,66,271970,1,2
228,41,272038,1,0
190,39,272105,1,0
153,50,272173,1,0
124,74,272240,1,2
117,111,272308,1,0
126,147,272375,1,0
120,184,272443,1,0
90,207,272510,5,2
64,235,272578,1,0
57,272,272645,1,0
61,309,272713,1,0
82,340,272780,1,2
118,352,272848,1,0
155,351,272915,1,0
191,339,272983,1,0
208,305,273050,1,2
208,266,273118,1,0
199,229,273185,1,0
209,192,273253,1,2
233,160,273320,1,0
266,142,273388,1,0
304,134,273455,1,2
340,144,273523,1,0
369,167,273590,5,0
389,199,273658,1,2
388,236,273725,1,0
377,272,273793,1,0
350,298,273860,1,6
347,336,273928,1,0
373,362,273995,1,0
411,363,274063,1,2
437,335,274130,1,0
452,299,274198,1,0
480,274,274265,1,2
477,235,274333,1,0
477,197,274400,1,4
487,160,274468,1,2
502,125,274535,1,0
470,103,274603,1,0
446,73,274670,5,6
429,38,274738,1,0
394,22,274805,1,0
355,22,274873,1,0
319,33,274940,1,2
291,60,275008,1,0
274,93,275075,1,0
278,131,275143,1,0
296,163,275210,1,2
330,180,275278,1,0
361,201,275345,1,0
377,235,275413,1,0
375,272,275480,1,2
360,307,275548,1,0
324,318,275615,2,0,B|221:314,1,95,2|0
40,224,275885,5,2
176,232,276020,1,2
120,112,276155,1,2
104,344,276290,5,2
140,354,276358,1,0
177,352,276425,1,0
209,331,276493,1,0
236,305,276560,1,2
274,302,276628,1,0
308,316,276695,1,0
332,345,276763,1,0
365,362,276830,5,2
402,353,276898,1,0
430,327,276965,1,0
436,289,277033,1,0
421,254,277100,1,2
389,232,277168,1,0
351,232,277235,1,0
316,215,277303,1,0
302,179,277370,1,2
300,140,277438,1,0
323,110,277505,1,0
358,94,277573,1,0
395,92,277640,1,2
427,112,277708,1,0
444,145,277775,2,0,B|466:197|514:224,1,95,2|0
368,296,278045,5,2
240,272,278180,1,2
120,328,278315,1,2
16,240,278450,2,0,B|-8:112,1,95,2|2
72,32,278720,1,2
109,27,278788,1,0
145,35,278855,1,0
175,58,278923,1,0
196,88,278990,5,2
199,126,279058,1,0
182,159,279125,1,0
150,180,279193,1,0
122,205,279260,1,0
105,239,279328,1,0
98,276,279395,1,2
113,310,279463,1,0
143,331,279530,1,0
180,339,279598,1,0
216,329,279665,1,0
235,296,279733,1,0
234,258,279800,1,2
241,220,279868,1,0
262,189,279935,1,0
297,174,280003,1,0
334,174,280070,1,0
367,192,280138,1,0
387,223,280205,5,2
386,261,280273,1,0
365,292,280340,1,2
332,312,280408,1,0
369,317,280475,1,0
405,329,280543,1,0
437,347,280610,1,2
473,358,280678,1,0
504,337,280745,1,0
506,298,280813,1,0
481,268,280880,1,2
464,233,280948,1,0
464,195,281015,1,2
470,157,281083,1,0
491,126,281150,5,2
457,106,281218,1,0
420,95,281285,1,0
382,102,281353,1,0
346,115,281420,2,0,B|324:69,3,47.5,2|0|0|0
289,59,281690,1,2
251,54,281758,1,0
215,65,281825,1,0
184,88,281893,1,0
170,123,281960,1,2
179,160,282028,1,0
205,186,282095,1,0
235,209,282163,1,0
251,242,282230,5,6
258,279,282298,1,0
250,316,282365,1,0
219,338,282433,1,0
182,345,282500,1,6
145,333,282568,1,0
128,299,282635,1,0
136,261,282703,1,0
127,224,282770,1,6
92,207,282838,1,0
59,226,282905,1,0
20,221,282973,1,0
5,186,283040,1,6
5,147,283108,1,0
27,116,283175,1,0
64,109,283243,1,0
98,123,283310,5,2
135,128,283378,1,0
171,118,283445,1,0
194,87,283513,1,0
208,51,283580,2,0,B|245:11|313:27,1,95,0|2
333,27,283783,1,0
364,47,283850,1,0
379,81,283918,1,0
378,118,283985,2,0,B|354:221,2,95,0|2|2
472,216,284390,5,2
485,251,284458,1,0
478,288,284525,1,0
456,319,284593,1,0
421,333,284660,1,2
382,329,284728,1,0
350,308,284795,1,0
316,290,284863,1,0
279,282,284930,1,2
240,284,284998,1,0
208,305,285065,1,0
181,332,285133,1,0
148,350,285200,1,2
109,352,285268,1,0
77,331,285335,1,0
68,293,285403,1,0
79,257,285470,5,2
110,235,285538,1,0
147,237,285605,1,0
182,221,285673,1,0
197,186,285740,1,0
433,257,285875,5,2
402,235,285943,1,0
365,237,286010,1,0
330,221,286078,1,0
315,186,286145,1,0
256,40,286280,6,0,B|256:152,1,95,2|2
88,32,286550,5,2
53,47,286618,1,0
34,79,286685,1,0
34,117,286753,1,0
55,148,286820,1,2
89,163,286888,1,0
126,161,286955,1,0
154,135,287023,1,0
160,97,287090,1,2
179,64,287158,1,0
214,49,287225,1,0
250,59,287293,1,0
271,90,287360,1,2
269,128,287428,1,0
239,151,287495,1,0
221,185,287563,1,0
214,222,287630,5,2
221,259,287698,1,0
242,290,287765,1,0
279,299,287833,1,0
316,297,287900,1,2
440,368,288035,5,0
440,368,288103,1,0
440,368,288170,2,0,B|424:264,1,95,2|0
420,236,288373,2,0,B|411:186|425:138,1,95,2|0
434,105,288575,2,0,B|383:119|316:91,1,95,2|0
304,86,288778,2,0,B|258:62|202:60,1,95,2|0
183,37,288980,2,0,B|195:96|183:139,1,95,2|2
128,208,289250,5,0
40,248,289385,1,2
96,328,289520,1,2
140,310,289588,1,0
186,304,289655,1,0
226,329,289723,1,0
249,369,289790,5,2
286,374,289858,1,0
323,372,289925,1,0
357,355,289993,1,0
376,322,290060,1,2
381,284,290128,1,0
367,248,290195,1,0
332,231,290263,1,0
299,211,290330,1,2
282,176,290398,1,0
279,138,290465,1,0
295,103,290533,1,0
326,82,290600,1,2
363,73,290668,1,0
400,79,290735,1,0
427,105,290803,1,0
444,138,290870,5,0
442,176,290938,1,2
440,213,291005,1,0
452,249,291073,1,0
475,278,291140,1,6
499,307,291208,1,0
462,317,291275,1,0
423,314,291343,1,2
386,303,291410,1,0
348,296,291478,1,0
310,294,291545,1,2
272,300,291613,1,0
235,310,291680,1,4
200,325,291748,1,2
165,341,291815,1,0
127,347,291883,1,0
89,345,291950,5,2
52,334,292018,1,0
30,302,292085,1,0
27,263,292153,1,0
39,227,292220,1,2
67,201,292288,1,0
103,191,292355,1,0
139,200,292423,1,0
163,228,292490,1,2
200,236,292558,1,0
237,230,292625,1,0
269,208,292693,1,0
278,171,292760,1,2
270,133,292828,1,0
245,103,292895,1,0
208,90,292963,1,0
171,99,293030,5,2
77,114,293165,2,0,B|14:126,2,47.5,0|0|2
15,41,293435,1,0
15,41,293503,1,0
15,41,293570,1,2
51,28,293638,1,0
88,25,293705,1,0
124,36,293773,1,0
153,59,293840,1,2
171,92,293908,1,0
181,128,293975,1,0
171,165,294043,1,0
148,195,294110,1,2
32,360,294245,6,0,B|80:352|80:352|128:360,1,95,2|2
216,336,294515,1,0
416,296,294650,2,0,B|352:328|352:328|288:296,2,142.5,2|2|2
480,224,295190,5,2
490,177,295258,1,0
488,129,295325,1,0
464,87,295393,1,0
421,66,295460,1,2
373,69,295528,1,0
334,96,295595,1,0
325,143,295663,1,0
347,184,295730,1,2
389,205,295798,1,0
404,249,295865,1,0
392,295,295933,1,0
350,317,296000,1,2
303,306,296068,1,0
274,268,296135,1,0
270,220,296203,1,0
237,185,296270,6,0,B|177:194,1,47.5,2|0
150,219,296405,2,0,B|89:206,1,47.5
57,194,296540,1,0
160,40,296675,6,0,B|220:49,1,47.5,2|0
247,74,296810,2,0,B|308:61,1,47.5
340,49,296945,1,0
432,80,297080,5,2
465,98,297148,1,0
490,126,297215,1,0
501,162,297283,1,0
501,199,297350,5,6
485,233,297418,1,0
453,254,297485,1,0
416,264,297553,1,0
379,254,297620,1,2
347,231,297688,1,0
329,197,297755,1,0
329,158,297823,1,0
320,121,297890,1,6
288,99,297958,1,0
251,90,298025,1,0
215,104,298093,1,0
192,134,298160,1,2
191,172,298228,1,0
202,207,298295,1,0
227,235,298363,1,0
251,263,298430,5,6
261,299,298498,1,0
254,336,298565,1,0
230,366,298633,1,0
193,375,298700,1,2
156,364,298768,1,0
141,329,298835,1,0
144,290,298903,1,0
106,296,298970,1,6
67,293,299038,1,0
38,268,299105,1,0
25,231,299173,1,0
25,193,299240,1,2
47,162,299308,1,0
83,151,299375,1,0
115,131,299443,1,0
121,93,299510,5,6
110,56,299578,1,0
147,62,299645,1,0
184,69,299713,1,0
219,57,299780,1,2
251,36,299848,1,0
288,35,299915,1,0
325,42,299983,1,0
356,62,300050,1,6
375,95,300118,1,0
373,132,300185,1,0
353,165,300253,1,0
320,184,300320,1,2
282,189,300388,1,0
248,172,300455,1,0
222,143,300523,1,0
186,155,300590,5,6
170,189,300658,1,0
173,226,300725,1,0
196,255,300793,1,0
233,256,300860,1,2
268,270,300928,1,0
286,303,300995,1,0
282,341,301063,1,0
253,365,301130,1,6
290,373,301198,1,0
327,368,301265,1,0
354,340,301333,1,0
379,312,301400,1,2
416,302,301468,1,0
453,304,301535,1,0
490,311,301603,1,0
490,276,301670,5,6
468,244,301738,1,0
458,207,301805,1,0
465,169,301873,1,0
491,142,301940,1,2
503,105,302008,1,0
496,67,302075,1,0
468,40,302143,1,0
430,33,302210,1,6
395,50,302278,1,0
376,82,302345,1,0
380,120,302413,1,0
386,157,302480,1,2
377,194,302548,1,0
351,222,302615,1,0
313,231,302683,1,0
277,219,302750,1,6
328,96,307104,6,0,B|328:48|280:40,1,79.9999952316285
248,112,307360,6,0,B|248:160|296:168,2,79.9999952316285,8|0|0
168,96,307745,5,0
168,96,307809,1,0
168,96,307873,2,0,B|168:144|184:176,1,79.9999952316285,8|0
240,232,308129,5,0
240,232,308194,1,0
184,288,308322,1,0
184,288,308386,1,8
128,232,308514,1,0
72,288,308642,2,0,B|40:256|48:208,1,79.9999952316285
80,80,308898,2,0,B|112:112|104:160,1,79.9999952316285,8|0
184,176,309155,5,0
272,120,309283,5,0
328,208,309411,5,8
240,264,309539,1,0
192,164,309667,5,0
284,128,309796,1,0
320,220,309924,1,8
224,264,310053,1,0
104,153,310180,6,0,B|128:104|168:96,1,79.9999952316285
296,64,310436,2,0,B|272:113|232:121,1,79.9999952316285,8|0
184,176,310693,1,0
176,189,310757,5,0
171,204,310821,1,0
175,219,310885,1,0
182,233,310949,1,8
191,245,311013,1,0
195,260,311077,1,0
192,275,311141,1,0
184,289,311205,5,0
104,264,311334,1,0
120,344,311462,2,0,B|80:352|48:320,2,79.9999952316285,8|0|0
200,368,311846,1,0
200,368,311910,1,0
200,368,311974,1,8
264,320,312103,1,0
328,368,312231,6,0,B|352:344|344:320,1,39.9999976158142
320,256,312423,2,0,B|296:240|272:240,1,39.9999976158142,0|8
208,264,312615,1,0
128,240,312743,2,0,B|120:280|144:320,1,79.9999952316285
192,184,313000,2,0,B|200:144|176:104,1,79.9999952316285,8|0
112,160,313256,5,0
112,160,313320,1,0
112,160,313384,1,0
32,184,313512,1,8
32,184,313576,1,0
32,184,313640,1,0
48,104,313769,1,0
48,104,313833,1,0
32,24,313961,1,0
32,24,314025,1,8
112,48,314153,1,0
168,104,314281,6,0,B|200:72|192:16,1,79.9999952316285
344,104,314538,2,0,B|312:72|320:16,1,79.9999952316285,8|0
256,80,314794,2,0,B|256:104,7,19.9999988079071
256,120,315050,2,0,B|256:144,7,19.9999988079071
256,160,315307,6,0,B|256:248,1,79.9999952316285
256,320,315563,2,0,B|296:320|328:280,1,79.9999952316285,8|0
392,240,315819,1,0
392,240,315883,1,0
464,280,316012,1,0
464,280,316076,1,8
464,200,316204,1,0
392,160,316332,6,0,B|400:136|424:128,2,39.9999976158142
320,200,316588,1,8
320,200,316716,1,0
248,160,316845,1,0
240,160,316909,1,0
232,160,316973,1,0
224,160,317037,1,0
216,160,317101,2,0,B|128:160,1,79.9999952316285,8|0
56,160,317357,6,0,B|40:120,3,39.9999976158142
56,88,317614,2,0,B|72:48,3,39.9999976158142,8|0|0|0
104,32,317870,2,0,B|144:24,3,39.9999976158142
184,32,318126,2,0,B|224:40,3,39.9999976158142,8|0|0|0
256,64,318383,6,0,B|296:80|336:64,1,79.9999952316285
488,112,318639,2,0,B|448:96|408:112,1,79.9999952316285,8|0
256,160,318895,1,0
288,184,318959,1,0
328,192,319023,1,0
368,184,319087,1,0
408,192,319152,1,8
440,216,319216,1,0
456,256,319280,1,0
456,296,319344,1,0
440,336,319408,6,0,B|352:336,1,79.9999952316285
296,288,319664,1,8
216,288,319792,1,0
72,336,319921,2,0,B|160:336,1,79.9999952316285
216,288,320177,1,8
152,232,320305,1,0
216,176,320433,5,0
216,176,320497,1,0
152,120,320625,1,0
152,120,320690,1,8
88,176,320818,1,0
32,120,320946,2,0,B|32:72|80:64,1,79.9999952316285
152,40,321202,1,8
152,40,321266,1,0
152,40,321330,1,0
224,72,321458,5,0
224,72,321523,1,0
224,72,321587,1,0
296,40,321715,1,8
296,40,321843,1,0
368,72,321971,1,0
368,72,322035,1,0
368,72,322099,1,0
440,40,322227,1,8
440,40,322356,1,0
432,120,322484,5,8
408,152,322548,1,0
400,192,322612,1,0
408,232,322676,1,0
432,264,322740,1,8
440,304,322804,1,0
432,344,322868,1,0
408,376,322932,1,0
368,384,322996,5,8
328,376,323061,1,8
304,344,323125,1,8
264,336,323189,1,8
224,344,323253,1,8
200,376,323317,1,8
160,384,323381,1,8
120,376,323445,1,8
96,344,323509,6,0,B|72:312|72:264,1,79.9999952316285,8|0
120,208,323765,2,0,B|144:240|144:288,2,79.9999952316285,8|0|0
72,144,324150,1,0
72,136,324214,1,0
72,128,324278,1,8
72,120,324342,1,0
72,112,324406,1,0
120,48,324534,5,0
120,48,324599,1,0
192,80,324727,1,0
192,80,324791,1,8
256,32,324919,1,0
320,80,325047,1,0
392,48,325175,1,0
392,48,325239,1,0
392,48,325303,2,0,B|416:48|432:32,2,39.9999976158142,8|0|0
384,128,325560,6,0,B|448:128|496:80,1,119.999989271164
398,200,325816,2,0,B|454:232|519:215,1,119.999989271164,8|0
375,270,326072,2,0,B|407:326|472:343,1,119.999989271164
296,272,326328,2,0,B|296:336|343:384,1,119.999989271164,8|0
216,264,326585,6,0,B|184:320|201:385,1,119.999989271164
128,256,326841,2,0,B|72:288|55:353,1,119.999989271164,8|0
128,256,327098,1,0
104,224,327162,1,0
96,184,327226,1,0
104,144,327290,1,0
128,112,327354,1,8
168,104,327418,1,0
208,112,327482,1,0
232,144,327546,1,0
272,152,327610,6,0,B|320:152|336:112,1,79.9999952316285
336,32,327867,2,0,B|288:32|272:72,1,79.9999952316285,8|0
200,32,328123,1,0
200,32,328187,1,0
120,32,328315,1,0
120,32,328379,1,8
64,88,328508,1,0
64,168,328636,6,0,B|40:168|16:160,2,39.9999976158142
120,224,328892,1,8
120,224,329020,1,0
200,224,329148,1,0
208,224,329212,1,0
216,224,329276,1,0
224,224,329341,1,0
232,224,329405,2,0,B|312:224,1,79.9999952316285,8|0
392,224,329661,6,0,B|392:168|336:152,1,79.9999952316285
392,88,329917,2,0,B|352:64|312:88,1,79.9999952316285,8|0
280,152,330174,1,0
280,152,330238,1,0
240,80,330366,1,0
240,80,330430,1,8
160,64,330558,1,0
80,80,330686,5,0
40,152,330814,1,0
40,152,330879,1,0
40,152,330943,2,0,B|40:200|72:224,1,79.9999952316285,8|0
120,160,331199,2,0,B|128:168|136:184,7,19.9999988079071
144,192,331455,2,0,B|144:208|144:224,7,19.9999988079071
144,232,331712,5,0
96,296,331840,1,0
96,296,331904,1,0
96,296,331968,1,8
144,360,332096,1,0
216,328,332224,2,0,B|256:344,1,39.9999976158142
216,256,332417,2,0,B|256:240,1,39.9999976158142,0|8
312,296,332609,1,0
392,296,332737,5,0
392,296,332801,1,0
392,296,332865,1,0
448,240,332993,1,8
392,184,333121,1,0
392,184,333185,1,0
448,128,333314,1,0
448,128,333378,1,0
392,72,333506,2,0,B|304:72,1,79.9999952316285,8|0
248,128,333762,6,0,B|209:75|248:16,1,119.999989271164
320,183,334019,2,0,B|373:145|432:183,1,119.999989271164,8|0
264,256,334275,2,0,B|303:309|264:368,1,119.999989271164
192,200,334531,2,0,B|139:239|80:200,1,119.999989271164,8|0
136,136,334788,6,0,B|136:48,1,79.9999928474429
176,40,334980,1,0
216,56,335044,2,0,B|216:136,1,79.9999952316285,8|0
280,184,335300,1,0
304,152,335364,1,0
304,112,335428,1,0
328,80,335492,1,0
368,72,335557,1,8
408,80,335621,1,0
432,112,335685,1,0
432,152,335749,1,0
456,184,335813,6,0,B|456:240|400:264,1,79.9999952316285
344,256,336069,2,0,B|344:200|400:176,2,79.9999952316285,8|0|0
312,280,336390,1,0
232,280,336518,1,0
200,256,336582,2,0,B|120:256,1,79.9999952316285,8|0
40,256,336838,6,0,B|16:296,2,39.9999976158142
80,184,337095,6,0,B|104:144,2,39.9999976158142,8|0|0
40,112,337351,2,0,B|80:40,1,79.9999952316285
104,40,337543,5,0
128,40,337607,2,0,B|208:40,1,79.9999952316285,8|0
288,40,337863,6,0,B|328:32,3,39.9999976158142
368,40,338120,2,0,B|376:80,3,39.9999976158142,8|0|0|0
416,96,338376,2,0,B|456:88,3,39.9999976158142,0|0|0|0
488,112,338632,2,0,B|496:152,3,39.9999976158142,8|0|0|0
496,192,338889,5,8
488,208,338953,1,0
480,224,339017,5,0
472,240,339081,1,0
464,256,339145,5,8
448,264,339209,1,0
432,272,339273,1,0
416,280,339337,1,0
400,288,339401,5,8
384,288,339466,1,8
368,288,339530,1,8
352,288,339594,1,8
336,280,339658,6,8,B|304:256,3,39.9999976158142
272,232,339914,2,0,B|256:216|232:208,1,39.9999976158142,2|0
88,144,342974,5,2
48,72,343085,1,0
120,32,343196,1,2
160,104,343308,1,0
232,64,343419,5,2
254,56,343474,1,2
278,54,343530,1,2
301,58,343585,1,2
321,70,343641,1,2
335,88,343696,1,2
344,110,343752,1,2
341,134,343808,1,2
335,157,343863,1,2
333,181,343919,1,2
341,203,343974,1,2
357,220,344030,1,2
376,232,344085,1,2
389,251,344141,1,2
395,273,344196,1,2
389,296,344252,1,2
370,311,344308,6,0,B|349:328,15,20
343,329,344752,2,0,B|319:337,15,20
305,328,345196,5,8
283,316,345252,1,8
265,299,345308,1,8
252,278,345363,1,8
243,255,345419,1,8
226,238,345474,1,8
204,227,345530,1,8
181,220,345585,1,8
156,219,345641,1,8
132,223,345696,1,8
108,229,345752,1,8
83,228,345808,1,8
63,214,345863,1,8
55,191,345919,1,8
55,167,345974,1,8
65,145,346030,1,8
79,126,346085,6,0,B|104:88|144:88,1,80,4|2
213,44,346308,1,2
277,90,346419,1,2
351,60,346530,2,0,B|336:49,15,20
368,77,346974,5,8
381,96,347030,1,8
391,117,347085,1,8
396,140,347141,1,8
397,163,347196,1,8
394,187,347252,1,8
385,209,347308,1,8
371,228,347363,1,8
353,244,347419,1,8
330,252,347474,1,8
305,254,347530,1,8
281,249,347585,1,8
256,247,347641,1,8
232,251,347696,1,8
209,260,347752,1,8
187,271,347808,1,8
168,286,347863,2,0,B|200:232|184:180|120:160,1,160,8|2
56,312,348308,5,2
32,232,348419,1,0
56,152,348530,1,2
32,72,348641,1,0
112,88,348752,5,8
136,80,348808,1,8
160,72,348863,1,8
184,80,348919,1,8
208,88,348974,1,8
232,80,349030,1,8
256,72,349085,1,8
280,80,349141,1,8
304,88,349196,1,8
328,80,349252,1,8
352,72,349308,1,8
376,80,349363,1,8
400,88,349419,1,8
424,80,349474,1,8
448,72,349530,1,8
472,80,349585,1,8
496,88,349641,6,0,B|440:104|416:168|448:216,1,160,0|2
359,300,350085,6,0,B|375:314,15,20
336,296,350530,1,0
312,293,350585,1,0
290,280,350641,1,0
274,262,350696,1,0
261,241,350752,1,0
253,218,350808,1,0
248,194,350863,1,0
243,170,350919,1,0
230,149,350974,1,0
212,132,351030,1,0
191,119,351085,1,0
167,111,351141,1,0
143,113,351196,1,0
120,121,351252,1,0
100,135,351308,1,0
86,154,351363,1,0
78,176,351419,5,0
75,199,351474,1,0
76,223,351530,1,0
85,244,351585,1,0
98,263,351641,1,0
115,279,351696,1,0
136,290,351752,1,0
159,296,351808,1,0
180,305,351863,2,0,B|192:331,15,20
208,328,352308,6,0,B|247:306|303:314,1,80,8|8
360,336,352530,1,8
344,256,352641,2,0,B|376:232|424:232,2,80,8|8|8
300,184,352974,2,0,B|323:151|369:137,1,80
232,144,353196,2,0,B|244:104|272:76|312:60|360:56,1,160,8|2
192,40,353641,6,0,B|160:56,7,20
160,56,353863,2,0,B|128:72,7,20
128,72,354085,5,2
107,85,354141,1,2
92,103,354196,1,2
80,124,354252,1,2
74,147,354308,1,2
76,170,354363,1,2
86,191,354419,1,2
103,207,354474,1,2
123,219,354530,6,0,B|145:232,7,20
151,234,354752,2,0,B|185:250,7,20
182,249,354974,2,0,B|189:204|230:176|273:177|306:203,1,160,8|0
408,328,355419,5,2
448,256,355530,1,2
408,184,355641,1,2
448,112,355752,1,2
408,40,355863,6,0,B|376:72|328:64,1,80,8|0
104,40,356085,2,0,B|136:72|184:64,1,80,8|0
408,120,356308,2,0,B|376:152|328:144,1,80,8|0
104,120,356530,2,0,B|136:152|184:144,1,80,8|0
256,336,356752,2,0,B|240:296|232:256|280:256|272:216|256:184,1,160,8|0
256,24,357196,5,8
256,32,357252,1,8
256,40,357308,1,8
256,48,357363,1,8
256,56,357419,1,8
256,64,357474,1,8
256,72,357530,1,8
256,80,357585,1,8
256,96,357641,6,0,B|288:124,7,40,2|2|2|2|2|2|2|2
284,164,358085,6,0,B|260:188,15,20
256,200,358530,6,0,B|256:240|256:240|240:256|240:256|272:256|272:256|256:272|256:272|256:320,1,160,8|2
408,352,358974,5,2
464,288,359085,1,2
424,216,359196,1,2
464,144,359308,1,2
408,80,359419,6,0,B|344:136|256:96,1,160,8|0
40,344,359863,2,0,B|65:253|149:240,1,160,8|0
136,80,360308,2,0,B|59:57,2,80,2|0|2
160,160,360641,1,0
240,136,360752,2,0,B|288:216,2,80,2|0|2
216,56,361085,1,0
296,80,361196,6,0,B|328:160|424:160,1,160,8|0
216,304,361641,2,0,B|184:224|88:224,1,160,8|0
248,216,362085,2,0,B|264:264|312:264,1,80,2|0
441,335,362308,2,0,B|425:287|384:288,1,80,2|0
368,208,362530,5,2
392,200,362585,1,2
416,184,362641,1,2
432,160,362696,1,2
440,136,362752,1,2
440,112,362808,1,2
432,88,362863,1,2
416,72,362919,1,2
392,56,362974,6,0,B|336:128|248:96,1,160,8|0
33,80,363419,2,0,B|89:8|176:40,1,160,8|0
120,120,363863,6,0,B|64:176,1,80,2|0
80,272,364085,2,0,B|136:215,1,80,2|0
272,128,364308,2,0,B|216:184,1,80,2|0
240,280,364530,2,0,B|296:223,1,80,2|0
352,160,364752,6,0,B|448:160|464:64,1,160,8|0
160,160,365196,2,0,B|64:160|48:64,1,160,8|0
256,48,365641,2,0,B|256:72,8,20
256,208,366085,5,2
172,344,366308,1,2
332,344,366530,1,4
488,192,373641,6,0,B|464:176|440:176|408:192|384:208|360:208|336:192,1,160
24,192,374085,2,0,B|48:176|72:176|104:192|128:208|152:208|176:192,1,160,8|0
296,264,374530,6,0,B|312:312|256:344|200:312|216:264,1,160,8|0
256,192,374863,1,0
216,120,374974,2,0,B|200:72|256:40|312:72|296:120,1,160,8|0
456,80,375419,6,0,B|432:160,1,80,2|0
320,224,375641,2,0,B|352:150,1,80,2|0
496,200,375863,2,0,B|463:273,1,80,2|0
360,352,376085,2,0,B|387:276,1,80,2|0
320,224,376308,6,0,B|256:280|168:248,2,160,2|2|2
272,160,376863,1,8
296,80,376974,2,0,B|240:64|184:104|192:168,2,160,0|8|0
112,192,377641,6,0,B|152:176|200:184|224:224|224:264,1,160,8|0
368,336,378085,2,0,B|368:296|394:250|450:253|480:272,1,160,8|0
448,344,378419,1,0
338,224,378530,2,0,B|353:200|395:176|444:175|484:189,1,160,8|0
174,160,378974,6,0,B|159:184|117:208|68:209|28:195,1,160,8|0
24,272,379308,2,0,B|8:360,1,80,8|0
112,272,379530,2,0,B|120:352,1,80,8|0
192,248,379752,1,0
216,320,379863,6,0,B|296:288,1,80,2|0
448,272,380085,2,0,B|376:312,1,80,2|0
352,232,380308,2,0,B|328:192|352:144|352:144|304:96,1,160,8|2
288,80,380585,1,2
264,72,380641,1,2
240,72,380696,1,2
216,80,380752,6,0,B|176:160|80:144,1,160,8|0
40,64,381196,2,0,B|88:144|32:216,1,160,8|0
472,320,381641,6,0,B|424:240|480:168,1,160,8|0
472,88,381974,1,0
296,232,382085,2,0,B|318:141|409:130,1,160,8|0
248,152,382530,6,0,B|160:152,2,80,2|0|2
376,232,382863,1,0
296,88,382974,2,0,B|256:16,2,80,2|0|2
376,232,383308,1,0
216,232,383419,6,0,B|176:224|128:232|104:280|104:320,2,160,8|2|2
192,312,383974,1,8
80,200,384085,2,0,B|96:168|96:120|72:80|24:64,2,160,0|8|0
432,200,384752,6,0,B|416:168|416:120|440:80|488:64,1,160,8|0
192,312,385196,2,0,B|208:276|256:252|304:276|320:312,1,160,8|0
256,360,385530,5,0
184,220,385641,2,0,B|212:192|256:180|304:192|328:220,1,160,8|0
328,60,386085,6,0,B|303:88|255:100|211:88|183:60,1,160,8|0
112,100,386419,2,0,B|132:136|176:140,1,80,8|0
400,100,386641,2,0,B|380:136|336:140,1,80,8|0
184,220,386974,6,0,B|216:248|256:260|296:248|328:220,1,160,2|2
172,312,387419,5,8
196,312,387474,1,8
220,320,387530,1,8
240,332,387585,1,8
256,352,387641,1,8
272,332,387696,1,8
292,320,387751,1,8
316,312,387807,1,8
340,312,387862,1,8
256,176,388085,5,0
296,48,388974,5,2
216,48,389085,1,2
256,112,389196,2,0,B|256:144,15,20
256,168,389641,6,0,B|256:200,15,20
256,224,390085,2,0,B|256:252,15,20
256,280,390530,6,0,B|256:312,16,20
324,324,391085,1,2
376,264,391196,1,2
436,212,391308,1,2
460,136,391419,6,0,B|440:116,15,20
420,92,391863,2,0,B|400:72,16,20
356,28,392419,1,0
324,104,392530,2,0,B|336:172|336:172|380:184|396:236,1,160
320,256,392863,5,2
256,304,392974,1,2
192,256,393085,1,2
140,196,393197,6,0,B|112:184,15,20
88,172,393641,2,0,B|72:152,14,20
72,124,394058,6,0,B|72:100,17,20
144,84,394641,1,2
220,108,394752,1,2
296,80,394863,1,2
372,112,394974,6,0,B|392:132,15,20
416,152,395419,2,0,B|436:168,16,20
396,232,395974,1,0
320,256,396085,2,0,B|300:216|256:200|212:216|192:256,1,160
136,200,396419,6,0,B|112:120,1,80,2|0
192,136,396641,2,0,B|196:52,1,80,2|8
352,96,396974,1,2
