osu file format v12

[General]
AudioFilename: The Death Stream Compilation 2.mp3
AudioLeadIn: 0
PreviewTime: 146101
Countdown: 0
SampleSet: Soft
StackLeniency: 0.7
Mode: 0
LetterboxInBreaks: 1

[Editor]
DistanceSpacing: 0.5
BeatDivisor: 4
GridSize: 4

[Metadata]
Title:osu! ~ Death Stream Compilation 2
TitleUnicode:osu! ~ Death Stream Compilation 2
Artist:Various Artists
ArtistUnicode:Various Artists
Creator:jesus1412
Version:Compilation
Source:
Tags:Deathstream Cres xi IOSYS RYO celas Dragonforce Levaslater NH22 Hatsune Miku Zektbach Fleshgod Apocalypse End Time Akasha Usatei Shuffle Heaven Azul Cry for eternity Ascension to Heaven NNRT Corrosion Tadiu Jinkaku Fallen world L'erisia The deceit Maddy OzzyOzrock Angelhoney Lesjuh Zapy Reisen Udongein v4_mizuki Jenny DaFlameHaze Porsche
BeatmapID:264791
BeatmapSetID:99584

[Difficulty]
HPDrainRate:6
CircleSize:4
OverallDifficulty:8
ApproachRate:9
SliderMultiplier:3.59999990463257
SliderTickRate:1

[Events]
//Background and Video events
0,0,"BG.jpg",0,0
//Break Periods
2,36699,41407
2,84045,87035
2,105519,108212
2,130406,133194
2,166302,167870
2,214076,217404
2,257803,260132
2,279941,283627
2,317129,321465
2,386622,392894
2,454785,462805
2,490015,493541
//Storyboard Layer 0 (Background)
//Storyboard Layer 1 (Fail)
//Storyboard Layer 2 (Pass)
//Storyboard Layer 3 (Foreground)
//Storyboard Sound Samples
//Background Colour Transformations
3,100,163,162,255

[TimingPoints]
4499,333.333333333333,4,2,0,100,1,0
4499,-200,4,2,0,100,0,0
41996,324.324324324324,4,2,0,100,1,0
41996,-196.078431372549,4,2,0,100,0,0
87635,315.789473684211,4,2,0,100,1,0
87635,-163.934426229508,4,2,0,100,0,0
108813,315.789473684211,4,2,0,100,1,0
108813,-86.2068965517241,4,2,0,100,0,0
124602,-133.333333333333,4,2,0,100,0,0
133794,307.692307692308,4,2,0,100,1,0
133794,-172.413793103448,4,2,0,100,0,0
168717,600,4,2,0,100,1,0
168717,-113.636363636364,4,2,0,100,0,0
170592,-113.636363636364,4,2,0,5,0,0
170667,-113.636363636364,4,2,0,100,0,0
209667,-66.6666666666667,4,2,0,100,0,0
210267,-50,4,2,0,100,0,0
213267,-50,4,2,0,5,0,0
213567,-50,4,2,0,100,0,0
218004,300,4,2,0,100,1,0
218004,-158.730158730159,4,2,0,100,0,0
260732,297.029702970297,4,2,0,100,1,0
260732,-188.679245283019,4,2,0,100,0,0
284227,292.682926829268,4,2,0,100,1,0
284227,-181.818181818182,4,2,0,100,0,0
300324,-133.333333333333,4,2,0,100,0,0
305007,-181.818181818182,4,2,0,100,0,0
307348,-133.333333333333,4,2,0,100,0,0
308519,-200,4,2,0,100,0,0
316714,-133.333333333333,4,2,0,100,0,0
316934,-133.333333333333,4,2,0,10,0,0
322065,285.714285714286,4,2,0,10,1,0
322065,-149.253731343284,4,2,0,100,0,0
393494,545.454545454546,4,2,0,100,1,0
393494,-112.359550561798,4,2,0,100,0,0
463405,256.410256410256,4,2,0,100,1,0
463405,-163.934426229508,4,2,0,100,0,0
494141,359.928014397121,4,2,0,100,1,0
494141,-100,4,2,0,100,0,0

[HitObjects]
196,220,4499,5,0,0:0:0:0:
192,260,4583,1,0,0:0:0:0:
204,296,4666,1,0,0:0:0:0:
232,324,4749,1,0,0:0:0:0:
272,336,4833,1,0,0:0:0:0:
312,336,4916,1,0,0:0:0:0:
348,316,4999,1,0,0:0:0:0:
368,280,5083,1,0,0:0:0:0:
372,240,5166,6,2,L|412:208,1,45
336,112,5333,2,2,L|312:160,1,45
196,220,5499,2,2,L|184:152,1,45
72,76,5666,2,2,L|80:136,1,45
132,292,5833,5,0,0:0:0:0:
168,308,5916,1,0,0:0:0:0:
208,308,5999,1,0,0:0:0:0:
248,292,6083,1,0,0:0:0:0:
272,260,6166,1,0,0:0:0:0:
276,220,6249,1,0,0:0:0:0:
268,180,6333,1,0,0:0:0:0:
244,148,6416,1,0,0:0:0:0:
204,136,6499,6,2,P|176:136|144:144,1,45
268,180,6666,2,2,P|296:180|328:172,1,45
284,76,6833,2,2,P|287:59|287:31,1,45
196,236,6999,2,2,P|192:252|192:280,1,45
76,344,7166,5,0,0:0:0:0:
48,316,7249,1,0,0:0:0:0:
44,276,7333,1,0,0:0:0:0:
56,240,7416,1,0,0:0:0:0:
88,216,7499,1,0,0:0:0:0:
128,212,7583,1,0,0:0:0:0:
168,220,7666,1,0,0:0:0:0:
204,240,7749,1,0,0:0:0:0:
236,268,7833,5,2,0:0:0:0:
276,280,7916,1,2,0:0:0:0:
316,272,7999,1,2,0:0:0:0:
352,252,8083,1,2,0:0:0:0:
372,216,8166,1,2,0:0:0:0:
372,176,8249,1,2,0:0:0:0:
352,140,8333,1,2,0:0:0:0:
320,120,8416,1,2,0:0:0:0:
280,116,8499,6,2,L|232:112,5,30
168,120,8833,2,2,L|160:84,5,30
228,192,9166,1,0,0:0:0:0:
196,216,9249,1,2,0:0:0:0:
156,220,9333,1,2,0:0:0:0:
116,208,9416,1,2,0:0:0:0:
84,184,9499,2,2,P|76:160|80:136,3,45
56,284,9833,5,0,0:0:0:0:
96,288,9916,1,0,0:0:0:0:
136,292,9999,1,0,0:0:0:0:
176,296,10083,1,0,0:0:0:0:
216,300,10166,1,0,0:0:0:0:
256,304,10249,1,0,0:0:0:0:
296,308,10333,1,0,0:0:0:0:
336,312,10416,1,0,0:0:0:0:
376,316,10499,6,2,L|380:264,1,45
388,148,10666,2,2,L|384:192,1,45
472,152,10833,1,2,0:0:0:0:
460,104,10916,1,2,0:0:0:0:
424,72,10999,1,2,0:0:0:0:
376,64,11083,1,2,0:0:0:0:
332,84,11166,6,0,P|316:108|304:136,3,45
188,108,11499,2,0,P|160:104|136:96,3,45
252,204,11833,2,0,P|276:216|304:220,3,45,0|0|2|2,0:0|0:0|0:0|0:0,0:0:0:0:
132,204,12166,5,2,0:0:0:0:
108,248,12249,1,2,0:0:0:0:
112,296,12333,1,2,0:0:0:0:
144,332,12416,1,2,0:0:0:0:
192,344,12499,6,2,L|224:332,5,30
320,292,12833,2,2,L|304:264,5,30
184,220,13166,2,2,L|152:248,5,30
272,200,13499,1,2,0:0:0:0:
280,164,13583,1,2,0:0:0:0:
264,132,13666,1,2,0:0:0:0:
232,116,13749,1,2,0:0:0:0:
196,128,13833,6,0,P|168:132|140:124,3,45
276,56,14166,2,0,P|304:52|332:60,3,45,0|0|0|0,0:0|0:0|0:0|0:0,0:0:0:0:
352,128,14499,1,0,0:0:0:0:
356,164,14583,1,0,0:0:0:0:
352,200,14666,1,0,0:0:0:0:
340,232,14749,1,0,0:0:0:0:
320,260,14833,2,2,L|272:256,5,30
248,188,15166,5,0,0:0:0:0:
216,208,15249,1,0,0:0:0:0:
204,240,15333,1,0,0:0:0:0:
204,276,15416,1,0,0:0:0:0:
196,312,15499,1,0,0:0:0:0:
168,332,15583,1,0,0:0:0:0:
132,336,15666,1,0,0:0:0:0:
100,320,15749,1,0,0:0:0:0:
84,288,15833,5,0,0:0:0:0:
88,252,15916,1,0,0:0:0:0:
112,224,15999,1,0,0:0:0:0:
144,208,16083,1,0,0:0:0:0:
160,176,16166,2,2,P|164:152|152:128,1,45
272,40,16333,2,2,P|252:44|228:44,1,45
304,136,16499,5,0,0:0:0:0:
340,124,16583,1,0,0:0:0:0:
376,128,16666,1,0,0:0:0:0:
408,148,16749,1,0,0:0:0:0:
428,180,16833,1,0,0:0:0:0:
428,216,16916,1,0,0:0:0:0:
412,248,16999,1,0,0:0:0:0:
380,268,17083,1,0,0:0:0:0:
344,268,17166,5,0,0:0:0:0:
312,256,17249,1,0,0:0:0:0:
280,236,17333,1,0,0:0:0:0:
244,228,17416,1,0,0:0:0:0:
208,232,17499,2,2,L|212:280,1,45
80,268,17666,2,2,L|44:304,1,45
128,192,17833,5,0,0:0:0:0:
156,176,17916,1,0,0:0:0:0:
176,152,17999,1,0,0:0:0:0:
192,124,18083,1,0,0:0:0:0:
192,92,18166,1,0,0:0:0:0:
172,68,18249,1,0,0:0:0:0:
140,64,18333,1,0,0:0:0:0:
120,88,18416,1,0,0:0:0:0:
120,120,18499,5,2,0:0:0:0:
148,136,18583,1,2,0:0:0:0:
180,136,18666,1,2,0:0:0:0:
208,124,18749,1,2,0:0:0:0:
236,112,18833,1,2,0:0:0:0:
264,100,18916,1,2,0:0:0:0:
296,100,18999,1,2,0:0:0:0:
324,112,19083,1,2,0:0:0:0:
340,140,19166,6,2,L|360:184,1,45
280,252,19333,2,2,L|216:244,1,45
336,348,19499,2,2,L|296:368,3,45
404,300,19833,2,2,L|444:280,3,45
328,268,20166,2,2,L|300:232,5,30
256,332,20499,5,0,0:0:0:0:
232,304,20583,1,0,0:0:0:0:
224,268,20666,1,0,0:0:0:0:
228,232,20749,1,0,0:0:0:0:
248,200,20833,1,0,0:0:0:0:
276,180,20916,1,0,0:0:0:0:
312,172,20999,1,0,0:0:0:0:
348,176,21083,1,0,0:0:0:0:
380,192,21166,5,0,0:0:0:0:
344,200,21249,1,0,0:0:0:0:
308,196,21333,1,0,0:0:0:0:
276,180,21416,1,0,0:0:0:0:
252,156,21499,2,2,L|224:104,1,45
128,84,21666,2,2,L|88:108,1,45
276,24,21833,6,0,L|328:36,3,45
376,104,22166,2,0,L|392:52,3,45
464,228,22499,2,2,L|432:192,1,45
372,308,22666,2,2,L|360:260,1,45
256,348,22833,2,2,L|256:300,1,45
256,152,22999,2,2,L|256:204,1,45
176,328,23166,5,0,0:0:0:0:
140,320,23249,1,0,0:0:0:0:
116,292,23333,1,0,0:0:0:0:
104,260,23416,1,0,0:0:0:0:
108,224,23499,1,0,0:0:0:0:
132,196,23583,1,0,0:0:0:0:
164,184,23666,1,0,0:0:0:0:
200,192,23749,1,0,0:0:0:0:
232,212,23833,5,0,0:0:0:0:
264,224,23916,1,0,0:0:0:0:
300,224,23999,1,0,0:0:0:0:
332,208,24083,1,0,0:0:0:0:
356,180,24166,1,0,0:0:0:0:
360,144,24249,1,0,0:0:0:0:
348,112,24333,1,0,0:0:0:0:
324,84,24416,1,0,0:0:0:0:
292,68,24499,6,2,P|268:64|236:64,3,45
172,128,24833,2,2,P|196:132|228:132,3,45
124,60,25166,2,2,L|72:48,1,45
76,152,25333,2,2,L|32:168,1,45
142,281,25499,2,2,L|160:240,1,45
320,332,25666,2,2,L|284:288,1,45
240,228,25833,5,2,0:0:0:0:
396,240,25999,2,2,L|432:276,1,45
464,184,26166,5,2,0:0:0:0:
444,144,26249,1,2,0:0:0:0:
404,120,26333,1,2,0:0:0:0:
360,112,26416,1,2,0:0:0:0:
316,124,26499,1,2,0:0:0:0:
280,152,26583,1,2,0:0:0:0:
248,184,26666,1,2,0:0:0:0:
204,196,26749,1,2,0:0:0:0:
160,196,26833,1,2,0:0:0:0:
116,180,26916,1,2,0:0:0:0:
84,152,26999,1,2,0:0:0:0:
76,108,27083,1,2,0:0:0:0:
84,64,27166,5,2,0:0:0:0:
120,92,27249,1,2,0:0:0:0:
132,136,27333,1,2,0:0:0:0:
116,180,27416,1,2,0:0:0:0:
88,216,27499,1,2,0:0:0:0:
80,260,27583,1,2,0:0:0:0:
88,304,27666,1,2,0:0:0:0:
116,340,27749,1,2,0:0:0:0:
160,352,27833,1,2,0:0:0:0:
204,344,27916,1,2,0:0:0:0:
236,316,27999,1,2,0:0:0:0:
248,272,28083,1,2,0:0:0:0:
236,228,28166,1,2,0:0:0:0:
232,184,28249,1,2,0:0:0:0:
252,144,28333,1,2,0:0:0:0:
296,128,28416,1,2,0:0:0:0:
340,140,28499,5,2,0:0:0:0:
364,180,28583,1,2,0:0:0:0:
352,224,28666,1,2,0:0:0:0:
316,252,28749,1,2,0:0:0:0:
272,252,28833,1,2,0:0:0:0:
236,228,28916,1,2,0:0:0:0:
192,232,28999,1,2,0:0:0:0:
152,256,29083,1,2,0:0:0:0:
140,300,29166,2,2,L|136:348,1,45
76,224,29333,2,2,L|20:216,1,45
156,164,29499,2,2,L|160:116,1,45
216,240,29666,2,2,L|260:244,1,45
148,232,29833,5,2,0:0:0:0:
236,60,29999,1,2,0:0:0:0:
228,336,30166,1,2,0:0:0:0:
264,336,30249,1,2,0:0:0:0:
296,324,30333,1,2,0:0:0:0:
320,296,30416,1,2,0:0:0:0:
328,260,30499,1,2,0:0:0:0:
320,224,30583,1,2,0:0:0:0:
328,188,30666,1,2,0:0:0:0:
352,160,30749,1,2,0:0:0:0:
388,152,30833,2,2,P|412:152|440:160,3,45
428,256,31166,5,2,0:0:0:0:
392,284,31249,1,2,0:0:0:0:
348,292,31333,1,2,0:0:0:0:
304,284,31416,1,2,0:0:0:0:
268,256,31499,1,2,0:0:0:0:
244,216,31583,1,2,0:0:0:0:
244,172,31666,1,2,0:0:0:0:
264,132,31749,1,2,0:0:0:0:
296,100,31833,1,2,0:0:0:0:
256,80,31916,1,2,0:0:0:0:
212,84,31999,1,2,0:0:0:0:
172,104,32083,1,2,0:0:0:0:
152,144,32166,1,2,0:0:0:0:
152,188,32249,1,2,0:0:0:0:
172,228,32333,1,2,0:0:0:0:
208,252,32416,1,2,0:0:0:0:
252,260,32499,5,2,0:0:0:0:
232,300,32583,1,2,0:0:0:0:
192,316,32666,1,2,0:0:0:0:
148,320,32749,1,2,0:0:0:0:
108,300,32833,1,2,0:0:0:0:
84,260,32916,1,2,0:0:0:0:
84,216,32999,1,2,0:0:0:0:
104,176,33083,1,2,0:0:0:0:
144,156,33166,1,2,0:0:0:0:
188,160,33249,1,2,0:0:0:0:
228,180,33333,1,2,0:0:0:0:
272,176,33416,1,2,0:0:0:0:
312,156,33499,1,2,0:0:0:0:
328,112,33583,1,2,0:0:0:0:
316,68,33666,1,2,0:0:0:0:
288,32,33749,1,2,0:0:0:0:
244,24,33833,5,2,0:0:0:0:
188,160,33999,1,2,0:0:0:0:
88,72,34166,1,2,0:0:0:0:
248,104,34333,1,2,0:0:0:0:
144,256,34499,5,2,0:0:0:0:
148,268,34583,1,2,0:0:0:0:
152,280,34666,1,2,0:0:0:0:
156,292,34749,1,2,0:0:0:0:
160,304,34833,1,2,0:0:0:0:
164,316,34916,1,2,0:0:0:0:
168,328,34999,1,2,0:0:0:0:
172,340,35083,1,2,0:0:0:0:
176,352,35166,5,2,0:0:0:0:
208,356,35249,1,2,0:0:0:0:
240,352,35333,1,2,0:0:0:0:
268,336,35416,1,2,0:0:0:0:
288,312,35499,1,2,0:0:0:0:
296,280,35583,1,2,0:0:0:0:
292,248,35666,1,2,0:0:0:0:
276,220,35749,1,2,0:0:0:0:
248,204,35833,5,2,0:0:0:0:
256,160,35916,1,2,0:0:0:0:
288,128,35999,1,2,0:0:0:0:
332,120,36083,1,2,0:0:0:0:
376,132,36166,1,2,0:0:0:0:
404,168,36249,1,2,0:0:0:0:
404,212,36333,1,2,0:0:0:0:
384,252,36416,1,2,0:0:0:0:
344,272,36499,1,0,0:0:0:0:
364,272,42007,38,0,B|384:228|368:176,1,92
360,152,42250,1,0,0:0:0:0:
340,124,42332,1,0,0:0:0:0:
316,104,42413,1,0,0:0:0:0:
284,92,42494,86,0,B|236:68|184:84,1,92
96,248,42818,2,0,B|144:272|196:256,1,92
216,248,43061,1,0,0:0:0:0:
244,232,43142,1,0,0:0:0:0:
152,172,43305,1,0,0:0:0:0:
176,148,43386,1,0,0:0:0:0:
204,136,43467,1,0,0:0:0:0:
236,132,43548,1,0,0:0:0:0:
268,136,43629,1,0,0:0:0:0:
300,148,43710,1,0,0:0:0:0:
328,164,43791,1,0,0:0:0:0:
348,188,43872,1,0,0:0:0:0:
360,220,43953,6,0,B|368:248|360:268,3,46
440,224,44278,2,0,B|460:240|464:268,3,46
404,152,44602,2,0,B|392:100|420:64,1,92
108,232,44926,86,0,B|120:284|168:296,1,92
200,304,45169,1,0,0:0:0:0:
232,304,45250,1,0,0:0:0:0:
264,292,45332,1,0,0:0:0:0:
284,268,45413,1,0,0:0:0:0:
288,236,45494,1,0,0:0:0:0:
280,204,45575,1,0,0:0:0:0:
260,180,45656,1,0,0:0:0:0:
248,148,45737,1,0,0:0:0:0:
252,116,45818,1,0,0:0:0:0:
272,88,45899,6,0,B|240:52|180:56,1,92
156,60,46142,1,0,0:0:0:0:
128,76,46223,1,0,0:0:0:0:
328,140,46386,2,0,B|376:136|408:96,1,92
184,140,46710,2,0,B|136:136|104:96,1,92
256,200,47034,85,0,0:0:0:0:
276,224,47115,1,0,0:0:0:0:
288,256,47196,1,0,0:0:0:0:
292,288,47278,1,0,0:0:0:0:
284,320,47359,1,0,0:0:0:0:
264,344,47440,1,0,0:0:0:0:
236,360,47521,1,0,0:0:0:0:
204,360,47602,1,0,0:0:0:0:
172,348,47683,2,0,B|144:336|120:340,3,46
96,332,48007,5,0,0:0:0:0:
80,304,48088,1,0,0:0:0:0:
72,272,48169,1,0,0:0:0:0:
72,240,48250,1,0,0:0:0:0:
80,208,48332,1,0,0:0:0:0:
96,180,48413,1,0,0:0:0:0:
112,152,48494,2,0,B|116:128|108:104,3,46
168,200,48818,2,0,B|160:228|140:248,3,46
188,92,49142,2,0,B|188:68|180:40,3,46
224,252,49467,85,0,0:0:0:0:
252,272,49548,1,0,0:0:0:0:
284,280,49629,1,0,0:0:0:0:
316,280,49710,1,0,0:0:0:0:
348,268,49791,2,0,B|388:248|440:268,1,92
437,266,50034,5,0,0:0:0:0:
437,266,50115,1,0,0:0:0:0:
256,164,50278,1,0,0:0:0:0:
256,164,50359,1,0,0:0:0:0:
256,164,50440,1,0,0:0:0:0:
74,266,50602,1,0,0:0:0:0:
74,266,50683,1,0,0:0:0:0:
74,266,50764,2,0,B|120:248,3,46
80,300,51088,85,0,0:0:0:0:
104,320,51169,1,0,0:0:0:0:
136,332,51250,1,0,0:0:0:0:
168,336,51332,1,0,0:0:0:0:
200,332,51413,1,0,0:0:0:0:
232,320,51494,1,0,0:0:0:0:
256,300,51575,1,0,0:0:0:0:
284,288,51656,1,0,0:0:0:0:
316,288,51737,5,0,0:0:0:0:
348,296,51818,1,0,0:0:0:0:
380,300,51899,1,0,0:0:0:0:
412,296,51980,1,0,0:0:0:0:
440,280,52061,1,0,0:0:0:0:
460,256,52142,1,0,0:0:0:0:
472,228,52223,1,0,0:0:0:0:
468,196,52305,1,0,0:0:0:0:
456,168,52386,86,0,B|408:188|360:168,1,92
340,152,52629,1,0,0:0:0:0:
324,124,52710,2,0,B|280:92|232:104,1,92
412,296,53196,5,0,0:0:0:0:
328,256,53359,1,0,0:0:0:0:
300,244,53440,1,0,0:0:0:0:
268,244,53521,1,0,0:0:0:0:
240,256,53602,1,0,0:0:0:0:
216,280,53683,2,0,B|200:304|204:328,3,46
148,220,54007,2,0,B|144:192|152:172,3,46
120,308,54332,85,0,0:0:0:0:
88,300,54413,1,0,0:0:0:0:
56,292,54494,1,0,0:0:0:0:
236,180,54656,1,0,0:0:0:0:
268,172,54737,1,0,0:0:0:0:
300,164,54818,1,0,0:0:0:0:
333,60,54980,2,0,B|280:44|236:72,1,92
267,316,55467,5,0,0:0:0:0:
264,304,55548,1,0,0:0:0:0:
260,292,55629,1,0,0:0:0:0:
256,280,55710,1,0,0:0:0:0:
252,268,55791,1,0,0:0:0:0:
248,256,55872,1,0,0:0:0:0:
244,244,55953,1,0,0:0:0:0:
240,232,56034,1,0,0:0:0:0:
236,220,56115,1,0,0:0:0:0:
232,208,56196,1,0,0:0:0:0:
228,196,56278,86,0,B|196:144|144:148,1,92
124,144,56521,1,0,0:0:0:0:
92,152,56602,2,0,B|48:192,1,46
84,200,56764,6,0,B|68:244|96:296,1,92
428,184,57088,2,0,B|444:140|416:88,1,92
256,312,57413,2,0,B|288:268|256:228|256:228|216:180|256:144,1,184
348,144,57899,1,0,0:0:0:0:
296,68,58061,86,0,B|200:32|116:80,1,184
92,100,58467,1,0,0:0:0:0:
76,128,58548,1,0,0:0:0:0:
76,160,58629,1,0,0:0:0:0:
92,188,58710,1,0,0:0:0:0:
120,200,58791,1,0,0:0:0:0:
144,220,58872,1,0,0:0:0:0:
152,252,58953,1,0,0:0:0:0:
140,284,59034,1,0,0:0:0:0:
112,300,59115,1,0,0:0:0:0:
80,304,59196,6,0,B|52:304|32:280,3,46
160,352,59521,2,0,B|188:352|208:328,3,46
100,224,59845,2,0,B|88:204|60:188,3,46
236,268,60169,85,0,0:0:0:0:
276,264,60250,1,0,0:0:0:0:
312,240,60332,1,0,0:0:0:0:
276,116,60494,1,0,0:0:0:0:
236,120,60575,1,0,0:0:0:0:
200,144,60657,1,0,0:0:0:0:
350,215,60818,6,0,B|396:212,1,46
244,124,60968,1,0,0:0:0:0:
200,144,61050,1,0,0:0:0:0:
180,172,61143,1,0,0:0:0:0:
184,212,61224,1,0,0:0:0:0:
208,248,61306,1,0,0:0:0:0:
244,268,61386,1,0,0:0:0:0:
284,276,61467,85,0,0:0:0:0:
324,276,61548,1,0,0:0:0:0:
364,264,61629,1,0,0:0:0:0:
396,236,61710,1,0,0:0:0:0:
416,200,61791,1,0,0:0:0:0:
400,184,61872,1,0,0:0:0:0:
384,168,61953,1,0,0:0:0:0:
368,152,62034,1,0,0:0:0:0:
352,136,62115,5,0,0:0:0:0:
336,120,62196,1,0,0:0:0:0:
320,104,62278,1,0,0:0:0:0:
304,88,62359,1,0,0:0:0:0:
288,72,62440,1,0,0:0:0:0:
272,56,62521,1,0,0:0:0:0:
256,40,62602,1,0,0:0:0:0:
240,24,62683,1,0,0:0:0:0:
224,8,62764,86,0,B|184:48|196:104,1,92
196,124,63007,1,0,0:0:0:0:
204,156,63088,1,0,0:0:0:0:
220,184,63169,1,0,0:0:0:0:
244,204,63250,6,0,B|212:248|160:256,1,92
300,272,63575,1,0,0:0:0:0:
324,244,63656,1,0,0:0:0:0:
332,212,63737,1,0,0:0:0:0:
332,180,63818,1,0,0:0:0:0:
316,152,63899,1,0,0:0:0:0:
292,132,63980,1,0,0:0:0:0:
260,120,64061,86,0,B|276:76,3,46
216,196,64386,2,0,B|224:244,3,46
144,80,64710,2,0,B|116:40,3,46
132,244,65034,2,0,B|112:304,3,46
144,80,65359,5,0,0:0:0:0:
172,64,65440,1,0,0:0:0:0:
204,56,65521,2,0,B|248:40|296:56,1,92
72,116,65845,1,0,0:0:0:0:
92,140,65926,1,0,0:0:0:0:
120,152,66007,1,0,0:0:0:0:
152,156,66088,1,0,0:0:0:0:
184,148,66169,1,0,0:0:0:0:
212,136,66250,1,0,0:0:0:0:
244,132,66332,85,0,0:0:0:0:
276,136,66413,1,0,0:0:0:0:
304,152,66494,1,0,0:0:0:0:
324,176,66575,1,0,0:0:0:0:
328,208,66656,1,0,0:0:0:0:
320,240,66737,1,0,0:0:0:0:
300,268,66818,1,0,0:0:0:0:
300,300,66899,1,0,0:0:0:0:
316,328,66980,1,0,0:0:0:0:
344,344,67061,1,0,0:0:0:0:
376,348,67142,6,0,B|424:360|468:328,1,92
136,36,67467,2,0,B|84:24|44:56,1,92
108,124,67791,1,0,0:0:0:0:
140,128,67872,1,0,0:0:0:0:
172,124,67953,1,0,0:0:0:0:
200,108,68034,1,0,0:0:0:0:
220,84,68115,86,0,B|252:44|312:56,1,92
292,300,68440,2,0,B|260:340|200:328,1,92
392,292,68764,1,0,0:0:0:0:
384,260,68845,1,0,0:0:0:0:
368,232,68926,1,0,0:0:0:0:
340,212,69007,1,0,0:0:0:0:
308,204,69088,1,0,0:0:0:0:
276,204,69169,1,0,0:0:0:0:
244,212,69250,6,0,B|220:224|208:248,3,46
312,128,69575,2,0,B|328:120|340:92,3,46
132,224,69899,2,0,B|116:248|116:276,3,46
252,68,70223,2,0,B|244:44|228:28,3,46
244,212,70548,85,0,0:0:0:0:
252,244,70629,1,0,0:0:0:0:
272,268,70710,1,0,0:0:0:0:
300,284,70791,1,0,0:0:0:0:
332,288,70872,1,0,0:0:0:0:
364,284,70953,1,0,0:0:0:0:
388,264,71034,1,0,0:0:0:0:
404,236,71115,1,0,0:0:0:0:
404,204,71196,1,0,0:0:0:0:
396,172,71278,1,0,0:0:0:0:
376,148,71359,1,0,0:0:0:0:
348,132,71440,1,0,0:0:0:0:
316,128,71521,5,0,0:0:0:0:
284,136,71602,1,0,0:0:0:0:
256,152,71683,1,0,0:0:0:0:
236,176,71764,1,0,0:0:0:0:
208,192,71845,2,0,B|184:204|156:208,3,46
92,132,72169,2,0,B|64:128|40:104,3,46
316,212,72494,85,0,0:0:0:0:
324,244,72575,1,0,0:0:0:0:
324,276,72656,1,0,0:0:0:0:
308,304,72737,1,0,0:0:0:0:
280,320,72818,1,0,0:0:0:0:
248,324,72899,1,0,0:0:0:0:
216,316,72980,1,0,0:0:0:0:
192,296,73061,1,0,0:0:0:0:
176,268,73142,6,0,B|156:224|180:176,1,92
196,152,73386,1,0,0:0:0:0:
220,132,73467,1,0,0:0:0:0:
252,120,73548,1,0,0:0:0:0:
284,116,73629,86,0,B|248:76|196:76,1,92
228,268,73953,2,0,B|264:308|316:308,1,92
180,188,74278,1,0,0:0:0:0:
156,168,74359,1,0,0:0:0:0:
124,160,74440,1,0,0:0:0:0:
92,164,74521,1,0,0:0:0:0:
68,188,74602,1,0,0:0:0:0:
60,220,74683,1,0,0:0:0:0:
68,252,74764,2,0,B|32:280,3,46
200,312,75088,5,0,0:0:0:0:
168,308,75169,1,0,0:0:0:0:
136,304,75250,1,0,0:0:0:0:
316,252,75413,1,0,0:0:0:0:
284,248,75494,1,0,0:0:0:0:
252,244,75575,1,0,0:0:0:0:
368,324,75737,2,0,B|408:288|404:240,1,92
104,72,76223,85,0,0:0:0:0:
116,76,76305,1,0,0:0:0:0:
128,80,76386,1,0,0:0:0:0:
140,84,76467,1,0,0:0:0:0:
152,88,76548,1,0,0:0:0:0:
164,92,76629,1,0,0:0:0:0:
176,96,76710,1,0,0:0:0:0:
188,100,76791,1,0,0:0:0:0:
200,104,76872,1,0,0:0:0:0:
212,108,76953,1,0,0:0:0:0:
224,112,77034,6,0,B|268:144|268:196,1,92
264,220,77278,1,0,0:0:0:0:
248,248,77359,1,0,0:0:0:0:
304,48,77521,2,0,B|344:76|352:128,1,92
126,26,77845,2,0,B|172:16|216:36,1,92
280,260,78169,86,0,B|191:283|95:247,1,184
228,124,78656,2,0,B|318:102|410:138,1,183.599996256867
48,192,79142,1,0,0:0:0:0:
80,192,79223,1,0,0:0:0:0:
112,192,79305,1,0,0:0:0:0:
144,192,79386,1,0,0:0:0:0:
176,192,79467,1,0,0:0:0:0:
208,192,79548,1,0,0:0:0:0:
240,192,79629,6,0,B|248:240|216:280,1,92
312,152,79872,1,0,0:0:0:0:
312,152,79953,2,0,B|332:196|324:248,1,92
332,76,80196,1,0,0:0:0:0:
332,76,80278,2,0,B|376:96|400:136,1,92
296,8,80602,1,0,0:0:0:0:
264,16,80683,1,0,0:0:0:0:
240,36,80764,1,0,0:0:0:0:
224,64,80845,1,0,0:0:0:0:
216,96,80926,85,0,0:0:0:0:
188,112,81007,1,0,0:0:0:0:
160,128,81088,1,0,0:0:0:0:
236,188,81250,1,0,0:0:0:0:
220,216,81332,1,0,0:0:0:0:
204,244,81413,1,0,0:0:0:0:
336,288,81575,1,0,0:0:0:0:
332,256,81656,1,0,0:0:0:0:
328,224,81737,1,0,0:0:0:0:
472,252,81899,1,0,0:0:0:0:
456,224,81980,1,0,0:0:0:0:
440,196,82061,1,0,0:0:0:0:
96,72,82223,5,0,0:0:0:0:
132,52,82305,1,0,0:0:0:0:
172,44,82386,1,0,0:0:0:0:
212,40,82467,1,0,0:0:0:0:
252,40,82548,1,0,0:0:0:0:
292,48,82629,1,0,0:0:0:0:
332,60,82710,1,0,0:0:0:0:
368,80,82791,1,0,0:0:0:0:
396,112,82872,85,0,0:0:0:0:
364,116,82953,1,0,0:0:0:0:
332,124,83034,1,0,0:0:0:0:
304,140,83115,1,0,0:0:0:0:
280,160,83196,1,0,0:0:0:0:
260,188,83278,1,0,0:0:0:0:
248,220,83359,1,0,0:0:0:0:
248,252,83440,1,0,0:0:0:0:
256,284,83521,1,0,0:0:0:0:
196,124,83845,5,0,0:0:0:0:
56,48,87635,5,4,0:0:0:0:
188,48,87951,1,4,0:0:0:0:
324,48,88266,1,4,0:0:0:0:
456,48,88582,1,4,0:0:0:0:
428,228,88898,6,0,B|356:228|352:304,1,110,2|0,0:0|0:0,0:0:0:0:
304,364,89214,1,2,0:0:0:0:
288,336,89293,1,0,0:0:0:0:
256,324,89372,1,0,0:0:0:0:
224,336,89451,1,0,0:0:0:0:
208,364,89530,1,2,0:0:0:0:
158,292,89688,2,0,B|156:228|84:228,2,110,0|2|0,0:0|0:0|0:0,0:0:0:0:
48,148,90161,6,0,B|100:48,1,110,4|0,0:0|0:0,0:0:0:0:
184,148,90477,2,0,B|200:40,1,110,4|0,0:0|0:0,0:0:0:0:
328,148,90793,2,0,B|312:40,1,110,4|0,0:0|0:0,0:0:0:0:
464,148,91109,2,0,B|412:48,1,110,4|0,0:0|0:0,0:0:0:0:
308,264,91424,5,2,0:0:0:0:
308,286,91503,1,0,0:0:0:0:
295,308,91582,1,0,0:0:0:0:
278,321,91661,1,0,0:0:0:0:
256,325,91740,1,2,0:0:0:0:
234,321,91819,1,0,0:0:0:0:
216,308,91898,1,0,0:0:0:0:
203,286,91977,1,0,0:0:0:0:
203,264,92056,1,2,0:0:0:0:
256,192,92214,1,0,0:0:0:0:
256,192,92293,1,0,0:0:0:0:
256,192,92372,2,0,B|244:156|244:156|268:156|268:156|244:124|244:124|268:124|268:124|244:92|244:92|268:92|268:92|256:64,1,220,2|4,0:0|0:0,0:0:0:0:
256,319,93003,5,4,0:0:0:0:
64,192,93319,1,4,0:0:0:0:
448,192,93635,1,4,0:0:0:0:
116,108,93951,5,2,0:0:0:0:
128,88,94030,1,0,0:0:0:0:
144,76,94109,1,0,0:0:0:0:
164,68,94188,1,0,0:0:0:0:
184,64,94266,1,2,0:0:0:0:
208,68,94345,1,0,0:0:0:0:
228,76,94424,1,0,0:0:0:0:
244,88,94503,1,0,0:0:0:0:
256,108,94582,1,2,0:0:0:0:
268,88,94661,1,0,0:0:0:0:
284,76,94740,1,0,0:0:0:0:
304,68,94819,1,0,0:0:0:0:
328,64,94898,1,2,0:0:0:0:
348,68,94976,1,0,0:0:0:0:
368,76,95055,1,0,0:0:0:0:
384,88,95134,1,0,0:0:0:0:
400,108,95214,6,0,B|444:208,1,110,4|0,0:0|0:0,0:0:0:0:
320,176,95530,2,0,B|332:284,1,110,4|0,0:0|0:0,0:0:0:0:
192,180,95845,2,0,B|180:288,1,110,4|0,0:0|0:0,0:0:0:0:
112,108,96161,2,0,B|68:208,1,110,4|0,0:0|0:0,0:0:0:0:
100,316,96477,6,0,B|180:364|256:376|332:364|412:316,1,330,2|0,0:0|0:0,0:0:0:0:
328,264,97109,1,2,0:0:0:0:
292,276,97188,1,0,0:0:0:0:
256,280,97266,1,0,0:0:0:0:
220,276,97345,1,0,0:0:0:0:
184,264,97424,1,2,0:0:0:0:
256,128,97582,1,0,0:0:0:0:
176,52,97740,6,0,B|68:80,1,110,4|0,0:0|0:0,0:0:0:0:
336,52,98056,2,0,B|444:80,1,110,4|0,0:0|0:0,0:0:0:0:
100,192,98372,2,0,B|206:164,1,110,4|0,0:0|0:0,0:0:0:0:
412,192,98688,2,0,B|305:164,1,110,4|4,0:0|0:0,0:0:0:0:
192,264,99003,5,2,0:0:0:0:
176,280,99082,1,0,0:0:0:0:
168,300,99161,1,0,0:0:0:0:
168,324,99240,1,0,0:0:0:0:
184,340,99319,1,2,0:0:0:0:
200,352,99398,1,0,0:0:0:0:
220,356,99477,1,0,0:0:0:0:
240,352,99556,1,0,0:0:0:0:
256,336,99635,1,2,0:0:0:0:
272,352,99714,1,0,0:0:0:0:
292,356,99793,1,0,0:0:0:0:
312,352,99872,1,0,0:0:0:0:
328,340,99951,1,2,0:0:0:0:
344,324,100030,1,0,0:0:0:0:
344,300,100109,1,2,0:0:0:0:
336,280,100188,1,0,0:0:0:0:
320,264,100266,5,4,0:0:0:0:
334,245,100345,1,0,0:0:0:0:
350,226,100424,1,4,0:0:0:0:
363,211,100502,1,0,0:0:0:0:
378,192,100581,1,4,0:0:0:0:
393,174,100660,1,0,0:0:0:0:
409,155,100739,1,0,0:0:0:0:
425,136,100818,1,0,0:0:0:0:
440,118,100897,1,4,0:0:0:0:
453,103,100976,1,0,0:0:0:0:
460,83,101055,1,4,0:0:0:0:
463,60,101134,1,0,0:0:0:0:
456,38,101213,1,4,0:0:0:0:
443,21,101292,1,0,0:0:0:0:
424,7,101371,1,0,0:0:0:0:
401,3,101450,1,0,0:0:0:0:
379,5,101529,5,2,0:0:0:0:
376,28,101609,1,0,0:0:0:0:
368,48,101688,1,2,0:0:0:0:
356,64,101766,1,0,0:0:0:0:
340,76,101845,1,2,0:0:0:0:
320,84,101924,1,0,0:0:0:0:
300,88,102003,1,0,0:0:0:0:
276,88,102082,1,0,0:0:0:0:
256,88,102161,1,2,0:0:0:0:
236,88,102240,1,0,0:0:0:0:
212,88,102319,1,2,0:0:0:0:
192,84,102398,1,0,0:0:0:0:
172,76,102477,1,2,0:0:0:0:
156,64,102556,1,0,0:0:0:0:
144,48,102634,1,0,0:0:0:0:
136,28,102713,1,0,0:0:0:0:
133,5,102793,5,4,0:0:0:0:
111,3,102872,1,0,0:0:0:0:
88,7,102951,1,0,0:0:0:0:
69,21,103030,1,0,0:0:0:0:
56,38,103109,1,4,0:0:0:0:
49,60,103188,1,0,0:0:0:0:
52,83,103267,1,4,0:0:0:0:
59,103,103346,1,0,0:0:0:0:
72,118,103425,1,4,0:0:0:0:
87,136,103504,1,0,0:0:0:0:
103,155,103583,1,4,0:0:0:0:
119,174,103662,1,0,0:0:0:0:
134,192,103740,1,4,0:0:0:0:
149,211,103820,1,0,0:0:0:0:
162,226,103898,1,0,0:0:0:0:
178,245,103977,1,0,0:0:0:0:
192,264,104056,5,2,0:0:0:0:
192,284,104135,1,0,0:0:0:0:
200,304,104214,1,0,0:0:0:0:
208,324,104293,1,0,0:0:0:0:
224,336,104372,1,2,0:0:0:0:
236,316,104451,1,0,0:0:0:0:
240,296,104530,1,2,0:0:0:0:
248,276,104609,1,0,0:0:0:0:
256,256,104688,1,2,0:0:0:0:
256,236,104766,1,0,0:0:0:0:
256,212,104845,1,2,0:0:0:0:
256,188,104924,1,0,0:0:0:0:
256,164,105003,1,2,0:0:0:0:
256,140,105082,1,0,0:0:0:0:
256,116,105161,1,0,0:0:0:0:
256,92,105240,1,0,0:0:0:0:
256,68,105319,1,0,0:0:0:0:
256,192,108812,5,0,0:0:0:0:
256,192,108970,1,0,0:0:0:0:
256,192,109128,1,8,0:0:0:0:
256,192,109286,1,0,0:0:0:0:
256,192,109444,1,0,0:0:0:0:
256,192,109602,1,0,0:0:0:0:
256,192,109760,1,8,0:0:0:0:
256,192,109917,1,0,0:0:0:0:
336,136,110075,5,0,0:0:0:0:
313,224,110233,1,0,0:0:0:0:
288,256,110312,1,0,0:0:0:0:
249,275,110391,1,8,0:0:0:0:
211,275,110470,1,0,0:0:0:0:
172,262,110549,1,0,0:0:0:0:
147,230,110628,1,0,0:0:0:0:
140,192,110707,1,0,0:0:0:0:
153,153,110786,1,0,0:0:0:0:
185,128,110865,1,0,0:0:0:0:
224,121,110944,1,0,0:0:0:0:
262,134,111023,1,8,0:0:0:0:
288,166,111102,1,0,0:0:0:0:
294,204,111181,1,0,0:0:0:0:
288,243,111260,1,0,0:0:0:0:
262,275,111339,5,0,0:0:0:0:
200,196,111496,1,8,0:0:0:0:
160,284,111654,1,0,0:0:0:0:
96,212,111812,1,0,0:0:0:0:
56,308,111970,1,0,0:0:0:0:
160,284,112128,1,0,0:0:0:0:
120,380,112286,1,8,0:0:0:0:
160,284,112444,1,0,0:0:0:0:
252,328,112602,5,0,0:0:0:0:
364,300,112760,1,0,0:0:0:0:
384,268,112839,1,0,0:0:0:0:
390,230,112917,1,8,0:0:0:0:
377,192,112996,1,0,0:0:0:0:
352,160,113075,1,0,0:0:0:0:
313,147,113154,1,0,0:0:0:0:
275,160,113233,1,0,0:0:0:0:
236,172,113312,1,0,0:0:0:0:
198,160,113391,1,0,0:0:0:0:
179,121,113470,1,0,0:0:0:0:
198,83,113549,1,8,0:0:0:0:
236,70,113628,1,0,0:0:0:0:
275,89,113707,1,0,0:0:0:0:
288,128,113786,1,0,0:0:0:0:
281,166,113865,5,0,0:0:0:0:
281,204,113944,1,0,0:0:0:0:
294,243,114023,1,0,0:0:0:0:
326,268,114102,1,0,0:0:0:0:
364,281,114181,1,8,0:0:0:0:
403,262,114260,1,0,0:0:0:0:
428,230,114339,1,0,0:0:0:0:
441,192,114417,1,0,0:0:0:0:
435,147,114496,1,0,0:0:0:0:
396,153,114575,1,0,0:0:0:0:
358,147,114654,1,0,0:0:0:0:
332,121,114733,1,0,0:0:0:0:
326,83,114812,1,8,0:0:0:0:
288,102,114891,1,0,0:0:0:0:
243,108,114970,1,0,0:0:0:0:
204,96,115049,1,0,0:0:0:0:
179,64,115128,5,0,0:0:0:0:
140,70,115207,1,0,0:0:0:0:
108,96,115286,1,0,0:0:0:0:
89,134,115365,1,0,0:0:0:0:
83,172,115444,1,8,0:0:0:0:
121,192,115523,1,0,0:0:0:0:
166,198,115602,1,0,0:0:0:0:
204,185,115681,1,0,0:0:0:0:
243,198,115760,1,0,0:0:0:0:
236,236,115839,1,0,0:0:0:0:
249,281,115917,1,0,0:0:0:0:
288,307,115996,1,0,0:0:0:0:
326,288,116075,1,8,0:0:0:0:
358,256,116154,1,0,0:0:0:0:
371,217,116233,1,0,0:0:0:0:
364,179,116312,1,0,0:0:0:0:
344,144,116391,5,0,0:0:0:0:
344,144,116470,2,0,L|324:96,4,52.2000002101898
248,168,116707,1,8,0:0:0:0:
248,168,116786,2,0,L|256:108,4,52.2000002101898,0|0|0|0|0,0:0|0:0|0:0|0:0|0:0,0:0:0:0:
160,180,117023,1,0,0:0:0:0:
160,180,117102,2,0,L|152:116,4,52.2000002101898
72,208,117339,1,8,0:0:0:0:
72,208,117417,2,0,L|88:136,4,52.2000002101898,0|0|0|0|0,0:0|0:0|0:0|0:0|0:0,0:0:0:0:
144,272,117654,5,0,0:0:0:0:
144,272,117733,2,0,L|216:264,4,52.2000002101898
276,216,117970,1,8,0:0:0:0:
276,216,118049,2,0,L|208:192,4,52.2000002101898,0|0|0|0|0,0:0|0:0|0:0|0:0|0:0,0:0:0:0:
160,128,118286,1,0,0:0:0:0:
160,128,118365,2,0,L|232:116,4,52.2000002101898
336,108,118602,1,8,0:0:0:0:
336,108,118681,2,0,L|268:92,4,52.2000002101898,0|0|0|0|0,0:0|0:0|0:0|0:0|0:0,0:0:0:0:
200,32,118917,5,0,0:0:0:0:
200,32,118996,2,0,L|220:88,4,52.2000002101898
248,204,119233,1,8,0:0:0:0:
248,204,119312,2,0,L|228:136,4,52.2000002101898,0|0|0|0|0,0:0|0:0|0:0|0:0|0:0,0:0:0:0:
172,272,119549,1,0,0:0:0:0:
172,272,119628,2,0,L|156:204,4,52.2000002101898
308,156,119865,1,8,0:0:0:0:
308,156,119944,2,0,L|336:220,4,52.2000002101898,0|0|0|0|0,0:0|0:0|0:0|0:0|0:0,0:0:0:0:
358,294,120181,5,4,0:0:0:0:
320,307,120260,1,0,0:0:0:0:
281,307,120339,1,0,0:0:0:0:
249,288,120417,1,0,0:0:0:0:
230,256,120496,1,8,0:0:0:0:
224,217,120575,1,0,0:0:0:0:
230,179,120654,1,0,0:0:0:0:
256,147,120733,1,0,0:0:0:0:
288,121,120812,1,0,0:0:0:0:
326,134,120891,1,0,0:0:0:0:
364,140,120970,1,0,0:0:0:0:
403,128,121049,1,0,0:0:0:0:
435,102,121128,1,8,0:0:0:0:
448,147,121207,1,0,0:0:0:0:
441,192,121286,1,0,0:0:0:0:
416,224,121365,1,0,0:0:0:0:
377,243,121444,5,0,0:0:0:0:
339,224,121523,1,0,0:0:0:0:
300,217,121602,1,0,0:0:0:0:
256,224,121681,1,0,0:0:0:0:
217,243,121760,1,8,0:0:0:0:
185,268,121839,1,0,0:0:0:0:
160,300,121917,1,0,0:0:0:0:
140,332,121996,1,0,0:0:0:0:
108,313,122075,1,0,0:0:0:0:
89,275,122154,1,0,0:0:0:0:
102,236,122233,1,0,0:0:0:0:
134,211,122312,1,0,0:0:0:0:
115,179,122391,1,8,0:0:0:0:
102,140,122470,1,0,0:0:0:0:
115,102,122549,1,0,0:0:0:0:
147,76,122628,1,0,0:0:0:0:
192,70,122707,5,0,0:0:0:0:
230,89,122786,1,0,0:0:0:0:
268,102,122865,1,0,0:0:0:0:
307,102,122944,1,0,0:0:0:0:
345,89,123023,1,8,0:0:0:0:
384,70,123102,1,0,0:0:0:0:
422,64,123181,1,0,0:0:0:0:
460,83,123260,1,0,0:0:0:0:
441,121,123339,1,0,0:0:0:0:
428,160,123417,1,0,0:0:0:0:
428,204,123496,1,0,0:0:0:0:
441,243,123575,1,0,0:0:0:0:
403,236,123654,1,8,0:0:0:0:
364,230,123733,1,0,0:0:0:0:
320,230,123812,1,0,0:0:0:0:
281,243,123891,1,0,0:0:0:0:
243,262,123970,5,0,0:0:0:0:
204,256,124049,1,0,0:0:0:0:
172,230,124128,1,0,0:0:0:0:
153,192,124207,1,0,0:0:0:0:
153,153,124286,1,8,0:0:0:0:
179,121,124365,1,0,0:0:0:0:
217,115,124444,1,0,0:0:0:0:
256,134,124523,1,0,0:0:0:0:
288,160,124602,2,0,P|304:184|316:228,1,67.5000007867814
400,176,124760,2,0,P|396:212|412:268,1,67.5000007867814
352,300,124917,2,0,P|304:300|276:316,1,67.5000007867814,8|0,0:0|0:0,0:0:0:0:
152,276,125075,2,0,P|216:268|252:276,1,67.5000007867814
230,198,125233,5,0,0:0:0:0:
185,211,125312,1,0,0:0:0:0:
147,204,125391,1,0,0:0:0:0:
115,179,125470,1,0,0:0:0:0:
102,134,125549,1,8,0:0:0:0:
121,96,125628,1,0,0:0:0:0:
160,76,125707,1,0,0:0:0:0:
198,76,125786,1,0,0:0:0:0:
230,102,125865,1,0,0:0:0:0:
249,140,125944,1,0,0:0:0:0:
256,179,126023,1,0,0:0:0:0:
281,217,126102,1,0,0:0:0:0:
320,230,126181,1,8,0:0:0:0:
358,224,126260,1,0,0:0:0:0:
390,198,126339,1,0,0:0:0:0:
409,160,126417,1,0,0:0:0:0:
409,121,126496,5,0,0:0:0:0:
371,134,126575,1,0,0:0:0:0:
332,140,126654,1,0,0:0:0:0:
294,128,126733,1,0,0:0:0:0:
262,96,126812,1,8,0:0:0:0:
249,57,126891,1,0,0:0:0:0:
217,83,126970,1,0,0:0:0:0:
185,102,127049,1,0,0:0:0:0:
147,121,127128,1,0,0:0:0:0:
102,128,127207,1,0,0:0:0:0:
63,121,127286,1,0,0:0:0:0:
76,166,127365,1,0,0:0:0:0:
83,204,127444,1,8,0:0:0:0:
76,243,127523,1,0,0:0:0:0:
63,281,127602,1,0,0:0:0:0:
51,320,127681,1,0,0:0:0:0:
96,313,127760,5,0,0:0:0:0:
134,294,127839,1,0,0:0:0:0:
172,288,127917,1,0,0:0:0:0:
211,288,127996,1,0,0:0:0:0:
249,300,128075,1,8,0:0:0:0:
288,313,128154,1,0,0:0:0:0:
326,300,128233,1,0,0:0:0:0:
364,281,128312,1,0,0:0:0:0:
403,268,128391,1,0,0:0:0:0:
441,281,128470,1,0,0:0:0:0:
460,243,128549,1,0,0:0:0:0:
454,204,128628,1,0,0:0:0:0:
428,172,128707,1,8,0:0:0:0:
390,153,128786,1,0,0:0:0:0:
345,147,128865,1,0,0:0:0:0:
307,160,128944,1,0,0:0:0:0:
268,179,129023,5,0,0:0:0:0:
230,172,129102,1,0,0:0:0:0:
198,147,129181,1,0,0:0:0:0:
192,108,129260,1,0,0:0:0:0:
211,70,129339,1,8,0:0:0:0:
249,57,129417,1,0,0:0:0:0:
288,70,129496,1,0,0:0:0:0:
326,89,129575,1,0,0:0:0:0:
368,96,129654,2,0,P|424:104|464:92,1,67.5000007867814
460,192,129812,2,0,P|404:176|348:176,1,67.5000007867814
380,244,129970,2,0,P|324:228|300:212,1,67.5000007867814,8|0,0:0|0:0,0:0:0:0:
372,328,130128,2,0,P|319:339|288:336,1,67.5000007867814
352,256,133794,5,0,0:0:0:0:
432,288,135025,1,0,0:0:0:0:
480,224,135640,5,0,0:0:0:0:
432,160,135948,1,8,0:0:0:0:
384,96,136256,5,8,0:0:0:0:
384,96,136409,1,2,0:0:0:0:
272,160,136717,1,2,0:0:0:0:
272,160,136871,1,0,0:0:0:0:
160,112,137332,1,2,0:0:0:0:
160,112,137486,1,0,0:0:0:0:
64,208,137948,1,2,0:0:0:0:
64,208,138102,1,0,0:0:0:0:
0,112,138563,1,2,0:0:0:0:
0,112,138717,1,0,0:0:0:0:
208,96,139179,1,2,0:0:0:0:
208,96,139332,1,0,0:0:0:0:
416,80,139794,1,2,0:0:0:0:
416,80,139948,1,0,0:0:0:0:
336,208,140409,1,2,0:0:0:0:
336,208,140563,1,0,0:0:0:0:
416,240,140717,1,2,0:0:0:0:
416,240,140871,1,8,0:0:0:0:
496,272,141025,1,2,0:0:0:0:
496,272,141102,1,2,0:0:0:0:
496,272,141179,5,0,0:0:0:0:
416,320,141332,1,2,0:0:0:0:
416,320,141486,1,2,0:0:0:0:
272,272,141794,1,0,0:0:0:0:
192,320,141948,1,2,0:0:0:0:
192,320,142102,1,2,0:0:0:0:
144,208,142409,1,0,0:0:0:0:
64,256,142563,1,2,0:0:0:0:
64,256,142717,1,2,0:0:0:0:
160,96,143025,1,0,0:0:0:0:
256,128,143179,1,2,0:0:0:0:
256,128,143332,1,2,0:0:0:0:
384,80,143640,5,0,0:0:0:0:
384,80,143717,1,0,0:0:0:0:
384,80,143794,1,2,0:0:0:0:
320,176,143948,1,0,0:0:0:0:
320,176,144025,1,0,0:0:0:0:
320,176,144102,1,2,0:0:0:0:
208,240,144256,1,0,0:0:0:0:
208,240,144332,1,0,0:0:0:0:
208,240,144409,1,2,0:0:0:0:
80,256,144563,1,0,0:0:0:0:
80,256,144640,1,0,0:0:0:0:
80,256,144717,1,2,0:0:0:0:
16,144,144871,6,0,B|0:64,1,52.5
96,64,145025,2,0,B|80:144,1,52.5,2|0,0:0|0:0,0:0:0:0:
160,144,145179,2,0,B|176:96,1,52.5
240,128,145332,2,0,B|256:208,1,52.5,2|0,0:0|0:0,0:0:0:0:
320,160,145486,1,8,0:0:0:0:
336,160,145563,1,8,0:0:0:0:
352,160,145640,1,10,0:0:0:0:
368,160,145717,1,8,0:0:0:0:
384,160,145794,1,8,0:0:0:0:
400,160,145871,1,8,0:0:0:0:
416,160,145948,1,10,0:0:0:0:
432,160,146025,1,8,0:0:0:0:
448,160,146102,5,4,0:0:0:0:
440,192,146179,1,0,0:0:0:0:
420,216,146256,1,2,0:0:0:0:
392,232,146332,1,0,0:0:0:0:
360,240,146409,1,12,0:0:0:0:
328,240,146486,1,0,0:0:0:0:
296,232,146563,1,2,0:0:0:0:
264,224,146640,1,0,0:0:0:0:
232,220,146717,1,2,0:0:0:0:
200,228,146794,1,0,0:0:0:0:
168,236,146871,1,2,0:0:0:0:
48,296,147025,1,8,0:0:0:0:
16,128,147179,5,2,0:0:0:0:
44,136,147256,1,0,0:0:0:0:
76,136,147332,1,0,0:0:0:0:
108,132,147409,1,0,0:0:0:0:
136,120,147486,1,2,0:0:0:0:
164,108,147563,1,0,0:0:0:0:
192,96,147640,1,8,0:0:0:0:
224,88,147717,1,0,0:0:0:0:
256,80,147794,1,2,0:0:0:0:
288,80,147871,1,0,0:0:0:0:
320,88,147948,1,2,0:0:0:0:
348,100,148025,1,0,0:0:0:0:
376,112,148102,1,2,0:0:0:0:
480,216,148256,1,8,0:0:0:0:
352,348,148409,5,2,0:0:0:0:
360,316,148486,1,2,0:0:0:0:
364,284,148563,1,0,0:0:0:0:
356,252,148640,1,0,0:0:0:0:
340,224,148717,1,2,0:0:0:0:
320,200,148794,1,0,0:0:0:0:
296,180,148871,1,8,0:0:0:0:
268,168,148948,1,0,0:0:0:0:
236,164,149025,1,2,0:0:0:0:
204,172,149102,1,0,0:0:0:0:
176,188,149179,1,0,0:0:0:0:
152,212,149256,1,0,0:0:0:0:
140,240,149332,1,2,0:0:0:0:
140,272,149409,1,0,0:0:0:0:
152,300,149486,1,8,0:0:0:0:
176,320,149563,1,0,0:0:0:0:
204,332,149640,1,2,0:0:0:0:
236,328,149717,1,0,0:0:0:0:
264,316,149794,1,0,0:0:0:0:
288,296,149871,1,0,0:0:0:0:
300,268,149948,1,2,0:0:0:0:
304,236,150025,1,0,0:0:0:0:
300,204,150102,1,8,0:0:0:0:
288,176,150179,1,0,0:0:0:0:
268,152,150256,1,2,0:0:0:0:
248,128,150332,1,0,0:0:0:0:
220,112,150409,1,0,0:0:0:0:
188,104,150486,1,0,0:0:0:0:
156,100,150563,1,2,0:0:0:0:
124,100,150640,1,2,0:0:0:0:
92,108,150717,1,10,0:0:0:0:
64,120,150794,1,2,0:0:0:0:
40,140,150871,1,10,0:0:0:0:
20,164,150948,1,2,0:0:0:0:
16,196,151025,5,0,0:0:0:0:
32,232,151102,1,0,0:0:0:0:
48,264,151179,1,2,0:0:0:0:
256,256,151332,1,8,0:0:0:0:
240,224,151409,1,0,0:0:0:0:
224,192,151486,1,2,0:0:0:0:
440,160,151640,1,2,0:0:0:0:
432,200,151717,1,0,0:0:0:0:
416,232,151794,1,2,0:0:0:0:
400,264,151871,1,0,0:0:0:0:
376,288,151948,1,10,0:0:0:0:
344,304,152025,1,0,0:0:0:0:
312,312,152102,1,2,0:0:0:0:
120,304,152256,5,0,0:0:0:0:
152,288,152332,1,0,0:0:0:0:
184,272,152409,1,2,0:0:0:0:
104,192,152563,1,8,0:0:0:0:
72,176,152640,1,0,0:0:0:0:
40,160,152717,1,2,0:0:0:0:
184,44,152871,1,2,0:0:0:0:
208,72,152948,1,0,0:0:0:0:
224,104,153025,1,2,0:0:0:0:
232,140,153102,1,0,0:0:0:0:
220,176,153179,1,10,0:0:0:0:
204,208,153256,1,0,0:0:0:0:
176,228,153332,1,2,0:0:0:0:
384,208,153486,5,4,0:0:0:0:
384,208,153589,2,0,B|464:192,1,70,2|0,0:0|0:0,0:0:0:0:
288,80,153794,1,8,0:0:0:0:
288,80,153896,2,0,B|368:64,1,70,2|0,0:0|0:0,0:0:0:0:
288,288,154101,1,0,0:0:0:0:
288,288,154204,2,0,B|208:272,1,70,2|2,0:0|0:0,0:0:0:0:
96,96,154409,1,8,0:0:0:0:
96,96,154512,2,0,B|172:80,1,70,2|2,0:0|0:0,0:0:0:0:
80,224,154717,1,4,0:0:0:0:
80,224,154820,2,0,B|0:208,1,70,2|2,0:0|0:0,0:0:0:0:
144,352,155025,1,12,0:0:0:0:
144,352,155127,2,0,B|224:336,1,70,2|2,0:0|0:0,0:0:0:0:
288,224,155332,1,12,0:0:0:0:
288,224,155435,2,0,B|208:208,1,70,2|2,0:0|0:0,0:0:0:0:
384,176,155640,1,12,0:0:0:0:
384,176,155743,2,0,B|452:164,1,70,2|2,0:0|0:0,0:0:0:0:
480,120,155948,5,4,0:0:0:0:
452,104,156025,1,0,0:0:0:0:
420,96,156102,1,2,0:0:0:0:
388,100,156179,1,0,0:0:0:0:
360,116,156256,1,8,0:0:0:0:
332,128,156332,1,0,0:0:0:0:
300,136,156409,1,2,0:0:0:0:
268,132,156486,1,0,0:0:0:0:
240,116,156563,1,2,0:0:0:0:
212,104,156640,1,0,0:0:0:0:
180,96,156717,1,2,0:0:0:0:
148,100,156794,1,0,0:0:0:0:
116,108,156871,1,10,0:0:0:0:
88,124,156948,1,0,0:0:0:0:
64,144,157025,1,2,0:0:0:0:
44,168,157102,1,0,0:0:0:0:
28,196,157179,1,0,0:0:0:0:
24,228,157256,1,0,0:0:0:0:
32,260,157332,1,2,0:0:0:0:
52,284,157409,1,0,0:0:0:0:
76,304,157486,1,8,0:0:0:0:
104,316,157563,1,0,0:0:0:0:
136,316,157640,1,2,0:0:0:0:
164,304,157717,1,0,0:0:0:0:
192,288,157794,1,2,0:0:0:0:
212,264,157871,1,0,0:0:0:0:
228,236,157948,1,2,0:0:0:0:
248,212,158025,1,0,0:0:0:0:
272,192,158102,1,10,0:0:0:0:
296,172,158179,1,0,0:0:0:0:
324,156,158256,1,2,0:0:0:0:
356,148,158332,1,0,0:0:0:0:
384,144,158409,6,0,B|460:128,1,52.5,6|0,0:0|0:0,0:0:0:0:
352,80,158563,2,0,B|416:32,1,52.5,2|0,0:0|0:0,0:0:0:0:
288,64,158717,2,0,B|304:16,1,52.5,10|0,0:0|0:0,0:0:0:0:
224,68,158871,2,0,B|192:4,1,52.5,2|0,0:0|0:0,0:0:0:0:
176,104,159025,2,0,B|128:72,1,52.5,2|0,0:0|0:0,0:0:0:0:
144,152,159179,2,0,B|64:136,1,52.5,2|0,0:0|0:0,0:0:0:0:
140,216,159332,2,0,B|92:232,1,52.5,10|0,0:0|0:0,0:0:0:0:
156,280,159486,2,0,B|124:328,1,52.5,2|0,0:0|0:0,0:0:0:0:
176,288,159640,5,0,0:0:0:0:
200,288,159717,1,0,0:0:0:0:
224,288,159794,1,2,0:0:0:0:
248,288,159871,1,0,0:0:0:0:
272,288,159948,1,8,0:0:0:0:
296,288,160025,1,0,0:0:0:0:
320,288,160102,1,2,0:0:0:0:
344,288,160179,1,0,0:0:0:0:
368,288,160256,1,0,0:0:0:0:
392,288,160332,1,0,0:0:0:0:
416,288,160409,2,0,B|392:216,1,52.5,2|0,0:0|0:0,0:0:0:0:
336,224,160563,2,0,B|312:152,1,52.5,10|0,0:0|0:0,0:0:0:0:
256,160,160717,2,0,B|232:88,1,52.5,2|0,0:0|0:0,0:0:0:0:
176,80,160871,5,4,0:0:0:0:
40,192,161025,1,2,0:0:0:0:
68,208,161102,1,0,0:0:0:0:
96,220,161179,1,8,0:0:0:0:
128,228,161256,1,0,0:0:0:0:
160,232,161332,1,2,0:0:0:0:
192,224,161409,1,0,0:0:0:0:
224,216,161486,1,0,0:0:0:0:
252,200,161563,1,0,0:0:0:0:
280,192,161640,1,2,0:0:0:0:
312,188,161717,1,0,0:0:0:0:
344,196,161794,1,10,0:0:0:0:
372,208,161871,1,0,0:0:0:0:
400,224,161948,1,2,0:0:0:0:
480,336,162102,5,0,0:0:0:0:
328,344,162256,1,2,0:0:0:0:
308,320,162332,1,0,0:0:0:0:
292,292,162409,1,8,0:0:0:0:
284,260,162486,1,0,0:0:0:0:
292,228,162563,1,2,0:0:0:0:
308,200,162640,1,0,0:0:0:0:
324,172,162717,1,0,0:0:0:0:
336,144,162794,1,0,0:0:0:0:
328,112,162871,1,2,0:0:0:0:
312,84,162948,1,0,0:0:0:0:
288,64,163025,1,10,0:0:0:0:
256,56,163102,1,0,0:0:0:0:
224,60,163179,1,2,0:0:0:0:
80,112,163332,5,4,0:0:0:0:
112,192,163486,1,2,0:0:0:0:
368,256,163794,1,2,0:0:0:0:
80,304,164102,1,2,0:0:0:0:
400,144,164409,1,2,0:0:0:0:
480,260,164563,5,4,0:0:0:0:
452,244,164640,1,0,0:0:0:0:
428,224,164717,1,2,0:0:0:0:
400,208,164794,1,0,0:0:0:0:
372,196,164871,1,8,0:0:0:0:
344,184,164948,1,0,0:0:0:0:
312,180,165025,1,2,0:0:0:0:
280,180,165102,1,0,0:0:0:0:
248,184,165179,1,8,0:0:0:0:
216,192,165256,1,0,0:0:0:0:
184,204,165332,1,2,0:0:0:0:
156,220,165409,1,2,0:0:0:0:
132,240,165486,1,2,0:0:0:0:
112,264,165563,1,2,0:0:0:0:
96,292,165640,1,2,0:0:0:0:
80,320,165717,1,2,0:0:0:0:
288,272,166102,5,4,0:0:0:0:
256,192,168726,12,6,170601,0:0:0:0:
80,112,170676,6,2,B|48:200|168:264|232:176,1,240,6|0,0:0|0:0,0:0:0:0:
280,56,171276,2,2,B|341:-29|461:35|429:123,1,240,6|0,0:0|0:0,0:0:0:0:
456,200,171876,1,2,0:0:0:0:
376,184,172026,2,2,B|336:200|312:248,1,80,2|0,0:0|0:0,0:0:0:0:
264,296,172326,2,2,B|240:216,1,80,2|0,0:0|0:0,0:0:0:0:
216,144,172626,2,0,B|120:104|72:192,1,160,2|0,0:0|0:0,0:0:0:0:
56,296,173076,5,6,0:0:0:0:
112,352,173226,1,2,0:0:0:0:
192,360,173376,1,0,0:0:0:0:
256,312,173526,2,2,B|304:296|344:328,1,80,2|0,0:0|0:0,0:0:0:0:
384,384,173826,1,2,0:0:0:0:
480,232,174126,6,2,B|520:152|472:80,1,160,6|0,0:0|0:0,0:0:0:0:
408,32,174576,2,2,B|352:-16|256:8|240:80,1,200,2|0,0:0|0:0,0:0:0:0:
232,152,175476,5,6,0:0:0:0:
224,192,175551,1,0,0:0:0:0:
240,224,175626,1,0,0:0:0:0:
272,248,175701,1,0,0:0:0:0:
312,256,175776,1,2,0:0:0:0:
352,240,175851,1,0,0:0:0:0:
376,208,175926,1,0,0:0:0:0:
416,280,176076,5,6,0:0:0:0:
416,320,176151,1,0,0:0:0:0:
400,352,176226,1,0,0:0:0:0:
368,376,176301,1,0,0:0:0:0:
328,384,176376,1,2,0:0:0:0:
288,368,176451,1,0,0:0:0:0:
264,336,176526,1,0,0:0:0:0:
200,304,176676,5,6,0:0:0:0:
184,344,176751,1,0,0:0:0:0:
144,368,176826,1,0,0:0:0:0:
104,352,176901,1,0,0:0:0:0:
80,320,176976,1,2,0:0:0:0:
88,280,177051,1,0,0:0:0:0:
112,248,177126,1,0,0:0:0:0:
120,208,177201,1,0,0:0:0:0:
104,176,177276,5,6,0:0:0:0:
72,152,177351,1,0,0:0:0:0:
32,136,177426,1,0,0:0:0:0:
8,104,177501,1,2,0:0:0:0:
16,64,177576,1,0,0:0:0:0:
40,32,177651,1,0,0:0:0:0:
80,32,177726,2,0,B|112:40|128:64,1,40
152,112,177876,5,6,0:0:0:0:
184,136,177951,1,0,0:0:0:0:
224,136,178026,1,0,0:0:0:0:
256,120,178101,1,0,0:0:0:0:
272,80,178176,1,0,0:0:0:0:
288,40,178251,1,0,0:0:0:0:
320,24,178326,1,0,0:0:0:0:
360,24,178401,1,0,0:0:0:0:
392,48,178476,6,0,B|416:72|408:104,3,40,6|0|0|0,0:0|0:0|0:0|0:0,0:0:0:0:
408,120,178776,2,0,B|400:144|384:160,3,40
352,176,179076,5,4,0:0:0:0:
312,176,179151,1,0,0:0:0:0:
288,208,179226,1,0,0:0:0:0:
296,248,179301,1,0,0:0:0:0:
328,272,179376,1,0,0:0:0:0:
368,264,179451,1,0,0:0:0:0:
384,232,179526,1,0,0:0:0:0:
144,320,179676,5,4,0:0:0:0:
160,352,179751,1,0,0:0:0:0:
200,360,179826,1,0,0:0:0:0:
232,336,179901,1,0,0:0:0:0:
240,296,179976,1,0,0:0:0:0:
216,264,180051,1,0,0:0:0:0:
176,264,180126,1,0,0:0:0:0:
64,344,180276,5,6,0:0:0:0:
0,264,180426,1,0,0:0:0:0:
32,168,180576,2,0,B|64:136|112:144,1,80,2|0,0:0|0:0,0:0:0:0:
184,272,180876,2,0,B|140:260|123:214,1,80,2|0,0:0|0:0,0:0:0:0:
200,88,181176,2,0,B|211:131|180:169,1,80,2|0,0:0|0:0,0:0:0:0:
288,16,181476,5,6,0:0:0:0:
392,48,181626,1,0,0:0:0:0:
312,120,181776,1,2,0:0:0:0:
288,16,181926,1,0,0:0:0:0:
392,48,182076,5,6,0:0:0:0:
480,120,182226,1,0,0:0:0:0:
496,232,182376,1,2,0:0:0:0:
432,328,182526,1,0,0:0:0:0:
384,264,182676,5,4,0:0:0:0:
352,240,182751,1,0,0:0:0:0:
312,224,182826,1,0,0:0:0:0:
272,224,182901,1,0,0:0:0:0:
232,232,182976,1,2,0:0:0:0:
200,256,183051,1,0,0:0:0:0:
176,288,183126,1,0,0:0:0:0:
168,328,183201,1,0,0:0:0:0:
176,368,183276,5,4,0:0:0:0:
200,336,183351,1,0,0:0:0:0:
208,296,183426,1,0,0:0:0:0:
200,256,183501,1,0,0:0:0:0:
176,224,183576,1,2,0:0:0:0:
160,184,183651,1,0,0:0:0:0:
168,144,183726,2,0,B|176:120|208:104,1,40
256,64,183876,5,4,0:0:0:0:
296,48,183951,1,0,0:0:0:0:
336,48,184026,1,0,0:0:0:0:
376,64,184101,1,0,0:0:0:0:
400,96,184176,1,2,0:0:0:0:
416,136,184251,1,0,0:0:0:0:
416,176,184326,1,0,0:0:0:0:
400,216,184401,1,0,0:0:0:0:
368,240,184476,5,2,0:0:0:0:
328,248,184551,1,0,0:0:0:0:
288,232,184626,1,0,0:0:0:0:
272,192,184701,1,0,0:0:0:0:
288,152,184776,1,2,0:0:0:0:
464,72,185076,5,6,0:0:0:0:
464,72,185226,1,2,0:0:0:0:
496,144,185376,1,0,0:0:0:0:
464,216,185526,2,2,B|440:248|392:240,1,80,2|0,0:0|0:0,0:0:0:0:
328,200,185826,1,2,0:0:0:0:
248,64,186126,6,2,B|160:24|104:96,1,160,6|2,0:0|0:0,0:0:0:0:
88,176,186576,1,2,0:0:0:0:
136,240,186726,1,0,0:0:0:0:
136,240,187026,6,2,B|224:280|280:208,1,160,6|0,0:0|0:0,0:0:0:0:
304,136,187476,5,4,0:0:0:0:
320,104,187551,1,0,0:0:0:0:
352,88,187626,1,0,0:0:0:0:
392,88,187701,1,0,0:0:0:0:
424,112,187776,1,0,0:0:0:0:
448,192,187926,1,0,0:0:0:0:
448,192,188001,1,0,0:0:0:0:
448,192,188076,1,0,0:0:0:0:
392,248,188226,1,0,0:0:0:0:
392,248,188301,1,0,0:0:0:0:
392,248,188376,2,0,B|392:280|416:296,2,40
312,224,188676,5,4,0:0:0:0:
280,200,188751,1,0,0:0:0:0:
240,200,188826,1,0,0:0:0:0:
208,216,188901,1,0,0:0:0:0:
192,248,188976,2,0,B|184:280|152:304,3,40
144,304,189276,5,4,0:0:0:0:
112,320,189351,1,0,0:0:0:0:
72,320,189426,1,0,0:0:0:0:
40,304,189501,1,4,0:0:0:0:
24,272,189576,2,0,B|8:240|24:200,3,40
32,192,189876,5,6,0:0:0:0:
64,168,189951,1,0,0:0:0:0:
104,160,190026,1,0,0:0:0:0:
144,176,190101,1,0,0:0:0:0:
168,208,190176,1,0,0:0:0:0:
200,232,190251,1,0,0:0:0:0:
240,240,190326,1,0,0:0:0:0:
280,224,190401,1,0,0:0:0:0:
304,192,190476,5,6,0:0:0:0:
320,152,190551,1,0,0:0:0:0:
344,120,190626,1,0,0:0:0:0:
384,104,190701,1,0,0:0:0:0:
424,104,190776,2,0,B|456:112|480:136,3,40
488,152,191076,5,6,0:0:0:0:
496,192,191151,1,0,0:0:0:0:
480,232,191226,1,0,0:0:0:0:
440,248,191301,1,0,0:0:0:0:
400,240,191376,2,0,B|384:200,1,40
384,328,191526,2,0,B|400:368,1,40
320,272,191676,5,6,0:0:0:0:
280,256,191751,1,0,0:0:0:0:
240,256,191826,1,0,0:0:0:0:
208,272,191901,1,0,0:0:0:0:
184,304,191976,1,2,0:0:0:0:
144,320,192051,1,0,0:0:0:0:
104,312,192126,1,0,0:0:0:0:
80,280,192201,1,0,0:0:0:0:
80,240,192276,6,0,B|120:224,1,40,6|0,0:0|0:0,0:0:0:0:
40,184,192426,2,0,B|0:168,1,40,2|0,0:0|0:0,0:0:0:0:
96,136,192576,1,0,0:0:0:0:
136,120,192651,1,0,0:0:0:0:
160,88,192726,1,0,0:0:0:0:
160,48,192801,1,0,0:0:0:0:
136,16,192876,6,0,B|96:0,1,40,6|0,0:0|0:0,0:0:0:0:
0,64,193026,2,0,B|40:48,1,40,2|0,0:0|0:0,0:0:0:0:
120,72,193176,1,0,0:0:0:0:
160,88,193251,1,0,0:0:0:0:
184,120,193326,1,0,0:0:0:0:
184,160,193401,1,0,0:0:0:0:
160,192,193476,6,0,B|120:208,1,40,6|0,0:0|0:0,0:0:0:0:
240,232,193626,2,0,B|280:216,1,40,2|0,0:0|0:0,0:0:0:0:
320,152,193776,1,0,0:0:0:0:
352,128,193851,1,0,0:0:0:0:
392,120,193926,1,0,0:0:0:0:
432,136,194001,1,0,0:0:0:0:
456,168,194076,6,2,B|472:248,1,80
384,328,194376,2,2,B|368:248,1,80
328,56,194676,5,4,0:0:0:0:
288,48,194751,1,0,0:0:0:0:
248,56,194826,1,0,0:0:0:0:
216,80,194901,1,0,0:0:0:0:
200,120,194976,2,0,B|192:152|224:192,3,40,2|0|0|0,0:0|0:0|0:0|0:0,0:0:0:0:
224,192,195276,5,4,0:0:0:0:
248,224,195351,1,0,0:0:0:0:
256,264,195426,1,0,0:0:0:0:
240,304,195501,1,0,0:0:0:0:
208,328,195576,1,2,0:0:0:0:
168,336,195651,1,0,0:0:0:0:
128,320,195726,1,0,0:0:0:0:
104,288,195801,1,0,0:0:0:0:
96,248,195876,5,6,0:0:0:0:
112,208,195951,1,0,0:0:0:0:
112,168,196026,1,0,0:0:0:0:
88,136,196101,1,0,0:0:0:0:
56,112,196176,2,0,B|40:88|48:48,3,40,2|0|0|0,0:0|0:0|0:0|0:0,0:0:0:0:
16,48,196476,6,0,B|56:24,1,40,2|0,0:0|0:0,0:0:0:0:
192,32,196626,2,0,B|152:56,1,40,2|0,0:0|0:0,0:0:0:0:
184,152,196776,1,2,0:0:0:0:
256,192,196926,1,0,0:0:0:0:
296,120,197076,5,4,0:0:0:0:
336,48,197226,1,0,0:0:0:0:
368,24,197301,1,0,0:0:0:0:
408,24,197376,1,2,0:0:0:0:
448,40,197451,1,0,0:0:0:0:
472,72,197526,1,0,0:0:0:0:
472,112,197601,1,0,0:0:0:0:
456,152,197676,5,0,0:0:0:0:
424,176,197751,1,0,0:0:0:0:
400,208,197826,1,0,0:0:0:0:
400,248,197901,1,0,0:0:0:0:
424,280,197976,2,0,B|448:304|488:296,3,40,2|0|0|0,0:0|0:0|0:0|0:0,0:0:0:0:
496,304,198276,5,6,0:0:0:0:
480,344,198351,1,0,0:0:0:0:
448,360,198426,1,0,0:0:0:0:
408,360,198501,1,0,0:0:0:0:
376,336,198576,5,2,0:0:0:0:
338,356,198651,1,0,0:0:0:0:
303,348,198726,1,0,0:0:0:0:
272,322,198801,1,0,0:0:0:0:
263,283,198876,5,6,0:0:0:0:
221,275,198951,1,0,0:0:0:0:
199,246,199026,1,0,0:0:0:0:
193,207,199101,1,0,0:0:0:0:
216,176,199176,2,0,B|248:152,1,40,2|0,0:0|0:0,0:0:0:0:
192,48,199476,6,2,B|104:16|48:88,1,160,6|0,0:0|0:0,0:0:0:0:
16,160,199926,2,2,B|0:208|40:256,1,80,2|0,0:0|0:0,0:0:0:0:
96,280,200226,1,0,0:0:0:0:
96,280,200301,1,0,0:0:0:0:
96,280,200376,2,2,B|168:232,1,80,2|0,0:0|0:0,0:0:0:0:
336,176,200676,6,0,B|264:224,1,80,6|0,0:0|0:0,0:0:0:0:
128,384,200976,2,2,B|200:336,1,80,2|0,0:0|0:0,0:0:0:0:
336,288,201276,1,2,0:0:0:0:
408,320,201426,1,0,0:0:0:0:
344,368,201576,1,2,0:0:0:0:
160,128,201876,5,6,0:0:0:0:
200,56,202026,2,2,B|232:24|280:32,1,80,2|0,0:0|0:0,0:0:0:0:
352,48,202326,2,2,B|432:88|408:192,1,160,2|0,0:0|0:0,0:0:0:0:
368,256,202776,2,2,B|296:208,1,80,2|0,0:0|0:0,0:0:0:0:
128,160,203076,6,2,B|200:208,1,80,6|0,0:0|0:0,0:0:0:0:
312,384,203376,2,2,B|240:336,1,80,2|0,0:0|0:0,0:0:0:0:
128,264,203676,1,2,0:0:0:0:
48,280,203826,1,0,0:0:0:0:
104,336,203976,1,2,0:0:0:0:
176,152,204276,5,4,0:0:0:0:
200,120,204351,1,0,0:0:0:0:
232,104,204426,1,0,0:0:0:0:
272,104,204501,1,0,0:0:0:0:
312,120,204576,1,0,0:0:0:0:
336,152,204651,1,0,0:0:0:0:
344,192,204726,1,0,0:0:0:0:
336,232,204801,1,0,0:0:0:0:
312,264,204876,5,0,0:0:0:0:
272,280,204951,1,0,0:0:0:0:
232,280,205026,1,0,0:0:0:0:
200,264,205101,1,0,0:0:0:0:
176,232,205176,1,0,0:0:0:0:
168,192,205251,1,0,0:0:0:0:
176,152,205326,1,0,0:0:0:0:
200,120,205401,1,0,0:0:0:0:
232,104,205476,5,4,0:0:0:0:
272,104,205551,1,0,0:0:0:0:
312,120,205626,1,0,0:0:0:0:
336,152,205701,1,0,0:0:0:0:
344,192,205776,1,0,0:0:0:0:
336,232,205851,1,0,0:0:0:0:
312,264,205926,1,0,0:0:0:0:
272,280,206001,1,0,0:0:0:0:
232,280,206076,5,0,0:0:0:0:
200,264,206151,1,0,0:0:0:0:
176,232,206226,1,0,0:0:0:0:
168,192,206301,1,0,0:0:0:0:
152,152,206376,1,0,0:0:0:0:
128,120,206451,1,0,0:0:0:0:
96,96,206526,1,0,0:0:0:0:
56,96,206601,1,0,0:0:0:0:
24,120,206676,6,0,B|16:160,3,40,6|0|0|0,0:0|0:0|0:0|0:0,0:0:0:0:
88,64,206976,2,0,B|128:72,3,40
88,128,207276,5,0,0:0:0:0:
112,160,207351,1,0,0:0:0:0:
136,192,207426,1,0,0:0:0:0:
160,224,207501,1,0,0:0:0:0:
184,256,207576,1,2,0:0:0:0:
480,192,207876,6,0,B|488:232,3,40,2|0|0|0,0:0|0:0|0:0|0:0,0:0:0:0:
416,136,208176,2,0,B|376:144,3,40
416,200,208476,5,0,0:0:0:0:
392,232,208551,1,0,0:0:0:0:
368,264,208626,1,0,0:0:0:0:
344,296,208701,1,0,0:0:0:0:
320,328,208776,1,2,0:0:0:0:
168,56,209076,5,4,0:0:0:0:
168,56,209226,1,0,0:0:0:0:
296,72,209526,5,0,0:0:0:0:
344,168,209676,2,0,B|424:208|472:112,1,119.999996423721,4|0,0:0|0:0,0:0:0:0:
216,168,210126,5,0,0:0:0:0:
176,288,210276,2,0,B|96:336|32:264,1,160,4|0,0:0|0:0,0:0:0:0:
296,216,210726,5,0,0:0:0:0:
344,336,210876,2,0,B|448:400|520:288,1,192.000004577637,4|0,0:0|0:0,0:0:0:0:
384,96,211326,5,0,0:0:0:0:
384,96,211476,1,6,0:0:0:0:
256,192,211551,12,0,213276,0:0:0:0:
272,104,213576,5,0,0:0:0:0:
168,224,213726,1,0,0:0:0:0:
328,248,213876,1,6,0:0:0:0:
256,192,218004,12,12,218904,0:0:0:0:
256,192,219054,5,8,0:0:0:0:
156,104,219204,5,2,0:0:0:0:
100,84,219279,1,0,0:0:0:0:
44,96,219354,1,0,0:0:0:0:
12,144,219429,1,0,0:0:0:0:
16,200,219504,2,0,B|24:232|24:232|48:256,3,57.0000013589859,2|0|0|0,0:0|0:0|0:0|0:0,0:0:0:0:
100,176,219804,1,2,0:0:0:0:
128,224,219879,1,0,0:0:0:0:
128,280,219954,1,0,0:0:0:0:
96,328,220029,1,0,0:0:0:0:
40,344,220104,2,0,B|12:348|12:348|-20:332,3,57.0000013589859,2|0|0|0,0:0|0:0|0:0|0:0,0:0:0:0:
180,344,220404,5,2,0:0:0:0:
224,304,220479,1,0,0:0:0:0:
280,292,220554,1,0,0:0:0:0:
336,304,220629,1,0,0:0:0:0:
384,332,220704,2,0,B|408:356|408:356|416:380,3,57.0000013589859,2|0|0|0,0:0|0:0|0:0|0:0,0:0:0:0:
408,248,221004,1,2,0:0:0:0:
400,192,221079,1,0,0:0:0:0:
420,140,221154,1,0,0:0:0:0:
464,108,221229,1,0,0:0:0:0:
496,64,221304,2,0,B|504:32|504:32|496:4,3,57.0000013589859,2|0|2|0,0:0|0:0|0:0|0:0,0:0:0:0:
392,44,221604,6,0,B|360:32|360:32|320:44,3,57.0000013589859,2|0|0|0,0:0|0:0|0:0|0:0,0:0:0:0:
260,212,221904,2,0,B|292:224|292:224|332:212,3,57.0000013589859,2|0|0|0,0:0|0:0|0:0|0:0,0:0:0:0:
220,44,222204,2,0,B|188:32|188:32|148:44,3,57.0000013589859,2|0|0|0,0:0|0:0|0:0|0:0,0:0:0:0:
92,216,222504,2,0,B|124:228|124:228|164:216,3,57.0000013589859,2|0|0|0,0:0|0:0|0:0|0:0,0:0:0:0:
104,116,222804,5,2,0:0:0:0:
56,148,222879,1,0,0:0:0:0:
36,200,222954,1,0,0:0:0:0:
44,256,223029,1,0,0:0:0:0:
76,304,223104,1,2,0:0:0:0:
128,324,223179,1,0,0:0:0:0:
184,324,223254,1,0,0:0:0:0:
236,296,223329,1,0,0:0:0:0:
260,244,223404,1,2,0:0:0:0:
280,192,223479,1,0,0:0:0:0:
320,152,223554,1,0,0:0:0:0:
376,148,223629,1,0,0:0:0:0:
432,164,223704,2,0,B|468:204|468:204|480:268,1,114.000002717972,2|2,0:0|0:0,0:0:0:0:
148,220,224004,5,6,0:0:0:0:
196,192,224079,1,0,0:0:0:0:
220,140,224154,1,0,0:0:0:0:
220,84,224229,1,0,0:0:0:0:
180,40,224304,2,0,B|119:18,3,57.0000013589859,2|0|0|0,0:0|0:0|0:0|0:0,0:0:0:0:
124,124,224604,2,0,B|64:128,3,57.0000013589859,2|0|0|0,0:0|0:0|0:0|0:0,0:0:0:0:
64,228,224904,2,0,B|0:256,1,57.0000013589859,2|0,0:0|0:0,0:0:0:0:
116,308,225054,2,0,B|96:368,1,57.0000013589859,2|0,0:0|0:0,0:0:0:0:
216,356,225204,5,2,0:0:0:0:
272,372,225279,1,0,0:0:0:0:
328,360,225354,1,0,0:0:0:0:
372,324,225429,1,0,0:0:0:0:
376,268,225504,2,0,B|368:208,3,57.0000013589859,2|0|0|0,0:0|0:0|0:0|0:0,0:0:0:0:
460,192,225804,2,0,B|472:124,3,57.0000013589859,2|0|0|0,0:0|0:0|0:0|0:0,0:0:0:0:
392,92,226104,2,0,B|377:36,1,57.0000013589859,2|0,0:0|0:0,0:0:0:0:
288,40,226254,2,0,B|304:100,1,57.0000013589859,2|0,0:0|0:0,0:0:0:0:
192,36,226404,5,2,0:0:0:0:
136,28,226479,1,0,0:0:0:0:
84,48,226554,1,0,0:0:0:0:
52,96,226629,1,0,0:0:0:0:
48,152,226704,1,2,0:0:0:0:
76,200,226779,1,0,0:0:0:0:
128,224,226854,1,0,0:0:0:0:
184,216,226929,1,0,0:0:0:0:
232,184,227004,5,2,0:0:0:0:
280,152,227079,1,0,0:0:0:0:
336,144,227154,1,0,0:0:0:0:
388,164,227229,1,0,0:0:0:0:
420,212,227304,1,2,0:0:0:0:
424,268,227379,1,0,0:0:0:0:
396,316,227454,1,0,0:0:0:0:
344,336,227529,1,0,0:0:0:0:
288,340,227604,6,0,B|256:340|256:340|216:312,3,57.0000013589859,2|0|0|0,0:0|0:0|0:0|0:0,0:0:0:0:
128,312,227904,2,0,B|120:280|120:280|131:234,3,57.0000013589859,2|0|0|0,0:0|0:0|0:0|0:0,0:0:0:0:
40,184,228204,1,2,0:0:0:0:
40,184,228279,1,0,0:0:0:0:
40,184,228354,1,0,0:0:0:0:
40,184,228429,1,0,0:0:0:0:
40,184,228504,2,0,B|60:156|60:156|96:136,3,57.0000013589859,6|0|2|0,0:0|0:0|0:0|0:0,0:0:0:0:
32,120,228804,5,2,0:0:0:0:
56,68,228879,1,0,0:0:0:0:
108,40,228954,1,0,0:0:0:0:
164,36,229029,1,0,0:0:0:0:
216,60,229104,1,2,0:0:0:0:
248,108,229179,1,0,0:0:0:0:
260,164,229254,1,0,0:0:0:0:
228,212,229329,1,0,0:0:0:0:
180,240,229404,5,2,0:0:0:0:
148,288,229479,1,0,0:0:0:0:
164,344,229554,1,0,0:0:0:0:
208,380,229629,1,0,0:0:0:0:
264,384,229704,1,2,0:0:0:0:
316,360,229779,1,0,0:0:0:0:
340,308,229854,1,0,0:0:0:0:
380,268,229929,1,0,0:0:0:0:
436,256,230004,6,0,B|468:252|468:252|504:264,3,57.0000013589859,2|0|0|0,0:0|0:0|0:0|0:0,0:0:0:0:
428,160,230304,2,0,B|396:164|396:164|364:192,3,57.0000013589859,2|0|0|0,0:0|0:0|0:0|0:0,0:0:0:0:
448,64,230604,2,0,B|484:72|484:72|516:100,3,57.0000013589859,2|0|0|0,0:0|0:0|0:0|0:0,0:0:0:0:
344,52,230904,2,0,B|352:20|352:20|380:-16,3,57.0000013589859,2|0|0|0,0:0|0:0|0:0|0:0,0:0:0:0:
256,72,231204,5,2,0:0:0:0:
208,40,231279,1,0,0:0:0:0:
152,36,231354,1,0,0:0:0:0:
96,52,231429,1,0,0:0:0:0:
56,92,231504,1,2,0:0:0:0:
40,148,231579,1,0,0:0:0:0:
56,204,231654,1,0,0:0:0:0:
80,256,231729,1,0,0:0:0:0:
72,312,231804,2,0,B|61:335|61:335|28:357,3,57.0000013589859,2|0|0|0,0:0|0:0|0:0|0:0,0:0:0:0:
192,304,232104,2,0,B|208:284|208:284|212:244,3,57.0000013589859,2|0|0|0,0:0|0:0|0:0|0:0,0:0:0:0:
316,328,232404,6,0,B|380:340,1,57.0000013589859,2|0,0:0|0:0,0:0:0:0:
496,288,232554,2,0,B|432:276,1,57.0000013589859,2|0,0:0|0:0,0:0:0:0:
304,232,232704,2,0,B|368:244,1,57.0000013589859,2|0,0:0|0:0,0:0:0:0:
484,192,232854,2,0,B|420:180,1,57.0000013589859,2|0,0:0|0:0,0:0:0:0:
384,104,233004,1,2,0:0:0:0:
352,56,233079,1,0,0:0:0:0:
296,44,233154,1,2,0:0:0:0:
240,60,233229,1,0,0:0:0:0:
208,108,233304,1,6,0:0:0:0:
192,164,233379,1,0,0:0:0:0:
140,192,233454,1,4,0:0:0:0:
84,192,233529,1,0,0:0:0:0:
32,164,233604,5,2,0:0:0:0:
112,96,233754,1,0,0:0:0:0:
112,96,233829,1,0,0:0:0:0:
112,96,233904,1,2,0:0:0:0:
296,144,234054,1,0,0:0:0:0:
296,144,234129,1,0,0:0:0:0:
296,144,234204,5,2,0:0:0:0:
288,200,234279,1,0,0:0:0:0:
256,248,234354,1,0,0:0:0:0:
208,276,234429,1,0,0:0:0:0:
152,292,234504,1,2,0:0:0:0:
96,292,234579,1,0,0:0:0:0:
40,272,234654,1,2,0:0:0:0:
40,272,234729,1,0,0:0:0:0:
40,272,234804,5,2,0:0:0:0:
276,340,234954,1,0,0:0:0:0:
276,340,235029,1,0,0:0:0:0:
276,340,235104,1,2,0:0:0:0:
456,300,235254,1,0,0:0:0:0:
456,300,235329,1,0,0:0:0:0:
456,300,235404,5,2,0:0:0:0:
408,268,235479,1,0,0:0:0:0:
376,220,235554,1,2,0:0:0:0:
384,164,235629,1,0,0:0:0:0:
420,120,235704,2,0,B|440:104|440:104|472:96,3,57.0000013589859,2|0|2|0,0:0|0:0|0:0|0:0,0:0:0:0:
300,184,236004,5,2,0:0:0:0:
244,188,236079,1,0,0:0:0:0:
192,164,236154,1,0,0:0:0:0:
152,124,236229,1,0,0:0:0:0:
144,68,236304,1,2,0:0:0:0:
96,36,236379,1,0,0:0:0:0:
40,44,236454,1,0,0:0:0:0:
12,92,236529,1,0,0:0:0:0:
24,148,236604,5,2,0:0:0:0:
68,188,236679,1,0,0:0:0:0:
96,240,236754,1,0,0:0:0:0:
100,296,236829,1,0,0:0:0:0:
128,344,236904,1,2,0:0:0:0:
180,372,236979,1,0,0:0:0:0:
236,364,237054,1,0,0:0:0:0:
272,320,237129,1,0,0:0:0:0:
260,264,237204,5,2,0:0:0:0:
212,236,237279,1,0,0:0:0:0:
172,196,237354,1,0,0:0:0:0:
144,148,237429,1,0,0:0:0:0:
140,92,237504,1,2,0:0:0:0:
168,44,237579,1,0,0:0:0:0:
220,24,237654,1,0,0:0:0:0:
276,24,237729,1,0,0:0:0:0:
324,52,237804,5,2,0:0:0:0:
348,104,237879,1,0,0:0:0:0:
336,160,237954,1,0,0:0:0:0:
328,216,238029,1,0,0:0:0:0:
348,268,238104,1,2,0:0:0:0:
396,300,238179,1,0,0:0:0:0:
452,300,238254,1,2,0:0:0:0:
492,260,238329,1,0,0:0:0:0:
492,204,238404,6,0,B|488:168|488:168|468:136,7,57.0000013589859,6|0|0|0|2|0|0|0,0:0|0:0|0:0|0:0|0:0|0:0|0:0|0:0,0:0:0:0:
416,49,239004,1,2,0:0:0:0:
409,105,239079,1,0,0:0:0:0:
376,152,239154,1,0,0:0:0:0:
321,161,239229,1,0,0:0:0:0:
268,139,239304,1,2,0:0:0:0:
228,100,239379,1,0,0:0:0:0:
172,100,239454,1,0,0:0:0:0:
132,140,239529,1,0,0:0:0:0:
140,196,239604,6,0,B|165:219|165:219|201:231,7,57.0000013589859,2|0|0|0|2|0|0|0,0:0|0:0|0:0|0:0|0:0|0:0|0:0|0:0,0:0:0:0:
324,68,240204,1,2,0:0:0:0:
288,24,240279,1,0,0:0:0:0:
232,8,240354,1,0,0:0:0:0:
176,4,240429,1,0,0:0:0:0:
120,20,240504,1,2,0:0:0:0:
72,52,240579,1,0,0:0:0:0:
28,88,240654,1,0,0:0:0:0:
12,144,240729,1,0,0:0:0:0:
68,136,240804,5,2,0:0:0:0:
44,188,240879,1,0,0:0:0:0:
32,244,240954,1,0,0:0:0:0:
56,296,241029,1,0,0:0:0:0:
100,332,241104,1,2,0:0:0:0:
152,352,241179,1,0,0:0:0:0:
208,348,241254,1,0,0:0:0:0:
260,324,241329,1,0,0:0:0:0:
296,280,241404,5,2,0:0:0:0:
292,224,241479,1,0,0:0:0:0:
260,176,241554,1,0,0:0:0:0:
212,148,241629,1,0,0:0:0:0:
176,104,241704,1,2,0:0:0:0:
176,48,241779,1,0,0:0:0:0:
220,12,241854,1,0,0:0:0:0:
276,16,241929,1,0,0:0:0:0:
324,48,242004,6,0,B|344:68|344:68|352:104,1,57.0000013589859,2|0,0:0|0:0,0:0:0:0:
496,144,242154,2,0,B|502:171|502:171|493:198,1,57.0000013589859,0|0,0:0|0:0,0:0:0:0:
373,183,242303,2,0,B|380:212|380:212|400:232,1,57.0000013589859,2|0,0:0|0:0,0:0:0:0:
464,292,242454,2,0,B|472:318|472:318|465:346,1,57.0000013589859
376,352,242604,1,2,0:0:0:0:
320,368,242679,1,0,0:0:0:0:
264,352,242754,1,0,0:0:0:0:
224,312,242829,1,0,0:0:0:0:
204,260,242904,2,0,B|188:232|188:232|152:208,3,57.0000013589859,4|0|0|0,0:0|0:0|0:0|0:0,0:0:0:0:
112,304,243204,5,2,0:0:0:0:
68,268,243279,1,0,0:0:0:0:
60,212,243354,1,0,0:0:0:0:
76,156,243429,1,0,0:0:0:0:
120,116,243504,1,2,0:0:0:0:
176,108,243579,1,0,0:0:0:0:
232,124,243654,1,0,0:0:0:0:
268,168,243729,1,0,0:0:0:0:
288,220,243804,5,2,0:0:0:0:
324,264,243879,1,0,0:0:0:0:
380,276,243954,1,0,0:0:0:0:
436,264,244029,1,0,0:0:0:0:
476,224,244104,1,2,0:0:0:0:
484,168,244179,1,0,0:0:0:0:
468,112,244254,1,0,0:0:0:0:
424,72,244329,1,0,0:0:0:0:
368,72,244404,5,2,0:0:0:0:
164,212,244554,1,0,0:0:0:0:
384,176,244704,1,2,0:0:0:0:
184,320,244854,1,2,0:0:0:0:
68,268,245004,1,2,0:0:0:0:
76,156,245154,1,2,0:0:0:0:
120,116,245229,1,0,0:0:0:0:
176,108,245304,1,2,0:0:0:0:
232,124,245379,1,2,0:0:0:0:
268,168,245454,1,2,0:0:0:0:
288,220,245529,1,2,0:0:0:0:
324,264,245604,6,0,B|356:276|356:276|404:276,7,57.0000013589859,2|0|0|0|2|0|0|0,0:0|0:0|0:0|0:0|0:0|0:0|0:0|0:0,0:0:0:0:
328,124,246204,2,0,B|340:92|340:92|340:44,7,57.0000013589859,2|0|0|0|2|0|0|0,0:0|0:0|0:0|0:0|0:0|0:0|0:0|0:0,0:0:0:0:
133,108,246804,2,0,B|156:108|156:108|188:120,7,57.0000013589859,2|0|0|0|2|0|0|0,0:0|0:0|0:0|0:0|0:0|0:0|0:0|0:0,0:0:0:0:
172,314,247404,1,2,0:0:0:0:
172,314,247479,1,0,0:0:0:0:
172,314,247554,1,0,0:0:0:0:
172,314,247629,1,0,0:0:0:0:
172,314,247704,2,0,B|172:292|172:292|184:260,3,57.0000013589859,6|0|0|0,0:0|0:0|0:0|0:0,0:0:0:0:
264,296,248004,5,2,0:0:0:0:
296,248,248079,1,0,0:0:0:0:
348,224,248154,1,0,0:0:0:0:
404,236,248229,1,0,0:0:0:0:
460,228,248304,1,2,0:0:0:0:
500,184,248379,1,0,0:0:0:0:
496,128,248454,1,0,0:0:0:0:
464,80,248529,1,0,0:0:0:0:
408,68,248604,5,2,0:0:0:0:
356,96,248679,1,0,0:0:0:0:
308,128,248754,1,0,0:0:0:0:
252,120,248829,1,0,0:0:0:0:
212,80,248904,1,2,0:0:0:0:
164,52,248979,1,0,0:0:0:0:
108,56,249054,1,0,0:0:0:0:
64,92,249129,1,0,0:0:0:0:
56,148,249204,5,2,0:0:0:0:
88,196,249279,1,0,0:0:0:0:
144,208,249354,1,0,0:0:0:0:
200,188,249429,1,0,0:0:0:0:
256,196,249504,1,2,0:0:0:0:
308,220,249579,1,0,0:0:0:0:
348,260,249654,1,0,0:0:0:0:
352,316,249729,1,0,0:0:0:0:
312,360,249804,5,2,0:0:0:0:
256,372,249879,1,0,0:0:0:0:
200,356,249954,1,0,0:0:0:0:
144,344,250029,1,0,0:0:0:0:
88,352,250104,1,2,0:0:0:0:
32,344,250179,1,0,0:0:0:0:
8,292,250254,1,0,0:0:0:0:
16,236,250329,1,0,0:0:0:0:
12,180,250404,6,0,B|8:152|8:152|16:112,3,57.0000013589859,2|0|0|0,0:0|0:0|0:0|0:0,0:0:0:0:
136,64,250704,2,0,B|140:92|140:92|132:132,3,57.0000013589859,2|0|0|0,0:0|0:0|0:0|0:0,0:0:0:0:
260,16,251004,1,2,0:0:0:0:
316,20,251079,1,0,0:0:0:0:
368,44,251154,1,0,0:0:0:0:
396,96,251229,1,0,0:0:0:0:
388,152,251304,1,2,0:0:0:0:
340,184,251379,1,0,0:0:0:0:
312,236,251454,1,0,0:0:0:0:
324,292,251529,1,0,0:0:0:0:
368,328,251604,6,0,B|396:340|396:340|440:340,3,57.0000013589859,2|0|0|0,0:0|0:0|0:0|0:0,0:0:0:0:
224,280,251904,2,0,B|196:268|196:268|152:268,3,57.0000013589859,2|0|0|0,0:0|0:0|0:0|0:0,0:0:0:0:
64,304,252204,1,2,0:0:0:0:
56,248,252279,1,0,0:0:0:0:
76,192,252354,1,0,0:0:0:0:
120,156,252429,1,0,0:0:0:0:
176,144,252504,2,0,B|204:140|204:140|236:152,3,57.0000013589859,6|0|6|0,0:0|0:0|0:0|0:0,0:0:0:0:
220,96,252804,5,2,0:0:0:0:
248,48,252879,1,0,0:0:0:0:
304,36,252954,1,0,0:0:0:0:
360,52,253029,1,0,0:0:0:0:
384,104,253104,2,0,B|400:156|400:156|400:264,1,114.000002717972,2|0,0:0|0:0,0:0:0:0:
452,192,253329,2,0,B|426:240|426:240|350:316,1,114.000002717972,2|0,0:0|0:0,0:0:0:0:
440,300,253554,2,0,B|389:320|389:320|282:329,1,114.000002717972,2|0,0:0|0:0,0:0:0:0:
348,380,253779,2,0,B|293:372|293:372|195:328,1,114.000002717972,2|0,0:0|0:0,0:0:0:0:
208,384,254004,5,2,0:0:0:0:
92,212,254154,1,0,0:0:0:0:
88,268,254229,1,0,0:0:0:0:
116,316,254304,1,2,0:0:0:0:
196,236,254454,1,0,0:0:0:0:
204,180,254529,1,0,0:0:0:0:
176,128,254604,1,2,0:0:0:0:
124,104,254679,1,0,0:0:0:0:
68,112,254754,1,2,0:0:0:0:
8,232,254904,2,0,B|0:264|0:264|4:296,2,57.0000013589859,2|0|2,0:0|0:0|0:0,0:0:0:0:
208,328,255204,6,0,B|268:324|268:324|328:292,1,114.000002717972
304,56,255504,2,0,B|244:60|244:60|184:92,1,114.000002717972,2|0,0:0|0:0,0:0:0:0:
416,336,255804,2,0,B|408:268|408:268|384:220,1,114.000002717972,0|0,0:0|0:0,0:0:0:0:
96,48,256104,2,0,B|104:116|104:116|128:164,1,114.000002717972,2|0,0:0|0:0,0:0:0:0:
444,96,256404,5,0,0:0:0:0:
404,136,256479,1,0,0:0:0:0:
348,136,256554,1,0,0:0:0:0:
292,148,256629,1,0,0:0:0:0:
256,192,256704,1,2,0:0:0:0:
220,236,256779,1,0,0:0:0:0:
164,248,256854,1,0,0:0:0:0:
108,248,256929,1,0,0:0:0:0:
68,288,257004,5,0,0:0:0:0:
160,344,257154,2,0,B|188:368,4,28.500000679493,0|0|0|0|2,0:0|0:0|0:0|0:0|0:0,0:0:0:0:
20,188,257454,2,0,B|48:148,3,28.500000679493
20,188,257603,1,4,0:0:0:0:
424,344,260732,5,4,0:0:0:0:
444,312,260806,1,0,0:0:0:0:
452,276,260880,1,0,0:0:0:0:
444,240,260954,1,0,0:0:0:0:
428,204,261029,2,0,B|416:180|392:168,3,47.5,8|0|0|0,0:0|0:0|0:0|0:0,0:0:0:0:
376,136,261326,5,0,0:0:0:0:
344,156,261400,1,0,0:0:0:0:
308,160,261474,1,0,0:0:0:0:
272,152,261548,1,0,0:0:0:0:
244,128,261623,2,0,B|236:108|232:76,3,47.5,8|0|0|0,0:0|0:0|0:0|0:0,0:0:0:0:
208,52,261920,5,0,0:0:0:0:
172,44,261994,1,0,0:0:0:0:
136,48,262068,1,0,0:0:0:0:
100,60,262142,1,0,0:0:0:0:
72,84,262217,1,8,0:0:0:0:
56,120,262291,1,0,0:0:0:0:
56,156,262365,1,0,0:0:0:0:
64,192,262440,1,0,0:0:0:0:
84,236,262514,6,0,B|96:260|92:296,3,47.5
64,304,262811,2,0,B|100:304|128:312,3,47.5,8|0|0|0,0:0|0:0|0:0|0:0,0:0:0:0:
132,340,263108,5,0,0:0:0:0:
160,316,263182,1,0,0:0:0:0:
196,304,263256,1,0,0:0:0:0:
236,304,263331,1,0,0:0:0:0:
268,324,263405,1,8,0:0:0:0:
296,352,263479,1,0,0:0:0:0:
332,364,263553,1,0,0:0:0:0:
372,360,263628,1,0,0:0:0:0:
408,344,263702,6,0,B|432:328|440:304,3,47.5
476,300,263999,1,8,0:0:0:0:
464,264,264073,1,0,0:0:0:0:
464,228,264147,1,0,0:0:0:0:
472,192,264222,1,0,0:0:0:0:
492,160,264296,5,0,0:0:0:0:
468,132,264370,1,0,0:0:0:0:
436,112,264444,1,0,0:0:0:0:
396,108,264519,1,0,0:0:0:0:
360,116,264593,1,8,0:0:0:0:
328,136,264667,1,0,0:0:0:0:
292,152,264741,1,0,0:0:0:0:
252,148,264816,1,0,0:0:0:0:
216,132,264890,6,0,B|192:112|160:108,3,47.5
144,88,265187,2,0,B|148:116|136:152,3,47.5,8|0|0|0,0:0|0:0|0:0|0:0,0:0:0:0:
108,156,265484,5,4,0:0:0:0:
120,192,265558,1,0,0:0:0:0:
116,228,265633,1,0,0:0:0:0:
96,260,265707,1,0,0:0:0:0:
64,276,265781,2,0,B|36:284|12:284,3,47.5,8|0|0|0,0:0|0:0|0:0|0:0,0:0:0:0:
8,320,266078,5,0,0:0:0:0:
28,352,266152,1,0,0:0:0:0:
64,364,266227,1,0,0:0:0:0:
100,360,266301,1,0,0:0:0:0:
128,336,266375,1,8,0:0:0:0:
160,320,266449,1,0,0:0:0:0:
200,320,266524,1,0,0:0:0:0:
232,340,266598,1,0,0:0:0:0:
256,368,266672,6,0,B|276:368|312:364,3,47.5
340,372,266969,1,8,0:0:0:0:
348,336,267043,1,0,0:0:0:0:
376,308,267118,1,0,0:0:0:0:
412,296,267192,1,0,0:0:0:0:
444,320,267266,5,0,0:0:0:0:
432,284,267340,1,0,0:0:0:0:
432,248,267415,1,0,0:0:0:0:
444,212,267489,1,0,0:0:0:0:
464,180,267563,1,8,0:0:0:0:
472,144,267638,1,0,0:0:0:0:
472,108,267712,1,0,0:0:0:0:
464,72,267786,1,0,0:0:0:0:
452,36,267860,6,0,B|432:44|400:44,3,47.5
368,36,268157,1,8,0:0:0:0:
336,60,268232,1,0,0:0:0:0:
300,68,268306,1,0,0:0:0:0:
264,64,268380,1,0,0:0:0:0:
228,48,268454,6,0,B|200:60|168:68,3,47.5
148,52,268751,1,8,0:0:0:0:
152,92,268826,1,0,0:0:0:0:
144,128,268900,1,0,0:0:0:0:
120,156,268974,1,0,0:0:0:0:
140,188,269048,5,4,0:0:0:0:
100,188,269123,1,0,0:0:0:0:
68,204,269197,1,0,0:0:0:0:
44,232,269271,1,0,0:0:0:0:
32,268,269345,1,12,0:0:0:0:
32,308,269420,1,0,0:0:0:0:
44,344,269494,1,0,0:0:0:0:
72,368,269568,1,0,0:0:0:0:
108,376,269642,6,0,B|135:375|168:372,3,47.5,4|0|0|0,0:0|0:0|0:0|0:0,0:0:0:0:
192,380,269940,2,0,B|188:352|188:316,3,47.5,12|0|0|0,0:0|0:0|0:0|0:0,0:0:0:0:
244,288,270237,6,0,B|296:400|424:352,1,190,4|8,0:0|0:0,0:0:0:0:
512,200,270682,2,0,B|460:312|332:264,1,190
336,252,271053,1,0,0:0:0:0:
320,228,271128,2,0,B|304:180|324:132,1,95,8|0,0:0|0:0,0:0:0:0:
36,152,271425,6,0,B|60:104|60:104|196:88,1,190,0|8,0:0|0:0,0:0:0:0:
200,116,271796,1,0,0:0:0:0:
204,144,271870,1,0,0:0:0:0:
208,172,271944,1,0,0:0:0:0:
212,200,272019,2,0,B|100:216,1,95
60,288,272316,1,8,0:0:0:0:
60,288,272390,1,0,0:0:0:0:
60,288,272464,1,0,0:0:0:0:
168,376,272613,5,4,0:0:0:0:
196,352,272687,1,0,0:0:0:0:
232,340,272761,1,0,0:0:0:0:
272,336,272836,1,0,0:0:0:0:
308,340,272910,1,8,0:0:0:0:
344,356,272984,1,0,0:0:0:0:
380,364,273058,1,0,0:0:0:0:
416,352,273133,1,0,0:0:0:0:
444,328,273207,6,0,B|452:304|456:272,3,47.5
440,248,273504,1,8,0:0:0:0:
412,224,273578,1,0,0:0:0:0:
376,212,273652,1,0,0:0:0:0:
336,216,273727,1,0,0:0:0:0:
304,236,273801,5,0,0:0:0:0:
308,200,273875,1,0,0:0:0:0:
300,164,273949,1,0,0:0:0:0:
276,132,274024,1,0,0:0:0:0:
240,116,274098,1,8,0:0:0:0:
204,112,274172,1,0,0:0:0:0:
168,124,274246,1,0,0:0:0:0:
140,148,274321,1,0,0:0:0:0:
124,180,274395,6,0,B|116:196|116:232,3,47.5
84,248,274692,2,0,B|112:244|136:252,3,47.5,8|0|0|0,0:0|0:0|0:0|0:0,0:0:0:0:
176,308,274989,6,0,B|280:308,1,95,4|0,0:0|0:0,0:0:0:0:
340,376,275286,1,8,0:0:0:0:
436,376,275435,2,0,B|468:176,1,190
472,172,275806,1,0,0:0:0:0:
480,156,275880,2,0,B|472:56,1,95,8|0,0:0|0:0,0:0:0:0:
192,56,276177,6,0,B|248:176|388:100,1,190,4|8,0:0|0:0,0:0:0:0:
368,140,276548,1,0,0:0:0:0:
376,168,276623,1,0,0:0:0:0:
372,196,276697,1,0,0:0:0:0:
360,220,276771,2,0,B|348:324,1,95,4|0,0:0|0:0,0:0:0:0:
272,368,277068,1,8,0:0:0:0:
256,344,277142,1,0,0:0:0:0:
228,332,277217,1,0,0:0:0:0:
48,344,277365,5,4,0:0:0:0:
48,344,277514,1,0,0:0:0:0:
32,232,277662,1,0,0:0:0:0:
32,232,277811,1,0,0:0:0:0:
136,276,277959,1,0,0:0:0:0:
136,276,278108,1,0,0:0:0:0:
120,164,278256,1,0,0:0:0:0:
156,176,278331,1,0,0:0:0:0:
192,176,278405,1,0,0:0:0:0:
224,156,278479,1,0,0:0:0:0:
248,124,278553,5,4,0:0:0:0:
164,80,278702,1,0,0:0:0:0:
260,348,278999,1,0,0:0:0:0:
440,128,279296,1,0,0:0:0:0:
344,140,279444,1,0,0:0:0:0:
324,172,279519,1,0,0:0:0:0:
316,208,279593,1,0,0:0:0:0:
320,244,279667,1,0,0:0:0:0:
336,280,279741,1,4,0:0:0:0:
296,36,284227,5,2,0:0:0:0:
296,104,284373,1,2,0:0:0:0:
340,156,284520,1,2,0:0:0:0:
408,172,284666,1,2,0:0:0:0:
472,144,284812,1,2,0:0:0:0:
508,84,284959,1,2,0:0:0:0:
388,104,285105,1,2,0:0:0:0:
216,348,285398,69,2,0:0:0:0:
164,304,285544,1,2,0:0:0:0:
140,240,285691,1,2,0:0:0:0:
156,172,285837,1,2,0:0:0:0:
188,112,285983,1,2,0:0:0:0:
160,48,286130,1,2,0:0:0:0:
212,244,286276,6,2,B|256:268|312:252,1,98.9999970495702
140,240,286569,2,2,B|116:284|132:340,1,98.9999970495702
300,140,286861,2,2,B|256:116|200:132,1,98.9999970495702
372,144,287154,2,2,B|396:100|380:44,1,98.9999970495702
212,244,287447,5,2,0:0:0:0:
232,272,287520,1,2,0:0:0:0:
260,288,287593,1,2,0:0:0:0:
296,292,287666,1,2,0:0:0:0:
332,288,287739,2,2,B|384:280|432:320,1,98.9999970495702
180,96,288032,2,2,B|128:104|80:64,1,98.9999970495702
124,216,288325,2,2,B|224:188,1,98.9999970495702
384,144,288617,5,2,0:0:0:0:
392,212,288764,1,2,0:0:0:0:
360,272,288910,1,2,0:0:0:0:
344,88,289056,2,2,B|372:-8,1,98.9999970495702
292,292,289349,2,2,B|264:388,1,98.9999970495702
160,112,289642,69,2,0:0:0:0:
164,180,289788,1,2,0:0:0:0:
168,248,289934,1,2,0:0:0:0:
172,316,290081,1,2,0:0:0:0:
216,64,290227,2,2,B|264:48|320:72,1,98.9999970495702
112,352,290520,2,2,B|64:368|8:344,1,98.9999970495702
168,248,290812,1,2,0:0:0:0:
296,320,290959,5,2,0:0:0:0:
328,304,291032,1,2,0:0:0:0:
356,284,291105,1,2,0:0:0:0:
372,256,291178,1,2,0:0:0:0:
380,220,291251,1,2,0:0:0:0:
380,184,291325,1,2,0:0:0:0:
368,152,291398,1,2,0:0:0:0:
356,120,291471,1,2,0:0:0:0:
356,84,291544,2,2,B|356:24|420:0,1,98.9999970495702
304,224,291837,2,2,B|268:268|208:264,1,98.9999970495702
56,120,292130,6,2,B|68:180,3,49.4999985247851
156,148,292422,2,2,B|128:200,3,49.4999985247851
220,224,292715,2,2,B|168:252,3,49.4999985247851
248,212,293008,1,2,0:0:0:0:
276,200,293081,1,2,0:0:0:0:
304,188,293154,1,2,0:0:0:0:
332,176,293227,1,2,0:0:0:0:
360,164,293300,21,6,0:0:0:0:
356,136,293373,1,2,0:0:0:0:
340,112,293447,1,2,0:0:0:0:
316,92,293520,1,2,0:0:0:0:
292,76,293593,1,2,0:0:0:0:
264,68,293666,1,2,0:0:0:0:
236,64,293739,1,2,0:0:0:0:
204,64,293812,1,2,0:0:0:0:
176,68,293886,2,2,B|144:72|120:96,3,49.4999985247851
176,144,294178,2,2,B|152:160|136:188,3,49.4999985247851
72,232,294471,101,2,0:0:0:0:
96,248,294544,1,2,0:0:0:0:
120,264,294617,1,2,0:0:0:0:
144,280,294691,1,2,0:0:0:0:
168,296,294764,1,2,0:0:0:0:
192,312,294837,1,2,0:0:0:0:
216,328,294910,1,2,0:0:0:0:
240,344,294983,1,2,0:0:0:0:
264,360,295056,2,2,B|320:360,3,49.4999985247851
312,280,295349,2,2,B|364:268,3,49.4999985247851
228,240,295642,5,2,0:0:0:0:
204,220,295715,1,2,0:0:0:0:
192,192,295788,1,2,0:0:0:0:
192,164,295861,1,2,0:0:0:0:
204,136,295934,1,2,0:0:0:0:
224,116,296008,1,2,0:0:0:0:
252,104,296081,1,2,0:0:0:0:
280,100,296154,1,2,0:0:0:0:
308,108,296227,1,2,0:0:0:0:
332,124,296300,1,2,0:0:0:0:
352,148,296373,1,2,0:0:0:0:
360,176,296447,1,2,0:0:0:0:
356,204,296520,1,2,0:0:0:0:
340,232,296593,1,2,0:0:0:0:
316,252,296666,1,2,0:0:0:0:
288,264,296739,1,2,0:0:0:0:
260,276,296812,101,2,0:0:0:0:
292,276,296886,1,2,0:0:0:0:
320,268,296959,1,2,0:0:0:0:
348,256,297032,1,2,0:0:0:0:
372,240,297105,1,2,0:0:0:0:
392,216,297178,1,2,0:0:0:0:
404,188,297251,1,2,0:0:0:0:
412,160,297325,1,2,0:0:0:0:
412,132,297398,1,2,0:0:0:0:
404,104,297471,1,2,0:0:0:0:
388,80,297544,1,2,0:0:0:0:
364,60,297617,1,2,0:0:0:0:
336,44,297691,1,2,0:0:0:0:
308,36,297764,1,2,0:0:0:0:
280,32,297837,1,2,0:0:0:0:
252,32,297910,1,2,0:0:0:0:
224,40,297983,22,0,B|196:48|176:68,3,49.4999985247851,4|0|0|0,0:0|0:0|0:0|0:0,0:0:0:0:
232,112,298276,2,0,B|208:128|204:160,3,49.4999985247851
272,168,298569,2,0,B|300:176|320:196,3,49.4999985247851
264,240,298861,2,0,B|288:256|292:288,3,49.4999985247851
220,296,299154,5,0,0:0:0:0:
200,300,299227,1,0,0:0:0:0:
180,300,299300,1,0,0:0:0:0:
160,296,299373,1,0,0:0:0:0:
144,288,299447,1,0,0:0:0:0:
128,276,299520,1,0,0:0:0:0:
116,260,299593,1,0,0:0:0:0:
112,240,299666,1,0,0:0:0:0:
116,220,299739,5,0,0:0:0:0:
144,208,299813,1,0,0:0:0:0:
164,188,299886,1,0,0:0:0:0:
176,160,299959,1,0,0:0:0:0:
188,132,300032,1,0,0:0:0:0:
212,112,300105,1,0,0:0:0:0:
240,100,300178,1,0,0:0:0:0:
272,100,300252,1,0,0:0:0:0:
308,116,300325,6,2,B|352:152|312:192|388:220,1,134.999995976687,2|0,0:0|0:0,0:0:0:0:
408,236,300544,1,0,0:0:0:0:
408,264,300617,1,0,0:0:0:0:
400,292,300691,1,0,0:0:0:0:
380,312,300764,1,0,0:0:0:0:
356,328,300837,1,0,0:0:0:0:
328,336,300910,1,0,0:0:0:0:
300,340,300983,1,0,0:0:0:0:
268,340,301057,1,0,0:0:0:0:
240,328,301130,1,0,0:0:0:0:
216,312,301203,1,0,0:0:0:0:
204,284,301276,1,0,0:0:0:0:
208,256,301349,1,0,0:0:0:0:
228,232,301422,1,0,0:0:0:0:
248,212,301495,21,2,0:0:0:0:
284,224,301569,1,2,0:0:0:0:
324,228,301642,1,2,0:0:0:0:
364,224,301715,1,2,0:0:0:0:
400,212,301788,2,2,B|468:168|456:92,1,134.999995976687
240,152,302081,1,2,0:0:0:0:
252,116,302154,1,2,0:0:0:0:
280,88,302227,1,2,0:0:0:0:
316,72,302300,1,2,0:0:0:0:
356,68,302373,1,2,0:0:0:0:
396,76,302447,1,2,0:0:0:0:
428,96,302520,1,2,0:0:0:0:
452,128,302593,1,2,0:0:0:0:
456,168,302666,102,0,B|428:156|396:176,3,49.4999985247851
392,252,302959,2,0,B|420:264|452:244,3,49.4999985247851
316,184,303251,2,0,B|288:172|256:192,3,49.4999985247851
252,268,303544,2,0,B|280:280|312:260,3,49.4999985247851
184,216,303837,1,0,0:0:0:0:
176,200,303910,1,0,0:0:0:0:
172,180,303983,1,0,0:0:0:0:
172,160,304056,1,0,0:0:0:0:
180,140,304130,1,0,0:0:0:0:
192,124,304203,1,0,0:0:0:0:
208,112,304276,1,0,0:0:0:0:
228,104,304349,1,0,0:0:0:0:
248,100,304422,1,0,0:0:0:0:
268,100,304495,1,0,0:0:0:0:
288,104,304569,1,0,0:0:0:0:
308,108,304642,1,0,0:0:0:0:
328,108,304715,1,0,0:0:0:0:
348,104,304788,1,0,0:0:0:0:
368,96,304861,1,0,0:0:0:0:
384,84,304934,1,0,0:0:0:0:
396,68,305008,102,0,B|444:92|464:148,1,98.9999970495702,2|0,0:0|0:0,0:0:0:0:
116,316,305300,2,0,B|68:292|48:236,1,98.9999970495702,2|0,0:0|0:0,0:0:0:0:
48,224,305520,1,0,0:0:0:0:
48,204,305593,1,0,0:0:0:0:
52,184,305666,1,0,0:0:0:0:
60,168,305739,1,0,0:0:0:0:
72,152,305812,1,0,0:0:0:0:
88,140,305886,1,0,0:0:0:0:
108,132,305959,1,0,0:0:0:0:
128,128,306032,1,0,0:0:0:0:
148,128,306105,1,0,0:0:0:0:
168,132,306178,1,0,0:0:0:0:
188,140,306251,1,0,0:0:0:0:
208,148,306325,1,0,0:0:0:0:
228,152,306398,1,0,0:0:0:0:
248,152,306471,21,0,0:0:0:0:
268,148,306544,1,0,0:0:0:0:
288,144,306617,1,0,0:0:0:0:
308,136,306691,1,0,0:0:0:0:
324,124,306764,1,0,0:0:0:0:
336,108,306837,1,0,0:0:0:0:
344,88,306910,1,0,0:0:0:0:
344,68,306983,1,0,0:0:0:0:
348,48,307056,1,0,0:0:0:0:
360,32,307130,1,0,0:0:0:0:
380,24,307203,1,0,0:0:0:0:
400,24,307276,1,0,0:0:0:0:
420,28,307349,22,2,B|448:48|460:88,3,67.4999979883433
272,72,307642,2,2,B|232:76|200:56,3,67.4999979883433
400,132,307934,1,2,0:0:0:0:
412,172,308008,1,2,0:0:0:0:
408,212,308081,1,2,0:0:0:0:
388,248,308154,1,2,0:0:0:0:
356,272,308227,1,2,0:0:0:0:
316,284,308300,1,2,0:0:0:0:
276,284,308373,1,2,0:0:0:0:
240,268,308447,1,2,0:0:0:0:
212,236,308520,102,0,B|168:204|124:212,1,90,2|0,0:0|0:0,0:0:0:0:
320,204,308812,2,0,B|340:164|332:112,1,90,2|0,0:0|0:0,0:0:0:0:
144,316,309105,2,0,B|188:348|232:340,1,90,2|0,0:0|0:0,0:0:0:0:
256,52,309398,2,0,B|236:92|244:144,1,90,2|0,0:0|0:0,0:0:0:0:
404,332,309691,5,2,0:0:0:0:
420,300,309764,1,2,0:0:0:0:
428,264,309837,1,2,0:0:0:0:
428,228,309910,1,2,0:0:0:0:
424,192,309983,1,2,0:0:0:0:
412,156,310056,1,2,0:0:0:0:
392,128,310130,1,2,0:0:0:0:
364,104,310203,1,2,0:0:0:0:
332,84,310276,1,2,0:0:0:0:
296,72,310349,1,2,0:0:0:0:
260,68,310422,1,2,0:0:0:0:
216,72,310495,1,2,0:0:0:0:
180,84,310569,1,2,0:0:0:0:
148,104,310642,1,2,0:0:0:0:
120,128,310715,102,2,B|88:172,1,45
124,248,310861,2,2,B|156:204,1,45
240,212,311008,2,2,B|208:256,1,45
252,328,311154,2,2,B|284:284,1,45
292,272,311300,1,2,0:0:0:0:
304,256,311373,1,2,0:0:0:0:
316,240,311447,1,2,0:0:0:0:
328,224,311520,1,2,0:0:0:0:
340,208,311593,1,2,0:0:0:0:
352,192,311666,1,2,0:0:0:0:
364,176,311739,6,2,B|364:152|352:128,2,45
148,208,312032,2,2,B|148:232|160:256,2,45
352,292,312325,1,2,0:0:0:0:
352,292,312398,1,2,0:0:0:0:
352,292,312471,1,2,0:0:0:0:
160,92,312617,1,2,0:0:0:0:
160,92,312690,1,2,0:0:0:0:
160,92,312763,1,2,0:0:0:0:
448,336,312910,101,2,0:0:0:0:
448,304,312983,1,2,0:0:0:0:
440,272,313056,1,2,0:0:0:0:
428,244,313130,1,2,0:0:0:0:
408,220,313203,1,2,0:0:0:0:
380,204,313276,1,2,0:0:0:0:
348,196,313349,1,2,0:0:0:0:
316,196,313422,1,2,0:0:0:0:
284,204,313495,1,2,0:0:0:0:
256,216,313569,1,2,0:0:0:0:
220,228,313642,5,2,0:0:0:0:
188,236,313715,1,2,0:0:0:0:
156,236,313788,1,2,0:0:0:0:
124,228,313861,1,2,0:0:0:0:
96,212,313934,1,2,0:0:0:0:
76,188,314008,1,2,0:0:0:0:
64,160,314081,1,2,0:0:0:0:
56,128,314154,1,2,0:0:0:0:
56,96,314227,1,2,0:0:0:0:
64,64,314300,1,2,0:0:0:0:
80,36,314373,102,2,B|100:28|128:36,3,45
140,128,314666,2,2,B|160:116|180:96,3,45
328,100,314959,2,2,B|344:116|364:128,3,45
424,36,315251,2,2,B|404:28|376:36,3,45
256,24,315544,5,2,0:0:0:0:
248,56,315617,1,2,0:0:0:0:
240,88,315691,2,2,B|228:132,1,45
272,252,315837,1,2,0:0:0:0:
280,220,315910,1,2,0:0:0:0:
288,188,315983,2,2,B|300:144,1,45
400,56,316130,1,2,0:0:0:0:
392,88,316203,1,2,0:0:0:0:
384,120,316276,2,2,B|372:164,1,45
424,288,316422,1,2,0:0:0:0:
432,256,316495,1,2,0:0:0:0:
440,224,316569,2,2,B|452:180,1,45
472,104,316715,2,0,B|468:52|468:52|408:0|328:32,1,197.99999409914,4|0,0:0|0:0,0:0:0:0:
300,336,322065,6,0,B|372:332|420:284,1,120
416,284,322279,1,0,0:0:0:0:
420,272,322351,1,0,0:0:0:0:
424,260,322422,1,0,0:0:0:0:
428,248,322494,5,0,0:0:0:0:
432,236,322565,1,0,0:0:0:0:
436,224,322637,1,0,0:0:0:0:
440,212,322708,1,0,0:0:0:0:
444,200,322779,1,0,0:0:0:0:
448,188,322851,1,0,0:0:0:0:
448,176,322922,1,0,0:0:0:0:
448,164,322994,1,0,0:0:0:0:
448,152,323065,1,0,0:0:0:0:
448,140,323137,1,0,0:0:0:0:
448,128,323208,1,0,0:0:0:0:
448,116,323279,1,0,0:0:0:0:
448,104,323351,1,0,0:0:0:0:
448,92,323422,1,0,0:0:0:0:
448,80,323494,1,0,0:0:0:0:
448,68,323565,1,0,0:0:0:0:
444,56,323637,1,0,0:0:0:0:
436,48,323708,1,0,0:0:0:0:
428,40,323779,1,0,0:0:0:0:
420,32,323851,1,0,0:0:0:0:
408,28,323922,1,0,0:0:0:0:
396,24,323994,1,0,0:0:0:0:
384,24,324065,1,0,0:0:0:0:
372,24,324137,1,0,0:0:0:0:
360,24,324208,1,0,0:0:0:0:
348,24,324279,1,0,0:0:0:0:
336,24,324351,1,0,0:0:0:0:
324,24,324422,1,0,0:0:0:0:
312,24,324494,1,0,0:0:0:0:
300,24,324565,1,0,0:0:0:0:
288,24,324637,1,0,0:0:0:0:
276,24,324708,1,0,0:0:0:0:
264,24,324779,5,0,0:0:0:0:
252,24,324851,1,0,0:0:0:0:
240,24,324922,1,0,0:0:0:0:
228,24,324994,1,0,0:0:0:0:
216,24,325065,1,0,0:0:0:0:
204,24,325137,1,0,0:0:0:0:
192,24,325208,1,0,0:0:0:0:
180,24,325279,1,0,0:0:0:0:
168,24,325351,1,0,0:0:0:0:
156,24,325422,1,0,0:0:0:0:
144,24,325494,1,0,0:0:0:0:
132,24,325565,1,0,0:0:0:0:
120,24,325637,1,0,0:0:0:0:
108,24,325708,1,0,0:0:0:0:
96,24,325779,1,0,0:0:0:0:
84,24,325851,1,0,0:0:0:0:
72,24,325922,1,0,0:0:0:0:
60,28,325994,1,0,0:0:0:0:
48,36,326065,1,0,0:0:0:0:
40,44,326137,1,0,0:0:0:0:
32,52,326208,1,0,0:0:0:0:
24,60,326279,1,0,0:0:0:0:
20,72,326351,1,0,0:0:0:0:
16,84,326422,1,0,0:0:0:0:
12,96,326494,1,0,0:0:0:0:
12,108,326565,1,0,0:0:0:0:
12,120,326637,1,0,0:0:0:0:
12,132,326708,1,0,0:0:0:0:
12,144,326779,1,0,0:0:0:0:
12,156,326851,1,0,0:0:0:0:
12,168,326922,1,0,0:0:0:0:
12,180,326994,1,0,0:0:0:0:
12,192,327065,5,0,0:0:0:0:
12,204,327137,1,0,0:0:0:0:
12,216,327208,1,0,0:0:0:0:
12,228,327279,1,0,0:0:0:0:
16,240,327351,1,0,0:0:0:0:
20,252,327422,1,0,0:0:0:0:
28,264,327494,1,0,0:0:0:0:
36,272,327565,1,0,0:0:0:0:
44,280,327637,1,0,0:0:0:0:
56,284,327708,1,0,0:0:0:0:
68,288,327779,1,0,0:0:0:0:
80,292,327851,1,0,0:0:0:0:
92,292,327922,1,0,0:0:0:0:
104,292,327994,1,0,0:0:0:0:
116,292,328065,1,0,0:0:0:0:
128,292,328137,1,0,0:0:0:0:
140,292,328208,1,0,0:0:0:0:
152,292,328279,1,0,0:0:0:0:
164,292,328351,1,0,0:0:0:0:
176,292,328422,1,0,0:0:0:0:
188,292,328494,1,0,0:0:0:0:
200,292,328565,1,0,0:0:0:0:
212,292,328637,1,0,0:0:0:0:
224,292,328708,1,0,0:0:0:0:
236,292,328779,1,0,0:0:0:0:
248,292,328851,1,0,0:0:0:0:
260,292,328922,1,0,0:0:0:0:
272,292,328994,1,0,0:0:0:0:
284,292,329065,1,0,0:0:0:0:
296,296,329137,1,0,0:0:0:0:
308,296,329208,1,0,0:0:0:0:
320,300,329279,1,0,0:0:0:0:
332,308,329351,5,0,0:0:0:0:
344,312,329422,1,0,0:0:0:0:
356,316,329494,1,0,0:0:0:0:
368,320,329565,1,0,0:0:0:0:
380,320,329637,1,0,0:0:0:0:
392,320,329708,1,0,0:0:0:0:
404,320,329779,1,0,0:0:0:0:
416,320,329851,1,0,0:0:0:0:
428,320,329922,1,0,0:0:0:0:
440,316,329994,1,0,0:0:0:0:
452,312,330065,1,0,0:0:0:0:
464,304,330137,1,0,0:0:0:0:
472,296,330208,1,0,0:0:0:0:
480,288,330279,1,0,0:0:0:0:
484,276,330351,1,0,0:0:0:0:
488,264,330422,1,0,0:0:0:0:
488,252,330494,1,0,0:0:0:0:
488,240,330565,1,0,0:0:0:0:
488,228,330637,1,0,0:0:0:0:
488,216,330708,1,0,0:0:0:0:
488,204,330779,1,0,0:0:0:0:
488,192,330851,1,0,0:0:0:0:
488,180,330922,1,0,0:0:0:0:
488,168,330994,1,0,0:0:0:0:
488,156,331065,1,0,0:0:0:0:
488,144,331137,1,0,0:0:0:0:
488,132,331208,1,0,0:0:0:0:
488,120,331279,1,0,0:0:0:0:
488,108,331351,2,0,B|488:52|488:52|424:24,1,120
308,24,331637,6,0,B|280:140,1,120
188,62,331922,2,0,B|279:140,1,120
368,220,332208,1,0,0:0:0:0:
368,220,332279,1,0,0:0:0:0:
368,220,332351,1,0,0:0:0:0:
368,220,332422,1,0,0:0:0:0:
368,220,332494,2,0,B|344:280|344:280|288:312,1,120
176,296,332779,6,0,B|116:184,1,120
237,209,333065,2,0,B|119:190,1,120
24,116,333351,1,0,0:0:0:0:
128,60,333494,1,0,0:0:0:0:
248,52,333637,2,0,B|288:96|288:96|360:112,1,120
460,72,333922,6,0,B|516:36,3,60
460,72,334208,2,0,B|408:28,3,60
460,72,334494,1,0,0:0:0:0:
460,104,334566,1,0,0:0:0:0:
460,132,334637,1,0,0:0:0:0:
460,160,334708,1,0,0:0:0:0:
460,188,334779,2,0,B|460:256|460:256|416:304,1,120
188,256,335065,5,0,0:0:0:0:
308,240,335208,1,0,0:0:0:0:
188,256,335351,1,0,0:0:0:0:
268,344,335494,1,0,0:0:0:0:
188,256,335637,2,0,B|136:284|136:284|64:280,1,120
35,173,335922,2,0,B|68:212|68:212|75:280,1,120
32,64,336208,6,0,B|176:16,1,120
260,64,336494,2,0,B|336:168,1,120
452,148,336779,2,0,B|456:24,1,120
452,148,337065,2,0,B|448:284,1,120
340,324,337351,2,0,B|200:304,1,120
221,307,337637,1,0,0:0:0:0:
132,228,337779,2,0,B|228:128,1,120
336,128,338065,2,0,B|412:248,1,120
336,128,338351,2,0,B|416:24,1,120
409,32,338637,1,0,0:0:0:0:
409,32,338779,2,0,B|276:32,1,120
369,121,339065,2,0,B|289:32,1,120
280,151,339351,2,0,B|289:32,1,120
168,52,339637,6,0,B|72:104,1,60
208,88,339779,2,0,B|168:144,1,60
260,108,339922,2,0,B|244:180,1,60
316,112,340065,2,0,B|328:184,1,60
332,292,340208,2,0,B|332:232,1,60
276,300,340351,2,0,B|260:232,1,60
220,312,340494,2,0,B|188:248,1,60
168,332,340637,2,0,B|120:284,1,60
84,248,340779,5,0,0:0:0:0:
56,232,340851,1,0,0:0:0:0:
40,208,340922,1,0,0:0:0:0:
28,180,340994,1,0,0:0:0:0:
24,152,341065,1,0,0:0:0:0:
24,120,341137,1,0,0:0:0:0:
32,92,341208,1,0,0:0:0:0:
40,64,341279,1,0,0:0:0:0:
60,40,341351,1,0,0:0:0:0:
84,24,341422,1,0,0:0:0:0:
112,16,341494,1,0,0:0:0:0:
140,12,341565,1,0,0:0:0:0:
172,12,341637,1,0,0:0:0:0:
200,12,341708,1,0,0:0:0:0:
228,12,341779,1,0,0:0:0:0:
260,12,341851,1,0,0:0:0:0:
288,12,341922,1,0,0:0:0:0:
320,12,341994,1,0,0:0:0:0:
348,12,342065,1,0,0:0:0:0:
376,16,342137,1,0,0:0:0:0:
404,24,342208,1,0,0:0:0:0:
432,32,342279,1,0,0:0:0:0:
456,52,342351,1,0,0:0:0:0:
472,80,342422,1,0,0:0:0:0:
480,108,342494,1,0,0:0:0:0:
480,136,342565,1,0,0:0:0:0:
480,168,342637,1,0,0:0:0:0:
480,196,342708,1,0,0:0:0:0:
480,224,342779,1,0,0:0:0:0:
480,256,342851,1,0,0:0:0:0:
480,284,342922,1,0,0:0:0:0:
480,316,342994,1,0,0:0:0:0:
480,344,343065,5,0,0:0:0:0:
468,344,343137,1,0,0:0:0:0:
456,344,343208,1,0,0:0:0:0:
444,344,343279,1,0,0:0:0:0:
432,344,343351,1,0,0:0:0:0:
420,344,343422,1,0,0:0:0:0:
408,344,343494,1,0,0:0:0:0:
396,344,343565,1,0,0:0:0:0:
384,344,343637,1,0,0:0:0:0:
372,344,343708,1,0,0:0:0:0:
360,344,343779,1,0,0:0:0:0:
348,344,343851,1,0,0:0:0:0:
336,344,343922,1,0,0:0:0:0:
324,344,343994,1,0,0:0:0:0:
312,344,344065,1,0,0:0:0:0:
300,344,344137,1,0,0:0:0:0:
288,344,344208,1,0,0:0:0:0:
276,344,344279,1,0,0:0:0:0:
264,344,344351,1,0,0:0:0:0:
252,344,344422,1,0,0:0:0:0:
240,344,344494,1,0,0:0:0:0:
228,344,344565,1,0,0:0:0:0:
216,344,344637,1,0,0:0:0:0:
204,344,344708,1,0,0:0:0:0:
192,344,344779,1,0,0:0:0:0:
180,344,344851,1,0,0:0:0:0:
168,344,344922,1,0,0:0:0:0:
156,344,344994,1,0,0:0:0:0:
144,344,345065,1,0,0:0:0:0:
132,344,345137,1,0,0:0:0:0:
120,344,345208,1,0,0:0:0:0:
108,344,345279,1,0,0:0:0:0:
96,344,345351,6,0,B|0:256|48:120,1,240
56,116,345708,1,0,0:0:0:0:
68,108,345779,1,0,0:0:0:0:
80,100,345851,1,0,0:0:0:0:
92,92,345922,1,0,0:0:0:0:
104,84,345994,1,0,0:0:0:0:
116,76,346065,1,0,0:0:0:0:
128,68,346137,1,0,0:0:0:0:
140,60,346208,1,0,0:0:0:0:
152,52,346279,1,0,0:0:0:0:
164,44,346351,1,0,0:0:0:0:
176,40,346422,1,0,0:0:0:0:
188,36,346494,1,0,0:0:0:0:
200,32,346565,1,0,0:0:0:0:
212,28,346637,1,0,0:0:0:0:
224,28,346708,1,0,0:0:0:0:
236,28,346779,1,0,0:0:0:0:
248,28,346851,1,0,0:0:0:0:
260,28,346922,1,0,0:0:0:0:
272,28,346994,1,0,0:0:0:0:
284,28,347065,1,0,0:0:0:0:
296,28,347137,1,0,0:0:0:0:
308,28,347208,1,0,0:0:0:0:
320,28,347279,1,0,0:0:0:0:
332,28,347351,1,0,0:0:0:0:
344,28,347422,1,0,0:0:0:0:
356,28,347494,1,0,0:0:0:0:
368,28,347565,1,0,0:0:0:0:
376,28,347637,5,0,0:0:0:0:
404,36,347708,1,0,0:0:0:0:
428,52,347779,1,0,0:0:0:0:
448,76,347851,1,0,0:0:0:0:
460,104,347922,1,0,0:0:0:0:
468,132,347994,1,0,0:0:0:0:
468,160,348065,1,0,0:0:0:0:
460,188,348137,1,0,0:0:0:0:
444,212,348208,1,0,0:0:0:0:
420,232,348279,1,0,0:0:0:0:
396,248,348351,1,0,0:0:0:0:
368,260,348422,1,0,0:0:0:0:
340,268,348494,1,0,0:0:0:0:
312,268,348565,1,0,0:0:0:0:
280,268,348637,1,0,0:0:0:0:
252,264,348708,1,0,0:0:0:0:
224,256,348779,1,0,0:0:0:0:
196,244,348851,1,0,0:0:0:0:
176,224,348922,1,0,0:0:0:0:
160,200,348994,1,0,0:0:0:0:
152,172,349065,1,0,0:0:0:0:
152,140,349137,1,0,0:0:0:0:
156,112,349208,1,0,0:0:0:0:
172,88,349279,1,0,0:0:0:0:
196,72,349351,1,0,0:0:0:0:
224,64,349422,1,0,0:0:0:0:
256,64,349494,1,0,0:0:0:0:
284,76,349565,1,0,0:0:0:0:
300,100,349637,1,0,0:0:0:0:
304,128,349708,1,0,0:0:0:0:
292,156,349779,1,0,0:0:0:0:
268,172,349851,1,0,0:0:0:0:
240,176,349922,6,0,B|192:140|192:140|116:132,1,120
56,224,350208,2,0,B|128:336,1,120
120,324,350494,1,0,0:0:0:0:
56,224,350637,2,0,B|208:256,1,120
173,248,350922,1,0,0:0:0:0:
56,224,351065,2,0,B|160:148,1,120
56,224,351351,2,0,B|60:104,1,120
164,40,351637,1,0,0:0:0:0:
284,40,351779,1,0,0:0:0:0:
400,64,351922,1,0,0:0:0:0:
496,136,352065,1,0,0:0:0:0:
496,256,352208,6,0,B|396:332|228:332,1,240
271,330,352637,1,0,0:0:0:0:
271,330,352779,2,0,B|168:248|36:288,1,240
45,285,353208,1,0,0:0:0:0:
45,285,353351,2,0,B|40:164|148:36,1,240
125,64,353779,1,0,0:0:0:0:
125,64,353922,2,0,B|240:112|376:76,1,240
361,79,354351,1,0,0:0:0:0:
452,156,354494,5,0,0:0:0:0:
492,268,354637,1,0,0:0:0:0:
452,156,354779,1,0,0:0:0:0:
408,268,354922,1,0,0:0:0:0:
452,156,355065,1,0,0:0:0:0:
340,196,355208,1,0,0:0:0:0:
452,156,355351,1,0,0:0:0:0:
352,88,355494,1,0,0:0:0:0:
240,44,355637,2,0,B|120:32,1,120
240,44,355922,2,0,B|112:112,1,120
134,100,356208,1,0,0:0:0:0:
240,44,356351,2,0,B|184:160,1,120
187,152,356637,1,0,0:0:0:0:
132,260,356779,6,0,B|228:360|384:300,1,240
353,310,357208,1,0,0:0:0:0:
353,310,357351,2,0,B|396:188|488:112,1,240
485,113,357779,1,0,0:0:0:0:
485,113,357922,2,0,B|392:36|256:32,1,240
264,32,358351,1,0,0:0:0:0:
148,68,358494,1,0,0:0:0:0:
148,96,358565,1,0,0:0:0:0:
144,128,358637,1,0,0:0:0:0:
132,156,358708,1,0,0:0:0:0:
112,176,358779,2,0,B|56:212|56:212|40:268,1,120
152,312,359065,6,0,B|268:376,1,120
257,369,359351,2,0,B|392:316,1,120
368,325,359637,2,0,B|436:212,1,120
429,222,359922,2,0,B|432:88,1,120
431,102,360208,2,0,B|308:24,1,120
330,38,360494,2,0,B|204:48,1,120
210,47,360779,2,0,B|100:92,1,120
99,92,361065,2,0,B|32:216,1,120
42,197,361351,6,0,B|100:316|236:336,1,240
227,334,361779,1,0,0:0:0:0:
227,334,361922,2,0,B|304:272|464:248,1,240
449,250,362351,1,0,0:0:0:0:
449,250,362494,2,0,B|484:120|408:8,1,240
415,19,362922,1,0,0:0:0:0:
415,19,363065,2,0,B|284:100|144:92,1,240
189,92,363494,1,0,0:0:0:0:
68,92,363637,6,0,B|20:208,1,120
132,256,363922,2,0,B|260:192,1,120
360,184,364208,2,0,B|404:312,1,120
280,288,364494,2,0,B|408:232,1,120
472,152,364779,2,0,B|432:20,1,120
352,124,365065,2,0,B|232:204,1,120
132,180,365351,2,0,B|8:88,1,120
152,80,365637,2,0,B|240:0,1,120
360,12,365922,6,0,B|476:104|432:224,1,240
432,222,366351,1,0,0:0:0:0:
432,222,366494,2,0,B|200:316,1,240
209,312,366922,1,0,0:0:0:0:
140,216,367065,1,0,0:0:0:0:
140,216,367137,1,0,0:0:0:0:
140,216,367208,1,0,0:0:0:0:
140,216,367279,1,0,0:0:0:0:
140,216,367351,1,0,0:0:0:0:
140,216,367422,1,0,0:0:0:0:
140,216,367494,1,0,0:0:0:0:
140,216,367565,1,0,0:0:0:0:
140,216,367637,1,0,0:0:0:0:
140,216,367708,1,0,0:0:0:0:
140,216,367779,1,0,0:0:0:0:
140,216,367851,1,0,0:0:0:0:
140,216,367922,1,0,0:0:0:0:
140,216,367994,1,0,0:0:0:0:
140,216,368065,1,0,0:0:0:0:
192,108,368208,5,0,0:0:0:0:
208,88,368351,1,0,0:0:0:0:
228,76,368494,1,0,0:0:0:0:
252,68,368637,1,0,0:0:0:0:
276,64,368779,1,0,0:0:0:0:
300,64,368922,1,0,0:0:0:0:
324,64,369065,1,0,0:0:0:0:
348,68,369208,1,0,0:0:0:0:
372,76,369351,1,0,0:0:0:0:
392,88,369494,1,0,0:0:0:0:
408,104,369637,1,0,0:0:0:0:
420,124,369779,1,0,0:0:0:0:
428,148,369922,1,0,0:0:0:0:
432,172,370065,1,0,0:0:0:0:
432,196,370208,1,0,0:0:0:0:
424,220,370351,1,0,0:0:0:0:
412,240,370494,6,0,B|176:336,1,240
189,330,370922,1,0,0:0:0:0:
189,330,371065,2,0,B|8:172,1,241.199982201081
8,172,371494,1,0,0:0:0:0:
72,156,371637,1,0,0:0:0:0:
84,152,371708,1,0,0:0:0:0:
84,136,371779,1,0,0:0:0:0:
80,124,371851,1,0,0:0:0:0:
96,116,371922,1,0,0:0:0:0:
96,104,371994,1,0,0:0:0:0:
116,100,372065,1,0,0:0:0:0:
128,92,372137,1,0,0:0:0:0:
116,76,372208,1,0,0:0:0:0:
116,64,372279,1,0,0:0:0:0:
136,64,372351,1,0,0:0:0:0:
148,64,372422,1,0,0:0:0:0:
152,48,372494,1,0,0:0:0:0:
160,36,372565,1,0,0:0:0:0:
176,40,372637,1,0,0:0:0:0:
296,36,372779,6,0,B|428:76,1,120
472,176,373065,2,0,B|360:292,1,120
270,285,373351,2,0,B|388:262,1,120
388,140,373637,2,0,B|264:88,1,120
176,156,373922,2,0,B|188:284,1,120
92,348,374208,2,0,B|-4:276,1,120
8,156,374494,2,0,B|116:64,1,120
213,115,374779,2,0,B|99:78,1,120
204,20,375065,6,0,B|324:44,1,120
321,43,375351,1,0,0:0:0:0:
260,148,375494,1,0,0:0:0:0:
321,43,375637,2,0,B|408:136,1,120
403,131,375922,1,0,0:0:0:0:
508,76,376065,1,0,0:0:0:0:
403,131,376208,2,0,B|444:248,1,120
442,244,376494,1,0,0:0:0:0:
348,320,376637,1,0,0:0:0:0:
232,284,376779,1,0,0:0:0:0:
232,284,376922,1,0,0:0:0:0:
232,284,377065,1,0,0:0:0:0:
232,284,377208,1,0,0:0:0:0:
232,284,377351,5,0,0:0:0:0:
220,284,377422,1,0,0:0:0:0:
208,284,377494,1,0,0:0:0:0:
196,284,377565,1,0,0:0:0:0:
184,284,377637,1,0,0:0:0:0:
172,284,377708,1,0,0:0:0:0:
160,284,377779,1,0,0:0:0:0:
148,284,377851,1,0,0:0:0:0:
136,284,377922,1,0,0:0:0:0:
124,284,377994,1,0,0:0:0:0:
112,284,378065,1,0,0:0:0:0:
100,284,378137,1,0,0:0:0:0:
88,284,378208,1,0,0:0:0:0:
76,284,378279,1,0,0:0:0:0:
64,284,378351,1,0,0:0:0:0:
52,284,378422,1,0,0:0:0:0:
40,280,378494,1,0,0:0:0:0:
32,272,378565,1,0,0:0:0:0:
24,264,378637,1,0,0:0:0:0:
20,252,378708,1,0,0:0:0:0:
20,240,378779,1,0,0:0:0:0:
20,228,378851,1,0,0:0:0:0:
20,216,378922,1,0,0:0:0:0:
20,204,378994,1,0,0:0:0:0:
20,192,379065,1,0,0:0:0:0:
20,180,379137,1,0,0:0:0:0:
20,168,379208,1,0,0:0:0:0:
20,156,379279,1,0,0:0:0:0:
20,144,379351,1,0,0:0:0:0:
20,132,379422,1,0,0:0:0:0:
20,120,379494,1,0,0:0:0:0:
20,108,379565,1,0,0:0:0:0:
20,96,379637,5,0,0:0:0:0:
20,84,379708,1,0,0:0:0:0:
20,72,379779,1,0,0:0:0:0:
20,60,379851,1,0,0:0:0:0:
24,48,379922,1,0,0:0:0:0:
28,36,379994,1,0,0:0:0:0:
36,28,380065,1,0,0:0:0:0:
44,20,380137,1,0,0:0:0:0:
56,12,380208,1,0,0:0:0:0:
68,8,380279,1,0,0:0:0:0:
80,8,380351,1,0,0:0:0:0:
92,8,380422,1,0,0:0:0:0:
104,8,380494,1,0,0:0:0:0:
116,8,380565,1,0,0:0:0:0:
128,8,380637,1,0,0:0:0:0:
140,8,380708,1,0,0:0:0:0:
152,8,380779,1,0,0:0:0:0:
164,8,380851,1,0,0:0:0:0:
176,8,380922,1,0,0:0:0:0:
188,8,380994,1,0,0:0:0:0:
200,8,381065,1,0,0:0:0:0:
212,8,381137,1,0,0:0:0:0:
224,8,381208,1,0,0:0:0:0:
236,8,381279,1,0,0:0:0:0:
248,8,381351,1,0,0:0:0:0:
260,8,381422,1,0,0:0:0:0:
272,8,381494,1,0,0:0:0:0:
284,8,381565,1,0,0:0:0:0:
296,8,381637,1,0,0:0:0:0:
308,8,381708,1,0,0:0:0:0:
320,8,381779,1,0,0:0:0:0:
332,8,381851,1,0,0:0:0:0:
344,8,381922,5,0,0:0:0:0:
356,8,381994,1,0,0:0:0:0:
368,12,382065,1,0,0:0:0:0:
376,20,382137,1,0,0:0:0:0:
384,28,382208,1,0,0:0:0:0:
392,36,382279,1,0,0:0:0:0:
396,48,382351,1,0,0:0:0:0:
396,60,382422,1,0,0:0:0:0:
396,72,382494,1,0,0:0:0:0:
396,84,382565,1,0,0:0:0:0:
392,96,382637,1,0,0:0:0:0:
388,108,382708,1,0,0:0:0:0:
384,120,382779,1,0,0:0:0:0:
380,132,382851,1,0,0:0:0:0:
380,144,382922,1,0,0:0:0:0:
380,156,382994,1,0,0:0:0:0:
380,168,383065,1,0,0:0:0:0:
384,180,383137,1,0,0:0:0:0:
388,192,383208,1,0,0:0:0:0:
392,204,383279,1,0,0:0:0:0:
400,216,383351,1,0,0:0:0:0:
408,224,383422,1,0,0:0:0:0:
416,232,383494,1,0,0:0:0:0:
424,244,383565,1,0,0:0:0:0:
432,256,383637,1,0,0:0:0:0:
436,268,383708,1,0,0:0:0:0:
440,280,383779,1,0,0:0:0:0:
440,292,383851,1,0,0:0:0:0:
440,304,383922,1,0,0:0:0:0:
440,316,383994,1,0,0:0:0:0:
436,328,384065,1,0,0:0:0:0:
428,336,384137,1,0,0:0:0:0:
420,344,384208,5,0,0:0:0:0:
412,352,384279,1,0,0:0:0:0:
400,360,384351,1,0,0:0:0:0:
388,364,384422,1,0,0:0:0:0:
376,368,384494,1,0,0:0:0:0:
364,368,384565,1,0,0:0:0:0:
352,368,384637,1,0,0:0:0:0:
340,368,384708,1,0,0:0:0:0:
328,364,384779,1,0,0:0:0:0:
316,360,384851,1,0,0:0:0:0:
304,356,384922,1,0,0:0:0:0:
292,352,384994,1,0,0:0:0:0:
284,344,385065,1,0,0:0:0:0:
276,336,385137,1,0,0:0:0:0:
268,328,385208,1,0,0:0:0:0:
260,320,385279,1,0,0:0:0:0:
248,312,385351,1,0,0:0:0:0:
240,304,385422,1,0,0:0:0:0:
228,300,385494,1,0,0:0:0:0:
216,296,385565,1,0,0:0:0:0:
204,292,385637,1,0,0:0:0:0:
192,292,385708,1,0,0:0:0:0:
180,292,385779,1,0,0:0:0:0:
168,292,385851,1,0,0:0:0:0:
156,292,385922,1,0,0:0:0:0:
144,296,385994,1,0,0:0:0:0:
132,300,386065,1,0,0:0:0:0:
120,304,386137,1,0,0:0:0:0:
108,308,386208,1,0,0:0:0:0:
96,308,386279,1,0,0:0:0:0:
84,308,386351,1,0,0:0:0:0:
72,308,386422,1,0,0:0:0:0:
448,128,393494,5,6,0:0:0:0:
416,104,393562,1,0,0:0:0:0:
376,96,393630,1,0,0:0:0:0:
336,104,393699,1,0,0:0:0:0:
304,120,393767,1,0,0:0:0:0:
264,128,393835,1,0,0:0:0:0:
224,128,393903,1,0,0:0:0:0:
192,112,393971,1,0,0:0:0:0:
152,96,394040,2,0,B|120:72,3,40,2|0|0|0,0:0|0:0|0:0|0:0,0:0:0:0:
80,64,394312,2,0,B|40:80,3,40
16,112,394585,5,6,0:0:0:0:
8,152,394653,1,0,0:0:0:0:
24,192,394721,1,0,0:0:0:0:
56,216,394790,1,0,0:0:0:0:
96,224,394858,1,0,0:0:0:0:
136,224,394926,1,0,0:0:0:0:
168,208,394994,1,0,0:0:0:0:
200,184,395062,1,0,0:0:0:0:
216,144,395130,2,0,B|208:96,3,40,2|0|0|0,0:0|0:0|0:0|0:0,0:0:0:0:
208,64,395403,6,2,B|288:8|376:64,1,160,2|6,0:0|0:0,0:0:0:0:
400,64,395744,1,0,0:0:0:0:
416,104,395812,1,0,0:0:0:0:
416,144,395880,1,0,0:0:0:0:
400,176,395949,1,0,0:0:0:0:
368,200,396017,1,0,0:0:0:0:
328,208,396085,1,0,0:0:0:0:
288,192,396153,1,0,0:0:0:0:
280,152,396221,5,2,0:0:0:0:
304,120,396290,1,0,0:0:0:0:
344,112,396358,1,0,0:0:0:0:
384,120,396426,1,0,0:0:0:0:
416,144,396494,1,0,0:0:0:0:
440,176,396562,1,0,0:0:0:0:
456,216,396630,1,0,0:0:0:0:
456,256,396699,1,0,0:0:0:0:
440,296,396767,5,6,0:0:0:0:
408,320,396835,1,0,0:0:0:0:
368,328,396903,1,0,0:0:0:0:
328,320,396971,1,0,0:0:0:0:
296,296,397040,2,0,B|272:256,3,40,2|0|0|0,0:0|0:0|0:0|0:0,0:0:0:0:
248,232,397312,1,0,0:0:0:0:
216,208,397380,1,0,0:0:0:0:
176,192,397449,1,0,0:0:0:0:
136,192,397517,1,0,0:0:0:0:
104,208,397585,1,2,0:0:0:0:
80,240,397653,1,0,0:0:0:0:
80,280,397721,1,0,0:0:0:0:
200,352,397858,5,6,0:0:0:0:
240,352,397926,1,0,0:0:0:0:
272,328,397994,1,0,0:0:0:0:
296,296,398062,1,0,0:0:0:0:
304,256,398130,1,0,0:0:0:0:
304,216,398199,1,0,0:0:0:0:
296,176,398267,1,0,0:0:0:0:
280,144,398335,1,0,0:0:0:0:
248,120,398403,1,0,0:0:0:0:
216,104,398471,1,0,0:0:0:0:
176,96,398540,1,0,0:0:0:0:
136,96,398608,1,0,0:0:0:0:
96,104,398676,2,0,B|56:136,2,40,2|0|0,0:0|0:0|0:0,0:0:0:0:
80,240,398949,5,6,0:0:0:0:
88,280,399017,1,0,0:0:0:0:
120,304,399085,1,0,0:0:0:0:
160,320,399153,1,0,0:0:0:0:
200,320,399221,1,0,0:0:0:0:
240,312,399290,1,0,0:0:0:0:
272,288,399358,1,0,0:0:0:0:
304,256,399426,1,0,0:0:0:0:
328,224,399494,1,0,0:0:0:0:
368,216,399562,1,0,0:0:0:0:
408,224,399630,1,0,0:0:0:0:
440,256,399699,1,0,0:0:0:0:
456,288,399767,2,0,B|480:320,2,40,2|0|0,0:0|0:0|0:0,0:0:0:0:
336,352,400040,5,6,0:0:0:0:
296,360,400108,1,0,0:0:0:0:
256,352,400176,1,0,0:0:0:0:
224,328,400244,1,0,0:0:0:0:
216,288,400312,1,0,0:0:0:0:
224,248,400380,1,0,0:0:0:0:
248,216,400449,1,0,0:0:0:0:
288,208,400517,1,0,0:0:0:0:
328,216,400585,5,2,0:0:0:0:
360,232,400653,1,0,0:0:0:0:
392,256,400721,1,0,0:0:0:0:
432,272,400790,1,0,0:0:0:0:
472,272,400858,1,0,0:0:0:0:
504,248,400926,1,0,0:0:0:0:
504,208,400994,1,0,0:0:0:0:
488,176,401062,1,0,0:0:0:0:
456,160,401130,2,0,B|424:184,3,40,6|0|0|0,0:0|0:0|0:0|0:0,0:0:0:0:
352,144,401403,2,0,B|336:184,3,40
376,232,401676,5,6,0:0:0:0:
456,160,401812,1,0,0:0:0:0:
420,60,401949,1,6,0:0:0:0:
320,28,402085,1,2,0:0:0:0:
184,24,402221,5,6,0:0:0:0:
72,68,402358,1,0,0:0:0:0:
44,184,402494,1,0,0:0:0:0:
128,268,402630,2,2,B|180:296|256:272|264:196,1,160,2|0,0:0|0:0,0:0:0:0:
212,108,403040,2,0,B|248:80|296:96,1,80,2|0,0:0|0:0,0:0:0:0:
344,200,403312,5,6,0:0:0:0:
400,256,403449,1,0,0:0:0:0:
376,328,403585,1,2,0:0:0:0:
296,344,403721,1,0,0:0:0:0:
240,280,403858,1,2,0:0:0:0:
200,272,403926,1,0,0:0:0:0:
160,272,403994,1,2,0:0:0:0:
120,288,404062,1,2,0:0:0:0:
88,304,404130,2,0,B|48:336,3,40,2|0|0|0,0:0|0:0|0:0|0:0,0:0:0:0:
24,304,404403,5,6,0:0:0:0:
8,272,404471,1,0,0:0:0:0:
8,232,404540,1,0,0:0:0:0:
24,200,404608,1,0,0:0:0:0:
56,176,404676,1,2,0:0:0:0:
96,168,404744,1,0,0:0:0:0:
136,176,404812,1,0,0:0:0:0:
176,184,404880,1,0,0:0:0:0:
216,192,404949,1,0,0:0:0:0:
256,184,405017,1,0,0:0:0:0:
288,168,405085,1,0,0:0:0:0:
312,136,405153,1,0,0:0:0:0:
328,96,405221,1,2,0:0:0:0:
320,56,405290,1,0,0:0:0:0:
288,32,405358,1,0,0:0:0:0:
248,24,405426,1,0,0:0:0:0:
208,32,405494,6,0,B|168:48,3,40,6|0|0|0,0:0|0:0|0:0|0:0,0:0:0:0:
136,32,405767,2,0,B|104:64,3,40,2|0|0|0,0:0|0:0|0:0|0:0,0:0:0:0:
88,96,406040,1,0,0:0:0:0:
96,136,406108,1,0,0:0:0:0:
128,160,406176,1,0,0:0:0:0:
168,168,406244,1,0,0:0:0:0:
208,160,406312,1,2,0:0:0:0:
240,136,406380,1,0,0:0:0:0:
248,96,406449,1,0,0:0:0:0:
248,96,406517,1,0,0:0:0:0:
248,96,406585,2,0,B|240:48,3,40,6|0|0|0,0:0|0:0|0:0|0:0,0:0:0:0:
296,16,406858,6,0,B|336:32,3,40,2|0|0|0,0:0|0:0|0:0|0:0,0:0:0:0:
400,32,407130,2,0,B|416:80,3,40,2|0|0|0,0:0|0:0|0:0|0:0,0:0:0:0:
416,112,407403,1,2,0:0:0:0:
400,152,407471,1,0,0:0:0:0:
368,168,407540,1,0,0:0:0:0:
328,168,407608,1,0,0:0:0:0:
288,152,407676,1,6,0:0:0:0:
248,136,407744,1,0,0:0:0:0:
208,136,407812,5,0,0:0:0:0:
176,152,407880,1,0,0:0:0:0:
152,184,407949,1,0,0:0:0:0:
152,224,408017,1,0,0:0:0:0:
168,256,408085,1,0,0:0:0:0:
200,272,408153,1,0,0:0:0:0:
240,280,408221,2,0,B|288:264,3,40,2|0|0|0,0:0|0:0|0:0|0:0,0:0:0:0:
304,296,408494,2,0,B|352:304,3,40,2|0|0|0,0:0|0:0|0:0|0:0,0:0:0:0:
384,320,408767,5,6,0:0:0:0:
416,336,408835,1,0,0:0:0:0:
456,336,408903,1,0,0:0:0:0:
488,312,408971,1,0,0:0:0:0:
488,272,409040,1,0,0:0:0:0:
464,240,409108,1,0,0:0:0:0:
432,224,409176,2,0,B|408:216|384:232,1,40
336,280,409312,5,2,0:0:0:0:
304,296,409380,1,0,0:0:0:0:
264,296,409448,1,0,0:0:0:0:
232,272,409516,1,0,0:0:0:0:
232,232,409585,1,0,0:0:0:0:
256,200,409653,1,0,0:0:0:0:
288,184,409721,2,0,B|312:176|336:192,1,40
400,208,409858,5,6,0:0:0:0:
432,224,409926,1,0,0:0:0:0:
472,228,409994,1,0,0:0:0:0:
504,208,410062,1,0,0:0:0:0:
512,168,410131,1,0,0:0:0:0:
484,140,410199,1,0,0:0:0:0:
448,128,410267,2,0,B|424:132|404:148,1,40
336,104,410403,5,2,0:0:0:0:
320,64,410471,1,0,0:0:0:0:
324,24,410540,1,0,0:0:0:0:
352,0,410608,1,0,0:0:0:0:
392,0,410676,1,0,0:0:0:0:
424,16,410744,1,0,0:0:0:0:
432,56,410812,2,0,B|428:84|404:100,1,40
328,144,410949,5,6,0:0:0:0:
292,164,411017,1,0,0:0:0:0:
252,160,411085,1,0,0:0:0:0:
220,136,411153,1,0,0:0:0:0:
204,100,411221,2,0,B|192:60,3,40,2|0|0|0,0:0|0:0|0:0|0:0,0:0:0:0:
120,28,411494,1,2,0:0:0:0:
92,56,411562,1,0,0:0:0:0:
88,96,411630,1,0,0:0:0:0:
104,132,411699,1,0,0:0:0:0:
136,156,411767,2,0,B|184:140,3,40,2|0|0|0,0:0|0:0|0:0|0:0,0:0:0:0:
212,164,412040,6,0,B|252:172,3,40,6|0|0|0,0:0|0:0|0:0|0:0,0:0:0:0:
292,164,412312,2,0,B|324:140,3,40,2|0|0|0,0:0|0:0|0:0|0:0,0:0:0:0:
368,128,412585,1,2,0:0:0:0:
408,120,412653,1,0,0:0:0:0:
440,136,412721,1,0,0:0:0:0:
464,168,412790,1,0,0:0:0:0:
472,208,412858,1,2,0:0:0:0:
456,248,412926,1,0,0:0:0:0:
424,272,412994,1,0,0:0:0:0:
384,272,413062,1,0,0:0:0:0:
344,256,413130,6,0,B|312:224,3,40,6|0|0|0,0:0|0:0|0:0|0:0,0:0:0:0:
248,264,413403,2,0,B|232:200,3,40,6|0|0|0,0:0|0:0|0:0|0:0,0:0:0:0:
208,152,413676,1,6,0:0:0:0:
184,120,413744,1,0,0:0:0:0:
144,104,413812,1,0,0:0:0:0:
104,104,413880,1,0,0:0:0:0:
72,120,413949,2,0,B|48:160,3,40,6|0|0|0,0:0|0:0|0:0|0:0,0:0:0:0:
56,232,414221,5,6,0:0:0:0:
88,264,414290,1,0,0:0:0:0:
128,280,414358,1,0,0:0:0:0:
168,280,414426,1,0,0:0:0:0:
200,264,414494,1,2,0:0:0:0:
232,232,414562,1,0,0:0:0:0:
256,200,414630,1,0,0:0:0:0:
288,176,414699,1,0,0:0:0:0:
328,168,414767,2,0,B|368:176,3,40,2|0|0|0,0:0|0:0|0:0|0:0,0:0:0:0:
440,216,415040,5,6,0:0:0:0:
472,200,415108,1,0,0:0:0:0:
488,168,415176,1,0,0:0:0:0:
496,128,415244,1,0,0:0:0:0:
480,88,415312,1,6,0:0:0:0:
440,72,415380,1,0,0:0:0:0:
400,72,415449,1,0,0:0:0:0:
368,96,415517,1,0,0:0:0:0:
328,112,415585,2,0,B|288:80,3,40,6|0|0|0,0:0|0:0|0:0|0:0,0:0:0:0:
264,64,415858,1,6,0:0:0:0:
232,48,415926,1,0,0:0:0:0:
192,48,415994,1,0,0:0:0:0:
160,64,416062,1,0,0:0:0:0:
136,96,416130,1,6,0:0:0:0:
128,136,416199,1,0,0:0:0:0:
136,176,416267,1,0,0:0:0:0:
168,208,416335,1,0,0:0:0:0:
200,216,416403,2,0,B|264:200,3,40,6|0|0|0,0:0|0:0|0:0|0:0,0:0:0:0:
312,184,416676,5,2,0:0:0:0:
352,168,416744,1,0,0:0:0:0:
392,168,416812,1,0,0:0:0:0:
432,184,416880,1,0,0:0:0:0:
464,208,416949,2,0,B|472:248,3,40,2|0|0|0,0:0|0:0|0:0|0:0,0:0:0:0:
504,272,417221,2,0,B|488:320,3,40,2|0|0|0,0:0|0:0|0:0|0:0,0:0:0:0:
416,336,417494,5,6,0:0:0:0:
336,344,417630,1,6,0:0:0:0:
264,312,417767,1,0,0:0:0:0:
224,240,417903,1,6,0:0:0:0:
368,48,418176,5,2,0:0:0:0:
344,120,418312,1,0,0:0:0:0:
424,104,418449,2,2,B|480:160|440:240|360:232,1,160,2|0,0:0|0:0,0:0:0:0:
352,232,418790,1,0,0:0:0:0:
320,216,418858,2,0,B|288:192,3,40,2|0|0|0,0:0|0:0|0:0|0:0,0:0:0:0:
248,176,419131,1,0,0:0:0:0:
208,168,419199,1,0,0:0:0:0:
176,136,419267,1,2,0:0:0:0:
168,96,419335,1,0,0:0:0:0:
176,56,419403,1,2,0:0:0:0:
200,24,419471,1,0,0:0:0:0:
240,8,419540,1,0,0:0:0:0:
280,16,419608,1,0,0:0:0:0:
320,32,419676,5,6,0:0:0:0:
400,56,419812,1,0,0:0:0:0:
432,128,419949,1,2,0:0:0:0:
400,200,420086,2,2,B|312:168|248:224,1,160,2|0,0:0|0:0,0:0:0:0:
224,296,420495,1,0,0:0:0:0:
152,336,420630,1,0,0:0:0:0:
88,280,420767,2,2,B|4:217|32:104|130:51|213:113,1,320
199,103,421585,1,2,0:0:0:0:
224,176,421721,1,0,0:0:0:0:
304,200,421858,6,0,B|344:176|360:144,1,80,6|0,0:0|0:0,0:0:0:0:
336,64,422130,1,0,0:0:0:0:
456,40,422267,2,0,B|496:64|512:96,1,80,6|0,0:0|0:0,0:0:0:0:
472,168,422539,1,0,0:0:0:0:
400,264,422676,2,0,B|360:240|344:208,1,80,6|0,0:0|0:0,0:0:0:0:
296,144,422948,1,0,0:0:0:0:
184,184,423085,2,0,B|144:208|128:240,1,80,6|0,0:0|0:0,0:0:0:0:
120,320,423357,1,2,0:0:0:0:
192,352,423494,1,0,0:0:0:0:
272,348,423630,1,2,0:0:0:0:
344,312,423767,1,2,0:0:0:0:
408,212,423903,1,0,0:0:0:0:
420,92,424040,5,6,0:0:0:0:
388,68,424108,1,0,0:0:0:0:
360,72,424176,2,0,B|320:56,3,40
240,64,424449,1,6,0:0:0:0:
200,72,424517,1,0,0:0:0:0:
160,64,424585,2,0,B|120:48,3,40
48,72,424858,1,6,0:0:0:0:
32,104,424926,1,0,0:0:0:0:
40,144,424994,1,0,0:0:0:0:
72,168,425062,1,0,0:0:0:0:
112,176,425130,6,0,B|160:160,3,40,6|0|0|0,0:0|0:0|0:0|0:0,0:0:0:0:
184,184,425403,2,0,B|232:192,3,40,6|0|0|0,0:0|0:0|0:0|0:0,0:0:0:0:
264,176,425676,1,6,0:0:0:0:
304,168,425744,1,0,0:0:0:0:
344,176,425812,1,0,0:0:0:0:
376,200,425880,1,0,0:0:0:0:
392,232,425949,1,6,0:0:0:0:
384,272,426017,1,0,0:0:0:0:
352,296,426085,1,0,0:0:0:0:
312,296,426153,1,0,0:0:0:0:
272,288,426221,6,0,B|240:264,3,40,6|0|0|0,0:0|0:0|0:0|0:0,0:0:0:0:
200,280,426494,2,0,B|144:288,3,40,6|0|0|0,0:0|0:0|0:0|0:0,0:0:0:0:
120,280,426767,2,0,B|88:248,3,40,6|0|0|0,0:0|0:0|0:0|0:0,0:0:0:0:
72,216,427040,1,2,0:0:0:0:
48,144,427176,1,0,0:0:0:0:
88,72,427312,1,6,0:0:0:0:
168,48,427449,1,2,0:0:0:0:
248,64,427585,1,0,0:0:0:0:
312,112,427721,1,2,0:0:0:0:
384,144,427858,1,2,0:0:0:0:
416,144,427926,1,0,0:0:0:0:
448,136,427994,1,0,0:0:0:0:
472,112,428062,1,0,0:0:0:0:
480,80,428130,1,2,0:0:0:0:
464,56,428199,1,0,0:0:0:0:
440,40,428267,1,0,0:0:0:0:
408,48,428335,1,0,0:0:0:0:
392,72,428403,1,6,0:0:0:0:
384,144,428540,5,0,0:0:0:0:
464,216,428676,1,0,0:0:0:0:
424,288,428812,2,2,B|360:336|224:280|248:168,1,240,2|0,0:0|0:0,0:0:0:0:
280,120,429358,1,0,0:0:0:0:
232,56,429494,2,2,B|168:8|32:64|56:176,2,240,2|0|0,0:0|0:0|0:0,0:0:0:0:
280,120,430449,1,0,0:0:0:0:
312,192,430585,2,2,B|400:200|480:96|392:8,2,240,2|0|2,0:0|0:0|0:0,0:0:0:0:
232,192,431540,1,0,0:0:0:0:
160,160,431676,2,2,B|56:120|0:264|112:360|192:296,1,320,2|0,0:0|0:0,0:0:0:0:
336,352,432494,5,0,0:0:0:0:
408,320,432630,1,2,0:0:0:0:
440,248,432767,2,0,B|456:192|432:144,1,80,6|0,0:0|0:0,0:0:0:0:
376,120,433040,1,0,0:0:0:0:
304,160,433176,2,2,B|240:88|128:128,1,160,2|0,0:0|0:0,0:0:0:0:
88,152,433585,1,2,0:0:0:0:
48,224,433721,1,0,0:0:0:0:
72,304,433858,2,2,B|120:336|176:320,1,80,6|0,0:0|0:0,0:0:0:0:
224,296,434130,1,0,0:0:0:0:
296,328,434267,2,2,B|360:344|424:280|400:208,1,160,2|0,0:0|0:0,0:0:0:0:
424,208,434608,2,0,B|392:176,1,40,0|2,0:0|0:0,0:0:0:0:
320,192,434812,5,0,0:0:0:0:
288,168,434880,1,0,0:0:0:0:
272,136,434949,1,6,0:0:0:0:
272,96,435017,1,0,0:0:0:0:
288,64,435085,1,0,0:0:0:0:
320,48,435153,1,0,0:0:0:0:
360,56,435221,1,0,0:0:0:0:
456,136,435358,5,0,0:0:0:0:
480,216,435494,1,2,0:0:0:0:
456,288,435630,1,0,0:0:0:0:
384,328,435767,1,2,0:0:0:0:
304,312,435903,1,0,0:0:0:0:
248,248,436040,1,6,0:0:0:0:
248,248,436108,1,0,0:0:0:0:
248,248,436176,1,0,0:0:0:0:
176,216,436312,1,0,0:0:0:0:
96,216,436449,1,2,0:0:0:0:
40,272,436585,1,0,0:0:0:0:
64,352,436721,1,0,0:0:0:0:
144,368,436858,1,2,0:0:0:0:
248,248,437130,5,6,0:0:0:0:
224,216,437199,1,0,0:0:0:0:
216,176,437267,1,0,0:0:0:0:
224,136,437335,1,0,0:0:0:0:
248,104,437403,2,0,B|280:80,3,40
288,16,437676,5,2,0:0:0:0:
328,8,437744,1,0,0:0:0:0:
368,16,437812,1,0,0:0:0:0:
400,32,437880,1,0,0:0:0:0:
424,64,437949,2,0,B|448:96,3,40
504,128,438221,5,6,0:0:0:0:
512,168,438290,1,0,0:0:0:0:
504,208,438358,1,0,0:0:0:0:
480,240,438426,1,0,0:0:0:0:
440,256,438494,2,0,B|392:264,3,40
320,288,438767,2,0,B|280:240,7,40,2|0|0|0|0|0|0|0,0:0|0:0|0:0|0:0|0:0|0:0|0:0|0:0,0:0:0:0:
264,232,439312,5,6,0:0:0:0:
232,216,439380,1,0,0:0:0:0:
192,208,439449,1,0,0:0:0:0:
152,216,439517,1,0,0:0:0:0:
120,240,439585,1,0,0:0:0:0:
104,280,439653,1,0,0:0:0:0:
112,320,439721,2,0,B|128:344|160:352,1,40
224,344,439858,5,6,0:0:0:0:
256,328,439926,1,0,0:0:0:0:
280,296,439994,1,0,0:0:0:0:
288,256,440062,1,0,0:0:0:0:
272,216,440130,1,0,0:0:0:0:
248,184,440199,1,0,0:0:0:0:
208,176,440267,2,0,B|176:168|152:200,1,40
104,232,440403,5,6,0:0:0:0:
88,200,440471,1,0,0:0:0:0:
80,160,440540,1,0,0:0:0:0:
88,120,440608,1,0,0:0:0:0:
112,88,440676,1,0,0:0:0:0:
144,72,440744,1,0,0:0:0:0:
184,64,440812,2,0,B|216:64|232:80,1,40
304,96,440949,5,6,0:0:0:0:
312,136,441017,1,0,0:0:0:0:
288,168,441085,1,0,0:0:0:0:
248,184,441153,1,0,0:0:0:0:
208,176,441221,1,6,0:0:0:0:
336,320,441494,6,0,B|376:296,3,40,6|0|0|0,0:0|0:0|0:0|0:0,0:0:0:0:
288,280,441767,2,0,B|256:256,3,40,2|0|0|0,0:0|0:0|0:0|0:0,0:0:0:0:
208,216,442040,1,2,0:0:0:0:
192,96,442176,1,0,0:0:0:0:
224,232,442312,1,2,0:0:0:0:
160,88,442449,1,0,0:0:0:0:
104,144,442585,6,0,B|56:128,3,40,6|0|0|0,0:0|0:0|0:0|0:0,0:0:0:0:
128,80,442858,2,0,B|112:32,3,40,2|0|0|0,0:0|0:0|0:0|0:0,0:0:0:0:
176,24,443130,1,2,0:0:0:0:
168,144,443267,1,0,0:0:0:0:
212,16,443403,1,2,0:0:0:0:
304,40,443676,5,0,0:0:0:0:
336,24,443744,1,0,0:0:0:0:
376,24,443812,1,0,0:0:0:0:
408,40,443880,1,0,0:0:0:0:
432,72,443949,2,0,B|448:96|448:120,3,40,2|0|0|0,0:0|0:0|0:0|0:0,0:0:0:0:
368,120,444221,1,0,0:0:0:0:
360,160,444290,1,0,0:0:0:0:
376,200,444358,1,0,0:0:0:0:
416,216,444426,1,0,0:0:0:0:
456,208,444494,2,0,B|480:200|496:176,3,40,2|0|0|0,0:0|0:0|0:0|0:0,0:0:0:0:
496,112,444767,5,6,0:0:0:0:
504,72,444835,1,0,0:0:0:0:
488,32,444903,2,0,B|472:16|448:8,3,40,0|0|0|0,0:0|0:0|0:0|0:0,0:0:0:0:
392,64,445176,1,6,0:0:0:0:
352,72,445244,1,0,0:0:0:0:
312,64,445312,2,0,B|288:64|264:48,3,40,0|0|0|0,0:0|0:0|0:0|0:0,0:0:0:0:
200,32,445585,1,6,0:0:0:0:
160,24,445653,1,0,0:0:0:0:
120,32,445721,2,0,B|96:48|88:64,1,40
72,120,445858,5,6,0:0:0:0:
112,192,445994,2,0,B|152:224|200:208,1,80
256,248,446267,1,2,0:0:0:0:
312,136,446403,2,0,B|352:152|376:184,1,80
400,256,446676,1,6,0:0:0:0:
368,328,446812,1,0,0:0:0:0:
288,344,446949,1,6,0:0:0:0:
208,320,447085,2,0,B|168:296|144:248,1,80
136,144,447358,1,2,0:0:0:0:
200,96,447494,2,0,B|248:112|264:144,1,80
320,192,447767,2,2,B|376:224|456:176|424:96,1,160,2|6,0:0|0:0,0:0:0:0:
431,124,448176,1,0,0:0:0:0:
328,56,448312,5,0,0:0:0:0:
248,40,448449,1,6,0:0:0:0:
176,72,448585,1,0,0:0:0:0:
136,56,448653,1,0,0:0:0:0:
96,56,448721,1,0,0:0:0:0:
64,80,448790,1,0,0:0:0:0:
56,120,448858,2,0,B|64:176,3,40,2|0|0|0,0:0|0:0|0:0|0:0,0:0:0:0:
128,200,449130,2,0,B|138:161,3,40,2|0|0|0,0:0|0:0|0:0|0:0,0:0:0:0:
216,152,449403,2,0,B|232:200,3,40,2|0|0|0,0:0|0:0|0:0|0:0,0:0:0:0:
232,272,449676,2,0,B|256:304,1,40,2|0,0:0|0:0,0:0:0:0:
280,328,449812,5,2,0:0:0:0:
320,344,449880,1,0,0:0:0:0:
360,344,449949,1,0,0:0:0:0:
392,328,450017,1,0,0:0:0:0:
416,296,450085,1,2,0:0:0:0:
416,256,450153,1,0,0:0:0:0:
400,216,450221,2,0,B|376:160|416:112,1,80,6|0,0:0|0:0,0:0:0:0:
448,72,450494,1,0,0:0:0:0:
376,40,450630,5,2,0:0:0:0:
344,16,450699,1,0,0:0:0:0:
304,16,450767,1,0,0:0:0:0:
272,32,450835,1,0,0:0:0:0:
264,72,450903,1,0,0:0:0:0:
280,104,450971,1,0,0:0:0:0:
296,136,451040,1,2,0:0:0:0:
296,176,451108,1,0,0:0:0:0:
272,208,451176,1,0,0:0:0:0:
232,216,451244,1,0,0:0:0:0:
200,200,451312,2,2,B|144:208|80:144|136:64,1,160,6|0,0:0|0:0,0:0:0:0:
96,16,451721,2,2,B|16:16|-48:136|56:224,1,240,2|0,0:0|0:0,0:0:0:0:
104,240,452267,1,0,0:0:0:0:
176,200,452403,5,6,0:0:0:0:
288,240,452540,1,0,0:0:0:0:
168,176,452676,1,2,0:0:0:0:
288,264,452812,1,0,0:0:0:0:
368,248,452949,1,2,0:0:0:0:
424,192,453085,1,0,0:0:0:0:
432,112,453221,1,2,0:0:0:0:
376,56,453358,1,2,0:0:0:0:
256,56,453494,6,0,B|280:96,3,40,6|0|0|0,0:0|0:0|0:0|0:0,0:0:0:0:
328,120,453767,1,4,0:0:0:0:
424,192,453903,2,0,B|408:232,3,40,2|0|0|0,0:0|0:0|0:0|0:0,0:0:0:0:
352,256,454176,1,4,0:0:0:0:
232,280,454312,1,0,0:0:0:0:
128,224,454449,1,0,0:0:0:0:
88,112,454585,1,4,0:0:0:0:
360,88,463405,5,0,0:0:0:0:
372,108,463469,1,0,0:0:0:0:
380,128,463533,1,0,0:0:0:0:
388,148,463597,1,0,0:0:0:0:
392,168,463662,1,8,0:0:0:0:
392,188,463726,1,0,0:0:0:0:
384,208,463790,1,0,0:0:0:0:
368,224,463854,1,0,0:0:0:0:
348,236,463918,1,0,0:0:0:0:
328,236,463982,1,0,0:0:0:0:
308,224,464046,1,0,0:0:0:0:
288,220,464110,1,0,0:0:0:0:
268,228,464174,1,8,0:0:0:0:
252,244,464239,1,0,0:0:0:0:
240,264,464303,1,0,0:0:0:0:
240,284,464367,1,0,0:0:0:0:
236,304,464431,1,0,0:0:0:0:
220,320,464495,1,0,0:0:0:0:
200,328,464559,1,0,0:0:0:0:
180,328,464623,1,0,0:0:0:0:
160,316,464687,1,8,0:0:0:0:
148,300,464751,1,0,0:0:0:0:
140,280,464815,1,0,0:0:0:0:
136,260,464880,1,0,0:0:0:0:
132,240,464944,1,0,0:0:0:0:
132,220,465008,1,0,0:0:0:0:
136,200,465072,1,0,0:0:0:0:
144,180,465136,1,0,0:0:0:0:
148,160,465200,1,8,0:0:0:0:
152,140,465264,1,0,0:0:0:0:
160,120,465328,1,0,0:0:0:0:
164,100,465392,1,0,0:0:0:0:
156,80,465456,1,0,0:0:0:0:
140,64,465521,1,0,0:0:0:0:
120,56,465585,5,0,0:0:0:0:
40,132,465713,1,8,0:0:0:0:
44,240,465841,1,0,0:0:0:0:
124,316,465969,1,0,0:0:0:0:
232,308,466097,1,0,0:0:0:0:
288,212,466226,1,8,0:0:0:0:
180,188,466354,1,0,0:0:0:0:
166,288,466481,5,0,0:0:0:0:
176,300,466546,1,0,0:0:0:0:
192,308,466610,1,0,0:0:0:0:
208,312,466674,1,0,0:0:0:0:
224,316,466739,1,8,0:0:0:0:
240,316,466803,1,0,0:0:0:0:
256,312,466867,1,0,0:0:0:0:
272,304,466931,1,0,0:0:0:0:
284,296,466995,1,0,0:0:0:0:
300,288,467059,1,0,0:0:0:0:
316,280,467123,1,0,0:0:0:0:
332,272,467187,1,0,0:0:0:0:
348,268,467251,1,8,0:0:0:0:
364,264,467315,1,0,0:0:0:0:
380,260,467380,1,0,0:0:0:0:
396,252,467444,1,0,0:0:0:0:
408,240,467508,1,0,0:0:0:0:
416,228,467572,1,0,0:0:0:0:
416,212,467636,5,0,0:0:0:0:
364,140,467764,1,8,0:0:0:0:
300,76,467892,1,0,0:0:0:0:
224,120,468021,1,0,0:0:0:0:
240,204,468149,1,0,0:0:0:0:
328,220,468277,1,8,0:0:0:0:
364,140,468405,1,0,0:0:0:0:
328,65,468533,5,0,0:0:0:0:
312,60,468597,1,0,0:0:0:0:
296,64,468662,1,0,0:0:0:0:
280,72,468726,1,0,0:0:0:0:
272,84,468790,1,8,0:0:0:0:
268,100,468854,1,0,0:0:0:0:
264,116,468918,1,0,0:0:0:0:
260,132,468982,1,0,0:0:0:0:
252,148,469046,1,0,0:0:0:0:
240,160,469110,1,0,0:0:0:0:
228,172,469174,1,0,0:0:0:0:
220,188,469239,1,0,0:0:0:0:
208,200,469303,1,8,0:0:0:0:
192,208,469367,1,0,0:0:0:0:
184,224,469431,1,0,0:0:0:0:
176,240,469495,1,0,0:0:0:0:
172,256,469559,1,0,0:0:0:0:
176,272,469623,1,0,0:0:0:0:
184,284,469687,5,0,0:0:0:0:
264,324,469815,1,8,0:0:0:0:
344,284,469944,1,0,0:0:0:0:
368,200,470072,1,0,0:0:0:0:
352,116,470200,1,0,0:0:0:0:
280,64,470328,1,8,0:0:0:0:
200,100,470456,1,0,0:0:0:0:
124,52,470585,2,0,B|92:100|108:164,1,110
192,176,470841,2,0,B|216:232|176:320,1,110,8|0,0:0|0:0,0:0:0:0:
108,312,471097,5,0,0:0:0:0:
96,300,471162,1,0,0:0:0:0:
92,284,471226,1,0,0:0:0:0:
88,268,471290,1,0,0:0:0:0:
92,252,471354,1,8,0:0:0:0:
104,240,471418,1,0,0:0:0:0:
120,232,471482,1,0,0:0:0:0:
132,224,471546,1,0,0:0:0:0:
132,208,471610,1,0,0:0:0:0:
128,192,471674,1,0,0:0:0:0:
132,176,471739,5,0,0:0:0:0:
160,92,471867,1,8,0:0:0:0:
240,56,471995,1,0,0:0:0:0:
316,96,472123,1,0,0:0:0:0:
344,180,472251,1,0,0:0:0:0:
300,256,472380,1,8,0:0:0:0:
232,312,472508,1,0,0:0:0:0:
111,275,472636,5,0,0:0:0:0:
128,272,472700,1,0,0:0:0:0:
144,268,472764,1,0,0:0:0:0:
156,260,472828,1,0,0:0:0:0:
172,252,472892,1,8,0:0:0:0:
184,244,472956,1,0,0:0:0:0:
192,232,473021,1,0,0:0:0:0:
200,216,473085,1,0,0:0:0:0:
200,200,473149,6,0,B|136:168|64:176,1,110,4|0,0:0|0:0,0:0:0:0:
40,104,473405,2,0,B|104:104|168:64,1,110,0|0,0:0|0:0,0:0:0:0:
216,128,473662,2,0,B|288:128|344:152,1,110
276,216,473918,2,0,B|348:208|404:264,1,110
468,252,474174,6,0,B|428:204|420:124,1,110
340,120,474431,2,0,B|340:192|300:256,1,110
232,204,474687,2,0,B|176:228|144:284,1,110
220,324,474944,2,0,B|284:332|356:300,1,110
408,272,475200,5,0,0:0:0:0:
428,188,475328,1,0,0:0:0:0:
388,108,475457,1,0,0:0:0:0:
300,104,475585,1,0,0:0:0:0:
232,160,475713,1,0,0:0:0:0:
240,248,475841,1,0,0:0:0:0:
316,292,475969,1,0,0:0:0:0:
324,204,476097,1,0,0:0:0:0:
396,152,476226,6,0,B|428:200|428:264,1,110
344,276,476482,2,0,B|344:220|392:164,1,110
332,100,476739,2,0,B|396:92|468:124,1,110
472,196,476995,2,0,B|432:236|336:228,1,110
296,180,477251,5,0,0:0:0:0:
268,264,477380,1,0,0:0:0:0:
188,224,477508,1,0,0:0:0:0:
132,292,477636,1,0,0:0:0:0:
68,232,477764,1,0,0:0:0:0:
124,164,477892,1,0,0:0:0:0:
184,96,478021,1,0,0:0:0:0:
240,164,478149,1,0,0:0:0:0:
292,96,478277,5,0,0:0:0:0:
332,176,478405,1,0,0:0:0:0:
392,112,478533,1,0,0:0:0:0:
420,196,478662,1,0,0:0:0:0:
376,272,478790,1,0,0:0:0:0:
296,308,478918,1,0,0:0:0:0:
216,272,479046,1,0,0:0:0:0:
176,192,479174,1,0,0:0:0:0:
220,116,479303,5,0,0:0:0:0:
220,116,479431,1,0,0:0:0:0:
304,88,479559,1,0,0:0:0:0:
304,88,479687,1,0,0:0:0:0:
388,112,479815,1,0,0:0:0:0:
388,112,479944,1,0,0:0:0:0:
420,192,480072,1,0,0:0:0:0:
420,192,480200,1,0,0:0:0:0:
380,268,480328,5,0,0:0:0:0:
300,308,480456,1,0,0:0:0:0:
212,304,480585,1,0,0:0:0:0:
152,240,480713,1,0,0:0:0:0:
68,216,480841,1,0,0:0:0:0:
100,136,480969,1,0,0:0:0:0:
184,160,481097,1,0,0:0:0:0:
272,148,481226,1,0,0:0:0:0:
316,222,481354,5,0,0:0:0:0:
304,232,481418,1,0,0:0:0:0:
292,240,481482,1,0,0:0:0:0:
276,248,481546,1,0,0:0:0:0:
260,256,481610,1,0,0:0:0:0:
244,260,481674,1,0,0:0:0:0:
228,260,481739,1,0,0:0:0:0:
212,256,481803,1,0,0:0:0:0:
200,248,481867,1,0,0:0:0:0:
188,236,481931,1,0,0:0:0:0:
184,220,481995,1,0,0:0:0:0:
188,204,482059,1,0,0:0:0:0:
200,192,482123,1,0,0:0:0:0:
216,188,482187,1,0,0:0:0:0:
232,192,482251,1,0,0:0:0:0:
244,200,482315,1,0,0:0:0:0:
260,208,482380,5,0,0:0:0:0:
272,220,482444,1,0,0:0:0:0:
288,220,482508,1,0,0:0:0:0:
304,212,482572,1,0,0:0:0:0:
316,204,482636,1,0,0:0:0:0:
324,188,482700,1,0,0:0:0:0:
332,176,482764,1,0,0:0:0:0:
332,160,482828,1,0,0:0:0:0:
328,144,482892,1,0,0:0:0:0:
316,132,482956,1,0,0:0:0:0:
300,128,483021,1,0,0:0:0:0:
284,128,483085,1,0,0:0:0:0:
272,136,483149,5,0,0:0:0:0:
188,116,483277,1,0,0:0:0:0:
120,172,483405,1,0,0:0:0:0:
80,96,483533,1,0,0:0:0:0:
136,28,483662,1,0,0:0:0:0:
220,44,483790,1,0,0:0:0:0:
308,56,483918,2,0,B|353:27|436:40,1,110
376,116,484174,2,0,B|330:152|257:166,1,110
344,220,484431,5,0,0:0:0:0:
264,256,484559,1,0,0:0:0:0:
220,180,484687,1,0,0:0:0:0:
148,132,484815,1,0,0:0:0:0:
80,188,484944,2,0,B|112:236|184:260,1,110
244,240,485200,1,0,0:0:0:0:
276,216,485264,1,0,0:0:0:0:
300,176,485328,1,0,0:0:0:0:
232,88,485456,1,0,0:0:0:0:
208,128,485521,1,0,0:0:0:0:
208,176,485585,1,0,0:0:0:0:
244,280,485713,2,0,B|204:328|132:320,1,110
87,228,485969,5,0,0:0:0:0:
80,212,486033,1,0,0:0:0:0:
76,196,486097,1,0,0:0:0:0:
80,180,486162,1,0,0:0:0:0:
92,168,486226,1,0,0:0:0:0:
108,160,486290,1,0,0:0:0:0:
124,160,486354,1,0,0:0:0:0:
140,164,486418,1,0,0:0:0:0:
152,172,486482,1,0,0:0:0:0:
160,188,486546,1,0,0:0:0:0:
164,204,486610,1,0,0:0:0:0:
160,220,486674,1,0,0:0:0:0:
152,236,486739,1,0,0:0:0:0:
148,252,486803,1,0,0:0:0:0:
152,268,486867,1,0,0:0:0:0:
160,280,486931,1,0,0:0:0:0:
176,284,486995,1,0,0:0:0:0:
192,280,487059,1,0,0:0:0:0:
208,272,487123,1,0,0:0:0:0:
224,272,487187,1,0,0:0:0:0:
240,272,487251,1,0,0:0:0:0:
256,276,487315,1,0,0:0:0:0:
272,280,487380,1,0,0:0:0:0:
288,276,487444,1,0,0:0:0:0:
304,268,487508,5,0,0:0:0:0:
312,252,487572,1,0,0:0:0:0:
320,236,487636,1,0,0:0:0:0:
316,220,487700,1,0,0:0:0:0:
308,208,487764,1,0,0:0:0:0:
296,196,487828,1,0,0:0:0:0:
324,180,487892,1,0,0:0:0:0:
340,172,487956,1,0,0:0:0:0:
340,156,488021,1,0,0:0:0:0:
352,144,488085,1,0,0:0:0:0:
352,128,488149,1,0,0:0:0:0:
360,112,488213,1,0,0:0:0:0:
364,96,488277,1,0,0:0:0:0:
360,80,488341,1,0,0:0:0:0:
352,64,488405,1,0,0:0:0:0:
336,60,488469,1,0,0:0:0:0:
320,68,488533,1,0,0:0:0:0:
256,192,488662,12,0,489815,0:0:0:0:
320,268,494141,5,6,0:0:0:0:
331,256,494200,1,0,0:0:0:0:
342,244,494260,1,0,0:0:0:0:
350,230,494320,1,0,0:0:0:0:
355,215,494380,1,0,0:0:0:0:
357,199,494440,1,0,0:0:0:0:
357,183,494500,1,2,0:0:0:0:
352,167,494559,1,0,0:0:0:0:
342,154,494619,1,0,0:0:0:0:
331,141,494679,1,0,0:0:0:0:
319,130,494739,1,0,0:0:0:0:
306,119,494799,1,0,0:0:0:0:
293,103,494860,5,2,0:0:0:0:
273,101,494919,1,0,0:0:0:0:
258,86,494979,1,0,0:0:0:0:
238,88,495039,1,0,0:0:0:0:
222,75,495099,1,0,0:0:0:0:
202,77,495159,1,0,0:0:0:0:
182,70,495220,1,2,0:0:0:0:
163,76,495279,1,0,0:0:0:0:
143,78,495339,1,0,0:0:0:0:
131,94,495399,1,0,0:0:0:0:
112,100,495459,1,0,0:0:0:0:
106,119,495519,1,0,0:0:0:0:
91,133,495580,5,2,0:0:0:0:
97,151,495640,1,0,0:0:0:0:
88,168,495700,1,0,0:0:0:0:
94,186,495760,1,0,0:0:0:0:
97,205,495820,1,0,0:0:0:0:
115,212,495880,1,0,0:0:0:0:
122,230,495940,1,2,0:0:0:0:
139,238,496000,1,0,0:0:0:0:
142,257,496060,1,0,0:0:0:0:
160,264,496120,1,0,0:0:0:0:
159,283,496180,1,0,0:0:0:0:
176,294,496241,1,0,0:0:0:0:
195,294,496300,5,2,0:0:0:0:
213,300,496360,1,0,0:0:0:0:
231,293,496420,1,0,0:0:0:0:
250,298,496480,1,0,0:0:0:0:
268,290,496540,1,0,0:0:0:0:
287,295,496600,1,0,0:0:0:0:
306,290,496659,1,2,0:0:0:0:
324,297,496720,1,0,0:0:0:0:
343,296,496780,1,0,0:0:0:0:
359,307,496840,1,0,0:0:0:0:
378,305,496900,1,0,0:0:0:0:
393,317,496960,1,0,0:0:0:0:
413,316,497020,5,2,0:0:0:0:
427,329,497080,1,0,0:0:0:0:
446,323,497140,1,0,0:0:0:0:
464,315,497200,1,0,0:0:0:0:
476,299,497260,1,0,0:0:0:0:
477,279,497320,1,0,0:0:0:0:
484,260,497380,1,2,0:0:0:0:
485,240,497440,1,0,0:0:0:0:
493,222,497500,1,0,0:0:0:0:
482,204,497560,1,0,0:0:0:0:
480,184,497620,1,0,0:0:0:0:
466,168,497680,1,0,0:0:0:0:
455,153,497740,6,0,B|344:85|279:266|212:85|105:151,1,359.999989271164,4|0,0:0|0:0,0:0:0:0:
108,244,498220,1,0,0:0:0:0:
36,304,498340,1,0,0:0:0:0:
9,220,498460,5,6,0:0:0:0:
18,198,498519,1,0,0:0:0:0:
29,177,498579,1,0,0:0:0:0:
42,156,498639,1,0,0:0:0:0:
56,136,498699,1,0,0:0:0:0:
73,119,498759,1,0,0:0:0:0:
92,105,498819,1,2,0:0:0:0:
112,91,498880,1,0,0:0:0:0:
134,80,498940,1,0,0:0:0:0:
156,72,499000,1,0,0:0:0:0:
178,64,499059,1,0,0:0:0:0:
201,58,499119,1,0,0:0:0:0:
224,52,499180,5,2,0:0:0:0:
253,53,499239,1,0,0:0:0:0:
265,73,499299,1,0,0:0:0:0:
287,81,499359,1,0,0:0:0:0:
296,103,499419,1,0,0:0:0:0:
319,99,499479,1,0,0:0:0:0:
331,120,499540,1,2,0:0:0:0:
354,121,499599,1,0,0:0:0:0:
365,142,499659,1,0,0:0:0:0:
388,145,499719,1,0,0:0:0:0:
393,168,499779,1,0,0:0:0:0:
414,177,499839,1,0,0:0:0:0:
415,200,499899,5,2,0:0:0:0:
397,215,499958,1,0,0:0:0:0:
393,238,500018,1,0,0:0:0:0:
371,247,500078,1,0,0:0:0:0:
361,269,500138,1,0,0:0:0:0:
339,279,500198,1,0,0:0:0:0:
323,297,500258,1,2,0:0:0:0:
299,303,500319,1,0,0:0:0:0:
287,323,500379,1,0,0:0:0:0:
263,328,500439,1,0,0:0:0:0:
254,350,500499,1,0,0:0:0:0:
230,352,500559,1,0,0:0:0:0:
205,352,500620,5,2,0:0:0:0:
196,330,500679,1,0,0:0:0:0:
172,328,500739,1,0,0:0:0:0:
167,304,500799,1,0,0:0:0:0:
143,298,500859,1,0,0:0:0:0:
134,275,500919,1,0,0:0:0:0:
114,259,500980,1,2,0:0:0:0:
110,235,501039,1,0,0:0:0:0:
90,221,501099,1,0,0:0:0:0:
86,197,501159,1,0,0:0:0:0:
68,180,501219,1,0,0:0:0:0:
77,158,501279,1,0,0:0:0:0:
71,134,501340,5,2,0:0:0:0:
93,128,501399,1,0,0:0:0:0:
107,108,501459,1,0,0:0:0:0:
130,104,501519,1,0,0:0:0:0:
146,86,501579,1,0,0:0:0:0:
168,77,501639,1,0,0:0:0:0:
186,61,501699,1,2,0:0:0:0:
209,57,501758,1,0,0:0:0:0:
229,44,501818,1,0,0:0:0:0:
243,49,501878,1,0,0:0:0:0:
249,45,501938,1,0,0:0:0:0:
258,53,501998,1,0,0:0:0:0:
276,68,502059,6,0,B|319:92|351:118|351:118|412:218|412:218|419:259|421:309,1,299.999991059304
416,336,502419,2,0,B|322:327|238:271|238:271|214:223|178:172,1,299.999991059304
168,148,502780,5,6,0:0:0:0:
150,124,502839,1,0,0:0:0:0:
127,103,502899,1,0,0:0:0:0:
100,89,502959,1,0,0:0:0:0:
70,86,503019,1,0,0:0:0:0:
43,99,503079,1,0,0:0:0:0:
27,124,503139,1,2,0:0:0:0:
22,153,503199,1,0,0:0:0:0:
24,182,503259,1,0,0:0:0:0:
30,211,503319,1,0,0:0:0:0:
41,238,503379,1,0,0:0:0:0:
59,261,503439,1,0,0:0:0:0:
84,277,503500,5,2,0:0:0:0:
88,294,503559,1,0,0:0:0:0:
102,293,503619,1,0,0:0:0:0:
113,302,503679,1,0,0:0:0:0:
127,296,503739,1,0,0:0:0:0:
137,306,503799,1,0,0:0:0:0:
151,300,503860,1,2,0:0:0:0:
163,308,503919,1,0,0:0:0:0:
176,302,503979,1,0,0:0:0:0:
190,307,504039,1,0,0:0:0:0:
204,303,504099,1,0,0:0:0:0:
218,305,504159,1,0,0:0:0:0:
232,300,504218,5,2,0:0:0:0:
246,306,504279,1,0,0:0:0:0:
260,300,504339,1,0,0:0:0:0:
274,303,504399,1,0,0:0:0:0:
288,298,504459,1,0,0:0:0:0:
302,301,504519,1,0,0:0:0:0:
316,295,504579,1,2,0:0:0:0:
329,300,504638,1,0,0:0:0:0:
343,297,504698,1,0,0:0:0:0:
356,304,504758,1,0,0:0:0:0:
370,300,504818,1,0,0:0:0:0:
384,304,504878,1,0,0:0:0:0:
398,300,504938,5,2,0:0:0:0:
409,308,504998,1,0,0:0:0:0:
423,303,505058,1,0,0:0:0:0:
434,313,505118,1,0,0:0:0:0:
447,305,505178,1,0,0:0:0:0:
459,313,505238,1,0,0:0:0:0:
470,303,505299,1,2,0:0:0:0:
483,308,505358,1,0,0:0:0:0:
485,293,505418,1,0,0:0:0:0:
497,284,505478,1,0,0:0:0:0:
491,270,505538,1,0,0:0:0:0:
498,256,505598,1,0,0:0:0:0:
496,244,505658,5,2,0:0:0:0:
492,232,505719,1,0,0:0:0:0:
484,224,505779,1,0,0:0:0:0:
476,216,505839,1,0,0:0:0:0:
464,212,505899,1,0,0:0:0:0:
456,204,505959,1,0,0:0:0:0:
448,196,506019,1,2,0:0:0:0:
436,192,506078,1,0,0:0:0:0:
428,184,506138,1,0,0:0:0:0:
420,176,506198,5,0,0:0:0:0:
408,172,506258,1,0,0:0:0:0:
396,168,506318,1,0,0:0:0:0:
384,168,506379,1,2,0:0:0:0:
372,164,506438,1,0,0:0:0:0:
360,160,506498,2,0,B|312:121|246:138,1,119.999996423721
264,216,506738,1,4,0:0:0:0:
180,224,506858,1,4,0:0:0:0:
108,188,506978,1,4,0:0:0:0:
97,114,507098,5,6,0:0:0:0:
116,96,507157,1,0,0:0:0:0:
136,80,507217,1,0,0:0:0:0:
160,68,507277,1,0,0:0:0:0:
184,60,507337,1,0,0:0:0:0:
208,52,507397,1,0,0:0:0:0:
236,48,507457,1,2,0:0:0:0:
264,44,507518,1,0,0:0:0:0:
292,44,507578,1,0,0:0:0:0:
320,48,507638,1,0,0:0:0:0:
344,60,507698,1,0,0:0:0:0:
368,76,507758,1,0,0:0:0:0:
388,64,507819,5,2,0:0:0:0:
406,54,507878,1,0,0:0:0:0:
426,50,507938,1,0,0:0:0:0:
446,52,507998,1,0,0:0:0:0:
461,65,508058,1,0,0:0:0:0:
473,81,508118,1,0,0:0:0:0:
476,102,508179,1,2,0:0:0:0:
473,122,508238,1,0,0:0:0:0:
461,139,508298,1,0,0:0:0:0:
445,153,508358,1,0,0:0:0:0:
424,155,508418,1,0,0:0:0:0:
403,156,508478,1,0,0:0:0:0:
384,146,508538,5,2,0:0:0:0:
384,167,508599,1,0,0:0:0:0:
385,187,508659,1,0,0:0:0:0:
388,207,508719,1,0,0:0:0:0:
391,227,508779,1,0,0:0:0:0:
398,246,508839,1,0,0:0:0:0:
405,265,508899,1,2,0:0:0:0:
413,283,508958,1,0,0:0:0:0:
422,301,509018,1,0,0:0:0:0:
433,318,509078,1,0,0:0:0:0:
446,334,509138,1,0,0:0:0:0:
460,349,509198,1,0,0:0:0:0:
476,362,509258,5,2,0:0:0:0:
455,362,509317,1,0,0:0:0:0:
434,363,509377,1,0,0:0:0:0:
413,364,509437,1,0,0:0:0:0:
392,364,509497,1,0,0:0:0:0:
371,364,509557,1,0,0:0:0:0:
349,364,509618,1,2,0:0:0:0:
329,363,509677,1,0,0:0:0:0:
309,363,509737,1,0,0:0:0:0:
289,363,509797,1,0,0:0:0:0:
269,363,509857,1,0,0:0:0:0:
248,363,509917,1,0,0:0:0:0:
226,362,509978,5,2,0:0:0:0:
208,349,510038,1,0,0:0:0:0:
193,333,510098,1,0,0:0:0:0:
178,317,510158,1,0,0:0:0:0:
163,301,510218,1,0,0:0:0:0:
151,283,510278,1,0,0:0:0:0:
138,265,510338,1,2,0:0:0:0:
129,246,510397,1,0,0:0:0:0:
126,225,510457,1,0,0:0:0:0:
127,204,510517,1,0,0:0:0:0:
131,183,510577,1,0,0:0:0:0:
139,163,510637,1,0,0:0:0:0:
154,147,510698,5,2,0:0:0:0:
162,134,510757,1,0,0:0:0:0:
175,140,510817,1,0,0:0:0:0:
186,129,510877,1,0,0:0:0:0:
200,129,510937,1,0,0:0:0:0:
212,120,510997,1,0,0:0:0:0:
227,122,511058,1,2,0:0:0:0:
236,110,511117,1,0,0:0:0:0:
250,108,511177,1,0,0:0:0:0:
264,106,511237,1,0,0:0:0:0:
275,96,511297,1,0,0:0:0:0:
289,95,511357,1,0,0:0:0:0:
303,97,511417,5,2,0:0:0:0:
316,90,511478,1,0,0:0:0:0:
330,93,511538,1,0,0:0:0:0:
343,86,511598,1,0,0:0:0:0:
355,76,511658,1,0,0:0:0:0:
369,80,511718,1,0,0:0:0:0:
379,69,511778,1,2,0:0:0:0:
391,76,511837,1,0,0:0:0:0:
404,68,511897,1,0,0:0:0:0:
417,73,511957,1,0,0:0:0:0:
430,66,512017,1,0,0:0:0:0:
440,76,512077,1,0,0:0:0:0:
448,78,512138,5,2,0:0:0:0:
461,72,512197,1,0,0:0:0:0:
464,81,512257,1,0,0:0:0:0:
472,84,512317,1,0,0:0:0:0:
476,77,512377,1,0,0:0:0:0:
476,69,512437,1,0,0:0:0:0:
469,63,512498,1,2,0:0:0:0:
461,58,512557,1,0,0:0:0:0:
469,56,512617,1,0,0:0:0:0:
476,52,512677,1,0,0:0:0:0:
467,49,512737,1,0,0:0:0:0:
475,45,512797,1,0,0:0:0:0:
464,32,512857,6,0,B|536:56,11,60.0000022888184,2|0|0|0|0|0|2|0|0|0|0|2,0:0|0:3|0:0|0:3|0:0|0:3|0:0|0:3|0:0|0:3|0:0|0:3,0:0:0:0:
448,20,513577,6,0,B|244:-4|116:128,1,359.999989271164,0|4,0:0|0:0,0:0:0:0:
40,232,514057,1,4,0:0:0:0:
88,356,514176,1,4,0:0:0:0:
221,344,514296,5,6,0:0:0:0:
242,339,514355,1,0,0:0:0:0:
262,331,514415,1,0,0:0:0:0:
282,319,514475,1,0,0:0:0:0:
300,307,514535,1,0,0:0:0:0:
315,291,514595,1,0,0:0:0:0:
327,272,514655,1,2,0:0:0:0:
337,251,514716,1,0,0:0:0:0:
344,229,514776,1,0,0:0:0:0:
344,205,514836,1,0,0:0:0:0:
335,184,514896,1,0,0:0:0:0:
322,164,514956,1,0,0:0:0:0:
306,157,515017,5,2,0:0:0:0:
293,169,515076,1,0,0:0:0:0:
286,190,515136,1,0,0:0:0:0:
286,212,515196,1,0,0:0:0:0:
293,232,515256,1,0,0:0:0:0:
307,250,515316,1,0,0:0:0:0:
325,266,515377,1,2,0:0:0:0:
343,280,515436,1,0,0:0:0:0:
365,288,515496,1,0,0:0:0:0:
388,289,515556,1,0,0:0:0:0:
411,284,515616,1,0,0:0:0:0:
433,276,515676,1,0,0:0:0:0:
453,264,515736,5,2,0:0:0:0:
469,245,515797,1,0,0:0:0:0:
478,222,515857,1,0,0:0:0:0:
483,199,515917,1,0,0:0:0:0:
485,175,515977,1,0,0:0:0:0:
485,151,516037,1,0,0:0:0:0:
482,127,516097,1,2,0:0:0:0:
476,104,516156,1,0,0:0:0:0:
466,81,516216,1,0,0:0:0:0:
451,61,516276,1,0,0:0:0:0:
434,44,516336,1,0,0:0:0:0:
411,36,516396,1,0,0:0:0:0:
386,31,516457,5,2,0:0:0:0:
362,31,516516,1,0,0:0:0:0:
338,34,516576,1,0,0:0:0:0:
315,42,516636,1,0,0:0:0:0:
293,53,516696,1,0,0:0:0:0:
277,71,516756,1,0,0:0:0:0:
263,91,516817,1,2,0:0:0:0:
254,113,516876,1,0,0:0:0:0:
248,136,516936,1,0,0:0:0:0:
246,159,516996,1,0,0:0:0:0:
246,183,517056,1,0,0:0:0:0:
248,206,517116,1,0,0:0:0:0:
250,230,517176,5,2,0:0:0:0:
249,254,517237,1,0,0:0:0:0:
242,277,517297,1,0,0:0:0:0:
226,295,517357,1,0,0:0:0:0:
203,304,517417,1,0,0:0:0:0:
179,308,517477,1,0,0:0:0:0:
155,306,517537,1,2,0:0:0:0:
132,300,517596,1,0,0:0:0:0:
113,284,517656,1,0,0:0:0:0:
97,266,517716,1,0,0:0:0:0:
87,244,517776,1,0,0:0:0:0:
82,220,517836,1,0,0:0:0:0:
86,196,517896,2,0,B|112:76|228:8|368:32,1,359.999989271164
366,32,518616,5,6,0:0:0:0:
362,55,518675,1,0,0:0:0:0:
363,78,518735,1,0,0:0:0:0:
364,101,518795,1,0,0:0:0:0:
365,124,518855,1,0,0:0:0:0:
371,147,518915,1,0,0:0:0:0:
378,169,518975,1,2,0:0:0:0:
388,191,519036,1,0,0:0:0:0:
400,211,519096,1,0,0:0:0:0:
414,230,519156,1,0,0:0:0:0:
428,248,519216,1,0,0:0:0:0:
443,266,519276,1,0,0:0:0:0:
457,284,519335,5,2,0:0:0:0:
439,309,519396,1,0,0:0:0:0:
409,305,519456,1,0,0:0:0:0:
383,320,519516,1,0,0:0:0:0:
353,317,519576,1,0,0:0:0:0:
325,329,519636,1,0,0:0:0:0:
296,321,519695,1,2,0:0:0:0:
269,336,519756,1,0,0:0:0:0:
240,326,519816,1,0,0:0:0:0:
210,332,519876,1,0,0:0:0:0:
186,313,519936,1,0,0:0:0:0:
163,293,519996,1,0,0:0:0:0:
166,263,520055,5,2,0:0:0:0:
159,233,520116,1,0,0:0:0:0:
179,211,520176,1,0,0:0:0:0:
199,188,520236,1,0,0:0:0:0:
228,190,520296,1,0,0:0:0:0:
255,177,520356,1,0,0:0:0:0:
280,192,520416,1,2,0:0:0:0:
308,183,520475,1,0,0:0:0:0:
337,184,520535,1,0,0:0:0:0:
360,165,520595,1,0,0:0:0:0:
383,146,520655,1,0,0:0:0:0:
378,116,520715,1,0,0:0:0:0:
378,85,520776,5,2,0:0:0:0:
350,74,520835,1,0,0:0:0:0:
328,53,520895,1,0,0:0:0:0:
298,58,520955,1,0,0:0:0:0:
270,47,521015,1,0,0:0:0:0:
240,54,521075,1,0,0:0:0:0:
211,43,521136,1,2,0:0:0:0:
185,57,521195,1,0,0:0:0:0:
160,40,521255,1,0,0:0:0:0:
137,59,521315,1,0,0:0:0:0:
110,72,521375,1,0,0:0:0:0:
115,101,521435,1,0,0:0:0:0:
103,120,521495,5,0,0:0:0:0:
80,160,521575,1,0,0:0:0:0:
80,208,521655,1,0,0:0:0:0:
88,256,521736,1,0,0:0:0:0:
128,284,521816,1,0,0:0:0:0:
176,280,521897,1,0,0:0:0:0:
220,260,521977,1,0,0:0:0:0:
260,232,522058,5,0,0:0:0:0:
292,196,522138,1,0,0:0:0:0:
316,156,522218,1,0,0:0:0:0:
324,108,522299,1,0,0:0:0:0:
316,60,522379,1,0,0:0:0:0:
276,32,522460,1,0,0:0:0:0:
188,24,522567,5,0,0:0:0:0:
144,104,522674,1,0,0:0:0:0:
97,26,522808,1,0,0:0:0:0:
51,100,522935,5,6,0:0:0:0:
43,122,522994,1,0,0:0:0:0:
39,145,523054,1,0,0:0:0:0:
37,168,523114,1,0,0:0:0:0:
39,191,523174,1,0,0:0:0:0:
46,213,523234,1,0,0:0:0:0:
56,234,523294,1,2,0:0:0:0:
69,253,523354,1,0,0:0:0:0:
88,267,523414,1,0,0:0:0:0:
108,279,523474,1,0,0:0:0:0:
130,287,523534,1,0,0:0:0:0:
153,293,523594,1,0,0:0:0:0:
177,292,523654,5,2,0:0:0:0:
199,285,523714,1,0,0:0:0:0:
219,272,523774,1,0,0:0:0:0:
231,251,523834,1,0,0:0:0:0:
238,228,523894,1,0,0:0:0:0:
232,204,523954,1,0,0:0:0:0:
222,181,524014,1,2,0:0:0:0:
207,162,524074,1,0,0:0:0:0:
185,151,524134,1,0,0:0:0:0:
161,148,524194,1,0,0:0:0:0:
139,159,524254,1,0,0:0:0:0:
124,178,524314,1,0,0:0:0:0:
129,154,524374,5,2,0:0:0:0:
140,133,524434,1,0,0:0:0:0:
156,115,524494,1,0,0:0:0:0:
179,108,524554,1,0,0:0:0:0:
203,104,524614,1,0,0:0:0:0:
226,108,524674,1,0,0:0:0:0:
249,113,524734,1,2,0:0:0:0:
265,130,524794,1,0,0:0:0:0:
275,151,524854,1,0,0:0:0:0:
281,174,524914,1,0,0:0:0:0:
282,197,524974,1,0,0:0:0:0:
277,220,525034,1,0,0:0:0:0:
294,202,525095,5,2,0:0:0:0:
314,190,525154,1,0,0:0:0:0:
337,183,525214,1,0,0:0:0:0:
361,182,525274,1,0,0:0:0:0:
383,191,525334,1,0,0:0:0:0:
400,207,525394,1,0,0:0:0:0:
409,229,525455,1,2,0:0:0:0:
412,252,525514,1,0,0:0:0:0:
408,275,525574,1,0,0:0:0:0:
394,294,525634,1,0,0:0:0:0:
375,309,525694,1,0,0:0:0:0:
351,315,525753,1,0,0:0:0:0:
291,312,525814,6,0,B|231:305,5,59.9999982118607
293,200,526174,2,0,B|346:167,5,60.0000022888184
201,222,526534,5,4,0:0:0:0:
150,171,526774,5,4,0:0:0:0:
200,120,527014,5,4,0:0:0:0:
250,170,527254,5,4,0:0:0:0:
