osu file format v14

[General]
AudioFilename: audio.mp3
AudioLeadIn: 0
PreviewTime: 302163
Countdown: 0
SampleSet: Soft
StackLeniency: 0.7
Mode: 0
LetterboxInBreaks: 1
WidescreenStoryboard: 0

[Editor]
DistanceSpacing: 1.7
BeatDivisor: 4
GridSize: 8
TimelineZoom: 4.599998

[Metadata]
Title:osu! Spaced Stream Compilation
TitleUnicode:osu! Spaced Stream Compilation
Artist:Various Artists
ArtistUnicode:Various Artists
Creator:dinopwn
Version:Marathon
Source:
Tags:deathstream practice gimme shadowsoul ateens nightcore mix gimme! amane space time hardcore remix atheon aran ripples dj noriken side aiae yuyoyuppe alumetorz made of fire niko lesjuh united our stolen theory asphyxia laos omoide kakera natsu nano extreme fantasy memme rucker genryuu kaiko hollow wings halozy elpis taka flamie spidlow ascension to heaven nanako xi yoshitaka flower nakagawa-kanon nakagawa kanon blue zenith
BeatmapID:707884
BeatmapSetID:317803

[Difficulty]
HPDrainRate:1
CircleSize:4.2
OverallDifficulty:9
ApproachRate:9.3
SliderMultiplier:2
SliderTickRate:1

[Events]
//Background and Video events
0,0,"bg.jpg",0,0
//Break Periods
2,32362,42665
2,87304,98047
2,132683,145667
2,167754,179661
2,204095,214835
2,237532,250901
2,292455,301610
2,328021,340525
2,363475,375969
2,398672,411256
2,450410,463980
2,486930,504266
2,524220,528266
//Storyboard Layer 0 (Background)
//Storyboard Layer 1 (Fail)
//Storyboard Layer 2 (Pass)
//Storyboard Layer 3 (Foreground)
//Storyboard Sound Samples

[TimingPoints]
1149,369.208048735462,4,2,0,100,1,0
8533,-86.9565217391304,4,1,0,53,0,0
37733,342.857142857143,4,2,0,100,1,0
43218,-92.5925925925926,4,2,1,80,0,1
65075,-92.5925925925926,4,2,1,80,0,0
65161,-92.5925925925926,4,2,1,80,0,1
87104,-92.5925925925926,4,2,1,70,0,0
92954,352.941176470588,4,2,0,100,1,0
98601,-125,4,2,2,60,0,1
98954,-100,4,2,2,60,0,1
100013,-125,4,2,2,60,0,1
100366,-100,4,2,2,60,0,1
101072,-66.6666666666667,4,2,2,60,0,1
101425,-125,4,2,2,60,0,1
103189,-100,4,2,2,60,0,1
104248,-125,4,2,2,60,0,1
104601,-100,4,2,2,60,0,1
105660,-125,4,2,2,60,0,1
106013,-100,4,2,2,60,0,1
106719,-66.6666666666667,4,2,2,60,0,1
107072,-125,4,2,2,60,0,1
107425,-100,4,2,2,60,0,1
108130,-125,4,2,2,60,0,1
108483,-125,4,2,2,60,0,1
108836,-100,4,2,2,60,0,1
109895,-125,4,2,2,60,0,1
110248,-100,4,2,2,60,0,1
111307,-125,4,2,2,60,0,1
111660,-100,4,2,2,60,0,1
112366,-125,4,2,2,60,0,1
113072,-100,4,2,2,60,0,1
113425,-125,4,2,2,60,0,1
113777,-100,4,2,2,60,0,1
114130,-125,4,2,2,60,0,1
114483,-100,4,2,2,60,0,1
115542,-125,4,2,2,60,0,1
115895,-100,4,2,2,60,0,1
116954,-125,4,2,2,60,0,1
117307,-100,4,2,2,60,0,1
118013,-66.6666666666667,4,2,2,60,0,1
118366,-125,4,2,2,60,0,1
118719,-100,4,2,2,60,0,1
119425,-125,4,2,2,60,0,1
119777,-125,4,2,2,60,0,0
120130,-100,4,2,3,60,0,0
120836,-100,4,2,3,60,0,0
121189,-166.666666666667,4,2,3,70,0,1
121454,-166.666666666667,4,2,3,35,0,0
121542,-166.666666666667,4,2,3,70,0,0
122160,-166.666666666667,4,2,3,35,0,0
122248,-166.666666666667,4,2,3,70,0,0
122866,-166.666666666667,4,2,3,35,0,0
122954,-166.666666666667,4,2,3,70,0,0
123572,-166.666666666667,4,2,3,35,0,0
123660,-166.666666666667,4,2,3,70,0,0
124277,-166.666666666667,4,2,3,35,0,0
124366,-166.666666666667,4,2,3,70,0,0
124983,-166.666666666667,4,2,3,35,0,0
125072,-166.666666666667,4,2,3,70,0,0
125689,-166.666666666667,4,2,3,35,0,0
125777,-166.666666666667,4,2,3,70,0,0
126395,-166.666666666667,4,2,3,35,0,0
126483,-166.666666666667,4,2,3,70,0,0
126836,-100,4,2,3,70,0,0
132483,-90.9090909090909,4,2,4,80,0,0
139555,333.333333333333,4,2,0,100,1,0
146221,-74.0740740740741,4,2,1,50,0,1
148888,-111.111111111111,4,2,1,50,0,1
150221,-74.0740740740741,4,2,1,50,0,1
151221,-220,4,2,1,50,0,1
151554,-74.0740740740741,4,2,1,50,0,1
156554,-200,4,2,1,50,0,0
156888,-74.0740740740741,4,2,1,50,0,1
167554,-111.111111111111,4,2,1,50,0,0
174290,370.37037037037,4,1,0,80,1,0
209904,342.857142857143,4,2,0,100,1,0
215389,-87.719298245614,4,1,1,70,0,1
237332,-87.719298245614,4,2,5,80,0,0
245455,300,4,2,0,100,1,0
251455,-111.111111111111,4,2,0,100,0,0
251455,-101.010101010101,4,1,3,35,0,0
251680,-101.010101010101,4,1,2,15,0,0
251755,-101.010101010101,4,1,3,35,0,0
251980,-101.010101010101,4,1,2,15,0,0
252055,-101.010101010101,4,1,3,35,0,0
254080,-101.010101010101,4,1,2,15,0,0
254155,-101.010101010101,4,1,3,35,0,0
254380,-101.010101010101,4,1,2,15,0,0
254455,-101.010101010101,4,1,3,35,0,0
256180,-101.010101010101,4,1,2,15,0,0
256255,-101.010101010101,4,1,3,35,0,0
291055,-111.111111111111,4,1,2,50,0,0
291205,-111.111111111111,4,1,2,10,0,0
291355,-123.456790123457,4,1,2,30,0,0
291580,-123.456790123457,4,1,2,10,0,0
291655,-138.888888888889,4,1,2,30,0,0
291880,-138.888888888889,4,1,2,10,0,0
291955,-158.730158730159,4,1,2,30,0,0
292180,-158.730158730159,4,1,2,10,0,0
292255,-50.251256281407,4,1,2,50,0,0
297427,394.736842105263,4,2,0,100,1,0
302163,-83.3333333333333,4,1,0,100,0,0
327427,-166.666666666667,4,1,0,70,0,0
332755,346.820809248555,4,2,0,100,1,0
341078,-71.4285714285714,4,2,6,90,0,1
361887,-71.4285714285714,4,2,7,80,0,1
362928,-47.6190476190476,4,2,7,90,0,1
363275,-100,4,2,7,50,0,0
369666,342.857142857143,4,2,0,100,1,0
376523,-55.5555555555556,4,2,8,70,0,1
376523,-74.0740740740741,4,2,8,100,0,0
377894,-66.6666666666667,4,2,8,70,0,0
380637,-55.5555555555556,4,2,8,80,0,1
382008,-66.6666666666667,4,2,8,60,0,0
387494,-55.5555555555556,4,2,8,80,0,1
388866,-66.6666666666667,4,2,8,70,0,0
391608,-55.5555555555556,4,2,8,80,0,1
392980,-133.333333333333,4,2,8,40,0,0
404610,300,4,2,0,100,1,0
411810,-90.9090909090909,4,2,9,60,0,0
457598,346.820809248555,4,2,0,100,1,0
464534,-52.6315789473684,4,1,0,60,0,1
486730,-52.6315789473684,4,1,0,60,0,0
494020,300,4,2,0,100,1,0
504820,-92.5925925925926,4,2,10,90,0,1
509545,-92.5925925925926,4,2,10,90,0,0
509620,-92.5925925925926,4,2,10,90,0,1
514120,-92.5925925925926,4,2,10,90,0,0
514420,-92.5925925925926,4,2,10,90,0,1
519145,-92.5925925925926,4,2,10,90,0,0
519220,-92.5925925925926,4,2,10,90,0,1
524020,-111.111111111111,4,2,10,70,0,0
528820,-111.111111111111,4,2,10,50,0,0
530020,-111.111111111111,4,2,10,60,0,0
531220,-111.111111111111,4,2,10,70,0,0
531820,-111.111111111111,4,2,10,80,0,0
532420,-111.111111111111,4,2,10,90,0,0
533020,-111.111111111111,4,2,10,100,0,0
533620,-111.111111111111,4,2,10,80,0,0
534220,-111.111111111111,4,2,10,90,0,0
534820,-111.111111111111,4,2,10,100,0,0
536020,-111.111111111111,4,2,10,80,0,0
555520,-111.111111111111,4,2,10,73,0,0
555820,-111.111111111111,4,2,10,66,0,0
556120,-111.111111111111,4,2,10,59,0,0
556420,-111.111111111111,4,2,10,80,0,0
574420,-92.5925925925926,4,2,10,90,0,1
579145,-92.5925925925926,4,2,10,90,0,0
579220,-92.5925925925926,4,2,10,90,0,1
583720,-92.5925925925926,4,2,10,90,0,0
584020,-92.5925925925926,4,2,10,90,0,1
588745,-92.5925925925926,4,2,10,90,0,0
588820,-92.5925925925926,4,2,10,90,0,1
593620,-92.5925925925926,4,2,10,90,0,0
594820,-148.148148148148,4,2,10,60,0,0
599620,-111.111111111111,4,2,10,90,0,0
602020,-111.111111111111,4,2,10,70,0,0
602620,-111.111111111111,4,2,10,50,0,0
603220,-111.111111111111,4,2,10,30,0,0
603820,-111.111111111111,4,2,10,20,0,0

[Colours]
Combo1 : 255,255,0
Combo2 : 255,0,255
Combo3 : 18,124,255
Combo4 : 242,24,57

[HitObjects]
160,96,8533,6,4,B|192:160|256:128|256:128|320:160|352:96,2,230
48,296,9641,1,8,0:0:0:0:
148,352,9825,1,0,0:0:0:0:
208,256,10010,2,0,B|256:228|364:320|440:272,1,230,0|8,0:0|0:0,0:0:0:0:
480,172,10564,1,0,0:0:0:0:
480,172,10656,2,0,B|492:112|440:64|364:60,1,172.5
260,68,11117,5,8,0:0:0:0:
156,120,11302,1,0,0:0:0:0:
106,223,11487,2,0,B|212:278|330:231,1,230,0|8,0:0|0:0,0:0:0:0:
428,172,12040,1,0,0:0:0:0:
428,172,12133,2,0,B|428:232|392:288|336:304,1,172.5
224,340,12594,5,8,0:0:0:0:
112,316,12779,1,0,0:0:0:0:
28,236,12963,1,0,0:0:0:0:
12,120,13148,1,0,0:0:0:0:
84,32,13333,1,8,0:0:0:0:
200,20,13517,1,0,0:0:0:0:
200,20,13610,2,2,B|196:72|196:72|240:120|240:120|240:176,1,172.5
236,292,14071,1,8,0:0:0:0:
340,344,14256,1,0,0:0:0:0:
436,280,14440,5,4,0:0:0:0:
448,224,14533,1,0,0:0:0:0:
444,168,14625,1,0,0:0:0:0:
404,124,14717,1,0,0:0:0:0:
352,96,14809,1,8,0:0:0:0:
296,92,14902,1,0,0:0:0:0:
244,116,14994,1,0,0:0:0:0:
204,156,15086,1,0,0:0:0:0:
168,200,15179,1,2,0:0:0:0:
128,240,15271,1,0,0:0:0:0:
72,256,15363,1,0,0:0:0:0:
16,240,15456,1,0,0:0:0:0:
0,184,15548,1,8,0:0:0:0:
24,132,15640,1,0,0:0:0:0:
80,116,15732,1,0,0:0:0:0:
128,144,15825,1,0,0:0:0:0:
168,184,15917,6,4,B|272:236|392:188,2,230
32,80,16932,1,0,0:0:0:0:
196,24,17209,1,0,0:0:0:0:
164,132,17394,2,0,B|220:164|220:164|328:168|324:168|324:168|388:196,1,230,4|8,0:0|0:0,0:0:0:0:
448,284,17948,1,0,0:0:0:0:
448,284,18040,2,0,B|448:336|412:372|352:376|304:360,1,172.5
208,344,18502,5,8,0:0:0:0:
92,340,18686,1,0,0:0:0:0:
12,260,18871,1,0,0:0:0:0:
0,144,19055,1,0,0:0:0:0:
64,48,19240,1,8,0:0:0:0:
180,36,19425,1,0,0:0:0:0:
180,36,19517,2,0,B|244:68|300:12|376:56,1,172.5
456,92,19978,5,8,0:0:0:0:
500,200,20163,1,0,0:0:0:0:
444,300,20348,2,0,B|388:328|328:300,1,115
224,264,20717,2,0,B|168:248|104:264,1,115,8|0,0:0|0:0,0:0:0:0:
60,288,20994,2,0,B|60:344|128:380|212:368,1,172.5
308,360,21455,1,8,0:0:0:0:
392,280,21640,1,0,0:0:0:0:
420,168,21824,5,4,0:0:0:0:
412,112,21917,1,0,0:0:0:0:
388,60,22009,1,0,0:0:0:0:
336,40,22101,1,0,0:0:0:0:
280,32,22194,1,8,0:0:0:0:
224,40,22286,1,0,0:0:0:0:
184,84,22378,1,0,0:0:0:0:
164,140,22471,1,0,0:0:0:0:
172,196,22563,1,2,0:0:0:0:
204,244,22655,1,0,0:0:0:0:
252,276,22747,1,0,0:0:0:0:
308,276,22840,1,0,0:0:0:0:
356,244,22932,1,8,0:0:0:0:
376,188,23024,1,0,0:0:0:0:
356,136,23117,1,0,0:0:0:0:
304,116,23209,1,0,0:0:0:0:
248,136,23301,5,4,0:0:0:0:
136,168,23486,1,0,0:0:0:0:
52,244,23670,1,8,0:0:0:0:
24,356,23855,1,0,0:0:0:0:
136,372,24040,2,4,B|192:388|240:344|320:372,2,172.5
21,172,24963,5,4,0:0:0:0:
124,116,25147,2,0,B|180:80|168:12,1,115,8|0,0:0|0:0,0:0:0:0:
312,100,25517,2,0,B|300:162|356:198,1,115
320,320,25886,1,8,0:0:0:0:
192,328,26070,1,0,0:0:0:0:
168,220,26255,5,4,0:0:0:0:
240,132,26440,1,0,0:0:0:0:
344,80,26624,1,8,0:0:0:0:
452,116,26809,1,0,0:0:0:0:
500,220,26993,2,4,B|500:280|460:328|388:348|380:340,2,172.5
272,192,27916,6,0,B|92:192,2,172.5,4|8|2,0:0|0:0|0:0,0:0:0:0:
440,228,28747,1,8,0:0:0:0:
324,356,29024,1,0,0:0:0:0:
208,364,29209,5,2,0:0:0:0:
152,368,29301,1,0,0:0:0:0:
96,364,29393,1,0,0:0:0:0:
44,340,29485,1,0,0:0:0:0:
8,296,29578,1,2,0:0:0:0:
0,240,29670,1,0,0:0:0:0:
0,184,29762,1,0,0:0:0:0:
0,128,29855,1,0,0:0:0:0:
28,76,29947,1,2,0:0:0:0:
72,40,30039,1,0,0:0:0:0:
124,20,30132,1,0,0:0:0:0:
180,12,30224,1,0,0:0:0:0:
236,20,30316,1,2,0:0:0:0:
280,56,30409,1,0,0:0:0:0:
308,108,30501,1,0,0:0:0:0:
316,164,30593,1,0,0:0:0:0:
328,220,30685,5,6,0:0:0:0:
360,268,30778,1,0,0:0:0:0:
388,320,30870,1,0,0:0:0:0:
444,336,30962,1,0,0:0:0:0:
500,308,31055,1,6,0:0:0:0:
508,252,31147,1,0,0:0:0:0:
496,196,31239,1,0,0:0:0:0:
444,172,31332,1,0,0:0:0:0:
392,200,31424,1,4,0:0:0:0:
24,44,32162,5,4,0:0:0:0:
332,92,43219,5,6,0:0:0:0:
160,40,43390,6,0,P|120:64|96:128,1,107.999996704102
241,227,43647,2,0,P|240:180|196:127,1,107.999996704102
32,208,43904,2,0,P|72:230|140:219,1,107.999996704102
312,168,44161,2,0,B|356:160|356:160|408:200,1,107.999996704102
372,328,44419,1,0,0:0:0:0:
364,340,44504,1,0,0:0:0:0:
356,348,44590,5,0,0:0:0:0:
302,352,44676,1,0,0:0:0:0:
247,358,44761,2,0,P|199:334|183:274,1,107.999996704102
100,188,45019,2,0,B|120:108|120:108|84:132,1,107.999996704102
80,36,45276,2,0,P|136:24|200:52,1,107.999996704102
304,104,45533,2,0,P|345:118|408:104,1,107.999996704102
476,280,45790,2,0,L|412:296,1,53.9999983520508
440,192,45961,6,0,L|376:208,1,53.9999983520508
300,280,46133,2,0,B|220:276|220:276|180:240,1,107.999996704102
52,320,46390,2,0,P|32:264|44:212,1,107.999996704102
300,280,46647,2,0,P|320:224|308:172,1,107.999996704102
148,80,46904,2,0,L|268:52,1,107.999996704102
444,64,47161,2,0,L|429:115,1,53.9999983520508
418,235,47333,5,0,0:0:0:0:
425,261,47418,1,0,0:0:0:0:
432,288,47504,2,0,B|384:324|384:324|320:328,1,107.999996704102
80,316,47761,2,0,L|216:284,1,107.999996704102
324,160,48019,2,0,B|348:140|348:140|280:76,1,107.999996704102
92,100,48276,2,0,B|72:104|56:124|56:124|28:56,1,107.999996704102
132,172,48533,2,0,P|140:204|128:240,1,53.9999983520508
316,56,48704,5,0,0:0:0:0:
316,56,48790,1,0,0:0:0:0:
316,56,48876,2,0,P|364:64|432:44,1,107.999996704102
192,120,49133,2,0,P|144:128|76:108,1,107.999996704102
320,180,49390,2,0,P|368:188|436:168,1,107.999996704102
192,244,49647,2,0,P|144:252|76:232,1,107.999996704102
324,296,49904,2,0,L|392:312,1,53.9999983520508
192,344,50076,6,0,L|124:360,1,53.9999983520508
264,276,50247,2,0,P|260:212|224:172,1,107.999996704102
128,200,50504,2,0,P|132:136|168:96,1,107.999996704102
268,120,50761,2,0,P|264:56|228:16,1,107.999996704102
96,40,51019,2,0,L|-20:60,1,107.999996704102
268,120,51276,2,0,L|324:136,1,53.9999983520508
432,184,51447,6,0,L|376:200,1,53.9999983520508
264,276,51619,2,0,B|244:292|244:292|328:328,1,107.999996704102
415,283,51876,2,0,P|439:239|431:183,1,107.999996704102
168,228,52133,2,0,P|144:272|152:328,1,107.999996704102
292,84,52390,2,0,L|420:64,1,107.999996704102
120,84,52647,2,0,L|44:64,1,53.9999983520508
156,120,52819,5,0,0:0:0:0:
167,171,52904,1,0,0:0:0:0:
143,218,52990,2,0,L|40:268,1,107.999996704102
200,332,53247,2,0,P|256:344|328:328,1,107.999996704102
432,268,53504,2,0,B|464:244|464:244|384:216,1,107.999996704102
224,136,53761,2,0,P|208:92|224:20,1,107.999996704102
292,212,54019,2,0,P|284:232|256:256,1,53.9999983520508
303,128,54190,6,0,P|311:108|339:84,1,53.9999983520508
437,130,54361,2,0,B|453:138|453:138|443:46,1,107.999996704102
367,199,54619,2,0,P|374:263|403:305,1,107.999996704102
236,265,54876,2,0,P|177:264|128:284,1,107.999996704102
291,311,55133,2,0,B|315:309|315:309|296:223,1,107.999996704102
182,116,55390,1,0,0:0:0:0:
144,122,55476,1,0,0:0:0:0:
114,191,55561,5,0,0:0:0:0:
87,196,55647,1,0,0:0:0:0:
45,279,55733,2,0,B|28:307|28:307|123:288,1,107.999996704102
202,212,55990,2,0,B|203:186|203:186|278:231,1,107.999996704102
356,319,56247,2,0,B|364:343|364:343|423:279,1,107.999996704102
275,305,56504,1,0,0:0:0:0:
256,324,56590,2,0,L|199:327,1,53.9999983520508
47,295,56761,2,0,L|100:292,1,53.9999983520508
240,207,56933,5,0,0:0:0:0:
235,152,57019,1,0,0:0:0:0:
214,102,57104,2,0,B|197:62|161:29|161:29|161:52,1,107.999996704102
165,228,57361,2,0,P|167:284|153:337,1,107.999996704102
66,186,57619,2,0,B|62:146|62:146|49:137,2,53.9999983520508
76,316,57876,2,0,B|80:356|80:356|93:365,2,53.9999983520508
146,219,58133,1,0,0:0:0:0:
197,202,58219,1,0,0:0:0:0:
250,203,58304,5,0,0:0:0:0:
302,217,58390,1,0,0:0:0:0:
356,218,58476,2,0,B|390:216|450:197|450:197|434:190,1,107.999996704102
232,189,58733,2,0,B|198:187|138:168|138:168|154:161,1,107.999996704102
380,141,58990,2,0,B|412:130|466:97|466:97|448:94,1,107.999996704102
226,119,59247,2,0,B|193:108|139:75|139:75|157:72,1,107.999996704102
337,15,59504,1,0,0:0:0:0:
341,41,59590,1,0,0:0:0:0:
345,67,59676,6,0,P|376:153|399:178,1,107.999996704102
167,317,60019,2,0,P|136:231|113:206,1,107.999996704102
307,47,60361,2,0,P|360:121|389:139,1,107.999996704102
204,336,60704,2,0,P|151:262|122:244,1,107.999996704102
257,38,61047,5,0,0:0:0:0:
254,345,61219,1,0,0:0:0:0:
180,58,61390,5,0,0:0:0:0:
331,325,61562,1,0,0:0:0:0:
123,114,61733,5,0,0:0:0:0:
388,269,61905,1,0,0:0:0:0:
102,190,62076,5,0,0:0:0:0:
409,193,62248,1,0,0:0:0:0:
122,267,62419,5,0,0:0:0:0:
105,216,62504,1,0,0:0:0:0:
106,163,62590,1,0,0:0:0:0:
126,113,62676,1,0,0:0:0:0:
162,73,62761,1,0,0:0:0:0:
209,48,62847,1,0,0:0:0:0:
263,40,62933,1,0,0:0:0:0:
315,52,63019,1,0,0:0:0:0:
361,80,63104,6,0,P|392:98|425:100,3,53.9999983520508
437,225,63447,2,0,P|406:207|373:205,3,53.9999983520508
296,265,63790,6,0,L|288:293,6,26.9999991760254
236,192,64133,6,0,L|212:209,6,26.9999991760254
243,97,64476,6,0,L|214:102,14,26.9999991760254
400,144,65161,6,0,P|432:128|448:96,1,53.9999983520508
344,40,65333,2,0,P|312:56|296:88,1,53.9999983520508
176,192,65504,1,0,0:0:0:0:
123,200,65589,1,0,0:0:0:0:
68,188,65676,2,0,P|32:168|16:136,1,53.9999983520508
152,56,65847,1,0,0:0:0:0:
205,50,65932,1,0,0:0:0:0:
259,45,66019,2,0,L|336:32,1,53.9999983520508
256,140,66190,1,0,0:0:0:0:
305,162,66275,1,0,0:0:0:0:
354,184,66362,2,0,L|426:210,1,53.9999983520508
339,289,66533,6,0,P|336:315|324:340,1,53.9999983520508
188,340,66704,2,0,P|175:315|172:289,1,53.9999983520508
404,196,66876,1,0,0:0:0:0:
408,188,66961,1,0,0:0:0:0:
412,180,67047,2,0,P|390:163|364:152,1,53.9999983520508
108,188,67219,1,0,0:0:0:0:
104,196,67304,1,0,0:0:0:0:
100,204,67390,2,0,P|121:220|148:232,1,53.9999983520508
252,72,67561,1,0,0:0:0:0:
256,64,67646,1,0,0:0:0:0:
260,56,67732,2,0,P|238:39|212:28,1,53.9999983520508
108,134,67904,6,0,P|104:154|108:190,1,53.9999983520508
404,187,68076,2,0,P|408:160|404:134,1,53.9999983520508
192,280,68247,1,0,0:0:0:0:
184,296,68333,1,0,0:0:0:0:
176,308,68419,2,0,P|144:312|112:304,1,53.9999983520508
144,184,68590,1,0,0:0:0:0:
136,200,68676,1,0,0:0:0:0:
128,212,68762,2,0,P|96:216|64:208,1,53.9999983520508
96,76,68933,1,0,0:0:0:0:
88,92,69019,1,0,0:0:0:0:
80,104,69105,2,0,P|48:108|16:100,1,53.9999983520508
324,300,69276,6,0,L|400:304,1,53.9999983520508
377,81,69447,2,0,L|324:84,1,53.9999983520508
176,272,69619,1,0,0:0:0:0:
176,272,69704,1,0,0:0:0:0:
176,272,69790,2,0,L|196:340,1,53.9999983520508
68,200,69961,1,0,0:0:0:0:
68,200,70046,1,0,0:0:0:0:
68,200,70132,2,0,L|48:268,1,53.9999983520508
168,112,70304,1,0,0:0:0:0:
168,112,70389,1,0,0:0:0:0:
168,112,70475,2,0,L|188:180,1,53.9999983520508
344,68,70647,6,0,L|416:56,1,53.9999983520508
344,316,70819,2,0,L|416:328,1,53.9999983520508
128,192,70990,1,0,0:0:0:0:
121,223,71075,1,0,0:0:0:0:
114,255,71161,1,0,0:0:0:0:
107,286,71247,1,0,0:0:0:0:
184,304,71333,1,0,0:0:0:0:
190,272,71419,1,0,0:0:0:0:
197,240,71505,1,0,0:0:0:0:
204,209,71590,1,0,0:0:0:0:
280,228,71676,1,0,0:0:0:0:
273,259,71761,1,0,0:0:0:0:
266,291,71847,1,0,0:0:0:0:
260,323,71933,1,0,0:0:0:0:
336,340,72019,6,0,L|396:344,1,53.9999983520508
176,44,72190,2,0,L|116:40,1,53.9999983520508
304,144,72361,1,0,0:0:0:0:
335,138,72446,1,0,0:0:0:0:
361,119,72532,1,0,0:0:0:0:
374,90,72618,1,0,0:0:0:0:
440,44,72704,1,0,0:0:0:0:
448,75,72789,1,0,0:0:0:0:
457,106,72875,1,0,0:0:0:0:
466,137,72961,1,0,0:0:0:0:
432,212,73047,1,0,0:0:0:0:
413,238,73132,1,0,0:0:0:0:
408,270,73218,1,0,0:0:0:0:
415,301,73304,1,0,0:0:0:0:
344,344,73390,6,0,L|284:360,1,53.9999983520508
196,308,73561,2,0,L|136:324,1,53.9999983520508
56,256,73733,1,0,0:0:0:0:
32,233,73818,1,0,0:0:0:0:
19,204,73904,1,0,0:0:0:0:
16,172,73990,1,0,0:0:0:0:
52,100,74076,1,0,0:0:0:0:
83,93,74161,1,0,0:0:0:0:
115,87,74247,1,0,0:0:0:0:
147,80,74333,1,0,0:0:0:0:
220,120,74419,1,0,0:0:0:0:
249,107,74504,1,0,0:0:0:0:
269,82,74590,1,0,0:0:0:0:
275,50,74676,1,0,0:0:0:0:
356,44,74761,6,0,L|412:44,1,53.9999983520508
380,172,74933,2,0,L|436:172,1,53.9999983520508
320,296,75104,1,0,0:0:0:0:
304,300,75189,1,0,0:0:0:0:
289,305,75275,1,0,0:0:0:0:
273,310,75361,1,0,0:0:0:0:
204,268,75447,1,0,0:0:0:0:
188,272,75532,1,0,0:0:0:0:
173,277,75618,1,0,0:0:0:0:
157,282,75704,1,0,0:0:0:0:
100,224,75790,1,0,0:0:0:0:
84,228,75875,1,0,0:0:0:0:
69,233,75961,1,0,0:0:0:0:
53,238,76047,1,0,0:0:0:0:
31,316,76133,5,0,0:0:0:0:
56,96,76304,1,0,0:0:0:0:
56,96,76390,1,0,0:0:0:0:
56,96,76476,2,0,L|72:172,1,53.9999983520508
184,256,76647,1,0,0:0:0:0:
184,256,76733,1,0,0:0:0:0:
184,256,76819,2,0,L|168:180,1,53.9999983520508
237,27,76990,1,0,0:0:0:0:
237,27,77076,1,0,0:0:0:0:
237,27,77162,2,0,L|253:103,1,53.9999983520508
346,309,77333,1,0,0:0:0:0:
404,306,77419,1,0,0:0:0:0:
439,265,77504,6,0,P|458:241|457:208,1,53.9999983520508
408,47,77676,2,0,L|363:108,1,53.9999983520508
282,240,77847,1,0,0:0:0:0:
265,218,77933,1,0,0:0:0:0:
260,191,78019,1,0,0:0:0:0:
265,164,78104,1,0,0:0:0:0:
248,84,78190,1,0,0:0:0:0:
224,70,78276,1,0,0:0:0:0:
197,74,78361,1,0,0:0:0:0:
174,89,78447,1,0,0:0:0:0:
111,141,78533,1,0,0:0:0:0:
116,168,78618,1,0,0:0:0:0:
117,222,78704,1,0,0:0:0:0:
83,277,78790,1,0,0:0:0:0:
33,219,78876,6,0,P|58:215|86:227,1,53.9999983520508
256,176,79047,2,0,P|270:199|276:225,1,53.9999983520508
432,109,79218,1,0,0:0:0:0:
408,95,79304,1,0,0:0:0:0:
384,80,79390,1,0,0:0:0:0:
371,56,79476,1,0,0:0:0:0:
290,51,79561,1,0,0:0:0:0:
262,52,79647,1,0,0:0:0:0:
235,54,79733,1,0,0:0:0:0:
207,56,79819,1,0,0:0:0:0:
145,107,79904,1,0,0:0:0:0:
122,92,79990,1,0,0:0:0:0:
69,79,80076,1,0,0:0:0:0:
10,108,80161,1,0,0:0:0:0:
47,173,80247,6,0,P|52:149|50:119,1,53.9999983520508
145,324,80419,2,0,P|166:310|186:287,1,53.9999983520508
291,59,80590,1,0,0:0:0:0:
301,83,80676,1,0,0:0:0:0:
321,99,80761,1,0,0:0:0:0:
347,104,80847,1,0,0:0:0:0:
419,67,80933,2,0,P|426:102|420:126,1,53.9999983520508
307,324,81104,1,0,0:0:0:0:
289,304,81190,1,0,0:0:0:0:
277,281,81276,2,0,P|270:246|276:222,1,53.9999983520508
252,36,81447,1,0,0:0:0:0:
199,51,81533,1,0,0:0:0:0:
145,55,81619,5,0,0:0:0:0:
179,273,81790,1,0,0:0:0:0:
247,57,81961,1,0,0:0:0:0:
59,203,82133,1,0,0:0:0:0:
276,321,82304,1,0,0:0:0:0:
114,117,82476,1,0,0:0:0:0:
188,375,82647,1,0,0:0:0:0:
365,170,82819,1,0,0:0:0:0:
95,244,82990,5,0,0:0:0:0:
375,319,83161,1,0,0:0:0:0:
238,47,83333,1,0,0:0:0:0:
260,358,83504,1,0,0:0:0:0:
366,50,83676,1,0,0:0:0:0:
490,359,83847,1,0,0:0:0:0:
156,264,84019,1,0,0:0:0:0:
469,95,84190,1,0,0:0:0:0:
102,97,84361,5,0,0:0:0:0:
68,139,84447,1,0,0:0:0:0:
71,193,84533,1,0,0:0:0:0:
105,234,84619,1,0,0:0:0:0:
156,247,84704,1,0,0:0:0:0:
205,224,84790,1,0,0:0:0:0:
245,188,84876,1,0,0:0:0:0:
294,168,84961,1,0,0:0:0:0:
348,171,85047,5,0,0:0:0:0:
392,201,85133,1,0,0:0:0:0:
403,253,85219,1,0,0:0:0:0:
380,301,85304,1,0,0:0:0:0:
333,328,85390,1,0,0:0:0:0:
280,313,85476,1,0,0:0:0:0:
248,269,85561,1,0,0:0:0:0:
253,215,85647,1,0,0:0:0:0:
287,173,85733,6,0,L|324:156,31,26.9999991760254
344,136,87104,5,0,0:0:0:0:
335,231,98601,6,0,P|375:228|410:209,1,80,4|0,1:0|0:0,0:0:0:0:
469,74,98954,21,10,0:0:0:0:
425,47,99042,1,2,0:0:0:0:
376,39,99130,1,2,0:0:0:0:
325,47,99219,1,2,0:0:0:0:
284,75,99307,5,0,1:0:0:0:
85,91,99483,1,0,0:0:0:0:
44,289,99660,38,0,L|31:316,1,25,8|0,0:0|0:0,0:0:0:0:
91,308,99748,2,0,L|87:337,1,25,0|0,0:0|0:0,0:0:0:0:
141,303,99836,2,0,L|154:347,1,25,0|0,0:0|0:0,0:0:0:0:
181,272,99925,2,0,L|200:294,1,25,0|0,0:0|0:0,0:0:0:0:
197,224,100013,38,0,P|200:185|222:144,1,80,0|0,1:0|0:0,0:0:0:0:
406,262,100366,22,0,B|422:296|422:296|411:323|365:328,1,100,10|2,0:0|0:0,0:0:0:0:
218,148,100719,2,0,B|201:113|201:113|212:86|258:81,1,100,2|2,1:2|0:0,0:0:0:0:
397,111,101072,38,0,B|381:136|377:165|377:165|331:163|361:195|291:215|291:215|282:249|252:270,1,225.000008583069,10|0,0:0|0:0,0:0:0:0:
158,337,101425,22,0,P|126:287|134:222,1,120,0|0,1:0|0:0,0:0:0:0:
218,148,101777,21,10,0:0:0:0:
252,192,101866,1,2,0:0:0:0:
262,246,101954,1,2,0:0:0:0:
246,299,102042,1,2,0:0:0:0:
179,340,102130,22,0,P|147:290|155:225,1,120,0|0,1:0|0:0,0:0:0:0:
233,122,102482,37,10,0:0:0:0:
278,178,102571,1,2,0:0:0:0:
289,248,102659,1,2,0:0:0:0:
268,316,102747,1,2,0:0:0:0:
204,356,102836,22,0,P|152:330|93:337,1,120,0|0,1:0|0:0,0:0:0:0:
29,254,103189,6,0,P|37:231|36:206,1,50,10|0,0:0|0:0,0:0:0:0:
70,53,103366,2,0,P|67:77|75:101,1,50,2|0,0:0|0:0,0:0:0:0:
176,232,103542,2,0,B|171:207|171:207|158:186,1,50,2|0,1:2|0:0,0:0:0:0:
166,12,103719,2,0,B|176:34|176:34|194:51,1,50,2|0,0:0|0:0,0:0:0:0:
356,94,103895,5,8,0:0:0:0:
413,76,103983,1,0,0:0:0:0:
469,97,104072,1,0,0:0:0:0:
497,149,104160,1,0,0:0:0:0:
489,204,104248,6,0,P|473:241|436:272,1,80,0|0,1:0|0:0,0:0:0:0:
247,262,104601,21,10,0:0:0:0:
224,217,104689,1,2,0:0:0:0:
226,167,104777,1,2,0:0:0:0:
253,124,104866,1,2,0:0:0:0:
297,102,104954,6,0,P|333:120|393:115,1,100,0|0,1:0|0:0,0:0:0:0:
206,40,105307,2,0,P|170:22|110:27,1,100,8|0,0:0|0:0,0:0:0:0:
205,326,105660,22,0,P|235:299|247:262,1,80,0|0,1:0|0:0,0:0:0:0:
149,148,106013,6,0,B|121:131|121:131|136:118,1,50,10|0,0:0|0:0,0:0:0:0:
342,172,106189,2,0,B|370:189|370:189|355:202,1,50,2|0,0:0|0:0,0:0:0:0:
143,228,106366,6,0,L|121:264,2,33.3333333333333,0|0|0,1:0|0:0|0:0,0:0:0:0:
264,147,106542,2,0,L|282:119,2,33.3333333333333
102,49,106719,38,0,B|132:41|149:24|149:24|169:65|214:70|214:70|255:74|284:121,1,225.000008583069,10|0,0:0|0:0,0:0:0:0:
314,225,107072,22,0,P|274:231|237:219,1,80,0|0,1:0|0:0,0:0:0:0:
358,55,107425,38,0,L|347:32,3,25,8|0|0|0,0:0|0:0|0:0|0:0,0:0:0:0:
396,125,107601,2,0,L|390:152,3,25
439,56,107777,37,2,1:2:0:0:
472,93,107866,1,2,0:0:0:0:
490,139,107954,1,2,0:0:0:0:
490,188,108042,1,2,0:0:0:0:
471,234,108130,22,0,P|415:253|395:306,1,120,8|0,0:0|0:0,0:0:0:0:
472,311,108483,6,0,L|382:226,1,120,0|0,1:2|0:0,0:0:0:0:
288,140,108836,6,0,L|262:115,1,25,8|0,0:0|0:0,0:0:0:0:
232,163,108925,2,0,L|202:149,1,25
193,208,109013,2,0,L|156:210,1,25,0|0,0:0|0:0,0:0:0:0:
188,267,109101,2,0,L|158:294,1,25,0|0,0:0|0:0,0:0:0:0:
217,319,109189,6,0,B|239:333|239:333|262:333,1,50,2|2,1:2|0:0,0:0:0:0:
429,171,109366,2,0,B|407:157|407:157|383:157,1,50,2|2,0:0|0:0,0:0:0:0:
166,122,109542,37,10,0:0:0:0:
166,47,109630,1,2,0:0:0:0:
231,12,109719,1,2,0:0:0:0:
231,87,109807,1,2,0:0:0:0:
232,163,109895,22,0,P|244:200|275:229,1,80,6|0,1:2|0:0,0:0:0:0:
423,221,110248,21,10,0:0:0:0:
429,171,110336,1,2,0:0:0:0:
417,121,110425,1,2,0:0:0:0:
390,78,110513,1,2,0:0:0:0:
348,50,110601,5,0,1:0:0:0:
319,274,110777,1,0,0:0:0:0:
166,122,110954,38,0,L|131:101,3,25,8|0|0|0,0:0|0:0|0:0|0:0,0:0:0:0:
232,163,111130,2,0,L|275:142,3,25
165,203,111307,38,0,P|126:195|95:164,1,80,0|0,1:0|0:0,0:0:0:0:
47,25,111660,21,10,0:0:0:0:
27,214,111836,1,2,0:0:0:0:
234,82,112013,38,0,L|255:55,2,33.3333333333333,0|0|0,1:0|0:0|0:0,0:0:0:0:
278,216,112189,2,0,L|251:251,2,33.3333333333333
392,202,112366,38,0,P|333:193|278:217,1,120,10|0,0:0|0:0,0:0:0:0:
127,320,112719,38,0,P|186:329|241:305,1,120,0|0,1:0|0:0,0:0:0:0:
279,216,113072,37,10,0:0:0:0:
235,191,113160,1,2,0:0:0:0:
185,192,113248,1,2,0:0:0:0:
140,214,113336,1,2,0:0:0:0:
112,294,113425,6,0,P|171:303|226:279,1,120,0|0,1:0|0:0,0:0:0:0:
310,197,113778,21,10,0:0:0:0:
249,160,113866,1,2,0:0:0:0:
177,160,113954,1,2,0:0:0:0:
114,196,114042,1,2,0:0:0:0:
96,269,114130,38,0,P|123:314|186:339,1,120,0|0,1:0|0:0,0:0:0:0:
335,265,114483,6,0,B|352:253|352:253|389:251,1,50,10|0,0:0|0:0,0:0:0:0:
235,191,114660,2,0,B|218:203|218:203|181:205,1,50,2|0,0:0|0:0,0:0:0:0:
305,93,114836,6,0,B|319:82|319:82|343:87|343:87|362:75,1,50,0|0,1:0|0:0,0:0:0:0:
205,19,115013,2,0,B|191:30|191:30|167:25|167:25|148:37,1,50
33,81,115189,37,10,0:0:0:0:
58,135,115277,1,2,0:0:0:0:
65,195,115366,1,2,0:0:0:0:
53,253,115454,1,2,0:0:0:0:
29,308,115542,22,0,P|58:281|95:265,1,80,0|0,1:0|0:0,0:0:0:0:
288,275,115895,37,10,0:0:0:0:
320,237,115983,1,2,0:0:0:0:
334,188,116072,1,2,0:0:0:0:
328,137,116160,1,2,0:0:0:0:
305,93,116248,37,0,1:0:0:0:
143,162,116425,1,0,0:0:0:0:
386,58,116601,1,8,0:0:0:0:
224,127,116777,1,0,0:0:0:0:
467,24,116954,38,0,L|470:104,1,80,0|0,1:0|0:0,0:0:0:0:
475,296,117307,22,0,B|465:280|465:280|431:265,1,50,10|0,0:0|0:0,0:0:0:0:
314,271,117483,2,0,B|295:261|295:261|281:233,1,50,2|0,0:0|0:0,0:0:0:0:
224,127,117660,38,0,L|214:86,2,33.3333333333333,0|0|0,1:0|0:0|0:0,0:0:0:0:
176,266,117836,2,0,L|187:308,2,33.3333333333333
62,165,118013,6,0,B|27:169|27:169|38:223|133:165|178:270,1,225.000008583069,10|0,0:0|0:0,0:0:0:0:
80,307,118366,6,0,P|116:352|179:373,1,120,0|0,1:0|0:0,0:0:0:0:
272,354,118719,22,0,L|307:345,3,25,8|0|0|0,0:0|0:0|0:0|0:0,0:0:0:0:
200,272,118895,2,0,L|165:263,3,25
284,203,119072,6,0,L|333:185,1,50,2|2,1:2|0:0,0:0:0:0:
212,121,119248,2,0,L|163:103,1,50,2|2,0:0|0:0,0:0:0:0:
56,34,119425,6,0,P|106:15|188:20,1,120,8|0,0:0|0:0,0:0:0:0:
62,165,119777,6,0,P|92:112|144:80,1,120,0|0,1:2|0:0,0:0:0:0:
303,82,120130,5,0,0:0:0:0:
313,141,120219,1,0,0:0:0:0:
323,201,120307,1,0,0:0:0:0:
333,260,120395,1,0,0:0:0:0:
293,23,120836,5,0,1:0:0:0:
333,260,121189,6,0,L|235:222,1,89.9999972534181,6|0,1:2|0:0,0:0:0:0:
188,146,121542,21,0,0:0:0:0:
225,118,121630,1,0,0:0:0:0:
268,110,121718,1,0,0:0:0:0:
313,124,121807,1,0,0:0:0:0:
372,210,121895,22,0,L|275:195,1,89.9999972534181,2|0,1:2|0:0,0:0:0:0:
188,146,122248,37,0,0:0:0:0:
207,99,122336,1,0,0:0:0:0:
244,68,122424,1,0,0:0:0:0:
294,56,122513,1,0,0:0:0:0:
398,65,122601,6,0,L|416:159,1,89.9999972534181,2|0,1:2|0:0,0:0:0:0:
436,257,122954,21,0,0:0:0:0:
412,305,123043,1,0,0:0:0:0:
368,336,123131,1,0,0:0:0:0:
314,345,123219,1,0,0:0:0:0:
219,300,123307,22,0,L|201:206,1,89.9999972534181,2|0,1:2|0:0,0:0:0:0:
185,107,123660,37,0,0:0:0:0:
147,126,123749,1,0,0:0:0:0:
120,158,123837,1,0,0:0:0:0:
107,198,123925,1,0,0:0:0:0:
130,299,124013,6,0,L|219:300,1,89.9999972534181,2|0,1:2|0:0,0:0:0:0:
326,299,124366,21,0,0:0:0:0:
362,268,124454,1,0,0:0:0:0:
384,225,124542,1,0,0:0:0:0:
381,176,124631,1,0,0:0:0:0:
337,81,124719,22,0,L|252:111,1,89.9999972534181,2|0,1:2|0:0,0:0:0:0:
149,138,125072,37,0,0:0:0:0:
158,85,125160,1,0,0:0:0:0:
193,44,125248,1,0,0:0:0:0:
241,20,125337,1,0,0:0:0:0:
345,8,125425,6,0,L|418:74,1,89.9999972534181,2|0,1:2|0:0,0:0:0:0:
487,141,125777,21,0,0:0:0:0:
444,164,125866,1,0,0:0:0:0:
396,170,125954,1,0,0:0:0:0:
351,153,126042,1,0,0:0:0:0:
267,91,126130,22,0,L|236:178,1,89.9999972534181,2|0,1:2|0:0,0:0:0:0:
203,276,126483,37,0,0:0:0:0:
245,274,126572,1,0,0:0:0:0:
285,285,126660,1,0,0:0:0:0:
319,308,126748,1,0,0:0:0:0:
379,378,126836,6,0,L|369:275,1,100,4|0,3:1|0:0,0:0:0:0:
352,78,127189,1,0,3:0:0:0:
114,173,127365,1,0,0:0:0:0:
319,308,127542,6,0,P|364:282|388:239,1,100,0|0,3:0|0:0,0:0:0:0:
434,46,127895,1,0,3:0:0:0:
474,293,128071,1,0,0:0:0:0:
512,91,128248,5,4,3:1:0:0:
245,274,128424,1,0,3:0:0:0:
338,31,128601,1,0,3:0:0:0:
396,301,128777,1,0,3:0:0:0:
434,46,128954,5,0,3:0:0:0:
199,209,129130,1,0,3:0:0:0:
491,192,129307,1,0,3:0:0:0:
248,49,129483,1,0,3:0:0:0:
374,160,129660,5,4,3:1:0:0:
347,208,129748,1,0,3:1:0:0:
300,235,129836,1,0,3:1:0:0:
246,235,129924,1,0,3:1:0:0:
199,209,130012,1,0,3:2:0:0:
151,182,130101,1,0,3:2:0:0:
97,182,130189,1,0,3:2:0:0:
50,209,130277,1,0,3:2:0:0:
23,257,130365,5,4,3:1:0:0:
72,284,130454,1,0,3:2:0:0:
126,283,130542,1,0,3:2:0:0:
173,256,130630,1,0,3:2:0:0:
199,209,130719,1,0,3:2:0:0:
252,197,130807,1,0,3:2:0:0:
306,188,130895,1,0,3:2:0:0:
360,179,130983,1,0,3:2:0:0:
416,170,131072,5,4,0:1:0:0:
416,170,131777,5,0,0:0:0:0:
416,170,131865,1,0,0:0:0:0:
348,326,132042,1,0,0:0:0:0:
252,197,132218,1,0,0:0:0:0:
252,197,132307,1,0,0:0:0:0:
252,197,132395,1,0,0:0:0:0:
252,197,132483,1,0,0:0:0:0:
460,296,146221,6,0,B|404:272|352:292|352:292|304:308|252:288,1,202.500007724762
52,88,146554,2,0,B|108:112|160:92|160:92|208:76|260:96,1,202.500007724762
448,64,146888,1,0,0:0:0:0:
88,336,147054,2,0,P|80:304|88:264,1,67.5000025749208
176,164,147221,2,0,P|208:156|248:164,1,67.5000025749208
328,264,147388,2,0,P|336:296|328:336,1,67.5000025749208
340,156,147554,5,0,0:0:0:0:
88,336,147721,1,0,0:0:0:0:
64,312,147804,1,0,0:0:0:0:
40,288,147888,2,0,B|20:224|20:224|40:168|40:168|12:92,1,202.500007724762
128,28,148221,1,0,0:0:0:0:
424,48,148388,1,0,0:0:0:0:
448,72,148471,1,0,0:0:0:0:
472,96,148555,2,0,B|492:160|492:160|472:216|472:216|500:292,1,202.500007724762
384,356,148888,6,0,P|388:316|380:288,1,45
124,311,149054,2,0,P|123:333|128:356,1,45
352,216,149221,2,0,P|329:182|305:166,1,45
185,179,149388,2,0,P|170:196|160:216,1,45
256,96,149554,1,0,0:0:0:0:
12,132,149721,1,0,0:0:0:0:
0,72,149804,1,0,0:0:0:0:
36,20,149888,1,0,0:0:0:0:
96,8,149971,1,0,0:0:0:0:
152,36,150054,1,0,0:0:0:0:
172,96,150138,1,0,0:0:0:0:
148,152,150221,6,0,B|128:200|128:200|144:288|144:288|112:356,1,202.500007724762
56,268,150554,2,0,L|44:196,1,67.5000025749208
232,280,150721,2,0,L|244:352,1,67.5000025749208
88,88,150888,1,0,0:0:0:0:
444,180,151054,1,0,0:0:0:0:
432,132,151138,1,0,0:0:0:0:
424,88,151221,6,0,B|424:74|424:74|408:32|408:32|408:15,1,68.1818181818182
120,40,151554,6,0,P|84:108|148:228,1,202.500007724762
392,344,151888,2,0,P|428:276|364:156,1,202.500007724762
256,68,152221,1,0,0:0:0:0:
224,308,152388,2,0,P|252:314|302:300,1,67.5000025749208
336,56,152554,2,0,P|325:29|285:-3,1,67.5000025749208
124,240,152721,2,0,P|108:269|106:303,1,67.5000025749208
184,144,152888,5,0,0:0:0:0:
344,244,153054,1,0,0:0:0:0:
368,220,153138,1,0,0:0:0:0:
392,196,153221,2,0,B|404:140|404:140|376:64|376:64|392:0,1,202.500007724762
480,72,153554,1,0,0:0:0:0:
168,140,153721,1,0,0:0:0:0:
144,164,153805,1,0,0:0:0:0:
120,188,153888,2,0,B|108:244|108:244|136:320|136:320|120:384,1,202.500007724762
28,280,154221,6,0,B|20:244|20:244|32:208,1,67.5000025749208
216,288,154388,2,0,B|224:324|224:324|212:360,1,67.5000025749208
484,296,154554,2,0,B|492:332|492:332|480:368,1,67.5000025749208
296,288,154721,2,0,B|288:252|288:252|300:216,1,67.5000025749208
256,56,154888,1,0,0:0:0:0:
76,204,155054,1,0,0:0:0:0:
40,260,155138,1,0,0:0:0:0:
48,328,155221,1,0,0:0:0:0:
108,360,155304,1,0,0:0:0:0:
172,344,155388,1,0,0:0:0:0:
196,280,155471,1,0,0:0:0:0:
168,220,155554,6,0,L|152:144,1,67.5000025749208
357,153,155721,2,0,L|344:220,1,67.5000025749208
80,176,155888,2,0,P|77:136|90:99,1,67.5000025749208
426,110,156054,2,0,P|435:142|432:176,1,67.5000025749208
100,36,156221,2,0,L|172:56,1,67.5000025749208
412,36,156388,2,0,L|340:56,1,67.5000025749208
256,300,156554,6,0,B|260:288|260:288|252:244|252:244|256:220,1,67.5
108,92,156888,6,0,B|128:144|108:192|108:192|92:240|112:300,1,202.500007724762
404,292,157221,2,0,B|384:240|404:192|404:192|420:144|403:93,1,202.500007724762
256,48,157554,1,0,0:0:0:0:
176,232,157721,1,0,0:0:0:0:
152,296,157804,1,0,0:0:0:0:
188,352,157888,1,0,0:0:0:0:
256,360,157971,1,0,0:0:0:0:
324,352,158054,1,0,0:0:0:0:
360,296,158138,1,0,0:0:0:0:
336,232,158221,5,0,0:0:0:0:
124,104,158388,1,0,0:0:0:0:
140,68,158471,1,0,0:0:0:0:
160,33,158554,2,0,B|172:71|172:71|161:171|161:171|176:232,1,202.500007724762
68,264,158888,1,0,0:0:0:0:
388,280,159054,1,0,0:0:0:0:
372,316,159137,1,0,0:0:0:0:
351,350,159220,2,0,B|339:312|339:312|350:212|350:212|336:152,1,202.500007724762
444,120,159554,6,0,P|456:160|452:196,1,67.5000025749208
232,216,159721,2,0,P|220:176|224:140,1,67.5000025749208
288,48,159888,2,0,P|326:34|362:40,1,67.5000025749208
388,280,160054,2,0,P|349:293|313:287,1,67.5000025749208
340,164,160221,1,0,0:0:0:0:
32,148,160388,1,0,0:0:0:0:
84,108,160471,1,0,0:0:0:0:
148,128,160554,1,0,0:0:0:0:
164,192,160638,1,0,0:0:0:0:
184,256,160721,1,0,0:0:0:0:
248,276,160804,1,0,0:0:0:0:
300,236,160887,5,0,0:0:0:0:
48,44,161054,2,0,L|56:220,1,135.000005149842
464,44,161388,2,0,L|456:220,1,135.000005149842
29,30,161721,2,0,L|37:222,1,135.000005149842
482,30,162055,2,0,L|474:222,1,135.000005149842
256,60,162388,5,0,0:0:0:0:
160,296,162554,2,0,B|208:280|256:300|256:300|304:320|388:288,1,202.500007724762
448,208,162888,1,0,0:0:0:0:
76,224,163054,1,0,0:0:0:0:
52,160,163138,1,0,0:0:0:0:
84,100,163221,1,0,0:0:0:0:
148,84,163304,1,0,0:0:0:0:
204,120,163388,1,0,0:0:0:0:
212,188,163471,1,0,0:0:0:0:
164,236,163554,5,0,0:0:0:0:
448,328,163721,1,0,0:0:0:0:
432,292,163804,1,0,0:0:0:0:
416,256,163888,2,0,B|400:200|400:200|420:104|420:104|404:48,1,202.500007724762
256,24,164221,1,0,0:0:0:0:
64,56,164388,1,0,0:0:0:0:
80,92,164471,1,0,0:0:0:0:
96,128,164555,2,0,B|112:184|112:184|92:280|92:280|108:336,1,202.500007724762
220,312,164888,6,0,P|264:320|304:304,1,67.5000025749208
378,221,165054,2,0,P|384:188|376:156,1,67.5000025749208
285,69,165221,2,0,P|252:63|220:72,1,67.5000025749208
133,162,165388,2,0,P|127:195|136:228,1,67.5000025749208
209,347,165554,6,0,P|266:358|318:337,1,67.5000025749208
415,230,165720,2,0,P|422:187|411:145,1,67.5000025749208
294,32,165887,2,0,P|251:25|209:36,1,67.5000025749208
96,153,166054,2,0,P|89:196|100:238,1,67.5000025749208
256,192,166221,5,0,0:0:0:0:
164,88,166388,1,0,0:0:0:0:
156,64,166471,1,0,0:0:0:0:
148,40,166554,1,0,0:0:0:0:
364,40,166721,1,0,0:0:0:0:
256,272,166888,1,0,0:0:0:0:
256,112,167054,1,0,0:0:0:0:
256,348,167221,1,0,0:0:0:0:
256,36,167388,1,0,0:0:0:0:
44,80,167554,5,0,0:0:0:0:
88,288,180215,6,0,B|192:288,1,100,6|0,0:0|0:0,0:0:0:0:
256,312,180492,1,0,0:0:0:0:
328,336,180585,2,0,B|432:336,1,100,6|0,0:0|0:0,0:0:0:0:
488,200,180955,2,0,B|376:200,1,100,6|2,0:0|0:0,0:0:0:0:
248,144,181326,5,0,0:0:0:0:
216,72,181418,1,0,0:0:0:0:
288,40,181511,1,0,0:0:0:0:
320,112,181603,1,0,0:0:0:0:
248,144,181696,6,0,B|144:144,1,100,6|0,0:0|0:0,0:0:0:0:
128,216,181974,1,0,0:0:0:0:
104,288,182066,2,0,B|0:288,1,100,6|0,0:0|0:0,0:0:0:0:
152,344,182437,2,0,B|256:344,1,100,6|0,0:0|0:0,0:0:0:0:
384,272,182807,5,0,0:0:0:0:
384,272,182900,1,0,0:0:0:0:
128,112,183085,1,0,0:0:0:0:
128,112,183177,5,6,0:0:0:0:
272,160,183363,2,0,B|264:56,1,100,0|6,0:0|0:0,0:0:0:0:
336,32,183640,1,0,0:0:0:0:
376,96,183733,1,0,0:0:0:0:
352,168,183826,2,0,B|392:232|488:272,1,150,6|6,0:0|0:0,0:0:0:0:
360,360,184289,5,4,0:0:0:0:
296,304,184381,1,0,0:0:0:0:
256,240,184474,1,6,0:0:0:0:
216,304,184566,1,0,0:0:0:0:
152,352,184659,1,4,0:0:0:0:
136,184,184844,5,6,0:0:0:0:
96,248,184937,1,0,0:0:0:0:
32,296,185029,1,4,0:0:0:0:
16,112,185214,5,2,0:0:0:0:
184,24,185400,5,4,0:0:0:0:
256,56,185492,1,4,0:0:0:0:
320,96,185585,1,4,0:0:0:0:
256,136,185677,1,4,0:0:0:0:
192,176,185770,1,4,0:0:0:0:
256,216,185863,1,4,0:0:0:0:
320,256,185955,1,4,0:0:0:0:
256,296,186048,1,4,0:0:0:0:
192,328,186140,6,6,B|88:336,1,100,6|4,0:0|0:0,0:0:0:0:
128,296,186418,1,0,0:0:0:0:
160,256,186511,2,6,B|56:248,1,100,6|4,0:0|0:0,0:0:0:0:
40,80,186881,2,6,B|144:64,1,100,6|4,0:0|0:0,0:0:0:0:
472,40,187252,5,0,0:0:0:0:
464,112,187344,1,0,0:0:0:0:
400,64,187437,1,0,0:0:0:0:
392,136,187529,1,0,0:0:0:0:
456,184,187622,6,0,B|448:288,1,100,6|0,0:0|0:0,0:0:0:0:
408,256,187900,1,0,0:0:0:0:
368,232,187992,2,0,B|352:336,1,100,6|0,0:0|0:0,0:0:0:0:
200,272,188363,2,0,B|184:168,1,100,6|6,0:0|0:0,0:0:0:0:
56,56,188733,5,4,0:0:0:0:
56,56,188826,1,0,0:0:0:0:
88,328,189011,1,0,0:0:0:0:
88,328,189103,6,6,B|192:376|304:320,1,200
352,296,189566,1,4,0:0:0:0:
376,216,189659,1,0,0:0:0:0:
400,136,189752,1,0,0:0:0:0:
424,56,189844,6,6,B|320:8|208:64,1,200
168,104,190307,1,4,0:0:0:0:
136,176,190400,1,0,0:0:0:0:
104,248,190492,1,0,0:0:0:0:
88,328,190585,6,6,B|192:376|304:320,1,200
352,296,191048,5,4,0:0:0:0:
376,216,191140,1,0,0:0:0:0:
400,136,191233,1,0,0:0:0:0:
424,56,191326,6,6,B|320:8|208:64,1,200,6|4,0:0|0:0,0:0:0:0:
168,112,191789,1,4,0:0:0:0:
248,144,191881,1,4,0:0:0:0:
184,200,191974,1,4,0:0:0:0:
264,232,192066,6,6,B|368:224,1,100,6|0,0:0|0:0,0:0:0:0:
344,296,192344,1,0,0:0:0:0:
280,336,192437,2,0,B|176:344,1,100,6|0,0:0|0:0,0:0:0:0:
96,192,192807,2,0,B|104:296,1,100,6|6,0:0|0:0,0:0:0:0:
32,136,193177,5,4,0:0:0:0:
80,80,193270,1,0,0:0:0:0:
152,104,193363,1,0,0:0:0:0:
224,128,193455,1,0,0:0:0:0:
272,72,193548,6,0,B|376:64,1,100,6|0,0:0|0:0,0:0:0:0:
352,136,193826,1,0,0:0:0:0:
328,208,193918,2,0,B|440:200,1,100,6|0,0:0|0:0,0:0:0:0:
472,360,194289,6,0,B|480:248,1,100,6|0,0:0|0:0,0:0:0:0:
328,304,194659,1,4,0:0:0:0:
256,288,194752,1,0,0:0:0:0:
184,272,194844,1,0,0:0:0:0:
168,200,194937,1,0,0:0:0:0:
152,128,195029,1,2,0:0:0:0:
24,40,195214,6,0,B|48:152,1,100,0|2,0:0|0:0,0:0:0:0:
32,208,195492,1,4,0:0:0:0:
16,280,195585,1,4,0:0:0:0:
88,256,195677,2,6,B|152:200|264:184,1,150,6|6,0:0|0:0,0:0:0:0:
280,56,196140,5,4,0:0:0:0:
344,96,196233,1,4,0:0:0:0:
384,160,196326,1,6,0:0:0:0:
360,232,196418,1,4,0:0:0:0:
320,296,196511,1,4,0:0:0:0:
224,112,196696,5,0,0:0:0:0:
208,192,196789,1,2,0:0:0:0:
256,256,196881,1,4,0:0:0:0:
136,344,197066,5,6,0:0:0:0:
16,128,197252,5,4,0:0:0:0:
56,192,197344,1,4,0:0:0:0:
96,256,197437,1,4,0:0:0:0:
136,192,197529,1,4,0:0:0:0:
176,128,197622,1,4,0:0:0:0:
216,192,197714,1,4,0:0:0:0:
256,256,197807,1,4,0:0:0:0:
296,192,197900,1,4,0:0:0:0:
336,128,197992,6,0,B|440:120,1,100,6|0,0:0|0:0,0:0:0:0:
488,192,198270,1,0,0:0:0:0:
488,192,198363,2,0,B|384:200,1,100,6|0,0:0|0:0,0:0:0:0:
320,344,198733,6,6,B|424:336,1,100
248,296,199103,5,0,0:0:0:0:
176,272,199196,1,0,0:0:0:0:
232,224,199289,1,0,0:0:0:0:
160,200,199381,1,0,0:0:0:0:
216,152,199474,6,0,B|200:48,1,100,6|0,0:0|0:0,0:0:0:0:
144,128,199752,1,0,0:0:0:0:
144,128,199844,2,0,B|120:24,1,100,6|0,0:0|0:0,0:0:0:0:
88,184,200214,2,0,B|64:288,1,100,6|6,0:0|0:0,0:0:0:0:
376,64,200585,5,0,0:0:0:0:
384,64,200677,1,0,0:0:0:0:
392,64,200770,1,0,0:0:0:0:
400,64,200863,1,0,0:0:0:0:
408,64,200955,6,6,B|456:168|400:280,1,200
344,312,201418,1,4,0:0:0:0:
256,336,201511,1,0,0:0:0:0:
168,312,201603,1,0,0:0:0:0:
104,256,201696,6,6,B|56:152|112:40,1,200
176,24,202159,1,4,0:0:0:0:
256,64,202252,1,0,0:0:0:0:
336,24,202344,1,0,0:0:0:0:
408,64,202437,6,6,B|456:168|400:280,1,200
344,312,202900,1,4,0:0:0:0:
256,336,202992,1,0,0:0:0:0:
168,312,203085,1,0,0:0:0:0:
104,256,203177,6,6,B|56:152|112:40,1,200
256,192,203895,5,6,0:0:0:0:
388,120,215389,5,4,0:0:0:0:
488,348,215560,1,2,0:2:0:0:
232,164,215732,1,8,0:0:0:0:
228,372,215903,1,2,0:2:0:0:
228,372,215989,1,0,0:0:0:0:
228,372,216075,2,0,L|172:356,1,56.9999982604981,0|0,0:0|0:0,0:0:0:0:
8,264,216246,2,0,L|64:248,1,56.9999982604981,2|0,0:2|0:0,0:0:0:0:
216,96,216418,2,0,L|160:80,1,56.9999982604981,8|0,0:0|0:0,0:0:0:0:
264,208,216589,1,2,0:2:0:0:
424,12,216760,5,0,0:0:0:0:
456,44,216846,1,0,0:0:0:0:
476,84,216932,1,2,0:2:0:0:
484,128,217018,1,0,0:0:0:0:
472,172,217103,1,8,0:0:0:0:
340,332,217275,1,0,0:0:0:0:
208,80,217446,1,2,0:2:0:0:
172,368,217618,1,2,0:2:0:0:
172,368,217703,1,0,0:0:0:0:
172,368,217789,1,8,0:0:0:0:
344,108,217960,1,2,0:2:0:0:
112,212,218132,6,0,L|-20:188,1,113.999996520996,0|2,0:0|0:2,0:0:0:0:
296,24,218475,1,8,0:0:0:0:
352,276,218646,1,2,0:2:0:0:
352,276,218732,1,0,0:0:0:0:
352,276,218818,2,0,L|336:352,1,56.9999982604981,2|0,0:2|0:0,0:0:0:0:
420,120,218989,2,0,P|416:80|388:56,1,56.9999982604981,2|0,0:2|0:0,0:0:0:0:
228,208,219160,2,0,P|258:216|293:210,1,56.9999982604981,8|0,0:0|0:0,0:0:0:0:
120,132,219332,1,2,0:2:0:0:
292,348,219503,5,0,0:0:0:0:
332,324,219589,1,0,0:0:0:0:
376,320,219675,1,2,0:2:0:0:
420,328,219760,1,0,0:0:0:0:
460,352,219846,2,0,P|496:304|503:251,1,113.999996520996,8|0,0:0|0:0,0:0:0:0:
356,84,220189,1,2,0:2:0:0:
248,332,220360,1,2,0:2:0:0:
276,36,220532,1,8,0:0:0:0:
128,264,220703,1,2,0:2:0:0:
128,264,220789,1,0,0:0:0:0:
128,264,220875,5,0,0:0:0:0:
352,4,221046,1,0,0:0:0:0:
396,256,221218,1,8,0:0:0:0:
128,108,221389,1,2,0:2:0:0:
128,108,221475,1,0,0:0:0:0:
128,108,221560,2,0,P|76:112|44:132,1,56.9999982604981,0|0,0:0|0:0,0:0:0:0:
73,291,221732,2,0,P|94:272|120:260,1,56.9999982604981,2|0,0:2|0:0,0:0:0:0:
312,328,221903,2,0,P|291:308|265:296,1,56.9999982604981,8|0,0:0|0:0,0:0:0:0:
232,164,222075,1,0,0:0:0:0:
400,292,222246,5,0,0:0:0:0:
432,296,222332,1,0,0:0:0:0:
464,288,222418,1,2,0:2:0:0:
492,268,222503,1,0,0:0:0:0:
504,236,222589,2,0,L|484:112,1,113.999996520996,8|0,0:0|0:0,0:0:0:0:
216,8,222932,2,0,L|234:120,1,113.999996520996,2|2,0:2|0:2,0:0:0:0:
60,372,223275,2,0,L|40:248,1,113.999996520996,8|2,0:0|0:2,0:0:0:0:
208,28,223618,5,0,0:0:0:0:
272,296,223789,1,2,0:2:0:0:
460,96,223960,1,8,0:0:0:0:
168,164,224132,1,2,0:2:0:0:
168,164,224218,1,0,0:0:0:0:
168,164,224303,2,0,L|152:232,1,56.9999982604981,0|0,0:0|0:0,0:0:0:0:
288,256,224475,2,0,L|304:323,1,56.9999982604981,2|0,0:2|0:0,0:0:0:0:
441,286,224646,2,0,L|477:345,1,56.9999982604981,8|0,0:0|0:0,0:0:0:0:
504,172,224818,1,2,0:2:0:0:
152,132,224989,5,0,0:0:0:0:
208,136,225075,1,0,0:0:0:0:
260,112,225160,1,2,0:2:0:0:
296,68,225246,1,0,0:0:0:0:
308,12,225332,1,8,0:0:0:0:
360,252,225503,1,0,0:0:0:0:
192,28,225675,1,2,0:2:0:0:
468,20,225846,1,2,0:2:0:0:
468,20,225932,1,0,0:0:0:0:
468,20,226018,1,8,0:0:0:0:
208,268,226189,1,2,0:2:0:0:
400,164,226360,6,0,L|524:176,1,113.999996520996,4|0,0:0|0:0,0:0:0:0:
144,128,226703,2,0,L|30:117,1,113.999996520996,8|2,0:0|0:2,0:0:0:0:
200,348,227046,2,0,P|248:340|272:320,1,56.9999982604981,0|0,0:0|0:0,0:0:0:0:
384,252,227218,2,0,L|380:308,1,56.9999982604981,2|0,0:2|0:0,0:0:0:0:
512,172,227389,2,0,P|464:164|440:144,1,56.9999982604981,10|0,0:2|0:0,0:0:0:0:
396,72,227560,1,2,0:2:0:0:
128,252,227732,5,0,0:0:0:0:
172,260,227818,1,0,0:0:0:0:
216,252,227903,1,2,0:2:0:0:
256,232,227989,1,0,0:0:0:0:
280,192,228075,2,0,L|260:68,1,113.999996520996,8|0,0:0|0:0,0:0:0:0:
492,264,228418,2,0,P|488:328|456:372,1,113.999996520996,2|2,0:2|0:2,0:0:0:0:
124,136,228760,2,0,L|104:16,1,113.999996520996,8|2,0:0|0:2,0:0:0:0:
64,332,229103,5,0,0:0:0:0:
232,96,229275,1,2,0:2:0:0:
232,96,229360,1,0,0:0:0:0:
232,96,229446,1,8,0:0:0:0:
312,260,229618,1,2,0:2:0:0:
312,260,229703,1,0,0:0:0:0:
312,260,229789,2,0,L|384:248,1,56.9999982604981
236,364,229960,2,0,L|179:373,1,56.9999982604981,2|0,0:2|0:0,0:0:0:0:
324,244,230132,2,0,L|396:232,1,56.9999982604981,8|0,0:0|0:0,0:0:0:0:
192,192,230303,1,2,0:2:0:0:
472,24,230475,5,0,0:0:0:0:
436,52,230560,1,0,0:0:0:0:
392,68,230646,1,2,0:2:0:0:
348,72,230732,1,0,0:0:0:0:
304,68,230818,1,8,0:0:0:0:
8,152,230989,1,0,0:0:0:0:
8,152,231075,1,0,0:0:0:0:
8,152,231160,1,2,0:2:0:0:
180,8,231332,1,2,0:2:0:0:
252,320,231503,1,8,0:0:0:0:
392,248,231675,1,2,0:2:0:0:
392,248,231760,1,0,0:0:0:0:
392,248,231846,6,0,L|420:368,1,113.999996520996
508,144,232189,1,8,0:0:0:0:
348,8,232360,1,2,0:2:0:0:
348,8,232446,1,0,0:0:0:0:
348,8,232532,2,0,P|340:40|320:68,1,56.9999982604981
192,160,232703,2,0,L|264:164,1,56.9999982604981,2|0,0:2|0:0,0:0:0:0:
96,72,232875,2,0,L|39:68,1,56.9999982604981,8|0,0:0|0:0,0:0:0:0:
132,236,233046,1,2,0:2:0:0:
428,48,233218,5,0,0:0:0:0:
452,100,233303,1,0,0:0:0:0:
448,156,233389,1,2,0:2:0:0:
424,208,233475,1,0,0:0:0:0:
408,260,233560,2,0,P|408:288|448:364,1,113.999996520996,8|0,0:0|0:0,0:0:0:0:
268,84,233903,2,0,P|261:140|229:186,1,113.999996520996,2|2,0:2|0:2,0:0:0:0:
40,268,234246,1,8,0:0:0:0:
280,376,234418,1,2,0:2:0:0:
280,376,234503,1,0,0:0:0:0:
280,376,234589,6,0,L|292:320,1,56.9999982604981
404,240,234760,2,0,L|392:296,1,56.9999982604981,2|0,0:2|0:0,0:0:0:0:
268,212,234932,6,0,L|280:156,1,56.9999982604981,8|0,0:0|0:0,0:0:0:0:
400,68,235103,2,0,L|388:124,1,56.9999982604981,2|0,0:2|0:0,0:0:0:0:
164,144,235275,6,0,L|176:88,1,56.9999982604981
296,0,235446,2,0,L|284:56,1,56.9999982604981,2|0,0:2|0:0,0:0:0:0:
256,268,235618,6,0,L|268:212,1,56.9999982604981,8|0,0:0|0:0,0:0:0:0:
388,124,235789,2,0,L|376:180,1,56.9999982604981,2|0,0:2|0:0,0:0:0:0:
172,316,235960,5,2,1:2:0:0:
116,328,236046,1,0,1:0:0:0:
60,316,236132,1,2,1:2:0:0:
20,272,236218,1,0,1:0:0:0:
8,216,236303,1,14,1:2:0:0:
24,160,236389,1,0,1:0:0:0:
68,120,236475,1,2,1:2:0:0:
124,112,236560,1,0,1:0:0:0:
180,132,236646,1,6,1:2:0:0:
236,140,236732,1,0,1:0:0:0:
292,128,236818,1,2,1:2:0:0:
340,96,236903,1,0,1:0:0:0:
376,52,236989,1,14,1:2:0:0:
404,100,237075,1,0,1:0:0:0:
440,144,237160,1,2,1:2:0:0:
480,184,237246,1,0,1:0:0:0:
512,220,237332,5,4,0:0:0:0:
225,351,251455,6,0,B|265:317|246:264|246:264|305:255,1,148.50000453186,6|0,0:0|0:0,0:0:0:0:
397,285,251755,2,0,P|344:242|345:165,1,148.50000453186,8|0,0:0|0:0,0:0:0:0:
388,96,252055,1,8,0:0:0:0:
477,285,252205,1,8,0:0:0:0:
268,267,252355,1,8,0:0:0:0:
447,139,252505,6,0,B|488:122|523:155|523:155|417:202,1,198.000006042481,2|0,0:0|0:0,0:0:0:0:
268,267,252955,1,8,0:0:0:0:
362,118,253105,1,0,0:0:0:0:
343,299,253255,1,2,0:0:0:0:
187,192,253405,1,0,0:0:0:0:
115,354,253555,1,8,0:0:0:0:
3,222,253705,1,0,0:0:0:0:
256,192,253855,6,0,P|313:183|267:148,1,148.50000453186,6|0,0:0|0:0,0:0:0:0:
196,231,254155,2,0,P|244:273|328:271,1,148.50000453186,8|0,0:0|0:0,0:0:0:0:
393,214,254455,1,8,0:0:0:0:
464,61,254605,1,8,0:0:0:0:
498,327,254755,1,8,0:0:0:0:
333,145,254905,5,0,0:0:0:0:
310,132,254980,1,0,0:0:0:0:
288,120,255055,1,2,0:0:0:0:
160,248,255205,1,0,0:0:0:0:
114,73,255355,1,8,0:0:0:0:
288,120,255505,1,0,0:0:0:0:
160,248,255655,1,2,0:0:0:0:
211,61,255805,1,0,0:0:0:0:
393,214,255955,2,0,P|419:162|383:75,1,148.50000453186,6|0,0:0|0:0,0:0:0:0:
279,81,256255,5,2,0:0:0:0:
238,108,256330,1,0,0:0:0:0:
194,131,256405,1,0,0:0:0:0:
146,145,256480,1,0,0:0:0:0:
91,141,256555,5,8,0:0:0:0:
48,116,256630,1,0,0:0:0:0:
41,66,256705,1,0,0:0:0:0:
84,42,256780,1,0,0:0:0:0:
131,68,256855,5,2,0:0:0:0:
152,113,256930,1,0,0:0:0:0:
159,162,257005,1,0,0:0:0:0:
153,211,257080,1,0,0:0:0:0:
138,263,257155,5,8,0:0:0:0:
122,309,257230,1,0,0:0:0:0:
86,342,257305,1,0,0:0:0:0:
36,343,257380,1,0,0:0:0:0:
6,297,257455,5,2,0:0:0:0:
31,254,257530,1,0,0:0:0:0:
80,254,257605,1,0,0:0:0:0:
125,274,257680,1,0,0:0:0:0:
172,300,257755,5,8,0:0:0:0:
217,321,257830,1,0,0:0:0:0:
264,337,257905,1,0,0:0:0:0:
313,342,257980,1,0,0:0:0:0:
367,339,258055,5,2,0:0:0:0:
413,323,258130,1,0,0:0:0:0:
452,293,258205,1,0,0:0:0:0:
470,247,258280,1,0,0:0:0:0:
461,193,258355,5,8,0:0:0:0:
426,159,258430,1,0,0:0:0:0:
378,148,258505,1,0,0:0:0:0:
329,156,258580,1,0,0:0:0:0:
282,184,258655,5,2,0:0:0:0:
240,210,258730,1,0,0:0:0:0:
193,224,258805,1,0,0:0:0:0:
143,221,258880,1,0,0:0:0:0:
98,201,258955,5,8,0:0:0:0:
63,167,259030,1,0,0:0:0:0:
48,121,259105,1,0,0:0:0:0:
61,74,259180,1,0,0:0:0:0:
110,49,259255,5,2,0:0:0:0:
153,72,259330,1,0,0:0:0:0:
170,118,259405,1,0,0:0:0:0:
161,167,259480,1,0,0:0:0:0:
143,221,259555,5,8,0:0:0:0:
135,270,259630,1,0,0:0:0:0:
145,318,259705,1,0,0:0:0:0:
182,349,259780,1,0,0:0:0:0:
233,365,259855,6,0,L|335:365,1,99.0000030212403,2|0,0:0|0:0,0:0:0:0:
440,286,260080,1,0,0:0:0:0:
440,286,260155,2,0,P|447:249|436:216,2,66.0000020141602,8|0|0,0:0|0:0|0:0,0:0:0:0:
512,157,260455,2,0,P|491:125|459:110,2,66.0000020141602,2|0|0,0:0|0:0|0:0,0:0:0:0:
361,256,260755,2,0,P|311:253|269:213,1,99.0000030212403,8|0,0:0|0:0,0:0:0:0:
258,12,261055,5,6,0:0:0:0:
168,279,261205,1,0,0:0:0:0:
438,191,261355,1,8,0:0:0:0:
168,100,261505,1,0,0:0:0:0:
256,369,261655,1,2,0:0:0:0:
346,100,261805,1,0,0:0:0:0:
76,191,261955,1,8,0:0:0:0:
346,279,262105,1,0,0:0:0:0:
258,12,262255,5,2,0:0:0:0:
362,191,262405,1,0,0:0:0:0:
168,100,262555,1,8,0:0:0:0:
60,262,262705,1,0,0:0:0:0:
12,13,262855,1,2,0:0:0:0:
182,115,263005,5,0,0:0:0:0:
224,139,263080,1,0,0:0:0:0:
272,153,263155,1,8,0:0:0:0:
321,156,263230,1,0,0:0:0:0:
370,150,263305,1,0,0:0:0:0:
415,130,263380,1,0,0:0:0:0:
451,90,263455,5,2,0:0:0:0:
450,40,263530,1,0,0:0:0:0:
408,13,263605,1,0,0:0:0:0:
362,32,263680,1,0,0:0:0:0:
348,84,263755,5,8,0:0:0:0:
355,133,263830,1,0,0:0:0:0:
369,181,263905,1,0,0:0:0:0:
383,228,263980,1,0,0:0:0:0:
395,281,264055,5,2,0:0:0:0:
385,329,264130,1,0,0:0:0:0:
350,363,264205,1,0,0:0:0:0:
302,374,264280,1,0,0:0:0:0:
249,360,264355,5,8,0:0:0:0:
219,322,264430,1,0,0:0:0:0:
219,273,264505,1,0,0:0:0:0:
238,228,264580,1,0,0:0:0:0:
284,199,264655,6,0,P|320:204|364:195,2,66.0000020141602,2|0|0,0:0|0:0|0:0,0:0:0:0:
194,112,264955,2,0,P|158:107|114:116,2,66.0000020141602,8|0|0,0:0|0:0|0:0,0:0:0:0:
284,199,265255,2,0,P|298:245|285:300,1,99.0000030212403,2|0,0:0|0:0,0:0:0:0:
111,246,265555,2,0,L|214:246,1,99.0000030212403,8|0,0:0|0:0,0:0:0:0:
432,201,265855,5,2,0:0:0:0:
471,170,265930,1,0,0:0:0:0:
480,118,266005,1,0,0:0:0:0:
458,73,266080,1,0,0:0:0:0:
408,50,266155,5,8,0:0:0:0:
360,62,266230,1,0,0:0:0:0:
315,83,266305,1,0,0:0:0:0:
267,93,266380,1,0,0:0:0:0:
212,99,266455,5,2,0:0:0:0:
164,84,266530,1,0,0:0:0:0:
124,54,266605,1,0,0:0:0:0:
93,15,266680,1,0,0:0:0:0:
94,69,266755,5,8,0:0:0:0:
93,119,266830,1,0,0:0:0:0:
93,168,266905,1,0,0:0:0:0:
92,218,266980,1,0,0:0:0:0:
94,272,267055,5,2,0:0:0:0:
143,266,267130,1,0,0:0:0:0:
193,265,267205,1,0,0:0:0:0:
241,276,267280,1,0,0:0:0:0:
286,305,267355,5,8,0:0:0:0:
286,354,267430,1,0,0:0:0:0:
241,374,267505,1,0,0:0:0:0:
195,355,267580,1,0,0:0:0:0:
183,301,267655,5,2,0:0:0:0:
201,255,267730,1,0,0:0:0:0:
223,210,267805,1,0,0:0:0:0:
242,164,267880,1,0,0:0:0:0:
255,111,267955,5,8,0:0:0:0:
244,62,268030,1,0,0:0:0:0:
217,19,268105,1,0,0:0:0:0:
169,32,268180,1,0,0:0:0:0:
154,84,268255,5,2,0:0:0:0:
175,128,268330,1,0,0:0:0:0:
218,151,268405,1,0,0:0:0:0:
267,158,268480,1,0,0:0:0:0:
320,150,268555,5,8,0:0:0:0:
366,130,268630,1,0,0:0:0:0:
404,99,268705,1,0,0:0:0:0:
431,58,268780,1,0,0:0:0:0:
465,15,268855,5,2,0:0:0:0:
467,65,268930,1,0,0:0:0:0:
469,114,269005,1,0,0:0:0:0:
471,164,269080,1,0,0:0:0:0:
471,218,269155,5,8,0:0:0:0:
422,212,269230,1,0,0:0:0:0:
372,211,269305,1,0,0:0:0:0:
324,222,269380,1,0,0:0:0:0:
279,251,269455,5,2,0:0:0:0:
279,300,269530,1,0,0:0:0:0:
324,320,269605,1,0,0:0:0:0:
370,301,269680,1,0,0:0:0:0:
382,247,269755,5,8,0:0:0:0:
364,201,269830,1,0,0:0:0:0:
342,156,269905,1,0,0:0:0:0:
323,110,269980,1,0,0:0:0:0:
305,58,270055,5,2,0:0:0:0:
327,14,270130,1,0,0:0:0:0:
375,5,270205,1,0,0:0:0:0:
421,21,270280,1,0,0:0:0:0:
434,68,270355,6,0,P|424:111|453:166,1,99.0000030212403,12|0,0:0|0:0,0:0:0:0:
502,331,270655,5,6,0:0:0:0:
455,313,270730,1,0,0:0:0:0:
406,312,270805,1,0,0:0:0:0:
359,328,270880,1,0,0:0:0:0:
324,370,270955,5,8,0:0:0:0:
292,332,271030,1,0,0:0:0:0:
257,296,271105,1,0,0:0:0:0:
212,277,271180,1,0,0:0:0:0:
157,274,271255,5,2,0:0:0:0:
108,282,271330,1,0,0:0:0:0:
65,307,271405,1,0,0:0:0:0:
32,343,271480,1,0,0:0:0:0:
44,289,271555,5,8,0:0:0:0:
52,240,271630,1,0,0:0:0:0:
60,192,271705,1,0,0:0:0:0:
68,143,271780,1,0,0:0:0:0:
81,90,271855,5,2,0:0:0:0:
81,40,271930,1,0,0:0:0:0:
37,15,272005,1,0,0:0:0:0:
8,55,272080,1,0,0:0:0:0:
11,109,272155,5,8,0:0:0:0:
51,137,272230,1,0,0:0:0:0:
98,152,272305,1,0,0:0:0:0:
148,156,272380,1,0,0:0:0:0:
201,146,272455,5,2,0:0:0:0:
237,112,272530,1,0,0:0:0:0:
266,73,272605,1,0,0:0:0:0:
297,34,272680,1,0,0:0:0:0:
347,12,272755,5,8,0:0:0:0:
394,25,272830,1,0,0:0:0:0:
433,55,272905,1,0,0:0:0:0:
452,101,272980,1,0,0:0:0:0:
444,154,273055,5,2,0:0:0:0:
411,192,273130,1,0,0:0:0:0:
362,201,273205,1,0,0:0:0:0:
317,182,273280,1,0,0:0:0:0:
276,145,273355,5,8,0:0:0:0:
243,108,273430,1,0,0:0:0:0:
204,79,273505,1,0,0:0:0:0:
158,60,273580,1,0,0:0:0:0:
103,53,273655,5,2,0:0:0:0:
55,67,273730,1,0,0:0:0:0:
19,101,273805,1,0,0:0:0:0:
11,150,273880,1,0,0:0:0:0:
24,202,273955,6,0,L|81:235,1,49.5000015106202,10|0,0:0|0:0,0:0:0:0:
179,311,274105,2,0,P|110:344|142:275,1,198.000006042481,2|0,0:0|0:0,0:0:0:0:
307,139,274555,2,0,P|355:126|402:139,1,99.0000030212403,8|0,0:0|0:0,0:0:0:0:
509,303,274855,2,0,P|461:316|414:303,1,99.0000030212403,2|8,0:0|0:0,0:0:0:0:
262,208,275155,5,8,0:0:0:0:
220,182,275230,1,0,0:0:0:0:
172,169,275305,1,0,0:0:0:0:
123,173,275380,1,0,0:0:0:0:
76,200,275455,5,2,0:0:0:0:
51,242,275530,1,0,0:0:0:0:
51,291,275605,1,0,0:0:0:0:
75,334,275680,1,0,0:0:0:0:
121,363,275755,5,8,0:0:0:0:
170,369,275830,1,0,0:0:0:0:
219,363,275905,1,0,0:0:0:0:
266,348,275980,1,0,0:0:0:0:
311,317,276055,5,2,0:0:0:0:
356,299,276130,1,0,0:0:0:0:
405,289,276205,1,0,0:0:0:0:
454,291,276280,1,0,0:0:0:0:
495,325,276355,5,8,0:0:0:0:
477,371,276430,1,0,0:0:0:0:
428,381,276505,1,0,0:0:0:0:
385,355,276580,1,0,0:0:0:0:
360,306,276655,5,2,0:0:0:0:
349,257,276730,1,0,0:0:0:0:
348,208,276805,1,0,0:0:0:0:
355,159,276880,1,0,0:0:0:0:
371,107,276955,5,8,0:0:0:0:
402,69,277030,1,0,0:0:0:0:
441,38,277105,1,0,0:0:0:0:
485,16,277180,1,0,0:0:0:0:
431,8,277255,5,2,0:0:0:0:
382,13,277330,1,0,0:0:0:0:
332,18,277405,1,0,0:0:0:0:
283,23,277480,1,0,0:0:0:0:
250,66,277555,5,8,0:0:0:0:
210,95,277630,1,0,0:0:0:0:
162,110,277705,1,0,0:0:0:0:
113,108,277780,1,0,0:0:0:0:
69,86,277855,5,2,0:0:0:0:
63,36,277930,1,0,0:0:0:0:
107,13,278005,1,0,0:0:0:0:
151,34,278080,1,0,0:0:0:0:
181,73,278155,5,8,0:0:0:0:
200,119,278230,1,0,0:0:0:0:
209,167,278305,1,0,0:0:0:0:
209,217,278380,1,0,0:0:0:0:
197,270,278455,5,2,0:0:0:0:
171,312,278530,1,0,0:0:0:0:
130,338,278605,1,0,0:0:0:0:
81,338,278680,1,0,0:0:0:0:
32,313,278755,5,8,0:0:0:0:
7,271,278830,1,0,0:0:0:0:
2,222,278905,1,0,0:0:0:0:
10,173,278980,1,0,0:0:0:0:
34,124,279055,6,0,P|78:107|142:122,1,99.0000030212403,2|0,0:0|0:0,0:0:0:0:
322,124,279355,2,0,P|330:75|313:30,1,99.0000030212403,8|0,0:0|0:0,0:0:0:0:
383,269,279655,2,0,P|432:277|478:260,1,99.0000030212403,2|0,0:0|0:0,0:0:0:0:
189,259,279955,2,0,P|181:308|199:354,1,99.0000030212403,8|0,0:0|0:0,0:0:0:0:
322,124,280255,6,0,B|267:98|267:98|202:152|141:108,1,198.000006042481,6|8,0:0|0:0,0:0:0:0:
33,29,280705,1,0,0:0:0:0:
95,192,280855,1,2,0:0:0:0:
198,48,281005,1,0,0:0:0:0:
27,119,281155,1,8,0:0:0:0:
89,282,281305,1,0,0:0:0:0:
192,137,281455,6,0,P|238:122|286:136,1,99.0000030212403,2|0,0:0|0:0,0:0:0:0:
286,314,281755,2,0,P|271:268|285:220,1,99.0000030212403,8|0,0:0|0:0,0:0:0:0:
463,215,282055,2,0,P|417:230|369:216,1,99.0000030212403,2|0,0:0|0:0,0:0:0:0:
369,38,282355,2,0,P|384:84|370:132,1,99.0000030212403,8|0,0:0|0:0,0:0:0:0:
255,298,282655,5,6,0:0:0:0:
111,149,282805,1,0,0:0:0:0:
304,87,282955,5,8,0:0:0:0:
158,229,283105,1,0,0:0:0:0:
95,33,283255,5,2,0:0:0:0:
237,180,283405,1,0,0:0:0:0:
44,247,283555,5,8,0:0:0:0:
190,101,283705,1,0,0:0:0:0:
304,328,283855,5,2,0:0:0:0:
420,205,284005,1,0,0:0:0:0:
304,87,284155,5,8,0:0:0:0:
340,253,284305,1,0,0:0:0:0:
506,206,284455,5,2,0:0:0:0:
340,158,284605,1,0,0:0:0:0:
304,328,284755,2,0,L|251:344,3,49.5000015106202,8|0|0|0,0:0|0:0|0:0|0:0,0:0:0:0:
132,363,285055,5,6,0:0:0:0:
162,318,285130,1,0,0:0:0:0:
184,269,285205,1,0,0:0:0:0:
196,217,285280,1,0,0:0:0:0:
194,157,285355,5,8,0:0:0:0:
170,109,285430,1,0,0:0:0:0:
117,95,285505,1,0,0:0:0:0:
82,136,285580,1,0,0:0:0:0:
95,193,285655,5,2,0:0:0:0:
143,217,285730,1,0,0:0:0:0:
196,227,285805,1,0,0:0:0:0:
250,228,285880,1,0,0:0:0:0:
308,216,285955,5,8,0:0:0:0:
359,201,286030,1,0,0:0:0:0:
407,176,286105,1,0,0:0:0:0:
441,135,286180,1,0,0:0:0:0:
470,83,286255,5,2,0:0:0:0:
472,136,286330,1,0,0:0:0:0:
474,190,286405,1,8,0:0:0:0:
476,244,286480,1,0,0:0:0:0:
478,304,286555,5,8,0:0:0:0:
429,282,286630,1,0,0:0:0:0:
379,262,286705,1,0,0:0:0:0:
326,258,286780,1,0,0:0:0:0:
270,280,286855,5,2,0:0:0:0:
254,331,286930,1,0,0:0:0:0:
286,373,287005,1,0,0:0:0:0:
339,382,287080,1,0,0:0:0:0:
391,353,287155,6,0,L|406:290,1,49.5000015106202,8|0,0:0|0:0,0:0:0:0:
320,163,287305,2,0,L|308:218,1,49.5000015106202,8|8,0:0|0:0,0:0:0:0:
273,336,287455,5,6,0:0:0:0:
225,310,287530,1,0,0:0:0:0:
173,296,287605,1,0,0:0:0:0:
120,300,287680,1,0,0:0:0:0:
67,315,287755,1,2,0:0:0:0:
29,355,287830,1,0,0:0:0:0:
25,295,287905,5,4,0:0:0:0:
23,241,287980,1,0,0:0:0:0:
20,181,288055,1,8,0:0:0:0:
59,218,288130,1,0,0:0:0:0:
110,235,288205,1,0,0:0:0:0:
163,233,288280,1,0,0:0:0:0:
221,224,288355,5,6,0:0:0:0:
267,195,288430,1,0,0:0:0:0:
298,151,288505,1,0,0:0:0:0:
281,99,288580,1,0,0:0:0:0:
223,84,288655,5,2,0:0:0:0:
191,128,288730,1,0,0:0:0:0:
211,177,288805,1,0,0:0:0:0:
251,212,288880,1,0,0:0:0:0:
308,227,288955,5,8,0:0:0:0:
361,221,289030,1,0,0:0:0:0:
409,197,289105,1,0,0:0:0:0:
438,151,289180,1,0,0:0:0:0:
466,98,289255,5,6,0:0:0:0:
473,151,289330,1,0,0:0:0:0:
476,204,289405,1,0,0:0:0:0:
480,257,289480,1,0,0:0:0:0:
484,316,289555,5,8,0:0:0:0:
437,287,289630,1,0,0:0:0:0:
391,259,289705,1,0,0:0:0:0:
339,244,289780,1,0,0:0:0:0:
279,250,289855,5,6,0:0:0:0:
254,298,289930,1,0,0:0:0:0:
285,342,290005,1,0,0:0:0:0:
338,347,290080,1,0,0:0:0:0:
385,311,290155,5,8,0:0:0:0:
399,260,290230,1,0,0:0:0:0:
400,206,290305,1,8,0:0:0:0:
379,156,290380,1,0,0:0:0:0:
341,110,290455,5,2,0:0:0:0:
294,136,290530,1,0,0:0:0:0:
241,148,290605,1,0,0:0:0:0:
188,140,290680,1,0,0:0:0:0:
140,106,290755,5,12,0:0:0:0:
134,160,290830,1,0,0:0:0:0:
128,214,290905,1,0,0:0:0:0:
122,267,290980,1,0,0:0:0:0:
113,331,291055,6,0,P|156:318|211:334,1,90,6|0,0:0|0:0,0:0:0:0:
425,343,291355,6,0,P|412:294|453:241,1,121.499996292114,2|0,0:0|0:0,0:0:0:0:
512,199,291655,6,0,P|460:205|411:164,1,108,2|0,0:0|0:0,0:0:0:0:
394,104,291955,6,0,P|375:148|327:159,1,94.499997116089,2|0,0:0|0:0,0:0:0:0:
253,114,292255,5,6,0:0:0:0:
200,64,302164,5,4,0:0:0:0:
252,56,302263,1,0,0:0:0:0:
312,60,302361,1,0,0:0:0:0:
368,88,302460,1,0,0:0:0:0:
404,136,302559,1,8,0:0:0:0:
416,196,302658,1,0,0:0:0:0:
396,252,302756,1,0,0:0:0:0:
352,292,302855,1,0,0:0:0:0:
292,296,302954,1,0,0:0:0:0:
236,272,303052,1,0,0:0:0:0:
204,220,303151,1,0,0:0:0:0:
208,160,303250,1,0,0:0:0:0:
240,108,303348,1,8,0:0:0:0:
236,48,303447,1,0,0:0:0:0:
196,4,303546,1,0,0:0:0:0:
136,0,303644,1,0,0:0:0:0:
100,48,303743,1,0,0:0:0:0:
112,108,303842,1,0,0:0:0:0:
164,140,303940,1,0,0:0:0:0:
224,144,304039,1,0,0:0:0:0:
276,116,304138,1,8,0:0:0:0:
332,92,304236,1,0,0:0:0:0:
392,104,304335,1,0,0:0:0:0:
436,144,304434,1,0,0:0:0:0:
452,204,304533,5,0,0:0:0:0:
452,204,304631,1,0,0:0:0:0:
452,204,304730,1,0,0:0:0:0:
452,204,304829,1,0,0:0:0:0:
452,204,304927,1,8,0:0:0:0:
452,204,305026,1,0,0:0:0:0:
452,204,305125,1,0,0:0:0:0:
452,204,305223,1,0,0:0:0:0:
452,204,305322,5,0,0:0:0:0:
396,228,305421,1,0,0:0:0:0:
340,212,305519,1,0,0:0:0:0:
280,216,305618,1,0,0:0:0:0:
236,256,305717,1,8,0:0:0:0:
220,312,305815,1,0,0:0:0:0:
172,348,305914,1,0,0:0:0:0:
112,348,306013,1,0,0:0:0:0:
68,308,306111,1,0,0:0:0:0:
52,248,306210,1,0,0:0:0:0:
76,192,306309,1,0,0:0:0:0:
132,168,306408,1,0,0:0:0:0:
192,172,306506,1,8,0:0:0:0:
240,212,306605,1,0,0:0:0:0:
300,220,306704,1,0,0:0:0:0:
352,188,306802,1,0,0:0:0:0:
376,132,306901,1,0,0:0:0:0:
360,76,307000,1,0,0:0:0:0:
308,48,307098,1,0,0:0:0:0:
248,56,307197,1,0,0:0:0:0:
204,96,307296,1,8,0:0:0:0:
200,156,307394,1,0,0:0:0:0:
228,212,307493,1,0,0:0:0:0:
216,272,307592,1,0,0:0:0:0:
172,312,307690,5,0,0:0:0:0:
172,312,307789,1,0,0:0:0:0:
172,312,307888,1,0,0:0:0:0:
172,312,307986,1,0,0:0:0:0:
172,312,308085,1,8,0:0:0:0:
172,312,308184,1,0,0:0:0:0:
172,312,308283,1,0,0:0:0:0:
172,312,308381,1,0,0:0:0:0:
172,312,308480,5,0,0:0:0:0:
200,256,308579,1,0,0:0:0:0:
192,196,308677,1,0,0:0:0:0:
148,156,308776,1,0,0:0:0:0:
88,148,308875,1,8,0:0:0:0:
56,100,308973,1,0,0:0:0:0:
68,40,309072,1,0,0:0:0:0:
124,16,309171,1,0,0:0:0:0:
180,32,309269,1,0,0:0:0:0:
216,80,309368,1,0,0:0:0:0:
228,140,309467,1,0,0:0:0:0:
212,196,309565,1,0,0:0:0:0:
224,256,309664,1,8,0:0:0:0:
268,296,309763,1,0,0:0:0:0:
328,308,309861,1,0,0:0:0:0:
384,292,309960,1,0,0:0:0:0:
428,248,310059,1,0,0:0:0:0:
444,188,310158,1,0,0:0:0:0:
436,128,310256,1,0,0:0:0:0:
404,80,310355,1,0,0:0:0:0:
352,52,310454,1,8,0:0:0:0:
292,52,310552,1,0,0:0:0:0:
244,88,310651,1,0,0:0:0:0:
184,100,310750,1,0,0:0:0:0:
128,80,310848,5,0,0:0:0:0:
128,80,310947,1,0,0:0:0:0:
128,80,311046,1,0,0:0:0:0:
128,80,311144,1,0,0:0:0:0:
128,80,311243,1,8,0:0:0:0:
128,80,311342,1,0,0:0:0:0:
128,80,311440,1,0,0:0:0:0:
128,80,311539,1,0,0:0:0:0:
128,80,311638,5,0,0:0:0:0:
80,116,311736,1,0,0:0:0:0:
52,168,311835,1,0,0:0:0:0:
60,228,311934,1,0,0:0:0:0:
108,264,312033,1,8,0:0:0:0:
168,264,312131,1,0,0:0:0:0:
208,220,312230,1,0,0:0:0:0:
216,160,312329,1,0,0:0:0:0:
252,112,312427,1,0,0:0:0:0:
308,88,312526,1,0,0:0:0:0:
368,100,312625,1,0,0:0:0:0:
412,140,312723,1,0,0:0:0:0:
436,196,312822,1,8,0:0:0:0:
432,256,312921,1,0,0:0:0:0:
400,308,313019,1,0,0:0:0:0:
352,344,313118,1,0,0:0:0:0:
340,284,313217,1,0,0:0:0:0:
296,244,313315,1,0,0:0:0:0:
240,232,313414,1,0,0:0:0:0:
184,256,313513,1,0,0:0:0:0:
152,308,313611,1,8,0:0:0:0:
96,328,313710,1,0,0:0:0:0:
40,304,313809,1,0,0:0:0:0:
28,244,313908,1,0,0:0:0:0:
56,192,314006,5,4,0:0:0:0:
204,60,314204,1,0,0:0:0:0:
260,256,314401,1,0,0:0:0:0:
260,256,314500,1,0,0:0:0:0:
260,256,314598,1,0,0:0:0:0:
260,256,314697,1,0,0:0:0:0:
260,256,314796,5,8,0:0:0:0:
204,300,314894,1,0,0:0:0:0:
132,296,314993,1,0,0:0:0:0:
80,248,315092,1,0,0:0:0:0:
76,176,315190,1,8,0:0:0:0:
116,116,315289,1,0,0:0:0:0:
184,92,315388,1,0,0:0:0:0:
252,116,315486,1,0,0:0:0:0:
288,176,315585,1,0,0:0:0:0:
288,248,315684,1,0,0:0:0:0:
332,308,315783,1,0,0:0:0:0:
404,320,315881,1,0,0:0:0:0:
464,276,315980,1,8,0:0:0:0:
488,208,316079,1,0,0:0:0:0:
460,144,316177,1,0,0:0:0:0:
396,108,316276,1,0,0:0:0:0:
328,128,316375,1,0,0:0:0:0:
268,164,316473,1,0,0:0:0:0:
232,224,316572,1,0,0:0:0:0:
176,272,316671,1,0,0:0:0:0:
104,280,316769,1,8,0:0:0:0:
36,256,316868,1,0,0:0:0:0:
8,192,316967,1,0,0:0:0:0:
28,124,317065,1,0,0:0:0:0:
84,76,317164,5,0,0:0:0:0:
96,72,317263,1,0,0:0:0:0:
108,68,317361,1,0,0:0:0:0:
120,64,317460,1,0,0:0:0:0:
132,60,317559,1,8,0:0:0:0:
144,56,317658,1,0,0:0:0:0:
156,52,317756,1,0,0:0:0:0:
168,48,317855,1,0,0:0:0:0:
180,44,317954,5,0,0:0:0:0:
152,112,318052,1,0,0:0:0:0:
160,184,318151,1,0,0:0:0:0:
208,240,318250,1,0,0:0:0:0:
272,268,318348,1,8,0:0:0:0:
344,264,318447,1,0,0:0:0:0:
408,232,318546,1,0,0:0:0:0:
448,172,318644,1,0,0:0:0:0:
452,100,318743,1,0,0:0:0:0:
420,36,318842,1,0,0:0:0:0:
352,56,318940,1,0,0:0:0:0:
296,100,319039,1,0,0:0:0:0:
268,168,319138,1,8,0:0:0:0:
276,240,319236,1,0,0:0:0:0:
312,304,319335,1,0,0:0:0:0:
368,348,319434,1,0,0:0:0:0:
404,284,319533,1,0,0:0:0:0:
396,212,319631,1,0,0:0:0:0:
360,152,319730,1,0,0:0:0:0:
300,112,319829,1,0,0:0:0:0:
232,96,319927,1,8,0:0:0:0:
160,104,320026,1,0,0:0:0:0:
96,140,320125,1,0,0:0:0:0:
56,200,320223,1,0,0:0:0:0:
36,268,320322,5,0,0:0:0:0:
44,276,320421,1,0,0:0:0:0:
52,284,320519,1,0,0:0:0:0:
60,292,320618,1,0,0:0:0:0:
68,300,320717,1,8,0:0:0:0:
76,308,320815,1,0,0:0:0:0:
84,316,320914,1,0,0:0:0:0:
92,324,321013,1,0,0:0:0:0:
100,332,321111,5,0,0:0:0:0:
152,272,321210,1,0,0:0:0:0:
228,252,321309,1,0,0:0:0:0:
304,272,321408,1,0,0:0:0:0:
356,328,321506,1,8,0:0:0:0:
436,324,321605,1,0,0:0:0:0:
500,276,321704,1,0,0:0:0:0:
504,200,321802,1,0,0:0:0:0:
464,132,321901,1,0,0:0:0:0:
392,104,322000,1,0,0:0:0:0:
320,128,322098,1,0,0:0:0:0:
280,196,322197,1,0,0:0:0:0:
276,276,322296,1,8,0:0:0:0:
236,344,322394,1,0,0:0:0:0:
160,356,322493,1,0,0:0:0:0:
88,328,322592,1,0,0:0:0:0:
64,256,322690,1,0,0:0:0:0:
96,184,322789,1,0,0:0:0:0:
164,144,322888,1,0,0:0:0:0:
240,148,322986,1,0,0:0:0:0:
296,200,323085,1,8,0:0:0:0:
328,272,323184,1,0,0:0:0:0:
400,304,323283,1,0,0:0:0:0:
468,272,323381,1,0,0:0:0:0:
500,200,323480,5,0,0:0:0:0:
496,188,323579,1,0,0:0:0:0:
492,176,323677,1,0,0:0:0:0:
488,164,323776,1,0,0:0:0:0:
484,152,323875,1,8,0:0:0:0:
480,140,323973,1,0,0:0:0:0:
476,128,324072,1,0,0:0:0:0:
472,116,324171,1,0,0:0:0:0:
468,104,324269,5,0,0:0:0:0:
396,60,324368,1,0,0:0:0:0:
320,92,324467,1,0,0:0:0:0:
288,168,324565,1,0,0:0:0:0:
320,244,324664,1,8,0:0:0:0:
400,268,324763,1,0,0:0:0:0:
472,224,324861,1,0,0:0:0:0:
416,160,324960,1,0,0:0:0:0:
332,144,325059,1,0,0:0:0:0:
256,184,325158,1,0,0:0:0:0:
224,260,325256,1,0,0:0:0:0:
156,308,325355,1,0,0:0:0:0:
72,288,325454,1,8,0:0:0:0:
32,216,325552,1,0,0:0:0:0:
52,136,325651,1,0,0:0:0:0:
124,92,325750,1,0,0:0:0:0:
204,112,325848,1,4,0:0:0:0:
252,180,325947,1,0,0:0:0:0:
320,232,326046,1,0,0:0:0:0:
400,204,326144,1,0,0:0:0:0:
428,124,326243,1,8,0:0:0:0:
384,52,326342,1,0,0:0:0:0:
300,40,326440,1,0,0:0:0:0:
228,84,326539,1,0,0:0:0:0:
148,64,326638,5,0,0:0:0:0:
196,296,326835,1,0,0:0:0:0:
236,64,327033,1,0,0:0:0:0:
100,304,327230,1,0,0:0:0:0:
332,28,327427,2,0,P|352:92|400:88,1,120,0|2,0:0|0:0,0:0:0:0:
312,36,341079,21,8,0:1:0:0:
267,16,341166,1,0,0:0:0:0:
218,14,341252,1,0,0:0:0:0:
169,24,341339,1,0,0:0:0:0:
130,54,341426,1,8,0:0:0:0:
105,96,341513,1,0,0:0:0:0:
97,143,341599,1,0,0:0:0:0:
110,190,341686,1,0,0:0:0:0:
145,224,341773,1,0,0:0:0:0:
190,243,341860,1,0,0:0:0:0:
238,244,341946,1,4,0:0:0:0:
235,293,342033,1,0,0:0:0:0:
208,334,342120,1,8,0:0:0:0:
160,347,342207,1,0,0:0:0:0:
112,335,342293,2,0,P|77:318|48:286,1,70,2|0,0:0|0:0,0:0:0:0:
261,158,342466,5,4,0:0:0:0:
300,190,342553,1,0,0:0:0:0:
322,234,342639,1,0,0:0:0:0:
319,284,342726,1,0,0:0:0:0:
309,331,342813,1,8,0:0:0:0:
350,357,342900,1,0,0:0:0:0:
398,358,342986,1,4,0:0:0:0:
444,340,343073,1,0,0:0:0:0:
475,302,343160,1,0,0:0:0:0:
449,260,343247,1,0,0:0:0:0:
432,214,343333,1,6,0:0:0:0:
427,165,343420,1,0,0:0:0:0:
440,117,343507,1,8,0:0:0:0:
466,75,343594,1,0,0:0:0:0:
508,51,343680,2,0,P|488:23|451:9,1,70,2|0,0:0|0:0,0:0:0:0:
292,147,343853,6,0,P|278:176|277:222,1,70,4|0,0:1|0:0,0:0:0:0:
299,310,344027,2,0,P|318:335|356:359,1,70
411,233,344200,2,0,P|424:202|426:157,1,70,8|0,0:0|0:0,0:0:0:0:
403,70,344374,2,0,P|384:43|345:19,1,70
217,125,344547,2,0,P|196:149|183:194,1,70
170,307,344721,2,0,P|174:338|195:378,1,70,4|0,0:0|0:0,0:0:0:0:
152,79,344894,2,0,P|125:97|101:137,1,70,8|0,0:0|0:0,0:0:0:0:
40,298,345068,2,0,P|36:330|45:374,1,70,2|0,0:0|0:0,0:0:0:0:
412,233,345241,22,0,P|439:213|463:174,1,70,4|0,0:0|0:0,0:0:0:0:
356,187,345414,2,0,P|369:156|371:111,1,70,2|0,0:0|0:0,0:0:0:0:
282,169,345588,2,0,P|279:136|257:96,1,70,10|0,0:0|0:0,0:0:0:0:
215,196,345761,2,0,P|196:169|157:145,1,70,4|0,0:0|0:0,0:0:0:0:
65,325,345934,2,0,P|39:305|15:266,1,70,2|0,0:0|0:0,0:0:0:0:
121,279,346108,2,0,P|109:248|107:203,1,70,6|0,0:0|0:0,0:0:0:0:
195,261,346281,2,0,P|199:228|220:188,1,70,8|0,0:0|0:0,0:0:0:0:
262,288,346454,2,0,P|282:261|321:237,1,70,2|0,0:0|0:0,0:0:0:0:
509,330,346628,5,4,0:0:0:0:
492,284,346714,1,0,0:0:0:0:
466,242,346801,1,0,0:0:0:0:
433,206,346888,1,0,0:0:0:0:
393,177,346975,1,8,0:0:0:0:
349,157,347061,1,0,0:0:0:0:
301,145,347148,1,0,0:0:0:0:
253,143,347234,1,0,0:0:0:0:
204,150,347321,1,0,0:0:0:0:
158,167,347408,1,0,0:0:0:0:
116,192,347495,1,4,0:0:0:0:
80,225,347581,1,0,0:0:0:0:
51,265,347669,1,8,0:0:0:0:
35,311,347755,1,0,0:0:0:0:
30,359,347842,2,0,P|60:331|72:295,1,70,2|0,0:0|0:0,0:0:0:0:
22,138,348015,5,4,0:0:0:0:
50,98,348101,1,0,0:0:0:0:
91,72,348188,1,0,0:0:0:0:
139,64,348275,1,0,0:0:0:0:
187,74,348361,1,8,0:0:0:0:
226,102,348448,1,0,0:0:0:0:
253,143,348535,1,4,0:0:0:0:
261,192,348622,1,0,0:0:0:0:
269,240,348708,1,0,0:0:0:0:
295,282,348795,1,0,0:0:0:0:
335,310,348882,1,6,0:0:0:0:
382,320,348968,1,0,0:0:0:0:
430,312,349055,1,8,0:0:0:0:
471,286,349142,1,0,0:0:0:0:
499,246,349229,2,0,P|504:211|491:166,1,70,2|0,0:0|0:0,0:0:0:0:
425,136,349403,38,0,P|395:163|374:200,2,70,6|0|2,0:0|0:0|0:0,0:0:0:0:
346,51,349663,1,0,0:0:0:0:
313,87,349749,2,0,P|302:126|301:167,2,70,8|0|2,0:0|0:0|0:0,0:0:0:0:
208,41,350010,1,0,0:0:0:0:
197,89,350096,2,0,P|207:128|227:165,2,70,0|0|6,0:0|0:0|0:0,0:0:0:0:
84,105,350356,1,0,0:0:0:0:
98,153,350443,2,0,P|126:183|163:203,1,70,10|0,0:0|0:0,0:0:0:0:
62,263,350617,2,0,P|102:274|143:275,3,70,2|0|4|0,0:0|0:0|0:0|0:0,0:0:0:0:
151,198,350963,22,0,P|122:179|98:153,1,70,2|0,0:0|0:0,0:0:0:0:
220,154,351137,2,0,P|205:123|197:89,1,70,8|0,0:0|0:0,0:0:0:0:
300,154,351310,2,0,P|303:120|313:87,1,70,6|0,0:0|0:0,0:0:0:0:
481,98,351484,38,0,P|445:117|416:146,1,70
344,24,351657,2,0,P|325:54|313:87,1,70,6|0,0:0|0:0,0:0:0:0:
193,19,351830,2,0,P|191:54|197:89,1,70,10|0,0:0|0:0,0:0:0:0:
59,95,352004,2,0,P|75:126|97:153,1,70,2|0,0:0|0:0,0:0:0:0:
380,188,352177,5,8,0:1:0:0:
429,193,352264,1,0,0:0:0:0:
470,219,352350,1,0,0:0:0:0:
490,264,352437,1,0,0:0:0:0:
487,313,352524,1,8,0:0:0:0:
460,353,352611,1,0,0:0:0:0:
416,372,352697,1,2,0:0:0:0:
367,370,352784,1,0,0:0:0:0:
325,345,352871,1,0,0:0:0:0:
306,299,352958,1,0,0:0:0:0:
276,261,353044,1,4,0:0:0:0:
234,235,353131,1,0,0:0:0:0:
185,229,353218,1,8,0:0:0:0:
140,249,353305,1,0,0:0:0:0:
115,291,353391,2,0,P|148:318|188:326,1,70,2|0,0:0|0:0,0:0:0:0:
396,282,353564,5,4,0:0:0:0:
425,242,353651,1,0,0:0:0:0:
436,194,353738,1,0,0:0:0:0:
431,145,353824,1,0,0:0:0:0:
412,99,353911,1,8,0:0:0:0:
380,61,353998,1,0,0:0:0:0:
337,37,354084,1,6,0:0:0:0:
288,31,354171,1,0,0:0:0:0:
239,37,354258,1,0,0:0:0:0:
197,63,354345,1,0,0:0:0:0:
168,102,354431,1,6,0:0:0:0:
217,101,354518,1,0,0:0:0:0:
264,112,354605,1,8,0:0:0:0:
303,141,354692,1,0,0:0:0:0:
318,186,354778,2,0,P|292:198|239:202,1,70,2|0,0:0|0:0,0:0:0:0:
218,100,354952,6,0,P|183:99|146:89,1,70,4|0,0:1|0:0,0:0:0:0:
69,50,355125,2,0,P|39:32|13:5,1,70,2|0,0:0|0:0,0:0:0:0:
295,117,355299,2,0,P|261:126|224:125,1,70,8|0,0:0|0:0,0:0:0:0:
138,105,355472,2,0,P|105:95|71:76,1,70
272,355,355645,2,0,P|304:342|341:335,1,70
428,339,355818,2,0,P|463:343|498:357,1,70,6|0,0:0|0:0,0:0:0:0:
356,286,355992,2,0,P|322:282|285:285,1,70,8|0,0:0|0:0,0:0:0:0:
200,310,356165,2,0,P|168:323|138:346,1,70,2|0,0:0|0:0,0:0:0:0:
18,189,356339,22,0,P|38:218|65:240,1,70,4|0,0:0|0:0,0:0:0:0:
106,127,356512,2,0,P|108:161|121:194,1,70,2|0,0:0|0:0,0:0:0:0:
215,110,356686,2,0,P|200:141|195:176,1,70,10|0,0:0|0:0,0:0:0:0:
313,155,356859,2,0,P|284:175|262:203,1,70,4|0,0:0|0:0,0:0:0:0:
460,281,357032,2,0,P|440:310|412:332,1,70,2|0,0:0|0:0,0:0:0:0:
372,219,357206,2,0,P|370:253|356:286,1,70,6|0,0:0|0:0,0:0:0:0:
263,202,357379,2,0,P|278:233|282:268,1,70,8|0,0:0|0:0,0:0:0:0:
165,247,357552,2,0,P|194:267|215:295,1,70,2|0,0:0|0:0,0:0:0:0:
121,338,357726,5,4,0:0:0:0:
164,362,357812,1,0,0:0:0:0:
211,374,357899,1,0,0:0:0:0:
260,373,357986,1,0,0:0:0:0:
306,359,358072,1,8,0:0:0:0:
347,332,358159,1,0,0:0:0:0:
379,295,358246,1,0,0:0:0:0:
400,251,358332,1,0,0:0:0:0:
408,203,358419,1,0,0:0:0:0:
403,154,358506,1,0,0:0:0:0:
384,109,358593,1,6,0:0:0:0:
354,71,358679,1,0,0:0:0:0:
315,42,358766,1,8,0:0:0:0:
269,25,358853,1,0,0:0:0:0:
220,21,358940,2,0,P|179:28|146:40,1,70,2|0,0:0|0:0,0:0:0:0:
428,167,359114,5,4,0:0:0:0:
415,116,359200,1,0,0:0:0:0:
386,71,359287,1,0,0:0:0:0:
345,35,359374,1,0,0:0:0:0:
296,12,359460,1,8,0:0:0:0:
245,3,359547,1,0,0:0:0:0:
192,8,359634,1,4,0:0:0:0:
142,28,359720,1,0,0:0:0:0:
100,61,359807,1,0,0:0:0:0:
69,104,359894,1,0,0:0:0:0:
49,154,359981,1,6,0:0:0:0:
45,207,360067,1,0,0:0:0:0:
55,259,360154,1,8,0:0:0:0:
79,307,360241,1,0,0:0:0:0:
115,345,360328,2,0,P|151:370|187:384,1,70,2|0,0:0|0:0,0:0:0:0:
83,87,360501,5,4,0:0:0:0:
49,154,360587,1,0,0:0:0:0:
45,231,360674,1,0,0:0:0:0:
74,301,360761,1,0,0:0:0:0:
129,353,360847,1,8,0:0:0:0:
202,378,360934,1,0,0:0:0:0:
278,369,361021,1,0,0:0:0:0:
343,330,361107,1,0,0:0:0:0:
386,267,361194,1,0,0:0:0:0:
400,193,361281,1,0,0:0:0:0:
386,117,361368,1,6,0:0:0:0:
336,58,361455,1,0,0:0:0:0:
267,25,361541,1,8,0:0:0:0:
190,25,361628,1,0,0:0:0:0:
118,51,361715,2,0,P|85:81|59:122,1,70
45,230,361888,5,4,0:3:0:0:
241,257,362062,1,0,0:0:0:0:
435,287,362235,1,0,0:0:0:0:
45,230,362408,22,0,L|121:241,1,70,4|0,0:3|0:0,0:0:0:0:
241,257,362582,2,0,L|317:268,1,70
435,287,362755,1,4,0:3:0:0:
46,230,362929,54,0,P|129:344|240:258,1,315.000012016297,2|0,0:1|3:0,0:0:0:0:
217,160,363275,1,0,0:0:0:0:
301,164,376523,6,0,P|328:160|368:144,1,67.5000025749208,4|0,0:0|0:0,0:0:0:0:
208,272,376694,2,0,P|176:280|144:296,1,67.5000025749208
352,296,376866,2,0,P|376:304|416:328,1,67.5000025749208,8|0,0:0|0:0,0:0:0:0:
296,160,377037,2,0,P|304:136|304:88,1,67.5000025749208
96,128,377209,5,0,0:0:0:0:
92,176,377294,1,0,0:0:0:0:
124,212,377380,2,0,P|160:208|200:196,1,67.5000025749208
416,224,377552,5,8,0:0:0:0:
420,272,377637,1,0,0:0:0:0:
388,308,377723,2,0,P|352:304|312:292,1,67.5000025749208
256,96,377894,5,0,0:0:0:0:
320,99,377979,1,0,0:0:0:0:
356,154,378065,1,0,0:0:0:0:
333,215,378151,1,0,0:0:0:0:
272,240,378237,1,8,0:0:0:0:
249,300,378323,1,0,0:0:0:0:
284,355,378409,1,0,0:0:0:0:
352,368,378494,1,0,0:0:0:0:
400,320,378580,5,0,0:0:0:0:
392,248,378665,1,0,0:0:0:0:
333,215,378751,1,0,0:0:0:0:
274,238,378837,1,0,0:0:0:0:
249,300,378923,1,8,0:0:0:0:
188,321,379009,1,0,0:0:0:0:
134,288,379095,1,0,0:0:0:0:
129,221,379180,1,0,0:0:0:0:
160,160,379266,6,0,P|136:128|112:108,1,67.5000025749208
280,328,379437,2,0,P|304:352|336:368,1,67.5000025749208
400,176,379609,2,0,P|440:168|464:152,1,67.5000025749208,8|0,0:0|0:0,0:0:0:0:
208,240,379780,2,0,P|176:248|144:264,1,67.5000025749208
416,272,379952,2,0,P|456:288|480:304,1,67.5000025749208
320,80,380123,2,0,P|328:48|328:8,1,67.5000025749208
280,280,380294,2,0,P|288:312|304:344,1,67.5000025749208,8|0,0:0|0:0,0:0:0:0:
136,128,380466,2,0,P|112:120|64:112,1,67.5000025749208
72,311,380637,5,0,0:0:0:0:
128,344,380722,1,0,0:0:0:0:
186,308,380808,1,0,0:0:0:0:
193,242,380894,1,0,0:0:0:0:
167,184,380980,1,8,0:0:0:0:
191,123,381066,1,0,0:0:0:0:
254,106,381152,1,0,0:0:0:0:
312,135,381237,1,0,0:0:0:0:
320,200,381323,5,0,0:0:0:0:
374,242,381408,1,0,0:0:0:0:
438,226,381494,1,0,0:0:0:0:
462,164,381580,1,0,0:0:0:0:
392,168,381666,1,8,0:0:0:0:
399,200,381751,1,0,0:0:0:0:
406,233,381837,1,0,0:0:0:0:
413,266,381923,1,0,0:0:0:0:
428,344,382009,5,0,0:0:0:0:
380,283,382094,1,0,0:0:0:0:
304,255,382180,1,0,0:0:0:0:
228,272,382266,1,0,0:0:0:0:
168,320,382352,1,8,0:0:0:0:
89,329,382438,1,0,0:0:0:0:
27,280,382524,1,0,0:0:0:0:
14,202,382609,1,0,0:0:0:0:
40,128,382694,5,0,0:0:0:0:
62,79,382779,1,0,0:0:0:0:
107,50,382865,1,0,0:0:0:0:
160,47,382951,1,0,0:0:0:0:
232,88,383037,5,8,0:0:0:0:
278,109,383123,1,0,0:0:0:0:
331,106,383209,1,0,0:0:0:0:
376,75,383294,1,0,0:0:0:0:
448,104,383380,5,0,0:0:0:0:
496,148,383466,1,0,0:0:0:0:
510,213,383552,1,0,0:0:0:0:
484,274,383638,1,0,0:0:0:0:
428,308,383723,1,8,0:0:0:0:
367,279,383808,1,0,0:0:0:0:
300,283,383894,1,0,0:0:0:0:
244,319,383980,1,0,0:0:0:0:
184,348,384066,5,0,0:0:0:0:
118,355,384151,1,0,0:0:0:0:
64,317,384237,1,0,0:0:0:0:
47,253,384323,1,0,0:0:0:0:
68,188,384409,1,8,0:0:0:0:
113,140,384494,1,0,0:0:0:0:
114,74,384580,1,0,0:0:0:0:
70,25,384666,1,0,0:0:0:0:
114,74,384752,5,0,0:0:0:0:
157,91,384837,1,0,0:0:0:0:
204,91,384923,1,0,0:0:0:0:
247,72,385009,1,0,0:0:0:0:
304,32,385094,5,8,0:0:0:0:
344,10,385180,1,0,0:0:0:0:
391,10,385266,1,0,0:0:0:0:
436,26,385351,1,0,0:0:0:0:
480,80,385437,6,0,P|496:104|504:144,1,67.5000025749208
240,208,385609,2,0,P|208:216|176:232,1,67.5000025749208
440,296,385780,2,0,P|464:320|480:360,1,67.5000025749208,8|0,0:0|0:0,0:0:0:0:
400,88,385952,2,0,P|416:56|424:16,1,67.5000025749208
336,256,386123,5,0,0:0:0:0:
329,177,386208,1,0,0:0:0:0:
270,124,386294,1,0,0:0:0:0:
191,128,386380,1,0,0:0:0:0:
112,144,386466,5,8,0:0:0:0:
58,126,386551,1,0,0:0:0:0:
28,79,386637,1,0,0:0:0:0:
36,25,386723,1,0,0:0:0:0:
104,64,386809,5,0,0:0:0:0:
93,103,386894,1,0,0:0:0:0:
82,142,386980,1,0,0:0:0:0:
71,181,387066,1,0,0:0:0:0:
145,148,387152,6,0,L|160:104,1,40.4999987640381,12|0,0:0|0:0,0:0:0:0:
225,145,387237,2,0,L|248:112,1,40.4999987640381,4|0,0:0|0:0,0:0:0:0:
301,172,387323,2,0,L|352:144,1,40.4999987640381,4|0,0:0|0:0,0:0:0:0:
360,224,387409,2,0,L|416:216,1,40.4999987640381,4|0,0:0|0:0,0:0:0:0:
398,297,387494,6,0,P|416:312|464:328,1,67.5000025749208,4|0,0:0|0:0,0:0:0:0:
216,200,387666,2,0,P|184:184|152:176,1,67.5000025749208
408,88,387837,2,0,P|448:68|468:48,1,67.5000025749208,8|0,0:0|0:0,0:0:0:0:
304,280,388009,2,0,P|288:296|248:320,1,67.5000025749208
192,120,388180,2,0,P|184:84|188:44,1,67.5000025749208
400,208,388352,2,0,P|440:232|464:240,1,67.5000025749208
192,264,388523,2,0,P|148:272|116:288,1,67.5000025749208,8|0,0:0|0:0,0:0:0:0:
296,72,388694,2,0,P|312:56|336:16,1,67.5000025749208
64,32,388866,5,0,0:0:0:0:
28,88,388951,1,0,0:0:0:0:
40,152,389037,1,0,0:0:0:0:
96,192,389123,1,0,0:0:0:0:
160,208,389209,1,8,0:0:0:0:
222,200,389295,1,0,0:0:0:0:
269,245,389381,1,0,0:0:0:0:
264,309,389466,1,0,0:0:0:0:
210,348,389552,5,0,0:0:0:0:
146,326,389638,1,0,0:0:0:0:
125,262,389724,1,0,0:0:0:0:
160,208,389809,1,0,0:0:0:0:
222,200,389894,1,8,0:0:0:0:
269,245,389980,1,0,0:0:0:0:
325,280,390065,1,0,0:0:0:0:
391,277,390151,1,0,0:0:0:0:
444,236,390237,6,0,P|460:208|468:172,1,67.5000025749208
200,120,390409,2,0,P|160:112|128:112,1,67.5000025749208
400,48,390580,2,0,P|444:32|468:12,1,67.5000025749208,8|0,0:0|0:0,0:0:0:0:
360,280,390752,2,0,P|344:328|344:356,1,67.5000025749208
296,72,390923,2,0,P|288:16|288:0,1,67.5000025749208
160,240,391094,2,0,P|136:272|104:296,1,67.5000025749208
360,160,391266,2,0,P|392:144|432:136,1,67.5000025749208,8|0,0:0|0:0,0:0:0:0:
160,72,391437,2,0,P|112:48|96:32,1,67.5000025749208
376,32,391609,5,0,0:0:0:0:
417,81,391694,1,0,0:0:0:0:
395,142,391780,1,0,0:0:0:0:
332,153,391866,1,0,0:0:0:0:
272,124,391952,1,8,0:0:0:0:
208,144,392037,1,0,0:0:0:0:
192,208,392123,1,0,0:0:0:0:
224,268,392209,1,0,0:0:0:0:
220,336,392294,5,0,0:0:0:0:
168,376,392379,1,0,0:0:0:0:
104,360,392465,1,0,0:0:0:0:
80,296,392551,1,0,0:0:0:0:
156,296,392637,5,8,0:0:0:0:
149,263,392723,1,0,0:0:0:0:
142,230,392809,1,0,0:0:0:0:
135,198,392894,1,0,0:0:0:0:
116,124,392980,5,0,0:0:0:0:
180,169,393065,1,0,0:0:0:0:
258,160,393151,1,0,0:0:0:0:
312,100,393237,1,0,0:0:0:0:
376,56,393323,1,8,0:0:0:0:
456,68,393408,1,0,0:0:0:0:
504,132,393494,1,0,0:0:0:0:
500,212,393580,1,0,0:0:0:0:
472,288,393666,5,0,0:0:0:0:
444,336,393751,1,0,0:0:0:0:
393,361,393837,1,0,0:0:0:0:
337,355,393923,1,0,0:0:0:0:
272,312,394009,5,8,0:0:0:0:
215,294,394095,1,0,0:0:0:0:
159,308,394181,1,0,0:0:0:0:
123,350,394266,1,0,0:0:0:0:
88,280,394352,5,0,0:0:0:0:
41,233,394437,1,0,0:0:0:0:
34,167,394523,1,0,0:0:0:0:
71,112,394609,1,0,0:0:0:0:
120,156,394694,1,8,0:0:0:0:
188,164,394780,1,0,0:0:0:0:
248,132,394866,1,0,0:0:0:0:
280,72,394951,1,0,0:0:0:0:
320,20,395037,5,0,0:0:0:0:
382,0,395122,1,0,0:0:0:0:
441,30,395208,1,0,0:0:0:0:
463,91,395294,1,0,0:0:0:0:
432,152,395380,1,8,0:0:0:0:
394,206,395465,1,0,0:0:0:0:
399,272,395551,1,0,0:0:0:0:
446,319,395637,1,0,0:0:0:0:
399,272,395723,5,0,0:0:0:0:
356,252,395808,1,0,0:0:0:0:
309,254,395894,1,0,0:0:0:0:
269,277,395980,1,0,0:0:0:0:
224,328,396066,5,8,0:0:0:0:
183,351,396152,1,0,0:0:0:0:
136,353,396238,1,0,0:0:0:0:
94,333,396323,1,0,0:0:0:0:
48,280,396409,6,0,P|40:256|32:208,1,67.5000025749208
304,200,396580,2,0,P|337:199|370:191,1,67.5000025749208
144,32,396752,2,0,P|136:48|128:104,1,67.5000025749208,8|0,0:0|0:0,0:0:0:0:
144,368,396923,2,0,P|168:368|216:352,1,67.5000025749208
472,152,397094,5,0,0:0:0:0:
440,81,397179,1,0,0:0:0:0:
364,63,397265,1,0,0:0:0:0:
304,112,397351,1,0,0:0:0:0:
304,192,397437,5,8,0:0:0:0:
266,237,397522,1,0,0:0:0:0:
212,254,397608,1,0,0:0:0:0:
157,238,397694,1,0,0:0:0:0:
216,176,397780,5,0,0:0:0:0:
202,138,397865,1,0,0:0:0:0:
189,100,397951,1,0,0:0:0:0:
175,62,398037,1,0,0:0:0:0:
256,64,398123,6,0,L|288:32,1,40.4999987640381,12|0,0:0|0:0,0:0:0:0:
333,81,398209,2,0,L|384:64,1,40.4999987640381,4|0,0:0|0:0,0:0:0:0:
381,144,398294,2,0,L|432:160,1,40.4999987640381,4|0,0:0|0:0,0:0:0:0:
376,224,398380,2,0,L|408:264,1,40.4999987640381,4|0,0:0|0:0,0:0:0:0:
324,285,398466,5,0,0:0:0:0:
448,48,411810,5,10,0:0:0:0:
444,104,411885,1,0,0:0:0:0:
440,160,411960,2,0,L|436:236,1,55,0|0,0:0|0:0,0:0:0:0:
320,300,412110,5,4,0:0:0:0:
324,244,412185,1,0,0:0:0:0:
328,188,412260,2,0,L|332:112,1,55,10|0,0:0|0:0,0:0:0:0:
224,32,412410,5,0,0:0:0:0:
220,88,412485,1,0,0:0:0:0:
216,144,412560,2,0,L|212:220,1,55,0|0,0:0|0:0,0:0:0:0:
96,284,412710,5,4,0:0:0:0:
100,228,412785,1,0,0:0:0:0:
104,172,412860,2,0,L|108:96,1,55,8|0,0:0|0:0,0:0:0:0:
224,32,413010,5,0,0:0:0:0:
280,24,413085,1,0,0:0:0:0:
332,44,413160,2,0,P|352:64|360:108,1,55,0|0,0:0|0:0,0:0:0:0:
324,244,413310,5,4,0:0:0:0:
268,252,413385,1,0,0:0:0:0:
216,232,413460,2,0,P|196:212|188:168,1,55,8|0,0:0|0:0,0:0:0:0:
356,144,413610,5,0,0:0:0:0:
412,136,413685,1,0,0:0:0:0:
464,156,413760,2,0,P|484:176|492:220,1,55,8|0,0:0|0:0,0:0:0:0:
456,356,413910,5,4,0:0:0:0:
400,364,413985,1,0,0:0:0:0:
348,344,414060,2,0,P|328:324|320:280,1,55,0|0,0:0|0:0,0:0:0:0:
416,48,414210,5,10,0:0:0:0:
456,84,414285,1,0,0:0:0:0:
448,140,414360,1,0,0:0:0:0:
412,180,414435,1,0,0:0:0:0:
356,184,414510,1,4,0:0:0:0:
308,160,414585,1,0,0:0:0:0:
280,112,414660,1,8,0:0:0:0:
252,64,414735,1,0,0:0:0:0:
204,36,414810,1,0,0:0:0:0:
148,44,414885,1,0,0:0:0:0:
116,88,414960,1,8,0:0:0:0:
112,144,415035,1,0,0:0:0:0:
148,184,415110,1,4,0:0:0:0:
200,168,415185,1,0,0:0:0:0:
256,176,415260,1,8,0:0:0:0:
292,220,415335,1,0,0:0:0:0:
296,304,415410,5,0,0:0:0:0:
276,356,415485,1,0,0:0:0:0:
228,384,415560,1,0,0:0:0:0:
172,384,415635,1,8,0:0:0:0:
124,360,415710,1,4,0:0:0:0:
104,308,415785,1,0,0:0:0:0:
120,256,415860,1,8,0:0:0:0:
172,236,415935,1,0,0:0:0:0:
224,248,416010,1,0,0:0:0:0:
268,284,416085,1,0,0:0:0:0:
292,332,416160,1,8,0:0:0:0:
336,364,416235,1,0,0:0:0:0:
392,372,416310,1,4,0:0:0:0:
444,352,416385,1,0,0:0:0:0:
476,308,416460,1,8,0:0:0:0:
480,252,416535,1,0,0:0:0:0:
468,164,416610,5,10,0:0:0:0:
420,128,416685,1,0,0:0:0:0:
364,120,416760,1,0,0:0:0:0:
316,148,416835,1,0,0:0:0:0:
296,200,416910,1,4,0:0:0:0:
300,256,416985,1,0,0:0:0:0:
260,292,417060,1,10,0:0:0:0:
204,296,417135,1,0,0:0:0:0:
164,260,417210,1,0,0:0:0:0:
148,208,417285,1,0,0:0:0:0:
168,156,417360,1,0,0:0:0:0:
184,104,417435,1,0,0:0:0:0:
172,52,417510,1,4,0:0:0:0:
124,20,417585,1,0,0:0:0:0:
68,16,417660,1,8,0:0:0:0:
28,52,417735,1,0,0:0:0:0:
12,104,417810,5,0,0:0:0:0:
16,160,417885,1,0,0:0:0:0:
48,204,417960,1,0,0:0:0:0:
96,232,418035,1,8,0:0:0:0:
148,244,418110,1,4,0:0:0:0:
200,228,418185,1,0,0:0:0:0:
252,212,418260,1,8,0:0:0:0:
304,228,418335,1,0,0:0:0:0:
340,268,418410,1,0,0:0:0:0:
352,320,418485,1,0,0:0:0:0:
388,360,418560,1,0,0:0:0:0:
440,372,418635,1,0,0:0:0:0:
492,352,418710,1,4,0:0:0:0:
512,300,418785,1,0,0:0:0:0:
508,244,418860,1,8,0:0:0:0:
476,200,418935,1,0,0:0:0:0:
396,168,419010,5,10,0:0:0:0:
340,172,419085,1,0,0:0:0:0:
292,144,419160,1,0,0:0:0:0:
260,100,419235,1,0,0:0:0:0:
208,80,419310,1,4,0:0:0:0:
152,88,419385,1,0,0:0:0:0:
124,136,419460,1,8,0:0:0:0:
124,192,419535,1,0,0:0:0:0:
72,212,419610,1,0,0:0:0:0:
20,192,419685,1,0,0:0:0:0:
0,140,419760,1,8,0:0:0:0:
8,84,419835,1,0,0:0:0:0:
44,44,419910,1,4,0:0:0:0:
96,32,419985,1,0,0:0:0:0:
148,48,420060,1,8,0:0:0:0:
172,96,420135,1,0,0:0:0:0:
168,152,420210,5,0,0:0:0:0:
136,196,420285,1,0,0:0:0:0:
92,228,420360,1,0,0:0:0:0:
76,280,420435,1,8,0:0:0:0:
88,332,420510,1,4,0:0:0:0:
128,372,420585,1,0,0:0:0:0:
184,380,420660,1,8,0:0:0:0:
232,356,420735,1,0,0:0:0:0:
252,304,420810,1,0,0:0:0:0:
240,248,420885,1,0,0:0:0:0:
212,200,420960,1,8,0:0:0:0:
192,148,421035,1,0,0:0:0:0:
196,92,421110,1,4,0:0:0:0:
228,48,421185,1,0,0:0:0:0:
280,32,421260,1,8,0:0:0:0:
336,40,421335,1,0,0:0:0:0:
408,88,421410,5,10,0:0:0:0:
420,140,421485,1,0,0:0:0:0:
396,188,421560,1,0,0:0:0:0:
348,216,421635,1,0,0:0:0:0:
292,212,421710,1,4,0:0:0:0:
252,172,421785,1,0,0:0:0:0:
212,132,421860,1,10,0:0:0:0:
160,120,421935,1,0,0:0:0:0:
104,120,422010,1,0,0:0:0:0:
56,148,422085,1,0,0:0:0:0:
40,200,422160,1,0,0:0:0:0:
68,248,422235,1,0,0:0:0:0:
120,264,422310,1,4,0:0:0:0:
176,252,422385,1,0,0:0:0:0:
224,224,422460,1,8,0:0:0:0:
276,236,422535,1,0,0:0:0:0:
328,304,422610,5,0,0:0:0:0:
316,356,422685,1,0,0:0:0:0:
268,380,422760,1,0,0:0:0:0:
208,376,422835,1,8,0:0:0:0:
168,340,422910,1,4,0:0:0:0:
156,288,422985,1,0,0:0:0:0:
172,236,423060,1,8,0:0:0:0:
216,200,423135,1,0,0:0:0:0:
272,192,423210,1,0,0:0:0:0:
324,208,423285,1,0,0:0:0:0:
364,244,423360,1,8,0:0:0:0:
416,260,423435,1,0,0:0:0:0:
472,252,423510,1,4,0:0:0:0:
504,208,423585,1,0,0:0:0:0:
512,152,423660,1,8,0:0:0:0:
476,108,423735,1,0,0:0:0:0:
396,80,423810,5,10,0:0:0:0:
344,92,423885,1,0,0:0:0:0:
300,124,423960,1,0,0:0:0:0:
256,156,424035,1,0,0:0:0:0:
204,168,424110,1,4,0:0:0:0:
148,160,424185,1,0,0:0:0:0:
100,132,424260,1,8,0:0:0:0:
60,92,424335,1,0,0:0:0:0:
24,136,424410,1,0,0:0:0:0:
12,192,424485,1,0,0:0:0:0:
24,244,424560,1,0,0:0:0:0:
52,292,424635,1,0,0:0:0:0:
104,312,424710,1,4,0:0:0:0:
152,288,424785,1,0,0:0:0:0:
176,240,424860,1,8,0:0:0:0:
176,184,424935,1,0,0:0:0:0:
156,132,425010,5,0,0:0:0:0:
152,76,425085,1,0,0:0:0:0:
180,28,425160,1,0,0:0:0:0:
232,16,425235,1,8,0:0:0:0:
284,28,425310,1,4,0:0:0:0:
308,76,425385,1,0,0:0:0:0:
300,132,425460,1,8,0:0:0:0:
272,180,425535,1,0,0:0:0:0:
260,232,425610,1,0,0:0:0:0:
276,284,425685,1,0,0:0:0:0:
304,332,425760,1,8,0:0:0:0:
356,356,425835,1,0,0:0:0:0:
412,364,425910,1,4,0:0:0:0:
464,352,425985,1,0,0:0:0:0:
496,308,426060,1,8,0:0:0:0:
504,252,426135,1,0,0:0:0:0:
476,168,426210,5,10,0:0:0:0:
428,144,426285,1,0,0:0:0:0:
372,152,426360,1,0,0:0:0:0:
328,188,426435,1,0,0:0:0:0:
292,232,426510,1,4,0:0:0:0:
276,284,426585,1,0,0:0:0:0:
244,328,426660,1,10,0:0:0:0:
192,348,426735,1,0,0:0:0:0:
136,356,426810,1,0,0:0:0:0:
80,340,426885,1,0,0:0:0:0:
36,304,426960,1,0,0:0:0:0:
20,252,427035,1,0,0:0:0:0:
36,200,427110,1,4,0:0:0:0:
80,168,427185,1,0,0:0:0:0:
136,164,427260,1,8,0:0:0:0:
188,184,427335,1,0,0:0:0:0:
224,224,427410,5,0,0:0:0:0:
272,252,427485,1,0,0:0:0:0:
324,264,427560,1,0,0:0:0:0:
380,264,427635,1,8,0:0:0:0:
428,236,427710,1,4,0:0:0:0:
452,188,427785,1,0,0:0:0:0:
448,132,427860,1,8,0:0:0:0:
408,96,427935,1,0,0:0:0:0:
356,84,428010,1,0,0:0:0:0:
304,96,428085,1,0,0:0:0:0:
264,132,428160,1,8,0:0:0:0:
228,172,428235,1,0,0:0:0:0:
180,200,428310,1,4,0:0:0:0:
124,204,428385,1,0,0:0:0:0:
72,188,428460,1,8,0:0:0:0:
36,148,428535,1,0,0:0:0:0:
32,64,428610,5,10,0:0:0:0:
72,28,428685,1,0,0:0:0:0:
128,20,428760,1,0,0:0:0:0:
180,40,428835,1,0,0:0:0:0:
208,88,428910,1,4,0:0:0:0:
208,142,428985,1,0,0:0:0:0:
183,191,429060,1,8,0:0:0:0:
160,240,429135,1,0,0:0:0:0:
152,296,429210,1,8,0:0:0:0:
172,348,429285,1,0,0:0:0:0:
216,380,429360,1,0,0:0:0:0:
272,380,429435,1,0,0:0:0:0:
324,360,429510,1,4,0:0:0:0:
356,316,429585,1,0,0:0:0:0:
364,260,429660,1,8,0:0:0:0:
332,216,429735,1,0,0:0:0:0:
280,196,429810,5,8,0:0:0:0:
228,208,429885,1,0,0:0:0:0:
196,252,429960,1,8,0:0:0:0:
144,272,430035,1,8,0:0:0:0:
92,252,430110,2,0,L|52:268,7,27.5,4|0|0|0|8|0|8|0,0:0|0:0|0:0|0:0|0:0|0:0|0:0|0:0,0:0:0:0:
52,212,430410,2,0,L|12:204,7,27.5,8|0|8|0|8|8|8|8,0:0|0:0|0:0|0:0|0:0|0:0|0:0|0:0,0:0:0:0:
32,160,430710,2,0,L|-4:148,7,27.5,4|0|8|0|8|0|8|0,0:0|0:0|0:0|0:0|0:0|0:0|0:0|0:0,0:0:0:0:
48,72,431010,5,8,0:0:0:0:
100,60,431085,1,0,0:0:0:0:
152,48,431160,2,0,L|240:32,1,55,0|0,0:0|0:0,0:0:0:0:
380,96,431310,5,4,0:0:0:0:
328,108,431385,1,0,0:0:0:0:
276,120,431460,2,0,L|188:136,1,55,10|0,0:0|0:0,0:0:0:0:
84,244,431610,5,0,0:0:0:0:
136,232,431685,1,0,0:0:0:0:
188,220,431760,2,0,L|276:204,1,55,0|0,0:0|0:0,0:0:0:0:
404,264,431910,5,4,0:0:0:0:
352,276,431985,1,0,0:0:0:0:
300,288,432060,2,0,L|212:304,1,55,8|0,0:0|0:0,0:0:0:0:
80,300,432210,5,0,0:0:0:0:
84,244,432285,1,0,0:0:0:0:
88,188,432360,2,0,L|92:128,1,55,8|0,0:0|0:0,0:0:0:0:
244,8,432510,5,4,0:0:0:0:
240,64,432585,1,0,0:0:0:0:
236,120,432660,2,0,L|232:184,1,55,8|0,0:0|0:0,0:0:0:0:
316,336,432810,5,0,0:0:0:0:
368,356,432885,1,0,0:0:0:0:
424,356,432960,1,8,0:0:0:0:
472,332,433035,1,0,0:0:0:0:
496,284,433110,1,4,0:0:0:0:
496,228,433185,1,0,0:0:0:0:
472,180,433260,2,0,P|448:152|412:140,1,55,8|0,0:0|0:0,0:0:0:0:
320,116,433410,5,10,0:0:0:0:
264,120,433485,1,0,0:0:0:0:
232,164,433560,1,0,0:0:0:0:
240,220,433635,1,0,0:0:0:0:
268,268,433710,1,4,0:0:0:0:
260,324,433785,1,0,0:0:0:0:
224,368,433860,1,8,0:0:0:0:
168,376,433935,1,0,0:0:0:0:
120,348,434010,1,0,0:0:0:0:
96,300,434085,1,0,0:0:0:0:
108,244,434160,1,8,0:0:0:0:
148,204,434235,1,0,0:0:0:0:
172,156,434310,1,4,0:0:0:0:
176,100,434385,1,0,0:0:0:0:
148,52,434460,1,8,0:0:0:0:
96,36,434535,1,0,0:0:0:0:
64,80,434610,5,0,0:0:0:0:
68,136,434685,1,0,0:0:0:0:
96,184,434760,1,8,0:0:0:0:
148,204,434835,1,0,0:0:0:0:
204,196,434910,1,4,0:0:0:0:
248,164,434985,1,0,0:0:0:0:
304,156,435060,1,8,0:0:0:0:
353,177,435135,1,0,0:0:0:0:
380,225,435210,1,0,0:0:0:0:
372,280,435285,1,0,0:0:0:0:
336,320,435360,1,8,0:0:0:0:
281,330,435435,1,0,0:0:0:0:
233,306,435510,1,4,0:0:0:0:
206,259,435585,1,0,0:0:0:0:
213,205,435660,1,8,0:0:0:0:
249,165,435735,1,0,0:0:0:0:
308,100,435810,5,10,0:0:0:0:
292,48,435885,1,0,0:0:0:0:
248,16,435960,1,0,0:0:0:0:
192,8,436035,1,0,0:0:0:0:
136,20,436110,1,4,0:0:0:0:
88,48,436185,1,0,0:0:0:0:
60,96,436260,1,10,0:0:0:0:
56,152,436335,1,0,0:0:0:0:
72,204,436410,1,0,0:0:0:0:
116,236,436485,1,0,0:0:0:0:
148,188,436560,1,0,0:0:0:0:
192,156,436635,1,0,0:0:0:0:
244,140,436710,1,4,0:0:0:0:
299,140,436785,1,0,0:0:0:0:
352,150,436860,1,8,0:0:0:0:
401,173,436935,1,0,0:0:0:0:
439,212,437010,5,0,0:0:0:0:
454,264,437085,1,0,0:0:0:0:
444,318,437160,1,0,0:0:0:0:
406,357,437235,1,8,0:0:0:0:
352,369,437310,1,4,0:0:0:0:
303,342,437385,1,0,0:0:0:0:
273,295,437460,1,8,0:0:0:0:
223,271,437535,1,0,0:0:0:0:
171,289,437610,1,0,0:0:0:0:
128,324,437685,1,0,0:0:0:0:
73,324,437760,1,8,0:0:0:0:
29,290,437835,1,0,0:0:0:0:
14,237,437910,1,4,0:0:0:0:
24,182,437985,1,0,0:0:0:0:
57,138,438060,1,8,0:0:0:0:
109,122,438135,1,0,0:0:0:0:
196,128,438210,5,10,0:0:0:0:
248,148,438285,1,0,0:0:0:0:
284,188,438360,2,0,P|304:220|292:252,1,55,0|0,0:0|0:0,0:0:0:0:
192,340,438510,5,4,0:0:0:0:
140,320,438585,1,0,0:0:0:0:
104,280,438660,2,0,P|84:248|96:216,1,55,8|0,0:0|0:0,0:0:0:0:
148,56,438810,5,0,0:0:0:0:
196,36,438885,1,0,0:0:0:0:
248,36,438960,2,0,P|292:44|312:68,1,55,0|0,0:0|0:0,0:0:0:0:
480,192,439110,5,4,0:0:0:0:
432,212,439185,1,0,0:0:0:0:
380,212,439260,2,0,P|336:204|316:180,1,55,8|0,0:0|0:0,0:0:0:0:
148,56,439410,5,0,0:0:0:0:
92,52,439485,1,0,0:0:0:0:
40,68,439560,2,0,P|12:92|8:132,1,55,8|0,0:0|0:0,0:0:0:0:
24,336,439710,5,4,0:0:0:0:
80,340,439785,1,0,0:0:0:0:
132,324,439860,2,0,P|160:300|164:260,1,55,8|0,0:0|0:0,0:0:0:0:
208,76,440010,5,0,0:0:0:0:
248,36,440085,1,0,0:0:0:0:
304,28,440160,1,8,0:0:0:0:
360,32,440235,1,0,0:0:0:0:
412,48,440310,1,4,0:0:0:0:
448,88,440385,1,0,0:0:0:0:
476,138,440460,2,0,P|484:170|472:206,1,55,0|0,0:0|0:0,0:0:0:0:
452,332,440610,5,10,0:0:0:0:
400,352,440685,1,0,0:0:0:0:
344,348,440760,1,0,0:0:0:0:
296,324,440835,1,0,0:0:0:0:
272,276,440910,1,4,0:0:0:0:
288,224,440985,1,0,0:0:0:0:
312,176,441060,1,10,0:0:0:0:
308,120,441135,1,0,0:0:0:0:
280,72,441210,1,0,0:0:0:0:
232,48,441285,1,0,0:0:0:0:
176,52,441360,1,0,0:0:0:0:
132,84,441435,1,0,0:0:0:0:
116,136,441510,1,4,0:0:0:0:
128,188,441585,1,0,0:0:0:0:
164,228,441660,1,8,0:0:0:0:
220,236,441735,1,0,0:0:0:0:
272,216,441810,5,0,0:0:0:0:
312,176,441885,1,0,0:0:0:0:
356,144,441960,1,0,0:0:0:0:
412,140,442035,1,0,0:0:0:0:
464,152,442110,1,4,0:0:0:0:
500,192,442185,1,0,0:0:0:0:
504,248,442260,1,8,0:0:0:0:
464,288,442335,1,0,0:0:0:0:
420,256,442410,1,0,0:0:0:0:
416,200,442485,1,0,0:0:0:0:
440,152,442560,1,8,0:0:0:0:
460,100,442635,1,0,0:0:0:0:
436,52,442710,1,4,0:0:0:0:
392,20,442785,1,0,0:0:0:0:
336,16,442860,1,8,0:0:0:0:
284,32,442935,1,0,0:0:0:0:
232,104,443010,5,10,0:0:0:0:
220,156,443085,1,0,0:0:0:0:
240,208,443160,1,0,0:0:0:0:
288,236,443235,1,0,0:0:0:0:
328,276,443310,1,4,0:0:0:0:
328,332,443385,1,0,0:0:0:0:
292,376,443460,1,8,0:0:0:0:
236,380,443535,1,0,0:0:0:0:
188,356,443610,1,0,0:0:0:0:
136,336,443685,1,0,0:0:0:0:
84,356,443760,1,0,0:0:0:0:
32,344,443835,1,0,0:0:0:0:
8,296,443910,1,4,0:0:0:0:
20,244,443985,1,0,0:0:0:0:
64,212,444060,1,8,0:0:0:0:
120,216,444135,1,0,0:0:0:0:
168,244,444210,5,0,0:0:0:0:
224,244,444285,1,0,0:0:0:0:
272,220,444360,1,0,0:0:0:0:
308,178,444435,1,8,0:0:0:0:
312,123,444510,1,4,0:0:0:0:
284,76,444585,1,0,0:0:0:0:
233,55,444660,1,8,0:0:0:0:
180,67,444735,1,0,0:0:0:0:
144,108,444810,1,0,0:0:0:0:
139,163,444885,1,0,0:0:0:0:
167,210,444960,1,8,0:0:0:0:
218,232,445035,1,0,0:0:0:0:
272,220,445110,1,4,0:0:0:0:
324,200,445185,1,0,0:0:0:0:
376,184,445260,1,8,0:0:0:0:
432,192,445335,1,0,0:0:0:0:
493,257,445410,5,10,0:0:0:0:
502,311,445485,1,0,0:0:0:0:
483,362,445560,1,0,0:0:0:0:
432,383,445635,1,0,0:0:0:0:
379,366,445710,1,4,0:0:0:0:
338,329,445785,1,0,0:0:0:0:
321,276,445860,1,10,0:0:0:0:
276,243,445935,1,0,0:0:0:0:
221,239,446010,1,0,0:0:0:0:
174,268,446085,1,0,0:0:0:0:
132,304,446160,1,0,0:0:0:0:
76,296,446235,1,0,0:0:0:0:
32,260,446310,1,4,0:0:0:0:
12,208,446385,1,0,0:0:0:0:
12,152,446460,1,8,0:0:0:0:
32,100,446535,1,0,0:0:0:0:
72,64,446610,5,0,0:0:0:0:
124,44,446685,1,0,0:0:0:0:
180,40,446760,1,0,0:0:0:0:
236,52,446835,1,8,0:0:0:0:
276,88,446910,1,4,0:0:0:0:
296,140,446985,1,0,0:0:0:0:
276,192,447060,1,8,0:0:0:0:
236,228,447135,1,0,0:0:0:0:
212,272,447210,1,0,0:0:0:0:
212,328,447285,1,0,0:0:0:0:
248,372,447360,1,8,0:0:0:0:
304,380,447435,1,0,0:0:0:0:
360,372,447510,1,4,0:0:0:0:
408,348,447585,1,0,0:0:0:0:
444,308,447660,1,8,0:0:0:0:
456,256,447735,1,0,0:0:0:0:
452,200,447810,6,0,L|440:132,1,55,10|0,0:0|0:0,0:0:0:0:
274,25,447960,2,0,L|286:93,1,55,8|0,0:0|0:0,0:0:0:0:
240,352,448110,2,0,L|228:284,1,55,4|0,0:0|0:0,0:0:0:0:
62,177,448260,2,0,L|74:245,1,55,8|0,0:0|0:0,0:0:0:0:
452,200,448410,6,0,L|440:132,1,55,8|0,0:0|0:0,0:0:0:0:
62,177,448560,2,0,L|74:245,1,55,8|0,0:0|0:0,0:0:0:0:
240,352,448710,2,0,L|308:340,1,55,4|0,0:0|0:0,0:0:0:0:
274,25,448860,2,0,L|206:35,1,55,8|0,0:0|0:0,0:0:0:0:
62,177,449010,5,10,0:0:0:0:
62,177,449085,2,0,L|46:213,5,27.5,8|0|8|0|8|0,0:0|0:0|0:0|0:0|0:0|0:0,0:0:0:0:
168,316,449310,1,4,0:0:0:0:
168,316,449385,2,0,L|152:352,5,27.5,8|0|8|0|8|0,0:0|0:0|0:0|0:0|0:0|0:0,0:0:0:0:
288,184,449610,1,8,0:0:0:0:
288,184,449685,2,0,L|304:148,5,27.5,8|0|8|8|8|8,0:0|0:0|0:0|0:0|0:0|0:0,0:0:0:0:
388,292,449910,1,4,0:0:0:0:
388,292,449985,2,0,L|404:256,5,27.5,8|0|8|0|8|0,0:0|0:0|0:0|0:0|0:0|0:0,0:0:0:0:
340,284,450210,5,10,0:0:0:0:
144,328,464534,6,2,B|24:336|8:208,1,189.999990463257,6|0,0:0|0:0,0:0:0:0:
16,128,464794,2,2,B|136:120|152:248,1,189.999990463257,2|0,0:0|0:0,0:0:0:0:
208,160,465054,1,2,0:0:0:0:
304,160,465141,1,0,0:0:0:0:
384,120,465227,2,2,B|384:176|408:224,1,94.9999952316285,2|0,0:0|0:0,0:0:0:0:
488,176,465401,2,2,B|504:224|496:280,1,94.9999952316285,2|0,0:0|0:0,0:0:0:0:
504,368,465574,1,2,0:0:0:0:
424,320,465661,1,0,0:0:0:0:
328,296,465748,1,2,0:0:0:0:
232,312,465834,1,0,0:0:0:0:
136,336,465921,6,2,B|112:240|112:240|56:144,1,189.999990463257,2|0,0:0|0:0,0:0:0:0:
104,32,466181,2,2,B|128:128|128:128|184:224,1,189.999990463257,2|0,0:0|0:0,0:0:0:0:
264,232,466441,2,2,B|208:128,1,94.9999952316285,2|0,0:0|0:0,0:0:0:0:
272,72,466615,6,2,B|384:48,1,94.9999952316285,2|0,0:0|0:0,0:0:0:0:
448,104,466788,1,2,0:0:0:0:
448,104,466875,1,0,0:0:0:0:
464,280,466961,6,2,B|352:256,1,94.9999952316285,2|0,0:0|0:0,0:0:0:0:
288,312,467134,1,2,0:0:0:0:
288,312,467221,1,0,0:0:0:0:
136,336,467308,2,2,B|104:248|104:248|144:208|112:136,1,189.999990463257,2|0,0:0|0:0,0:0:0:0:
24,104,467568,2,2,B|56:192|56:192|16:232|48:304,1,189.999990463257,2|0,0:0|0:0,0:0:0:0:
48,376,467828,1,2,0:0:0:0:
136,336,467915,1,0,0:0:0:0:
224,368,468002,6,2,B|240:248,1,94.9999952316285,2|0,0:0|0:0,0:0:0:0:
192,192,468175,1,2,0:0:0:0:
192,192,468262,1,0,0:0:0:0:
320,96,468349,6,2,B|304:216,1,94.9999952316285,2|0,0:0|0:0,0:0:0:0:
352,272,468522,1,2,0:0:0:0:
352,272,468609,1,0,0:0:0:0:
488,360,468696,6,2,B|448:336|448:288|432:280|432:280|448:272|448:224|488:208,1,189.999990463257,2|0,0:0|0:0,0:0:0:0:
320,96,468956,2,2,B|360:120|360:168|376:176|376:176|360:184|360:232|320:248,1,189.999990463257,2|0,0:0|0:0,0:0:0:0:
264,176,469216,1,2,0:0:0:0:
48,272,469389,6,0,B|64:320|48:376,2,94.9999952316285,2|0|2,0:0|0:0|0:0,0:0:0:0:
128,320,469649,2,2,B|240:360|280:232,1,189.999990463257,2|0,0:0|0:0,0:0:0:0:
184,248,469909,1,2,0:0:0:0:
184,248,469996,1,0,0:0:0:0:
368,328,470083,6,2,B|488:336|504:208,1,189.999990463257,6|0,0:0|0:0,0:0:0:0:
496,128,470343,2,2,B|376:120|360:248,1,189.999990463257,2|0,0:0|0:0,0:0:0:0:
304,160,470603,1,2,0:0:0:0:
208,160,470690,1,0,0:0:0:0:
128,120,470776,2,2,B|128:176|104:224,1,94.9999952316285,2|0,0:0|0:0,0:0:0:0:
24,176,470950,2,2,B|8:224|16:280,1,94.9999952316285,2|0,0:0|0:0,0:0:0:0:
8,368,471123,1,2,0:0:0:0:
88,320,471210,1,0,0:0:0:0:
184,296,471297,1,2,0:0:0:0:
280,312,471383,1,0,0:0:0:0:
376,336,471470,6,2,B|400:240|400:240|456:144,1,189.999990463257,2|0,0:0|0:0,0:0:0:0:
408,32,471730,2,2,B|384:128|384:128|328:224,1,189.999990463257,2|0,0:0|0:0,0:0:0:0:
248,232,471990,2,2,B|304:128,1,94.9999952316285,2|0,0:0|0:0,0:0:0:0:
240,72,472164,6,2,B|128:48,1,94.9999952316285,2|0,0:0|0:0,0:0:0:0:
64,104,472337,1,2,0:0:0:0:
64,104,472424,1,0,0:0:0:0:
48,280,472510,6,2,B|160:256,1,94.9999952316285,2|0,0:0|0:0,0:0:0:0:
224,312,472683,1,2,0:0:0:0:
224,312,472770,1,0,0:0:0:0:
376,336,472857,2,2,B|408:248|408:248|368:208|400:136,1,189.999990463257,2|0,0:0|0:0,0:0:0:0:
488,104,473117,2,2,B|456:192|456:192|496:232|464:304,1,189.999990463257,2|0,0:0|0:0,0:0:0:0:
464,376,473377,1,2,0:0:0:0:
376,336,473464,1,0,0:0:0:0:
288,368,473551,6,2,B|272:248,1,94.9999952316285,2|0,0:0|0:0,0:0:0:0:
320,192,473724,1,2,0:0:0:0:
320,192,473811,1,0,0:0:0:0:
192,96,473898,6,2,B|208:216,1,94.9999952316285,2|0,0:0|0:0,0:0:0:0:
160,272,474071,1,2,0:0:0:0:
160,272,474158,1,0,0:0:0:0:
24,360,474245,6,2,B|64:336|64:288|80:280|80:280|64:272|64:224|24:208,1,189.999990463257,2|0,0:0|0:0,0:0:0:0:
192,96,474505,2,2,B|152:120|152:168|136:176|136:176|152:184|152:232|192:248,1,189.999990463257,2|0,0:0|0:0,0:0:0:0:
248,176,474765,1,2,0:0:0:0:
464,272,474938,6,0,B|448:320|464:376,2,94.9999952316285,2|0|2,0:0|0:0|0:0,0:0:0:0:
384,320,475198,2,2,B|272:360|232:232,1,189.999990463257,2|0,0:0|0:0,0:0:0:0:
328,248,475458,1,2,0:0:0:0:
328,248,475545,1,0,0:0:0:0:
192,96,475632,6,0,B|256:192,1,94.9999952316285,6|0,0:0|0:0,0:0:0:0:
176,240,475805,1,0,0:0:0:0:
336,184,475892,6,0,B|272:280,1,94.9999952316285,2|0,0:0|0:0,0:0:0:0:
352,328,476065,1,2,0:0:0:0:
256,352,476152,1,2,0:0:0:0:
256,352,476239,1,0,0:0:0:0:
160,336,476326,6,2,B|72:304,1,94.9999952316285,2|0,0:0|0:0,0:0:0:0:
24,224,476499,1,2,0:0:0:0:
32,128,476586,1,0,0:0:0:0:
288,128,476672,6,2,B|200:160,1,94.9999952316285,2|0,0:0|0:0,0:0:0:0:
152,240,476845,1,2,0:0:0:0:
160,336,476932,1,0,0:0:0:0:
296,328,477019,6,2,B|232:232,1,94.9999952316285,2|0,0:0|0:0,0:0:0:0:
312,184,477192,1,0,0:0:0:0:
152,240,477279,6,2,B|216:144,1,94.9999952316285,2|0,0:0|0:0,0:0:0:0:
136,96,477452,1,2,0:0:0:0:
232,72,477539,1,2,0:0:0:0:
232,72,477626,1,0,0:0:0:0:
328,88,477713,6,2,B|416:120,1,94.9999952316285,2|0,0:0|0:0,0:0:0:0:
464,200,477886,1,2,0:0:0:0:
456,296,477973,1,0,0:0:0:0:
200,296,478059,6,2,B|288:264,1,94.9999952316285,2|0,0:0|0:0,0:0:0:0:
336,184,478232,1,2,0:0:0:0:
328,88,478319,1,0,0:0:0:0:
232,72,478407,6,2,B|216:176,1,94.9999952316285,2|0,0:0|0:0,0:0:0:0:
48,192,478580,2,2,B|176:216,1,94.9999952316285,0|2,0:0|0:0,0:0:0:0:
112,304,478753,1,0,0:0:0:0:
168,376,478840,1,2,0:0:0:0:
264,360,478927,1,0,0:0:0:0:
288,272,479013,1,2,0:0:0:0:
360,336,479100,6,0,B|456:296,1,94.9999952316285,2|0,0:0|0:0,0:0:0:0:
464,208,479274,1,2,0:0:0:0:
464,208,479360,1,0,0:0:0:0:
336,184,479447,6,0,B|240:144,1,94.9999952316285,2|0,0:0|0:0,0:0:0:0:
232,56,479621,1,2,0:0:0:0:
232,56,479707,1,0,0:0:0:0:
264,360,479794,6,0,B|248:256,1,94.9999952316285,2|0,0:0|0:0,0:0:0:0:
80,240,479967,2,0,B|208:216,1,94.9999952316285,0|2,0:0|0:0,0:0:0:0:
144,128,480140,1,0,0:0:0:0:
200,56,480227,1,0,0:0:0:0:
296,72,480314,1,2,0:0:0:0:
320,160,480400,1,0,0:0:0:0:
392,96,480487,6,0,B|488:136,1,94.9999952316285,2|0,0:0|0:0,0:0:0:0:
496,224,480661,1,2,0:0:0:0:
496,224,480747,1,0,0:0:0:0:
368,248,480834,6,0,B|272:288,1,94.9999952316285,0|2,0:0|0:0,0:0:0:0:
264,376,481008,1,0,0:0:0:0:
264,376,481094,1,2,0:0:0:0:
176,344,481181,6,2,B|128:240|16:280,1,189.999990463257,6|0,0:0|0:0,0:0:0:0:
48,192,481441,2,0,B|72:144|48:96,2,94.9999952316285,2|0|2,0:0|0:0|0:0,0:0:0:0:
144,200,481701,1,0,0:0:0:0:
144,200,481788,1,0,0:0:0:0:
176,112,481875,2,0,B|264:64,1,94.9999952316285,2|0,0:0|0:0,0:0:0:0:
336,200,482048,2,0,B|248:152,1,94.9999952316285,2|0,0:0|0:0,0:0:0:0:
176,288,482222,2,0,B|264:240,1,94.9999952316285,2|0,0:0|0:0,0:0:0:0:
336,376,482395,2,0,B|248:328,1,94.9999952316285,0|0,0:0|0:0,0:0:0:0:
424,352,482568,6,2,B|400:280|400:280|424:216|496:216,1,189.999990463257,6|2,0:0|0:0,0:0:0:0:
312,128,482828,2,2,B|336:200|336:200|312:264|240:264,1,189.999990463257,2|0,0:0|0:0,0:0:0:0:
408,136,483089,2,2,B|504:96,1,94.9999952316285,2|0,0:0|0:0,0:0:0:0:
240,184,483262,5,2,0:0:0:0:
176,112,483349,1,0,0:0:0:0:
176,288,483435,5,2,0:0:0:0:
112,216,483522,1,0,0:0:0:0:
304,288,483609,5,2,0:0:0:0:
368,360,483696,1,0,0:0:0:0:
368,184,483782,5,2,0:0:0:0:
432,256,483869,1,0,0:0:0:0:
472,40,483956,6,0,B|424:40|424:40|376:64,1,94.9999952316285,6|0,0:0|0:0,0:0:0:0:
40,40,484129,2,0,B|88:40|88:40|136:64,1,94.9999952316285,2|0,0:0|0:0,0:0:0:0:
472,120,484302,2,0,B|424:120|424:120|376:144,1,94.9999952316285,2|0,0:0|0:0,0:0:0:0:
40,120,484475,2,0,B|88:120|88:120|136:144,1,94.9999952316285,2|0,0:0|0:0,0:0:0:0:
40,344,484649,6,0,B|88:344|88:344|136:320,1,94.9999952316285,6|0,0:0|0:0,0:0:0:0:
472,344,484822,2,0,B|424:344|424:344|376:320,1,94.9999952316285,2|0,0:0|0:0,0:0:0:0:
40,264,484995,2,0,B|88:264|88:264|136:240,1,94.9999952316285,2|0,0:0|0:0,0:0:0:0:
472,264,485170,2,0,B|424:264|424:264|376:240,1,94.9999952316285,2|0,0:0|0:0,0:0:0:0:
40,192,485343,5,6,0:0:0:0:
208,272,485516,1,0,0:0:0:0:
256,192,485603,1,2,0:0:0:0:
424,112,485776,1,0,0:0:0:0:
424,112,485863,1,2,0:0:0:0:
472,192,485950,1,0,0:0:0:0:
472,192,486037,5,2,0:0:0:0:
304,272,486210,1,0,0:0:0:0:
256,192,486297,1,2,0:0:0:0:
88,112,486470,1,0,0:0:0:0:
88,112,486557,1,2,0:0:0:0:
40,192,486644,1,0,0:0:0:0:
40,192,486730,5,4,0:0:0:0:
176,150,504820,6,0,P|118:144|69:184,1,107.999996704102,6|0,1:0|0:0,0:0:0:0:
410,265,505120,6,0,P|455:292|507:285,1,107.999996704102,0|0,1:0|0:0,0:0:0:0:
161,32,505420,2,0,L|190:262,1,215.999993408203,2|0,1:0|1:0,0:0:0:0:
6,349,505870,1,0,0:0:0:0:
74,239,506020,21,2,1:0:0:0:
119,201,506095,1,0,0:0:0:0:
128,142,506170,1,2,0:0:0:0:
115,83,506245,1,0,0:0:0:0:
140,29,506320,1,0,1:0:0:0:
192,1,506395,1,0,0:0:0:0:
246,23,506470,1,2,0:0:0:0:
271,77,506545,1,0,0:0:0:0:
276,136,506620,2,2,P|265:209|325:277,1,161.999995056153,2|2,1:0|0:1,0:0:0:0:
407,293,506920,2,2,L|517:277,1,107.999996704102,2|2,1:2|0:0,0:0:0:0:
276,136,507220,21,2,1:0:0:0:
219,117,507295,1,0,0:0:0:0:
159,120,507370,1,2,0:0:0:0:
102,139,507445,1,0,0:0:0:0:
58,179,507520,1,0,1:0:0:0:
38,235,507595,1,0,0:0:0:0:
40,294,507670,1,2,0:0:0:0:
66,346,507745,1,0,0:0:0:0:
113,379,507820,1,2,1:0:0:0:
173,380,507895,1,0,0:0:0:0:
230,366,507970,1,2,0:0:0:0:
283,339,508045,1,0,0:0:0:0:
334,309,508120,1,0,1:0:0:0:
392,300,508195,1,0,0:0:0:0:
449,313,508270,1,2,0:0:0:0:
497,279,508345,1,0,0:0:0:0:
507,220,508420,21,2,1:0:0:0:
473,171,508495,1,0,0:0:0:0:
414,160,508570,1,2,0:0:0:0:
363,191,508645,1,0,0:0:0:0:
318,230,508720,1,2,1:0:0:0:
259,239,508795,1,0,0:0:0:0:
204,215,508870,1,2,0:0:0:0:
169,166,508945,1,0,0:0:0:0:
165,106,509020,1,2,1:0:0:0:
194,54,509095,1,0,0:0:0:0:
246,25,509170,1,2,0:0:0:0:
305,26,509245,1,0,0:0:0:0:
355,57,509320,1,2,1:0:0:0:
377,111,509395,1,0,0:0:0:0:
372,170,509470,1,2,0:0:0:0:
336,217,509545,1,0,0:0:0:0:
317,273,509620,22,0,P|327:339|367:366,1,107.999996704102,2|0,1:0|0:0,0:0:0:0:
189,140,509920,2,0,P|133:176|125:224,1,107.999996704102,0|0,1:0|0:0,0:0:0:0:
510,79,510220,2,0,B|455:52|405:89|405:89|355:125|307:105,1,215.999993408203,2|0,1:0|1:0,0:0:0:0:
81,18,510670,1,0,0:0:0:0:
48,294,510820,21,2,1:0:0:0:
93,255,510895,1,0,0:0:0:0:
150,238,510970,1,2,0:0:0:0:
209,239,511045,1,0,0:0:0:0:
265,257,511120,1,0,0:0:0:0:
324,258,511195,1,0,0:0:0:0:
375,228,511270,1,2,0:0:0:0:
406,177,511345,1,0,0:0:0:0:
400,117,511420,2,2,P|349:58|251:54,1,161.999995056153,2|2,1:0|0:1,0:0:0:0:
188,94,511720,2,2,L|170:211,1,107.999996704102,2|2,1:2|0:0,0:0:0:0:
322,358,512020,21,2,1:0:0:0:
280,315,512095,1,0,0:0:0:0:
265,257,512170,1,2,0:0:0:0:
276,198,512245,1,0,0:0:0:0:
316,154,512320,1,0,1:0:0:0:
370,130,512395,1,0,0:0:0:0:
429,137,512470,1,2,0:0:0:0:
477,170,512545,1,0,0:0:0:0:
505,221,512620,1,2,1:0:0:0:
508,280,512695,1,0,0:0:0:0:
482,333,512770,1,2,0:0:0:0:
429,360,512845,1,0,0:0:0:0:
370,350,512920,1,0,1:0:0:0:
319,318,512995,1,0,0:0:0:0:
259,318,513070,1,2,0:0:0:0:
202,336,513145,1,0,0:0:0:0:
155,372,513220,21,2,1:0:0:0:
137,315,513295,1,0,0:0:0:0:
89,278,513370,1,2,0:0:0:0:
30,267,513445,1,0,0:0:0:0:
0,219,513520,1,2,1:0:0:0:
7,160,513595,1,0,0:0:0:0:
53,123,513670,1,2,0:0:0:0:
112,125,513745,1,0,0:0:0:0:
153,167,513820,1,2,1:0:0:0:
206,193,513895,1,0,0:0:0:0:
264,183,513970,1,2,0:0:0:0:
306,141,514045,1,0,0:0:0:0:
314,82,514120,5,2,1:0:0:0:
287,29,514195,1,0,0:0:0:0:
233,3,514270,1,2,0:0:0:0:
174,11,514345,1,0,0:0:0:0:
134,54,514420,6,0,P|88:82|35:79,1,107.999996704102,6|0,1:0|0:0,0:0:0:0:
323,248,514720,2,0,P|368:276|421:273,1,107.999996704102,2|0,1:0|0:0,0:0:0:0:
220,98,515020,2,0,P|116:83|42:157,1,215.999993408203,2|0,1:0|1:0,0:0:0:0:
323,248,515470,1,0,0:0:0:0:
262,22,515620,21,2,1:0:0:0:
235,74,515695,1,0,0:0:0:0:
228,133,515770,1,2,0:0:0:0:
244,190,515845,1,0,0:0:0:0:
274,241,515920,1,0,1:0:0:0:
295,296,515995,1,0,0:0:0:0:
274,351,516070,1,2,0:0:0:0:
219,374,516145,1,0,0:0:0:0:
162,354,516220,2,2,P|137:293|191:219,1,161.999995056153,2|2,1:0|0:1,0:0:0:0:
116,152,516520,2,2,L|8:134,1,107.999996704102,2|2,1:2|0:0,0:0:0:0:
235,74,516820,21,2,1:0:0:0:
293,63,516895,1,0,0:0:0:0:
349,82,516970,1,2,0:0:0:0:
391,123,517045,1,0,0:0:0:0:
408,179,517120,1,0,1:0:0:0:
398,237,517195,1,0,0:0:0:0:
361,283,517270,1,2,0:0:0:0:
306,307,517345,1,0,0:0:0:0:
246,302,517420,1,2,1:0:0:0:
197,268,517495,1,0,0:0:0:0:
140,248,517570,1,2,0:0:0:0:
82,263,517645,1,0,0:0:0:0:
58,317,517720,1,0,1:0:0:0:
84,370,517795,1,0,0:0:0:0:
141,383,517870,1,2,0:0:0:0:
188,347,517945,1,0,0:0:0:0:
190,287,518020,21,2,1:0:0:0:
161,235,518095,1,0,0:0:0:0:
163,175,518170,1,2,0:0:0:0:
179,117,518245,1,0,0:0:0:0:
226,81,518320,1,2,1:0:0:0:
285,85,518395,1,0,0:0:0:0:
333,119,518470,1,2,0:0:0:0:
353,174,518545,1,0,0:0:0:0:
334,230,518620,1,2,1:0:0:0:
361,283,518695,1,0,0:0:0:0:
418,298,518770,1,2,0:0:0:0:
466,264,518845,1,0,0:0:0:0:
475,205,518920,1,2,1:0:0:0:
435,160,518995,1,0,0:0:0:0:
420,102,519070,1,2,0:0:0:0:
448,49,519145,1,0,0:0:0:0:
504,30,519220,21,6,1:2:0:0:
404,226,519370,1,0,1:0:0:0:
254,175,519520,1,0,1:0:0:0:
127,314,519670,1,0,1:0:0:0:
361,283,519820,1,2,1:2:0:0:
163,175,519970,1,0,1:0:0:0:
333,119,520120,1,0,1:0:0:0:
206,10,520270,1,0,1:0:0:0:
266,325,520420,21,6,1:2:0:0:
333,119,520570,1,0,1:0:0:0:
127,314,520720,1,0,1:0:0:0:
468,339,520870,1,0,1:0:0:0:
163,175,521020,1,2,1:2:0:0:
445,86,521170,1,0,1:0:0:0:
265,227,521320,1,2,1:2:0:0:
468,339,521470,1,0,1:0:0:0:
445,86,521620,22,0,L|338:72,1,107.999996704102,6|0,1:2|1:0,0:0:0:0:
258,308,521920,2,0,L|365:322,1,107.999996704102,0|4,1:0|1:2,0:0:0:0:
163,175,522220,2,0,B|122:142|82:155|82:155|39:168|5:142,2,161.999995056153,6|4|4,1:2|1:2|1:2,0:0:0:0:
347,350,522820,22,0,P|366:300|486:288,1,161.999995056153,6|0,1:2|0:0,0:0:0:0:
379,196,523120,2,0,P|323:191|277:161,1,107.999996704102,6|0,1:2|0:0,0:0:0:0:
12,336,523420,1,6,1:2:0:0:
70,308,523495,1,0,0:0:0:0:
133,297,523570,1,2,0:0:0:0:
195,313,523645,1,0,0:0:0:0:
258,325,523720,1,6,1:2:0:0:
320,341,523795,1,0,0:0:0:0:
382,357,523870,1,2,0:0:0:0:
445,346,523945,1,0,0:0:0:0:
503,318,524020,21,6,1:2:0:0:
260,85,528820,5,2,0:0:0:0:
256,93,528895,1,0,0:0:0:0:
252,101,528970,1,0,0:0:0:0:
250,109,529045,5,0,0:0:0:0:
248,117,529120,1,0,0:0:0:0:
248,125,529195,1,0,0:0:0:0:
247,133,529270,1,0,0:0:0:0:
248,141,529345,1,0,0:0:0:0:
249,149,529420,1,2,0:0:0:0:
250,157,529495,1,0,0:0:0:0:
252,165,529570,1,0,0:0:0:0:
254,173,529645,1,0,0:0:0:0:
258,181,529720,1,0,0:0:0:0:
262,188,529795,1,0,0:0:0:0:
267,195,529870,1,0,0:0:0:0:
271,202,529945,1,0,0:0:0:0:
278,209,530020,21,0,0:0:0:0:
286,219,530095,1,0,0:0:0:0:
293,231,530170,1,0,0:0:0:0:
301,248,530245,1,0,0:0:0:0:
305,266,530320,1,2,0:0:0:0:
303,290,530395,1,0,0:0:0:0:
293,312,530470,1,0,0:0:0:0:
272,329,530545,1,0,0:0:0:0:
243,340,530620,21,2,0:0:0:0:
210,336,530695,1,0,0:0:0:0:
180,319,530770,1,0,0:0:0:0:
165,286,530845,1,0,0:0:0:0:
164,250,530920,1,2,0:0:0:0:
181,218,530995,1,0,0:0:0:0:
211,198,531070,1,0,0:0:0:0:
245,187,531145,1,0,0:0:0:0:
282,170,531220,21,2,0:0:0:0:
320,147,531295,1,0,0:0:0:0:
338,102,531370,1,0,0:0:0:0:
328,58,531445,1,0,0:0:0:0:
292,29,531520,1,0,0:0:0:0:
247,28,531595,1,0,0:0:0:0:
211,55,531670,1,0,0:0:0:0:
197,97,531745,1,0,0:0:0:0:
170,133,531820,21,2,0:0:0:0:
130,154,531895,1,0,0:0:0:0:
85,157,531970,1,0,0:0:0:0:
33,173,532045,1,0,0:0:0:0:
1,217,532120,1,0,0:0:0:0:
1,271,532195,1,0,0:0:0:0:
25,318,532270,1,0,0:0:0:0:
73,342,532345,1,0,0:0:0:0:
126,336,532420,21,2,0:0:0:0:
179,303,532495,1,0,0:0:0:0:
239,285,532570,1,0,0:0:0:0:
301,291,532645,1,0,0:0:0:0:
355,322,532720,1,0,0:0:0:0:
413,345,532795,1,0,0:0:0:0:
471,322,532870,1,0,0:0:0:0:
495,263,532945,1,0,0:0:0:0:
465,207,533020,1,2,0:0:0:0:
404,188,533095,1,0,0:0:0:0:
341,199,533170,1,0,0:0:0:0:
287,166,533245,1,0,0:0:0:0:
265,106,533320,1,0,0:0:0:0:
285,46,533395,1,0,0:0:0:0:
339,14,533470,1,0,0:0:0:0:
401,21,533545,1,0,0:0:0:0:
441,71,533620,21,4,1:0:0:0:
417,226,533770,1,0,0:0:0:0:
262,198,533920,1,0,0:0:0:0:
285,46,534070,1,0,0:0:0:0:
482,163,534220,21,0,0:0:0:0:
354,300,534370,1,0,0:0:0:0:
182,145,534520,1,0,0:0:0:0:
441,71,534670,1,0,0:0:0:0:
354,300,534820,21,4,0:0:0:0:
370,20,534970,1,0,0:0:0:0:
370,20,535045,1,0,0:0:0:0:
370,20,535120,1,4,0:0:0:0:
354,300,535270,1,0,0:0:0:0:
182,145,535420,1,4,0:0:0:0:
482,163,535570,1,0,0:0:0:0:
182,145,535720,1,4,0:0:0:0:
81,218,536020,21,6,1:2:0:0:
53,253,536095,1,0,0:0:0:0:
49,297,536170,1,0,0:0:0:0:
69,337,536245,1,0,0:0:0:0:
108,359,536320,1,0,1:0:0:0:
152,357,536395,1,0,0:0:0:0:
189,332,536470,1,0,0:0:0:0:
233,323,536545,1,0,0:0:0:0:
268,350,536620,1,0,1:0:0:0:
312,353,536695,1,0,0:0:0:0:
352,334,536770,1,0,0:0:0:0:
374,295,536845,1,0,0:0:0:0:
372,250,536920,1,0,1:0:0:0:
345,213,536995,1,0,0:0:0:0:
302,197,537070,1,0,0:0:0:0:
258,209,537145,1,0,0:0:0:0:
214,198,537220,21,2,1:2:0:0:
180,167,537295,1,0,0:0:0:0:
164,124,537370,1,0,0:0:0:0:
170,79,537445,1,0,0:0:0:0:
198,44,537520,1,0,1:0:0:0:
238,24,537595,1,0,0:0:0:0:
282,25,537670,1,0,0:0:0:0:
321,47,537745,1,0,0:0:0:0:
346,84,537820,1,0,1:0:0:0:
350,128,537895,1,0,0:0:0:0:
334,170,537970,1,0,0:0:0:0:
300,200,538045,1,0,0:0:0:0:
275,238,538120,1,0,1:0:0:0:
268,282,538195,1,0,0:0:0:0:
286,322,538270,1,0,0:0:0:0:
323,346,538345,1,0,0:0:0:0:
367,347,538420,21,2,1:2:0:0:
405,323,538495,1,0,0:0:0:0:
425,282,538570,1,0,0:0:0:0:
417,237,538645,1,0,0:0:0:0:
387,203,538720,1,0,1:0:0:0:
343,192,538795,1,0,0:0:0:0:
299,202,538870,1,0,0:0:0:0:
254,199,538945,1,0,0:0:0:0:
212,181,539020,1,0,1:0:0:0:
187,143,539095,1,0,0:0:0:0:
176,99,539170,1,0,0:0:0:0:
143,67,539245,1,0,0:0:0:0:
98,59,539320,1,0,1:0:0:0:
57,77,539395,1,0,0:0:0:0:
32,114,539470,1,0,0:0:0:0:
32,159,539545,1,0,0:0:0:0:
55,197,539620,21,2,1:2:0:0:
94,217,539695,1,0,0:0:0:0:
138,226,539770,1,0,0:0:0:0:
178,245,539845,1,0,0:0:0:0:
204,281,539920,1,0,1:0:0:0:
204,326,539995,1,0,0:0:0:0:
181,364,540070,1,0,0:0:0:0:
140,383,540145,1,0,0:0:0:0:
95,376,540220,1,0,1:0:0:0:
59,348,540295,1,0,0:0:0:0:
49,303,540370,1,0,0:0:0:0:
62,260,540445,1,0,0:0:0:0:
97,232,540520,1,0,1:0:0:0:
126,198,540595,1,0,0:0:0:0:
142,156,540670,1,0,0:0:0:0:
151,112,540745,1,0,0:0:0:0:
148,67,540820,22,0,L|138:16,3,45,2|0|0|0,1:2|0:0|0:0|0:0,0:0:0:0:
247,126,541120,2,0,L|255:170,3,45,0|0|0|0,1:0|0:0|0:0|0:0,0:0:0:0:
383,205,541420,2,0,L|373:154,3,45,0|0|0|0,1:0|0:0|0:0|0:0,0:0:0:0:
482,264,541720,2,0,L|490:308,3,45,0|0|0|0,1:0|0:0|0:0|0:0,0:0:0:0:
408,366,542020,21,2,1:2:0:0:
370,341,542095,1,0,0:0:0:0:
328,324,542170,1,0,0:0:0:0:
283,320,542245,1,0,0:0:0:0:
238,327,542320,1,0,1:0:0:0:
193,332,542395,1,0,0:0:0:0:
150,316,542470,1,0,0:0:0:0:
115,286,542545,1,0,0:0:0:0:
105,241,542620,1,0,1:0:0:0:
61,250,542695,1,0,0:0:0:0:
20,230,542770,1,0,0:0:0:0:
1,189,542845,1,0,0:0:0:0:
11,145,542920,1,0,1:0:0:0:
46,117,542995,1,0,0:0:0:0:
90,116,543070,1,0,0:0:0:0:
126,141,543145,1,0,0:0:0:0:
169,150,543220,21,2,1:2:0:0:
212,138,543295,1,0,0:0:0:0:
244,107,543370,1,0,0:0:0:0:
258,64,543445,1,0,0:0:0:0:
251,19,543520,1,0,1:0:0:0:
289,42,543595,1,0,0:0:0:0:
333,44,543670,1,0,0:0:0:0:
377,38,543745,1,0,0:0:0:0:
419,23,543820,1,0,1:0:0:0:
463,25,543895,1,0,0:0:0:0:
493,57,543970,1,0,0:0:0:0:
502,101,544045,1,0,0:0:0:0:
480,140,544120,1,0,1:0:0:0:
438,157,544195,1,0,0:0:0:0:
394,146,544270,1,0,0:0:0:0:
349,144,544345,1,0,0:0:0:0:
308,163,544420,21,2,1:2:0:0:
282,199,544495,1,0,0:0:0:0:
276,243,544570,1,0,0:0:0:0:
294,283,544645,1,0,0:0:0:0:
289,327,544720,1,0,1:0:0:0:
260,361,544795,1,0,0:0:0:0:
217,374,544870,1,0,0:0:0:0:
173,363,544945,1,0,0:0:0:0:
144,329,545020,1,0,1:0:0:0:
139,285,545095,1,0,0:0:0:0:
157,245,545170,1,0,0:0:0:0:
151,201,545245,1,0,0:0:0:0:
132,160,545320,1,0,1:0:0:0:
95,133,545395,1,0,0:0:0:0:
63,101,545470,1,0,0:0:0:0:
49,57,545545,1,0,0:0:0:0:
53,12,545620,22,0,L|100:3,3,45,2|0|0|0,1:2|0:0|0:0|0:0,0:0:0:0:
194,68,545920,2,0,L|241:59,3,45,0|0|0|0,1:0|0:0|0:0|0:0,0:0:0:0:
339,172,546220,2,0,L|294:163,3,45,0|0|0|0,1:0|0:0|0:0|0:0,0:0:0:0:
216,247,546520,2,0,L|171:238,3,45,0|0|0|0,1:0|0:0|0:0|0:0,0:0:0:0:
258,362,546820,21,2,1:2:0:0:
238,321,546895,1,0,2:0:0:0:
232,277,546970,1,0,2:0:0:0:
236,231,547045,1,0,2:0:0:0:
259,191,547120,1,0,1:0:0:0:
275,148,547195,1,0,2:0:0:0:
279,104,547270,1,0,2:0:0:0:
273,58,547345,1,0,2:0:0:0:
255,18,547420,1,0,1:0:0:0:
212,2,547495,1,0,0:0:0:0:
169,17,547570,1,0,2:0:0:0:
151,57,547645,1,0,2:0:0:0:
145,103,547720,1,0,1:0:0:0:
149,147,547795,1,0,2:0:0:0:
165,190,547870,1,0,2:0:0:0:
188,230,547945,1,0,2:0:0:0:
192,276,548020,21,2,1:2:0:0:
186,320,548095,1,0,2:0:0:0:
163,358,548170,1,0,2:0:0:0:
124,381,548245,1,0,0:0:0:0:
79,382,548320,1,0,1:0:0:0:
38,361,548395,1,0,0:0:0:0:
11,324,548470,1,0,0:0:0:0:
5,279,548545,1,0,0:0:0:0:
20,236,548620,1,0,1:0:0:0:
54,207,548695,1,0,0:0:0:0:
97,196,548770,1,0,0:0:0:0:
141,204,548845,1,0,0:0:0:0:
175,233,548920,1,0,1:0:0:0:
216,250,548995,1,0,0:0:0:0:
260,253,549070,1,0,0:0:0:0:
302,237,549145,1,0,0:0:0:0:
335,206,549220,22,0,P|348:178|351:154,3,45,2|0|0|0,1:2|0:0|0:0|0:0,0:0:0:0:
437,67,549520,2,0,P|442:88|452:108,3,45,0|0|0|0,1:0|0:0|0:0|0:0,0:0:0:0:
495,240,549820,2,0,L|449:233,3,45,0|0|0|0,1:0|0:0|0:0|0:0,0:0:0:0:
293,334,550120,2,0,L|337:327,3,45,0|0|0|0,1:0|0:0|0:0|0:0,0:0:0:0:
423,363,550420,21,2,1:2:0:0:
388,334,550495,1,0,0:0:0:0:
369,293,550570,1,0,0:0:0:0:
367,248,550645,1,0,0:0:0:0:
384,206,550720,1,0,1:0:0:0:
418,176,550795,1,0,0:0:0:0:
430,132,550870,1,0,0:0:0:0:
428,87,550945,1,0,0:0:0:0:
401,50,551020,1,0,1:0:0:0:
358,35,551095,1,0,0:0:0:0:
314,46,551170,1,0,0:0:0:0:
283,79,551245,1,0,0:0:0:0:
275,123,551320,1,0,1:0:0:0:
293,163,551395,1,0,0:0:0:0:
303,206,551470,1,0,0:0:0:0:
288,248,551545,1,0,0:0:0:0:
255,279,551620,21,2,1:2:0:0:
222,248,551695,1,0,0:0:0:0:
207,206,551770,1,0,0:0:0:0:
217,163,551845,1,0,0:0:0:0:
235,123,551920,1,0,1:0:0:0:
227,79,551995,1,0,0:0:0:0:
196,46,552070,1,0,0:0:0:0:
152,35,552145,1,0,0:0:0:0:
109,50,552220,1,0,1:0:0:0:
82,87,552295,1,0,0:0:0:0:
80,132,552370,1,0,0:0:0:0:
92,176,552445,1,0,0:0:0:0:
126,206,552520,1,0,1:0:0:0:
143,248,552595,1,0,0:0:0:0:
141,293,552670,1,0,0:0:0:0:
122,334,552745,1,0,0:0:0:0:
87,363,552820,21,2,1:2:0:0:
33,358,552895,1,0,0:0:0:0:
0,314,552970,1,0,1:0:0:0:
8,260,553045,1,0,0:0:0:0:
53,231,553120,1,0,1:0:0:0:
106,238,553195,1,0,0:0:0:0:
150,268,553270,1,0,1:0:0:0:
203,277,553345,1,0,0:0:0:0:
253,257,553420,1,0,1:0:0:0:
283,213,553495,1,0,0:0:0:0:
285,159,553570,1,0,1:0:0:0:
255,114,553645,1,0,0:0:0:0:
205,91,553720,1,0,1:0:0:0:
152,101,553795,1,0,0:0:0:0:
112,138,553870,1,0,1:0:0:0:
101,190,553945,1,0,0:0:0:0:
117,241,554020,21,2,1:2:0:0:
168,268,554095,1,0,0:0:0:0:
226,271,554170,1,0,1:0:0:0:
283,282,554245,1,0,0:0:0:0:
323,320,554320,1,0,1:0:0:0:
371,352,554395,1,0,0:0:0:0:
429,353,554470,1,0,1:0:0:0:
480,325,554545,1,0,0:0:0:0:
509,274,554620,1,0,1:0:0:0:
506,215,554695,1,0,0:0:0:0:
475,166,554770,1,0,1:0:0:0:
421,141,554845,1,0,0:0:0:0:
362,148,554920,1,0,1:0:0:0:
318,186,554995,1,0,0:0:0:0:
259,191,555070,1,0,1:0:0:0:
209,159,555145,1,0,0:0:0:0:
183,106,555220,22,0,L|196:15,1,90,8|0,1:2|0:0,0:0:0:0:
383,215,555520,2,0,L|370:304,1,90,8|0,1:2|0:0,0:0:0:0:
100,108,555820,2,0,L|113:17,1,90,8|0,1:2|0:0,0:0:0:0:
457,273,556120,2,0,L|444:362,1,90,8|0,1:2|0:0,0:0:0:0:
239,370,556420,21,2,1:2:0:0:
196,356,556495,1,0,0:0:0:0:
156,334,556570,1,0,0:0:0:0:
134,294,556645,1,0,0:0:0:0:
138,249,556720,1,0,1:0:0:0:
167,214,556795,1,0,0:0:0:0:
209,200,556870,1,0,0:0:0:0:
252,211,556945,1,0,0:0:0:0:
296,218,557020,1,0,1:0:0:0:
338,204,557095,1,0,0:0:0:0:
369,171,557170,1,0,0:0:0:0:
382,127,557245,1,0,0:0:0:0:
373,82,557320,1,0,1:0:0:0:
344,47,557395,1,0,0:0:0:0:
301,31,557470,1,0,0:0:0:0:
256,36,557545,1,0,0:0:0:0:
219,61,557620,21,2,1:2:0:0:
200,101,557695,1,0,0:0:0:0:
200,145,557770,1,0,0:0:0:0:
218,185,557845,1,0,0:0:0:0:
245,220,557920,1,0,1:0:0:0:
252,264,557995,1,0,0:0:0:0:
238,307,558070,1,0,0:0:0:0:
206,338,558145,1,0,0:0:0:0:
162,350,558220,1,0,1:0:0:0:
119,335,558295,1,0,0:0:0:0:
87,304,558370,1,0,0:0:0:0:
73,261,558445,1,0,0:0:0:0:
80,217,558520,1,0,1:0:0:0:
107,182,558595,1,0,0:0:0:0:
125,142,558670,1,0,0:0:0:0:
125,98,558745,1,0,0:0:0:0:
99,60,558820,21,2,1:2:0:0:
55,50,558895,1,0,0:0:0:0:
14,70,558970,1,0,0:0:0:0:
0,113,559045,1,0,0:0:0:0:
9,156,559120,1,0,1:0:0:0:
47,179,559195,1,0,0:0:0:0:
91,176,559270,1,0,0:0:0:0:
125,147,559345,1,0,0:0:0:0:
164,124,559420,5,0,1:0:0:0:
208,119,559495,1,0,0:0:0:0:
251,128,559570,1,0,0:0:0:0:
289,150,559645,1,0,0:0:0:0:
318,184,559720,1,0,1:0:0:0:
336,224,559795,1,0,0:0:0:0:
339,268,559870,1,0,0:0:0:0:
329,311,559945,1,0,0:0:0:0:
309,351,560020,6,0,P|271:366|249:366,3,45,2|0|0|0,1:2|0:0|0:0|0:0,0:0:0:0:
175,337,560320,2,0,P|156:299|155:277,3,45,0|0|0|0,1:0|0:0|0:0|0:0,0:0:0:0:
183,203,560620,2,0,P|221:188|243:188,3,45,0|0|0|0,1:0|0:0|0:0|0:0,0:0:0:0:
322,207,560920,2,0,P|340:244|341:266,3,45,0|0|0|0,1:0|0:0|0:0|0:0,0:0:0:0:
279,295,561220,21,2,1:2:0:0:
320,277,561295,1,0,0:0:0:0:
364,274,561370,1,0,0:0:0:0:
406,287,561445,1,0,0:0:0:0:
444,309,561520,1,0,1:0:0:0:
436,264,561595,1,0,0:0:0:0:
439,219,561670,1,0,0:0:0:0:
461,179,561745,1,0,0:0:0:0:
491,145,561820,1,0,1:0:0:0:
499,100,561895,1,0,0:0:0:0:
487,56,561970,1,0,0:0:0:0:
455,23,562045,1,0,0:0:0:0:
411,10,562120,1,0,1:0:0:0:
367,18,562195,1,0,0:0:0:0:
332,47,562270,1,0,0:0:0:0:
314,88,562345,1,0,0:0:0:0:
284,121,562420,21,2,1:2:0:0:
243,140,562495,1,0,0:0:0:0:
198,140,562570,1,0,0:0:0:0:
155,123,562645,1,0,0:0:0:0:
124,89,562720,1,0,1:0:0:0:
105,129,562795,1,0,0:0:0:0:
92,172,562870,1,0,0:0:0:0:
81,215,562945,1,0,0:0:0:0:
70,258,563020,1,0,1:0:0:0:
57,301,563095,1,0,0:0:0:0:
45,344,563170,1,0,0:0:0:0:
86,326,563245,1,0,0:0:0:0:
130,326,563320,1,0,1:0:0:0:
173,336,563395,1,0,0:0:0:0:
214,353,563470,1,0,0:0:0:0:
258,360,563545,1,0,0:0:0:0:
302,358,563620,21,2,1:2:0:0:
343,341,563695,1,0,0:0:0:0:
376,311,563770,1,0,0:0:0:0:
394,270,563845,1,0,0:0:0:0:
399,225,563920,1,0,1:0:0:0:
386,181,563995,1,0,0:0:0:0:
358,145,564070,1,0,0:0:0:0:
318,122,564145,1,0,0:0:0:0:
273,115,564220,5,0,1:0:0:0:
229,125,564295,1,0,0:0:0:0:
191,150,564370,1,0,0:0:0:0:
149,167,564445,1,0,0:0:0:0:
104,161,564520,1,0,1:0:0:0:
70,130,564595,1,0,0:0:0:0:
60,86,564670,1,0,0:0:0:0:
75,43,564745,1,0,0:0:0:0:
115,22,564820,6,0,L|167:32,3,45,2|0|0|0,1:2|0:0|0:0|0:0,0:0:0:0:
229,125,565120,2,0,L|281:135,3,45,0|0|0|0,1:0|0:0|0:0|0:0,0:0:0:0:
468,170,565420,2,0,L|416:180,3,45,2|0|0|0,1:2|0:0|0:0|0:0,0:0:0:0:
354,273,565720,2,0,L|302:283,3,45,0|0|0|0,1:0|0:0|0:0|0:0,0:0:0:0:
201,317,566020,21,2,1:2:0:0:
156,310,566095,1,0,0:0:0:0:
117,287,566170,1,0,0:0:0:0:
90,250,566245,1,0,0:0:0:0:
77,206,566320,1,0,1:0:0:0:
81,161,566395,1,0,0:0:0:0:
100,120,566470,1,0,0:0:0:0:
134,90,566545,1,0,0:0:0:0:
176,74,566620,1,2,1:2:0:0:
220,73,566695,1,0,0:0:0:0:
262,89,566770,1,0,0:0:0:0:
297,117,566845,1,0,0:0:0:0:
344,105,566920,1,0,1:0:0:0:
387,114,566995,1,0,0:0:0:0:
421,142,567070,1,0,0:0:0:0:
437,183,567145,1,0,0:0:0:0:
435,227,567220,21,2,1:2:0:0:
411,265,567295,1,0,0:0:0:0:
372,287,567370,1,0,0:0:0:0:
327,289,567445,1,0,0:0:0:0:
286,270,567520,1,0,1:0:0:0:
248,244,567595,1,0,0:0:0:0:
203,239,567670,1,0,0:0:0:0:
163,259,567745,1,0,0:0:0:0:
146,300,567820,1,0,1:0:0:0:
157,343,567895,1,0,0:0:0:0:
193,369,567970,1,0,0:0:0:0:
238,369,568045,1,0,0:0:0:0:
274,343,568120,1,0,1:0:0:0:
284,299,568195,1,0,0:0:0:0:
277,254,568270,1,0,0:0:0:0:
257,213,568345,1,0,0:0:0:0:
219,188,568420,22,0,L|175:176,3,45,2|0|0|0,1:2|0:0|0:0|0:0,0:0:0:0:
303,141,568720,2,0,L|317:99,3,45,0|0|0|0,1:0|0:0|0:0|0:0,0:0:0:0:
352,225,569020,6,0,L|396:237,3,45,0|0|0|0,1:0|0:0|0:0|0:0,0:0:0:0:
268,271,569320,2,0,L|254:313,3,45,0|0|0|0,1:0|0:0|0:0|0:0,0:0:0:0:
160,313,569620,5,6,1:2:0:0:
131,358,569695,1,0,0:0:0:0:
77,367,569770,1,0,1:0:0:0:
27,345,569845,1,0,0:0:0:0:
0,297,569920,1,0,1:0:0:0:
1,243,569995,1,0,0:0:0:0:
33,200,570070,1,0,1:0:0:0:
83,180,570145,1,0,0:0:0:0:
135,190,570220,1,0,1:0:0:0:
188,187,570295,1,0,0:0:0:0:
240,174,570370,1,0,1:0:0:0:
289,151,570445,1,0,0:0:0:0:
313,102,570520,1,0,1:0:0:0:
299,49,570595,1,0,0:0:0:0:
254,18,570670,1,0,1:0:0:0:
200,22,570745,1,0,0:0:0:0:
162,60,570820,21,6,1:2:0:0:
160,113,570895,1,0,0:0:0:0:
193,155,570970,1,0,1:0:0:0:
229,194,571045,1,0,0:0:0:0:
249,243,571120,1,0,1:0:0:0:
249,297,571195,1,0,0:0:0:0:
218,341,571270,1,0,1:0:0:0:
270,328,571345,1,0,0:0:0:0:
322,339,571420,1,0,1:0:0:0:
373,356,571495,1,0,0:0:0:0:
426,362,571570,1,0,1:0:0:0:
476,343,571645,1,0,0:0:0:0:
509,300,571720,1,0,1:0:0:0:
511,246,571795,1,0,0:0:0:0:
485,198,571870,1,0,1:0:0:0:
436,174,571945,1,0,0:0:0:0:
382,182,572020,21,6,1:2:0:0:
338,220,572095,1,0,0:0:0:0:
285,246,572170,1,0,1:0:0:0:
226,243,572245,1,0,0:0:0:0:
175,213,572320,1,0,1:0:0:0:
143,163,572395,1,0,0:0:0:0:
137,104,572470,1,0,1:0:0:0:
160,50,572545,1,0,0:0:0:0:
206,14,572620,1,6,1:2:0:0:
262,0,572695,1,0,0:0:0:0:
318,16,572770,1,0,1:0:0:0:
362,54,572845,1,0,0:0:0:0:
382,108,572920,1,0,1:0:0:0:
388,166,572995,1,0,0:0:0:0:
361,218,573070,1,0,1:0:0:0:
356,276,573145,1,0,0:0:0:0:
390,323,573220,21,6,1:2:0:0:
447,334,573295,1,0,0:0:0:0:
497,305,573370,1,0,1:0:0:0:
511,248,573445,1,0,0:0:0:0:
484,196,573520,1,6,1:2:0:0:
427,179,573595,1,0,0:0:0:0:
373,203,573670,1,0,1:0:0:0:
332,245,573745,1,0,0:0:0:0:
287,283,573820,1,6,1:2:0:0:
229,294,573895,1,0,0:0:0:0:
172,279,573970,1,0,1:0:0:0:
131,237,574045,1,0,0:0:0:0:
116,180,574120,2,0,L|127:151,6,22.5,6|0|0|0|0|0|0,1:2|0:0|0:0|0:0|0:0|0:0|0:0,0:0:0:0:
139,113,574420,38,0,L|32:129,1,107.999996704102,6|0,1:0|0:0,0:0:0:0:
342,41,574720,2,0,L|449:57,1,107.999996704102,0|0,1:0|0:0,0:0:0:0:
149,367,575020,2,0,P|91:290|117:178,1,215.999993408203,2|0,1:0|1:0,0:0:0:0:
422,52,575470,1,0,0:0:0:0:
491,161,575620,21,2,1:0:0:0:
430,182,575695,1,0,0:0:0:0:
366,171,575770,1,2,0:0:0:0:
314,131,575845,1,0,0:0:0:0:
253,108,575920,1,0,1:0:0:0:
188,108,575995,1,0,0:0:0:0:
126,128,576070,1,2,0:0:0:0:
78,172,576145,1,0,0:0:0:0:
51,231,576220,2,2,P|40:282|111:365,1,161.999995056153,2|2,1:0|0:1,0:0:0:0:
201,352,576520,2,2,L|308:305,1,107.999996704102,2|2,1:2|0:0,0:0:0:0:
436,252,576820,21,2,1:0:0:0:
380,285,576895,1,0,0:0:0:0:
315,288,576970,1,2,0:0:0:0:
250,288,577045,1,0,0:0:0:0:
195,252,577120,1,0,1:0:0:0:
145,210,577195,1,0,0:0:0:0:
80,219,577270,1,2,0:0:0:0:
44,273,577345,1,0,0:0:0:0:
60,335,577420,1,2,1:0:0:0:
117,365,577495,1,0,0:0:0:0:
178,343,577570,1,2,0:0:0:0:
203,283,577645,1,0,0:0:0:0:
175,224,577720,1,0,1:0:0:0:
146,165,577795,1,0,0:0:0:0:
148,100,577870,1,2,0:0:0:0:
182,45,577945,1,0,0:0:0:0:
240,17,578020,21,2,1:0:0:0:
304,18,578095,1,0,0:0:0:0:
357,54,578170,1,2,0:0:0:0:
385,112,578245,1,0,0:0:0:0:
381,176,578320,1,2,1:0:0:0:
445,174,578395,1,0,0:0:0:0:
492,217,578470,1,2,0:0:0:0:
497,281,578545,1,0,0:0:0:0:
456,330,578620,1,2,1:0:0:0:
392,337,578695,1,0,0:0:0:0:
341,295,578770,1,2,0:0:0:0:
282,266,578845,1,0,0:0:0:0:
217,260,578920,1,2,1:0:0:0:
156,283,578995,1,0,0:0:0:0:
94,303,579070,1,2,0:0:0:0:
34,278,579145,1,0,0:0:0:0:
2,221,579220,22,0,P|10:172|59:117,1,107.999996704102,2|0,1:0|0:0,0:0:0:0:
305,18,579520,2,0,P|297:67|248:122,1,107.999996704102,0|0,1:0|0:0,0:0:0:0:
59,336,579820,2,0,B|101:302|161:329|161:329|216:352|266:321,1,215.999993408203,2|0,1:0|1:0,0:0:0:0:
483,90,580270,1,0,0:0:0:0:
405,193,580420,21,2,1:0:0:0:
345,168,580495,1,0,0:0:0:0:
282,151,580570,1,2,0:0:0:0:
218,165,580645,1,0,0:0:0:0:
162,198,580720,1,0,1:0:0:0:
102,222,580795,1,0,0:0:0:0:
40,202,580870,1,2,0:0:0:0:
8,145,580945,1,0,0:0:0:0:
20,81,581020,2,2,P|64:33|174:34,1,161.999995056153,2|2,1:0|0:1,0:0:0:0:
217,109,581320,2,2,L|198:230,1,107.999996704102,2|2,1:2|0:0,0:0:0:0:
403,363,581620,21,2,1:0:0:0:
352,322,581695,1,0,0:0:0:0:
331,260,581770,1,2,0:0:0:0:
349,198,581845,1,0,0:0:0:0:
389,146,581920,1,0,1:0:0:0:
402,82,581995,1,0,0:0:0:0:
374,23,582070,1,2,0:0:0:0:
311,6,582145,1,0,0:0:0:0:
256,40,582220,1,2,1:0:0:0:
200,6,582295,1,0,0:0:0:0:
137,23,582370,1,2,0:0:0:0:
109,82,582445,1,0,0:0:0:0:
122,146,582520,1,0,1:0:0:0:
161,198,582595,1,0,0:0:0:0:
180,260,582670,1,2,0:0:0:0:
159,322,582745,1,0,0:0:0:0:
108,363,582820,21,2,1:0:0:0:
43,355,582895,1,0,0:0:0:0:
1,307,582970,1,2,0:0:0:0:
0,243,583045,1,0,0:0:0:0:
41,192,583120,1,2,1:0:0:0:
104,181,583195,1,0,0:0:0:0:
160,212,583270,1,2,0:0:0:0:
218,239,583345,1,0,0:0:0:0:
282,239,583420,1,2,1:0:0:0:
339,209,583495,1,0,0:0:0:0:
374,154,583570,1,2,0:0:0:0:
375,89,583645,1,0,0:0:0:0:
344,32,583720,5,2,1:0:0:0:
286,1,583795,1,0,0:0:0:0:
221,1,583870,1,2,0:0:0:0:
166,35,583945,1,0,0:0:0:0:
137,92,584020,6,0,P|94:91|37:47,1,107.999996704102,2|0,1:0|0:0,0:0:0:0:
339,209,584320,2,0,P|380:176|434:171,1,107.999996704102,0|0,1:0|0:0,0:0:0:0:
182,343,584620,2,0,P|77:346|6:267,1,215.999993408203,2|0,1:0|1:0,0:0:0:0:
254,66,585070,1,0,0:0:0:0:
392,285,585220,21,2,1:0:0:0:
429,232,585295,1,0,0:0:0:0:
423,167,585370,1,2,0:0:0:0:
376,122,585445,1,0,0:0:0:0:
311,118,585520,1,0,1:0:0:0:
259,156,585595,1,0,0:0:0:0:
245,219,585670,1,2,0:0:0:0:
193,258,585745,1,0,0:0:0:0:
127,255,585820,2,2,P|79:205|91:109,1,161.999995056153,2|2,1:0|0:1,0:0:0:0:
157,45,586120,2,2,L|292:29,1,107.999996704102,2|2,1:2|0:0,0:0:0:0:
482,289,586420,21,2,1:0:0:0:
422,263,586495,1,0,0:0:0:0:
357,265,586570,1,2,0:0:0:0:
304,303,586645,1,0,0:0:0:0:
278,362,586720,1,0,1:0:0:0:
225,323,586795,1,0,0:0:0:0:
161,311,586870,1,2,0:0:0:0:
100,333,586945,1,0,0:0:0:0:
37,317,587020,1,2,1:0:0:0:
4,261,587095,1,0,0:0:0:0:
21,198,587170,1,2,0:0:0:0:
75,163,587245,1,0,0:0:0:0:
136,183,587320,1,0,1:0:0:0:
190,217,587395,1,0,0:0:0:0:
253,204,587470,1,2,0:0:0:0:
298,158,587545,1,0,0:0:0:0:
300,93,587620,21,2,1:0:0:0:
258,43,587695,1,0,0:0:0:0:
193,34,587770,1,2,0:0:0:0:
139,70,587845,1,0,0:0:0:0:
123,132,587920,1,2,1:0:0:0:
151,190,587995,1,0,0:0:0:0:
210,215,588070,1,2,0:0:0:0:
258,258,588145,1,0,0:0:0:0:
272,321,588220,1,2,1:0:0:0:
318,365,588295,1,0,0:0:0:0:
381,376,588370,1,2,0:0:0:0:
440,349,588445,1,0,0:0:0:0:
474,294,588520,1,2,1:0:0:0:
469,229,588595,1,0,0:0:0:0:
428,178,588670,1,2,0:0:0:0:
365,160,588745,1,0,0:0:0:0:
302,176,588820,21,6,1:2:0:0:
142,344,588970,1,0,1:0:0:0:
216,124,589120,1,0,1:0:0:0:
254,384,589270,1,0,1:0:0:0:
27,299,589420,1,2,1:2:0:0:
371,274,589570,1,0,1:0:0:0:
121,212,589720,1,0,1:0:0:0:
256,3,589870,1,0,1:0:0:0:
248,248,590020,21,6,1:2:0:0:
9,163,590170,1,0,1:0:0:0:
325,102,590320,1,0,1:0:0:0:
254,384,590470,1,0,1:0:0:0:
121,212,590620,1,2,1:2:0:0:
256,3,590770,1,0,1:0:0:0:
371,274,590920,1,2,1:2:0:0:
101,77,591070,1,0,1:0:0:0:
371,274,591220,22,0,L|487:259,1,107.999996704102,6|0,1:2|0:0,0:0:0:0:
107,188,591520,2,0,L|-1:174,1,107.999996704102,0|4,0:0|1:2,0:0:0:0:
357,51,591820,2,0,B|388:29|429:43|429:43|472:57|515:28,2,161.999995056153,4|4|4,1:2|1:2|1:2,0:0:0:0:
259,361,592420,22,0,P|228:301|273:212,1,161.999995056153,6|0,1:2|0:0,0:0:0:0:
178,156,592720,2,0,L|62:135,1,107.999996704102,6|0,1:2|0:0,0:0:0:0:
255,15,593020,1,6,1:2:0:0:
208,74,593095,1,0,0:0:0:0:
198,148,593170,1,2,0:0:0:0:
227,217,593245,1,0,0:0:0:0:
287,261,593320,1,6,1:2:0:0:
362,270,593395,1,0,0:0:0:0:
431,239,593470,1,2,0:0:0:0:
472,175,593545,1,0,0:0:0:0:
480,99,593620,21,6,1:2:0:0:
27,206,594820,37,2,0:0:0:0:
480,252,595420,1,2,0:0:0:0:
37,355,596020,1,2,0:0:0:0:
442,62,597220,21,2,0:0:0:0:
300,319,597520,1,2,0:0:0:0:
352,224,597820,2,0,L|335:129,2,90.0000034332277,2|2|2,0:0|0:0|0:0,0:0:0:0:
206,372,598420,2,0,B|156:383|119:349|119:349|82:368|17:349|21:308|21:308|61:276|76:327,1,270.000010299683,10|2,0:0|0:0,0:0:0:0:
256,192,599620,21,14,0:0:0:0:
256,192,599695,12,0,603970,0:0:0:0:
