osu file format v9

[General]
AudioFilename: Sound 1.mp3
AudioLeadIn: 1996
PreviewTime: 701611
Countdown: 0
SampleSet: Soft
StackLeniency: 0.3
Mode: 0
LetterboxInBreaks: 0

[Editor]
DistanceSpacing: 1.1
BeatDivisor: 4
GridSize: 8

[Metadata]
Title:osu! Jump Compilation
Artist:Various Artists
Creator:Alarchy
Version:Map by [Dellirium]
Source:[Dellirium]
Tags:verstarker poinsettia deltamax masterpiece fairy tail emerald sword strange program sticks stones notshinta aha rainbow tylenol airman noisia groundhog lemon tree Mafiamaster Bikko galvenize MetalMario201 regenz Shinxyn SeymourLyon KuraiPettan Larto Aakiha Sprosive simplistiC mtmcl Suck Reikin Lesjuh RandomJibberish Blue Dragon val0108 eba_boy123 Takuma Frill when I Get Home My Wife Always Pretends To Be Dead KBT

[Difficulty]
HPDrainRate:4
CircleSize:4
OverallDifficulty:8
ApproachRate:9
SliderMultiplier:0.999999999999999
SliderTickRate:1

[Events]
//Background and Video events
0,0,"background copy.jpg"
//Break Periods
2,35212,41995
2,78939,83943
2,104523,114113
2,139948,142668
2,151202,157459
2,224016,228659
2,249459,254357
2,268823,278105
2,298886,306685
2,339485,346140
2,389991,390565
2,412911,415950
2,435279,439952
2,456752,463112
2,481772,483339
2,509972,515509
2,537909,543555
2,576555,582043
2,602043,607856
2,630856,637009
2,651330,657282
2,696596,705259
//Storyboard Layer 0 (Background)
//Storyboard Layer 1 (Fail)
//Storyboard Layer 2 (Pass)
//Storyboard Layer 3 (Foreground)
//Storyboard Sound Samples
//Background Colour Transformations
3,100,163,162,255

[TimingPoints]
5359,461.538461538462,4,2,0,100,1,0
5474,-83.3333333333333,4,2,0,100,0,0
38374,361.44578313253,4,1,0,80,1,0
38464,-55.5555555555556,4,1,0,80,0,0
82976,420.845900259522,4,1,0,70,1,0
83081,-41.6666666666667,4,1,0,70,0,0
110278,413.793103448276,4,1,0,100,1,0
110381,-27.7777777777778,4,1,0,100,0,0
141978,468.75,4,1,0,100,1,0
142095,-45.4545454545454,4,1,0,100,0,0
152842,333.333333333333,4,1,0,60,1,0
152953,-52.6315789473684,4,1,0,60,0,0
197841,-52.6315789473684,4,2,0,60,0,0
207207,265.486725663717,4,1,0,100,1,0
207273,-71.4285714285714,4,1,0,100,0,0
225626,312.5,4,1,0,72,1,0
225704,-50,4,1,0,72,0,0
252740,333.333333333333,4,2,0,100,1,0
252823,-55.5555555555556,4,2,0,100,0,0
278821,363.647383254038,4,1,0,50,1,0
279185,361.456670381638,4,1,0,50,1,0
279546,359.292194377077,4,1,0,50,1,0
279546,-41.666666666667,4,1,0,50,0,0
279905,357.153486710914,4,1,0,50,1,0
279905,-41.666666666667,4,1,0,50,0,0
280262,355.040089943489,4,1,0,50,1,0
280262,-41.666666666667,4,1,0,50,0,0
280617,352.951557398747,4,1,0,50,1,0
280617,-41.666666666667,4,1,0,50,0,0
280970,350.887452849499,4,1,0,50,1,0
280970,-41.666666666667,4,1,0,50,0,0
281321,348.847350213669,4,1,0,50,1,0
281321,-41.666666666667,4,1,0,50,0,0
281670,346.830833261077,4,1,0,50,1,0
281670,-41.666666666667,4,1,0,50,0,0
282017,344.837495330326,4,1,0,50,1,0
282017,-41.666666666667,4,1,0,50,0,0
282362,342.866939055402,4,1,0,50,1,0
282362,-41.666666666667,4,1,0,50,0,0
282705,340.918776101594,4,1,0,50,1,0
282705,-41.666666666667,4,1,0,50,0,0
283046,338.992626910365,4,1,0,50,1,0
283385,337.088120452822,4,1,0,50,1,0
283722,335.204893991452,4,1,0,50,1,0
283722,-41.666666666667,4,1,0,50,0,0
284057,333.342592849801,4,1,0,50,1,0
284057,-41.666666666667,4,1,0,50,0,0
284390,331.500870189784,4,1,0,50,1,0
284390,-41.666666666667,4,1,0,50,0,0
284722,329.679386796341,4,1,0,50,1,0
284722,-41.666666666667,4,1,0,50,0,0
285052,327.877810869149,4,1,0,50,1,0
285052,-41.666666666667,4,1,0,50,0,0
285380,326.095817821136,4,1,0,50,1,0
285380,-41.666666666667,4,1,0,50,0,0
285706,324.333090083516,4,1,0,50,1,0
285706,-41.666666666667,4,1,0,50,0,0
286030,322.589316917121,4,1,0,50,1,0
286030,-41.666666666667,4,1,0,50,0,0
286353,320.864194229792,4,1,0,50,1,0
286353,-41.666666666667,4,1,0,50,0,0
286674,319.157424399585,4,1,0,50,1,0
286674,-41.666666666667,4,1,0,50,0,0
286993,317.468716103601,4,1,0,50,1,0
286993,-41.666666666667,4,1,0,50,0,0
287310,315.797784152215,4,1,0,50,1,0
287388,-41.666666666667,4,1,0,50,0,0
287626,314.144349328516,4,1,0,50,1,0
287940,312.508138232766,4,1,0,50,1,0
287940,-41.666666666667,4,1,0,50,0,0
288253,310.888883131687,4,1,0,50,1,0
288253,-41.666666666667,4,1,0,50,0,0
288564,309.286321812418,4,1,0,50,1,0
288564,-41.666666666667,4,1,0,50,0,0
288873,307.70019744096,4,1,0,50,1,0
289181,306.13025842496,4,1,0,50,1,0
289487,304.576258280667,4,1,0,55,1,0
289487,-41.666666666667,4,1,0,50,0,0
289792,303.037955503927,4,1,0,55,1,0
289792,-41.666666666667,4,1,0,50,0,0
290095,301.515113445061,4,1,0,55,1,0
290095,-41.666666666667,4,1,0,50,0,0
290397,300.007500187505,4,1,0,55,1,0
290472,-41.666666666667,4,1,0,50,0,0
290697,298.51488843006,4,1,0,55,1,0
290996,297.037055372658,4,1,0,55,1,0
291293,295.573782605483,4,1,0,55,1,0
291589,294.124856001373,4,1,0,55,1,0
291883,292.690065611356,4,1,0,55,1,0
292176,291.269205563242,4,1,0,55,1,0
292176,-41.666666666667,4,1,0,50,0,0
292467,289.862073963139,4,1,0,55,1,0
292467,-41.666666666667,4,1,0,50,0,0
292757,288.468472799827,4,1,0,55,1,0
292829,-41.666666666667,4,1,0,50,0,0
293045,287.088207851862,4,1,0,55,1,0
293332,285.721088597348,4,1,0,55,1,0
293618,284.366928126259,4,1,0,55,1,0
293902,283.025543055261,4,1,0,55,1,0
294185,281.696753444917,4,1,0,55,1,0
294185,-41.666666666667,4,1,0,50,0,0
294467,280.380382719222,4,1,0,55,1,0
294747,279.076257587386,4,1,0,55,1,0
294747,-41.666666666667,4,1,0,50,0,0
295026,277.784207967777,4,1,0,55,1,0
295095,-41.666666666667,4,1,0,50,0,0
295304,276.504066913984,4,1,0,55,1,0
295581,275.235670542902,4,1,0,55,1,0
295856,273.978857964794,4,1,0,55,1,0
295856,-41.666666666667,4,1,0,50,0,0
296130,272.733471215255,4,1,0,55,1,0
296130,-41.666666666667,4,1,0,50,0,0
296403,271.499355189031,4,1,0,55,1,0
296674,270.276357575621,4,1,0,55,1,0
296944,269.06432879661,4,1,0,55,1,0
296944,-41.666666666667,4,1,0,50,0,0
297213,267.863121944686,4,1,0,55,1,0
297213,-41.666666666667,4,1,0,50,0,0
297481,266.672592724283,4,1,0,55,1,0
297481,-41.666666666667,4,1,0,50,0,0
297748,265.492599393792,4,1,0,55,1,0
297748,-41.666666666667,4,1,0,50,0,0
298013,264.323002709311,4,1,0,55,1,0
298013,-41.666666666667,4,1,0,50,0,0
298277,263.163665869866,4,1,0,55,1,0
298277,-41.666666666667,4,1,0,50,0,0
298540,262.014454464071,4,1,0,60,1,0
298802,260.875236418183,4,1,0,60,1,0
299063,259.745881945497,4,1,0,60,1,0
299323,258.626263497058,4,1,0,60,1,0
303401,500,4,1,0,70,1,0
303526,-40,4,1,0,70,0,0
343467,338.983050847458,4,1,0,90,1,0
343551,-50,4,1,0,90,0,0
369223,-41.666666666667,4,1,0,90,0,1
391009,272.727272727273,4,2,0,100,1,0
391077,-55.5555555555556,4,2,0,100,0,0
399940,-55.5555555555556,4,1,0,70,0,1
415490,294.117647058824,4,1,0,80,1,0
415563,-55.5555555555556,4,1,0,80,0,0
430712,-27.7777777777778,4,2,0,80,0,0
438002,333.333333333333,4,1,0,80,1,0
438063,-39.21568627451,4,1,0,80,0,0
463828,279.06976744186,4,1,0,100,1,0
463828,-38.461538461538,4,1,0,100,0,0
464456,-19.230769230769,4,1,0,100,0,0
464804,-38.461538461538,4,1,0,100,0,0
465501,-19.230769230769,4,1,0,100,0,0
465903,-38.461538461538,4,1,0,100,0,0
466654,-19.230769230769,4,1,0,100,0,0
467029,-38.461538461538,4,1,0,100,0,0
467780,-19.230769230769,4,1,0,100,0,0
468155,-38.461538461538,4,1,0,100,0,0
468906,-19.230769230769,4,1,0,100,0,0
469254,-38.461538461538,4,1,0,100,0,0
470005,-19.230769230769,4,1,0,100,0,0
480496,-38.461538461538,4,1,0,100,0,0
482722,333.333333333333,4,1,0,80,1,0
482805,-45.454545454545,4,1,0,80,0,0
511425,400,4,2,0,60,1,0
511525,-50,4,2,0,60,0,0
541899,338.983050847458,4,1,0,100,1,0
541983,-63.775510204082,4,1,0,40,0,0
547237,-31.328320802005,4,1,0,60,0,1
559138,444.443292184057,4,2,0,60,1,0
559249,-29.411764705882,4,2,0,60,0,0
582759,300,4,2,0,75,1,1
602034,-100,4,2,0,75,0,0
602872,300,4,2,0,100,1,0
602872,-50,4,2,0,100,0,0
637725,422.535211267606,4,1,0,100,1,0
657998,405.405405405405,4,1,0,80,1,0
697248,272.727272727273,4,2,0,100,1,0
697316,-50,4,2,0,100,0,0

[Colours]
Combo1 : 17,254,176
Combo2 : 122,239,5
Combo3 : 5,122,239
Combo4 : 239,5,122
Combo5 : 255,94,55

[HitObjects]
176,112,5704,5,6
176,272,5935,1,0
336,272,6166,1,8
336,112,6396,1,0
256,88,6627,6,0,B|256:24,1,60
152,192,7089,2,0,B|88:192,1,60,8|0
256,296,7550,2,0,B|256:360,1,60,0|0
360,192,8012,2,0,B|424:192,1,60,8|0
216,152,8473,5,0
296,152,8704,1,8
296,232,8935,1,8
216,232,9166,1,0
144,120,9396,6,0,B|144:88|177:77,1,60
333,76,9858,2,0,B|367:87|367:119,1,60,8|0
367,264,10319,2,0,B|367:296|333:308,1,60
179,308,10781,2,0,B|144:296|144:264,1,60,8|0
184,192,11243,6,0,B|104:192,1,60
328,192,11704,2,0,B|408:192,1,60,8|0
256,80,12166,5,0
256,304,12396,1,8
256,80,12627,1,8
256,304,12858,1,0
256,192,13089,5,0
328,264,13319,1,0
184,120,13550,1,8
184,264,13781,1,0
328,120,14012,1,0
256,80,14243,6,0,B|256:152,1,60,0|8
144,192,14704,2,0,B|216:192,1,60
256,304,15166,2,0,B|256:232,1,60,0|8
368,192,15627,2,0,B|296:192,1,60
336,112,16089,1,8
256,80,16319,1,8
184,120,16550,1,0
144,192,16781,6,0,B|216:192,1,60
160,264,17243,2,0,B|120:280|88:240,1,60,8|0
368,192,17704,2,0,B|296:192,1,60
352,264,18166,2,0,B|392:280|424:240,1,60,8|0
352,120,18627,6,0,B|392:104|424:144,1,60
160,120,19089,2,0,B|120:104|88:144,1,60,8|0
144,192,19550,5,0
368,192,19781,1,8
176,48,20012,1,8
336,48,20243,1,0
256,320,20473,5,4
184,272,20704,2,0,B|136:328,1,60,0|8
328,272,21166,2,0,B|376:328,1,60
256,224,21627,2,0,B|256:152,2,60,0|8|0
256,120,22319,5,0
128,128,22550,5,0
176,192,22781,1,8
256,32,23012,1,0
256,120,23243,1,0
384,128,23473,1,8
336,192,23704,1,8
208,264,23935,5,0
304,264,24166,1,0
208,360,24396,1,0
304,360,24627,1,8
400,264,24858,2,0,B|424:328,1,60
112,264,25319,2,0,B|88:328,2,60,0|8|0
168,120,26012,5,0
216,56,26243,1,0
296,56,26473,1,8
344,120,26704,1,0
120,56,26935,5,0
392,56,27166,1,8
256,192,27396,1,8
120,232,27858,5,0
176,288,28089,1,0
256,296,28319,2,0,B|256:356,1,60,8|0
392,232,28781,5,0
336,288,29012,1,0
256,296,29243,2,0,B|256:356,1,60,8|0
392,152,29704,5,0
336,96,29935,1,0
256,88,30166,2,0,B|256:28,1,60,8|0
120,152,30627,5,0
176,96,30858,1,8
256,88,31089,2,0,B|256:28,1,60,8|0
216,160,31550,5,0
160,216,31781,1,0
352,216,32012,1,8
296,160,32243,1,0
216,352,32473,5,0
160,296,32704,1,0
352,296,32935,1,8
296,352,33166,1,0
216,256,33396,5,0
296,256,33627,1,0
216,256,33858,1,8
296,256,34089,1,0
376,256,34319,5,0
136,256,34550,1,8
376,256,34781,1,8
136,256,35012,1,0
416,328,42595,6,0,L|208:328,1,180,0|8
56,328,43318,1,8
56,56,43679,1,8
168,192,44041,2,0,L|168:296,1,90
352,192,44402,2,0,L|352:312,1,90,8|0
264,280,44764,2,0,L|264:176,2,90,0|0|8
264,96,45486,1,0
416,192,45848,5,8
320,288,46029,1,0
224,192,46209,1,0
320,96,46390,1,0
472,192,46571,5,8
320,344,46751,1,0
168,192,46932,1,0
72,32,47294,6,0,L|176:32,1,90,8|0
256,32,47655,1,0
440,32,47836,2,0,L|320:32,1,90,0|8
448,344,48378,5,0
256,344,48559,1,0
64,344,48739,1,8
256,32,49101,1,0
256,344,49462,5,8
384,104,49643,2,0,L|280:184,2,90
128,104,50185,2,0,L|208:168,2,90,8|0|0
256,344,50727,2,0,L|256:240,2,90,0|8|0
256,192,51270,12,0,53800
72,64,54161,5,4
256,64,54523,2,0,B|200:64,4,45
432,64,55245,1,8
256,64,55607,5,0
256,152,55788,2,0,B|256:272,1,90,0|8
256,336,56149,1,0
344,336,56330,2,0,L|344:152,1,180,0|8
168,336,57053,2,0,L|168:144,1,180,0|8
256,152,57595,2,0,L|256:48,2,90
256,240,58137,1,8
432,240,58498,2,0,L|432:144,2,90,0|0|8
344,240,59041,2,0,L|344:136,1,90
160,80,59402,5,0
160,304,59583,1,8
496,192,59944,2,0,L|312:192,1,180,0|8
224,192,60486,1,0
496,192,61029,5,8
432,128,61209,2,0,L|368:64,2,90
368,192,61751,1,8
8,192,62113,6,0,L|8:296,1,90
80,192,62474,2,0,L|80:312,1,90,8|0
152,192,62836,2,0,L|152:296,1,90
320,280,63197,5,8
320,104,63378,1,0
448,192,63559,2,0,L|336:192,2,90,0|0|8
152,96,64282,6,0,L|240:176,1,90
152,288,64643,2,0,L|240:208,1,90,8|0
360,288,65004,2,0,L|272:208,1,90
360,96,65366,2,0,L|272:176,1,90,8|0
152,192,65727,5,0
240,192,65908,2,0,B|240:256,6,45,0|0|8|0|0|0|8
232,104,66631,2,0,L|120:104,1,90,0|8
56,104,66992,1,0
120,168,67173,1,0
192,224,67354,1,0
280,224,67535,2,0,L|368:288,2,90,8|0|0
352,168,68077,1,0
416,104,68258,1,8
336,64,68438,2,0,L|216:64,2,90
152,64,68980,5,8
24,192,69161,1,0
152,312,69342,1,0
288,192,69523,1,0
152,64,69703,1,8
416,312,70065,5,4
416,136,70426,2,0,L|320:56,2,90,8|0|0
232,136,71149,1,8
320,136,71330,1,0
320,312,71691,2,0,L|216:232,2,90,0|8|0
216,64,72595,6,0,B|272:24|320:88,1,90,8|0
256,144,72956,1,0
296,224,73137,2,0,B|240:264|192:200,1,90,0|8
72,336,73679,1,8
256,336,74041,5,8
400,192,74221,1,0
256,48,74402,1,0
112,192,74583,2,0,B|232:192,1,90,0|8
504,192,75125,5,0
352,104,75306,1,0
352,280,75486,1,8
8,192,75848,6,0,B|192:192,1,180,0|8
352,104,76390,1,0
504,192,76571,1,0
352,280,76751,1,0
192,192,76932,1,8
472,96,77294,6,4,B|384:168,1,90
472,288,77655,2,4,B|384:216,1,90,4|4
40,96,78197,5,0
40,192,78378,2,4,B|136:192,1,90
40,280,78739,1,4
168,32,84543,5,6
136,168,84753,1,0
32,64,84964,1,0
168,104,85174,2,0,B|207:143|282:128,1,120,2|4
416,168,85595,2,0,B|407:229|335:248,1,120,2|8
200,200,86016,1,0
56,168,86226,1,4
96,304,86437,2,0,B|135:338|210:337,1,120,0|0
352,344,86858,2,0,B|462:272|462:112|350:39,1,360,2|8
328,272,87699,5,0
320,128,87910,2,0,B|304:57|208:57|192:130,1,180,4|0
256,160,88330,1,0
184,272,88541,1,0
72,360,88751,2,0,B|17:343|24:309|24:263,1,120,6|0
24,120,89172,2,0,B|24:75|17:41|73:23,1,120,12|0
160,136,89593,2,0,B|121:192|161:249,2,120,6|0|0
292,192,90224,2,0,B|346:215|354:169|410:193,1,120,2|4
408,48,90645,5,8
408,336,90856,1,12
448,136,91066,5,0
344,32,91276,1,4
376,168,91487,1,0
480,64,91697,1,0
344,104,91908,2,0,B|305:143|230:128,1,120,2|4
96,168,92329,2,0,B|105:229|177:248,1,120,2|8
296,168,92749,1,0
312,308,92960,1,4
432,224,93170,1,0
280,240,93381,1,0
160,344,93591,2,0,B|50:272|50:112|162:39,1,360,2|8
192,264,94433,5,0
232,120,94643,1,4
272,264,94854,1,0
312,120,95064,1,0
424,24,95274,2,0,B|497:112|497:272|423:362,1,360,2|8
320,264,96116,1,0
280,120,96327,1,4
240,264,96537,1,0
200,120,96747,1,0
64,80,96958,2,0,B|-12:192|65:306,1,240,2|0
368,40,97800,6,0,B|327:4|254:8,1,120,0|4
200,144,98220,1,0
328,216,98431,1,0
200,288,98641,1,0
328,360,98852,1,4
184,360,99062,1,2
312,288,99272,1,8
184,216,99483,1,0
256,72,99693,5,4
256,72,100114,1,4
256,72,100535,1,4
256,216,100745,5,2
400,192,100956,1,8
368,336,101166,2,0,B|256:414|143:335,1,240,2|0
112,192,101798,1,4
376,88,102218,1,4
256,8,102429,1,0
136,88,102639,1,8
256,360,103060,5,4
256,360,103481,1,4
136,176,103797,1,0
136,176,103902,1,4
256,256,104112,1,0
376,176,104323,1,12
408,296,114713,5,0
440,152,114920,2,0,B|440:40|320:40,1,180
184,40,115334,2,0,B|72:40|72:160,1,180
72,296,115748,2,0,B|184:296|184:176,1,180
328,184,116162,2,0,B|328:296|448:296,1,180
328,80,116575,6,0,B|248:-16|168:96,1,180,2|0
432,264,116989,2,0,B|528:184|416:104,1,180,2|0
184,304,117403,2,0,B|264:400|344:288,1,180,2|0
80,120,117817,2,0,B|-16:200|96:280,1,180,2|0
472,40,118437,5,0
40,344,118851,1,0
472,344,119265,1,0
40,40,119679,1,0
168,40,119886,1,0
168,344,120299,1,0
472,192,120713,1,0
40,192,121127,1,0
256,192,121541,1,4
336,270,121748,6,0,B|416:192|336:112,1,180
176,271,122162,2,0,B|255:351|335:271,1,180
176,112,122575,2,0,B|97:191|177:271,1,180
335,111,122989,2,0,B|257:32|177:112,1,180
338,270,123403,2,0,B|416:191|337:113,1,180,2|0
176,272,123817,2,0,B|255:351|333:273,1,180,2|0
176,112,124230,2,0,B|97:191|176:269,1,180,2|0
176,111,124644,2,0,B|254:191|333:112,1,180
337,113,125058,1,0
208,48,125265,6,0,B|130:127|51:47,1,180
48,192,125679,1,0
48,336,125886,2,0,B|126:257|205:337,1,180
192,192,126299,2,0,B|328:328,1,180
192,192,126713,2,0,B|376:192,1,180,0|2
192,192,127127,2,0,B|328:56,1,180,0|2
408,336,127748,5,0
112,336,127955,1,0
256,336,128162,1,0
256,192,128368,1,8
256,192,128472,1,8
256,192,128575,1,8
400,192,128782,2,0,B|264:56,1,180
136,104,129196,2,0,B|136:296,1,180
272,320,129610,2,0,B|408:184,1,180
392,48,130024,6,0,B|208:48,1,180,2|0
64,48,130437,2,0,B|64:232,1,180,2|0
208,232,130851,2,0,B|392:232,1,180,2|0
464,112,131265,2,0,B|464:304,1,180,2|0
320,328,131679,6,0,B|136:328,1,180
64,200,132093,1,0
144,80,132299,2,0,B|232:24|336:96,1,180,0|0
200,176,132713,1,0
344,176,132920,1,0
272,296,133127,1,0
128,296,133334,1,0
272,296,133541,1,2
432,56,133955,5,2
144,56,134368,1,2
288,56,134575,1,2
400,144,134782,2,0,B|400:328,2,180
112,144,135610,2,0,B|112:328,2,180
400,144,136437,2,0,B|328:248|240:128,2,180,2|0|2
104,144,137265,2,0,B|176:48|256:152,2,180,2|0|2
40,344,138299,5,0
472,40,138713,1,0
40,40,139127,1,0
472,344,139541,1,0
344,344,139748,1,0
256,192,143268,5,4
256,192,143737,5,4
456,320,143971,2,0,B|412:314|352:272,1,110,0|8
256,192,144440,1,0
456,64,144674,2,0,B|412:70|352:112,1,110,0|8
256,192,145143,1,0
36,192,145377,2,0,B|63:173|102:201|144:192,1,110,0|8
256,320,145846,5,0
256,64,146080,1,8
256,320,146315,1,0
448,192,146549,1,8
256,64,146783,1,0
256,320,147018,1,8
256,64,147252,1,0
256,192,147487,5,8
104,64,147721,1,0
104,64,147955,1,0
256,192,148190,1,8
408,64,148424,1,0
408,64,148658,1,0
256,192,148893,1,8
256,352,149127,1,8
352,112,149596,5,0
160,112,149830,1,8
256,296,150065,1,0
160,112,150533,5,0
352,112,150768,1,8
256,296,151002,1,0
256,120,158059,5,12
312,272,158281,1,8
176,184,158503,1,8
336,184,158726,1,8
200,272,158948,1,8
256,120,159170,1,8
336,288,159392,5,12
136,152,159614,1,8
376,152,159837,1,8
176,288,160059,1,8
256,72,160281,1,8
336,288,160503,1,8
120,136,160726,5,12
392,136,160948,1,8
160,304,161170,1,8
256,48,161392,1,8
352,304,161614,1,8
120,136,161837,1,8
392,136,162059,1,8
392,136,163392,5,8
120,136,163614,1,8
352,304,163837,1,8
256,48,164059,1,8
160,304,164281,1,8
392,136,164503,1,8
120,136,164726,5,12
336,288,164948,1,8
256,72,165170,1,8
176,288,165392,1,8
376,152,165614,1,8
136,152,165837,5,8
336,288,166059,5,12
256,120,166281,1,8
200,272,166503,1,8
336,184,166726,1,8
176,184,166948,1,8
312,272,167170,1,8
256,120,167392,1,12
256,192,169059,5,4
136,112,169392,1,0
88,192,169614,1,0
136,272,169837,1,0
256,192,170392,5,0
112,96,170726,1,0
48,192,170948,1,0
112,288,171170,1,0
256,192,171726,5,0
96,72,172059,1,0
32,192,172281,1,0
96,312,172503,1,0
96,24,173392,5,0
32,192,173614,1,0
96,368,173837,1,0
256,192,175392,5,0
376,72,175642,1,0
376,72,175726,1,0
256,192,175892,1,0
424,192,176142,1,0
424,192,176226,1,0
256,192,176392,5,8
256,192,176476,1,8
256,192,176559,1,8
256,192,176642,1,0
256,192,176726,5,0
72,104,176976,1,0
264,48,177226,1,0
264,48,177392,1,0
144,208,177642,1,0
136,8,177892,1,0
256,192,178059,5,0
448,248,178309,1,0
264,320,178559,1,0
264,320,178726,1,0
376,152,178976,1,0
360,352,179226,1,0
256,192,179392,5,4
40,216,179642,1,0
216,336,179892,1,0
216,336,180059,1,0
136,136,180309,1,0
96,344,180559,1,0
96,344,180726,1,0
216,336,180892,5,4
256,192,181059,1,4
136,136,181226,1,4
256,56,181392,2,0,B|256:8,4,47.5
256,192,181892,1,0
256,192,182059,5,0
72,104,182309,1,0
264,48,182559,1,0
264,48,182726,1,0
144,216,182976,1,0
152,8,183226,1,0
256,192,183392,5,0
440,280,183642,1,0
248,320,183892,1,0
248,320,184059,1,0
392,168,184309,1,0
344,376,184559,1,0
256,96,184726,5,0
328,312,184976,1,0
144,192,185226,1,0
144,192,185392,1,0
368,184,185642,1,0
200,320,185892,1,0
200,320,186059,1,0
64,160,187392,5,12
256,160,187614,1,8
448,168,187837,1,8
288,264,188059,1,8
120,360,188281,1,8
192,184,188503,1,8
256,8,188726,5,12
328,184,188948,1,8
392,360,189170,1,8
224,264,189392,1,8
64,160,189614,1,8
256,168,189837,1,8
448,168,190059,5,12
120,360,190281,1,8
256,8,190503,1,8
392,360,190726,1,8
64,160,190948,1,8
448,168,191170,1,8
120,360,191392,1,8
448,224,192726,5,12
256,224,192948,1,8
64,216,193170,1,8
224,120,193392,1,8
392,24,193614,1,8
320,200,193837,1,8
256,376,194059,5,12
184,200,194281,1,8
120,24,194503,1,8
288,120,194726,1,8
448,224,194948,1,8
256,216,195170,1,8
64,216,195392,5,12
392,24,195614,1,8
256,376,195837,1,8
120,24,196059,1,8
448,224,196281,1,8
64,216,196503,1,8
392,24,196726,1,12
336,288,198059,5,0
296,280,198281,5,0
264,272,198531,5,0
232,264,198809,5,0
264,232,199087,5,0
288,216,199364,5,0
320,200,199670,5,0
288,184,199976,5,0
256,168,200337,5,0
224,152,200753,5,0
256,128,201198,5,0
288,104,201753,5,0
320,80,202726,5,0
32,152,207356,5,0
176,96,207621,1,8
168,248,207887,1,2
208,312,208020,1,0
168,248,208152,1,2
264,128,208418,1,2
328,168,208551,1,0
256,200,208683,1,8
336,96,208949,1,8
320,240,209214,1,6
192,152,209480,1,0
328,168,209745,2,2,B|392:192|392:192|376:264,1,140,2|0
256,200,210276,2,2,B|232:264|232:264|160:248,1,140,2|0
264,128,210807,2,2,B|200:104|200:104|216:32,1,140,2|0
368,48,211338,5,6
432,88,211471,1,0
472,152,211604,1,0
472,232,211737,1,0
424,296,211869,1,8
352,328,212002,1,0
280,304,212135,1,0
264,232,212267,1,0
264,160,212400,2,2,B|360:144|352:256,1,140,2|0
120,128,212931,2,2,B|24:144|32:32,1,140,2|0
112,248,213462,2,2,B|208:232|240:320,1,140,2|0
400,136,213993,2,2,B|304:152|272:64,1,140,2|0
312,328,214524,2,2,B|432:240,1,140,2|0
200,56,215055,2,2,B|80:144,1,140,2|0
48,272,215586,5,6
152,208,215719,1,0
144,336,215852,1,0
368,336,216117,1,6
360,208,216250,1,0
464,272,216383,1,0
256,280,216648,1,6
256,152,216781,1,0
256,24,216914,1,0
64,88,217179,1,6
192,88,217312,1,0
320,88,217444,1,0
448,232,217710,5,6
320,232,217843,1,0
192,232,217975,1,0
24,312,218241,1,6
24,184,218374,1,0
24,56,218506,1,0
256,0,218772,1,6
256,128,218905,1,0
256,256,219037,1,0
488,312,219303,1,6
488,184,219436,1,0
488,56,219568,1,0
64,96,219834,5,6
168,0,219967,1,0
256,128,220099,1,0
344,0,220232,1,0
448,96,220365,1,6
448,288,220896,5,6
344,384,221029,1,0
256,256,221161,1,0
168,384,221294,1,0
64,288,221427,1,6
16,96,221958,5,6
136,24,222091,1,0
136,168,222223,1,0
256,96,222356,1,0
376,168,222489,1,6
376,24,222621,1,0
496,96,222754,1,0
496,304,223020,5,6
376,376,223152,1,0
376,232,223285,1,0
256,304,223418,1,0
136,232,223551,1,6
136,376,223683,1,0
16,304,223816,1,0
256,344,229259,5,4
256,40,229572,1,8
176,344,229884,1,4
176,40,230197,1,8
96,344,230509,1,4
96,40,230822,1,8
16,344,231134,1,4
16,192,231291,1,8
16,40,231447,1,8
256,344,231759,5,4
256,40,232072,1,8
336,344,232384,1,4
336,40,232697,1,8
416,344,233009,1,4
416,40,233322,1,8
496,344,233634,1,4
496,192,233791,1,8
496,40,233947,1,8
256,192,234259,6,0,B|128:192,1,100,4|0
200,104,234572,2,0,B|424:104,2,200,8|4|8
312,280,235509,2,0,B|88:280,2,200,4|8|4
256,192,236291,2,8,B|376:192,1,100
176,280,236759,6,0,B|-40:288|48:64,1,300,4|0
38,90,237384,1,4
38,90,237697,1,0
336,104,238009,6,0,B|552:96|464:320,1,300,4|0
473,293,238634,1,4
473,293,238947,1,0
32,192,239259,5,4
480,192,239572,1,8
32,112,239884,1,4
480,112,240197,1,8
32,272,240509,1,4
480,272,240822,1,8
32,32,241134,1,4
480,32,241447,1,8
256,168,241759,6,0,B|256:376,1,200,4|8
168,192,242228,2,0,B|112:72,2,100,0|0|8
344,192,242697,2,0,B|400:72,1,100,8|0
352,304,243009,2,0,B|256:344|136:296,3,200,4|8|4|8
256,40,244259,6,0,B|256:184,1,100,4|0
168,128,244572,2,0,B|192:248,1,100,8|8
344,128,244884,2,0,B|320:248,1,100,4|0
128,264,245197,2,0,B|200:336,1,100,8|0
384,264,245509,2,0,B|312:336,1,100,4|0
256,256,245822,2,0,B|256:48,2,200,8|4|8
256,256,246759,1,4
256,192,246838,12,4,248009
256,192,248322,5,8
56,192,248634,2,0,B|56:72,1,100,4|0
456,192,248947,2,0,B|456:312,1,100,8|8
256,192,249259,1,4
256,192,254957,5,2
256,192,255124,1,0
144,192,255290,5,8
24,192,255457,1,0
24,312,255624,1,2
144,312,255790,1,0
144,192,255957,1,8
24,192,256124,1,0
24,312,256290,1,2
144,312,256457,1,0
144,192,256624,5,8
256,80,256790,1,2
368,192,256957,1,0
256,304,257124,1,8
144,192,257290,1,0
256,80,257457,1,2
368,192,257624,1,0
256,304,257790,1,8
144,192,257957,5,0
24,192,258124,1,2
24,72,258290,1,0
144,72,258457,1,8
144,192,258624,1,0
24,192,258790,1,2
24,72,258957,1,0
144,72,259124,1,0
144,192,259290,5,0
256,304,259457,1,2
368,192,259624,1,0
256,80,259790,1,8
144,192,259957,1,0
256,304,260124,1,2
368,192,260290,1,0
256,80,260457,1,8
368,192,260624,5,0
488,192,260790,1,8
488,72,260957,1,0
368,72,261124,1,2
368,192,261290,1,0
488,192,261457,1,8
488,72,261624,1,0
368,72,261790,1,2
368,192,261957,5,0
256,304,262124,1,2
144,192,262290,1,0
256,80,262457,1,8
368,192,262624,1,0
256,304,262790,1,2
144,192,262957,1,0
256,80,263124,1,8
368,192,263290,5,0
368,192,263457,1,0
368,112,263623,1,10
440,168,263790,1,0
416,256,263957,1,8
320,256,264123,1,0
296,168,264290,1,10
296,168,264457,1,0
258,102,264623,5,8
348,107,264790,1,0
366,196,264957,1,10
290,247,265123,1,0
217,184,265290,1,8
256,72,265457,1,0
256,184,265623,1,10
256,296,265790,1,0
256,296,265957,6,2,B|272:312|328:264|320:240|328:216|272:168|256:184,1,180,2|2
256,184,266457,2,2,B|241:199|185:151|193:127|185:103|241:55|257:71,1,180
257,70,266957,1,4
256,192,267290,12,0,268290
0,192,268623,5,0
128,48,278705,5,4
48,176,278886,1,0
128,48,279069,1,10
48,176,279249,1,0
16,80,279430,2,2,B|240:192,1,240,2|10
496,304,279967,2,2,B|272:192,1,240
163,212,280501,2,0,B|291:196,1,120,10|0
297,78,280854,2,0,B|281:206,1,120,2|0
295,79,281205,1,10
164,212,281379,1,0
341,260,281554,5,4
320,128,281727,1,0
256,96,281814,1,0
192,128,281901,1,10
171,260,282073,1,0
64,160,282246,2,2,B|32:304|176:368,1,240,2|10
354,359,282759,2,2,B|480:304|448:160,1,240
352,192,283269,1,10
160,192,283437,1,0
304,112,283606,1,2
208,272,283773,1,0
208,112,283941,1,10
304,272,284107,1,0
256,80,284274,5,4
256,304,284439,1,0
256,80,284606,1,10
256,304,284770,1,0
161,94,284936,2,2,B|96:128|64:192|96:256|192:288,1,240,2|10
351,94,285427,2,2,B|416:128|448:192|416:256|320:288,1,240
348,276,285833,1,0
348,276,285914,1,10
256,192,286075,1,0
164,108,286237,1,2
256,64,286397,1,0
348,108,286558,1,10
256,192,286717,1,0
164,276,286877,5,4
256,304,287035,1,0
348,276,287194,1,10
448,304,287667,1,0
416,208,287351,2,0,C|416:144,2,60,0|0|2
348,276,287824,1,10
448,304,287980,1,0
416,208,288137,6,0,B|368:144|288:176,1,120,2|0
256,96,288448,2,0,B|256:32,2,60,10|0|0
144,96,288757,1,2
64,192,288910,1,0
144,288,289065,1,10
64,192,289218,1,0
208,192,289371,6,0,B|336:192,1,120,4|0
448,192,289676,2,0,B|320:192,1,120,10|0
369,97,289979,2,2,B|318:62|254:46|190:62|128:108,1,240,2|10
320,192,290880,1,10
192,192,291028,1,0
143,287,290431,2,2,B|194:322|258:338|322:322|384:276,1,240
400,192,291177,1,2
112,192,291324,1,0
480,192,291473,1,10
32,192,291620,1,0
256,192,291767,5,4
208,80,291913,1,2
208,80,291986,1,2
208,80,292060,2,0,B|144:48|80:96,1,120,10|0
32,128,292351,2,2,B|-32:256|96:352,1,240,2|10
368,176,293216,1,10
464,256,293358,1,0
135,280,292785,2,2,B|407:280,1,240
448,128,293502,1,2
464,256,293644,1,0
480,48,293786,1,10
464,256,293927,1,0
256,192,294491,1,0
288,336,294069,6,2,B|224:192|64:272,1,240,6|10
224,48,294631,2,2,B|288:192|448:112,1,240,2|10
219,254,295395,1,0
219,254,295465,1,10
176,320,295602,1,0
351,54,295048,2,2,B|208:272,1,240
96,320,295740,2,0,B|96:192,1,120,2|0
240,384,296014,2,0,B|386:384,1,120,10|0
416,336,296287,5,2
480,256,296422,1,0
384,224,296558,1,10
432,128,296693,1,0
320,144,296828,2,0,B|368:16,1,120,2|0
240,96,297097,2,0,B|256:-32,1,120,10|2
160,64,297365,2,0,B|96:32|32:64,1,120,2|0
160,320,297632,2,2,B|96:352|32:320,1,120,10|2
368,144,297897,2,0,B|304:112|240:144,1,120,2|0
368,240,298161,2,2,B|304:272|240:240,1,120,10|2
448,192,298424,5,4
448,192,298686,1,8
32,192,307285,5,4
480,192,307660,1,4
32,192,308035,1,4
480,192,308410,1,4
256,320,308785,1,8
256,192,308910,1,0
256,64,309035,1,8
480,192,309285,5,4
32,192,309660,1,4
480,192,310035,1,4
32,192,310410,1,4
256,64,310785,1,8
256,192,310910,1,0
256,320,311035,1,8
480,352,311285,5,4
32,32,311660,1,4
480,352,312035,1,4
32,32,312410,1,4
256,352,312785,5,8
256,32,313035,1,8
480,32,313285,1,4
32,352,313660,1,4
480,32,314285,5,4
32,352,314660,1,4
480,192,315285,5,4
32,192,315660,1,4
480,192,316035,1,4
32,192,316410,1,4
256,48,316660,1,0
256,144,316785,1,8
256,240,316910,1,0
256,336,317035,1,8
32,192,317285,5,4
480,192,317660,1,4
32,192,318035,1,4
480,192,318410,1,4
256,320,318785,1,8
256,192,318910,1,0
256,64,319035,1,8
32,32,319285,5,4
480,352,319660,1,4
32,32,320035,1,4
480,352,320410,1,4
256,32,320785,5,8
256,352,321035,1,8
32,352,321285,1,4
480,32,321660,1,4
32,352,322285,5,4
480,32,322660,1,4
64,192,323285,5,4
192,192,323660,1,4
320,192,324035,1,4
448,192,324410,1,4
448,352,324785,1,8
256,352,324910,1,0
64,352,325035,1,8
64,192,325285,5,4
192,128,325535,1,8
192,48,325660,1,8
320,128,326035,1,12
448,192,326410,1,4
448,352,326785,1,8
256,352,326910,1,0
64,352,327035,1,8
448,192,327285,5,4
320,128,327535,1,8
320,48,327660,1,8
192,128,328035,1,4
64,192,328410,1,4
32,352,328785,5,8
480,352,329035,1,8
256,32,329285,2,4,L|256:96,1,62.5
256,352,329660,1,4
256,32,330285,6,4,L|256:96,1,62.5
256,352,330660,1,4
256,192,331285,5,4
32,32,331660,1,4
256,192,332035,1,4
480,352,332410,1,4
480,160,332660,1,0
480,64,332785,1,8
384,64,332910,1,0
384,160,333035,1,8
416,352,333285,5,4
96,352,333660,1,4
416,352,334035,1,4
96,352,334410,1,4
256,128,334785,1,8
256,224,334910,1,0
256,320,335035,1,8
256,128,335285,5,4
96,352,335660,1,4
256,128,336035,1,4
416,352,336410,1,4
416,64,336785,2,8,L|272:64,1,125
96,64,337285,2,12,L|96:256,1,187.5
416,251,338285,2,12,L|416:43,1,187.5
256,96,339285,5,4
256,320,346740,6,0,B|256:272|256:272,3,50
256,248,347079,6,0,B|256:140,1,100
156,112,347418,5,4
204,24,347588,1,0
304,24,347757,1,8
356,112,347927,1,0
156,272,348096,1,0
204,360,348266,1,0
304,360,348435,1,8
356,272,348605,1,0
256,192,348774,5,0
256,192,348944,1,0
164,64,349113,1,8
348,320,349283,1,0
256,192,349452,2,0,B|216:236|172:260,1,100
256,192,349791,2,0,B|296:148|340:124,1,100,8|0
420,80,350130,5,0
376,192,350300,1,0
420,304,350469,1,8
280,360,350639,1,0
156,276,350808,2,0,B|96:248|48:248,1,100
120,148,351147,2,0,B|64:128|16:120,1,100,8|0
356,276,351486,6,0,B|416:248|464:248,1,100
392,148,351825,2,0,B|448:128|496:120,1,100,8|0
256,32,352164,2,0,B|248:108|256:144,1,100
256,352,352503,2,0,B|264:276|256:240,1,100,8|0
254,132,352842,5,0
258,253,353012,1,0
180,192,353181,2,0,B|122:192|80:176,1,100,8|0
168,64,353520,1,0
180,193,353689,1,0
88,284,353859,1,8
344,320,354028,1,0
332,191,354198,1,0
424,100,354367,1,0
252,192,354537,2,0,B|248:248|260:312,1,100,8|0
150,80,354876,6,0,B|256:74|379:79,1,200,0|8
430,138,355384,1,0
387,228,355554,2,0,B|365:282|370:338,1,100
292,260,355893,1,8
292,260,356062,1,0
125,156,356232,2,0,B|147:102|142:46,1,100
220,124,356571,1,8
220,124,356740,1,0
300,64,356910,6,0,B|320:128|300:176,1,100
212,320,357249,2,0,B|192:256|212:208,1,100,8|0
305,163,357588,1,0
207,222,357757,1,0
256,52,357927,1,8
256,332,358096,1,0
112,180,358266,6,0,B|40:180|8:196,2,100,0|0|8
256,192,358774,1,0
400,204,358944,2,0,B|472:204|504:188,2,100,0|0|8
336,280,359452,1,0
256,356,359622,1,0
256,192,359791,1,0
160,320,359961,1,8
256,192,360130,1,0
104,236,360300,6,0,B|104:120,1,100
408,148,360639,2,0,B|408:264,1,100,8|0
280,48,360978,5,0
312,140,361147,1,0
408,168,361317,1,8
256,192,361486,1,0
104,216,361656,1,0
200,244,361825,1,0
232,336,361995,1,8
256,192,362164,1,0
280,48,362334,6,0,B|168:48,1,100
232,336,362673,2,0,B|344:336,1,100,8|0
368,192,363012,2,0,B|268:164|268:224|132:192,1,200,0|8
170,199,363520,1,0
56,204,363689,5,0
140,152,363859,1,0
228,104,364028,1,8
320,64,364198,1,0
456,180,364367,5,0
372,232,364537,1,0
284,280,364706,1,8
192,320,364876,1,0
192,320,365045,5,0
372,232,365215,1,0
192,148,365384,1,8
372,64,365554,1,0
372,64,365723,2,0,B|276:32|276:100|160:60,1,200,0|8
20,192,366232,1,0
152,344,366401,6,0,B|264:352|376:344,1,200,0|8
256,192,366910,1,0
152,40,367079,2,0,B|264:32|376:40,1,200,0|8
256,192,367588,1,0
152,344,367757,2,0,B|264:352|376:344,1,200,0|8
256,192,368266,1,0
256,192,368435,6,0,B|256:240|256:240,7,50
256,192,369113,6,0,B|128:180,1,120.000002861023,4|0
40,252,369452,1,8
260,120,369622,2,0,B|388:132,1,120.000002861023,0|0
500,132,369961,1,0
256,268,370130,2,0,B|128:280,1,120.000002861023,8|0
256,192,370469,1,0
84,192,370639,5,0
156,96,370808,1,8
256,28,370978,1,0
356,96,371147,1,0
428,192,371317,1,0
172,272,371486,1,8
340,272,371656,1,0
172,272,371825,6,0,B|96:268|16:276,1,120.000002861023
340,112,372164,2,0,B|416:116|496:108,1,120.000002861023,8|0
172,112,372503,2,0,B|116:88|80:32,1,120.000002861023
256,192,372842,1,8
340,272,373012,2,0,B|396:296|432:352,1,120.000002861023
244,276,373350,5,0
124,276,373520,1,8
184,192,373689,1,0
244,276,373859,1,0
124,276,374028,1,0
280,116,374198,1,8
88,116,374367,1,0
184,192,374537,6,0,B|184:72,2,120.000002861023,0|0|8
184,192,375045,2,0,B|348:192,1,120.000002861023
308,312,375384,1,0
308,72,375554,1,8
488,192,375723,2,0,B|428:164|428:224|336:192,1,120.000002861023
256,192,376062,5,0
256,56,376232,1,8
124,116,376401,1,0
120,260,376571,1,0
256,320,376740,1,0
392,260,376910,1,8
296,192,377079,6,0,B|296:52,1,120.000002861023
220,192,377418,2,0,B|220:324,1,120.000002861023,0|8
368,192,377757,2,0,B|368:64,1,120.000002861023
148,192,378096,2,0,B|148:320,1,120.000002861023,0|8
440,192,378435,2,0,B|440:64,1,120.000002861023
76,192,378774,2,0,B|76:320,1,120.000002861023,0|8
128,68,379113,5,0
128,68,379283,1,0
256,192,379452,1,0
256,192,379622,1,8
384,68,379791,1,0
384,68,379961,6,0,B|384:196,1,120.000002861023,4|0
256,192,380300,1,8
128,68,380469,2,0,B|128:204,1,120.000002861023
256,320,380808,1,0
256,192,380978,2,0,B|256:68,2,120.000002861023,8|0|0
256,320,381486,5,0
168,240,381656,1,8
56,280,381825,1,0
280,200,381995,1,0
168,240,382164,1,0
56,192,382334,1,8
256,96,382503,1,0
456,192,382673,6,0,B|336:192,1,120.000002861023
56,192,383012,2,0,B|176:192,1,120.000002861023,8|0
256,96,383350,2,0,B|256:220,1,120.000002861023
256,96,383689,1,8
136,32,383859,2,0,B|264:28|392:32,1,240.000005722046
336,132,384367,5,8
336,260,384537,1,0
176,260,384706,1,0
176,132,384876,1,0
336,260,385045,1,8
336,132,385215,1,0
176,260,385384,6,0,B|48:260,1,120.000002861023
336,132,385723,2,0,B|496:132,1,120.000002861023,8|0
376,44,386062,1,0
256,44,386232,1,0
136,44,386401,1,8
68,144,386571,2,0,B|160:168|208:144,1,120.000002861023
108,240,386910,5,0
28,332,387079,1,8
144,356,387249,1,0
220,264,387418,2,0,B|340:340,1,120.000002861023
292,120,387757,2,0,B|172:44,1,120.000002861023,8|0
100,136,388096,5,0
256,288,388266,1,0
412,136,388435,1,8
256,192,388605,12,0,389791
40,248,391165,5,4
40,248,391438,2,0,L|136:248,1,90
248,328,391711,1,2
424,104,391983,1,2
424,104,392256,2,0,B|352:48|248:64,1,180,4|0
248,208,392665,2,0,B|200:224|160:192,1,90,0|2
162,194,393074,1,2
408,336,393347,5,4
408,336,393620,2,0,B|443:299|432:249,2,90,0|0|2
408,48,394165,1,2
408,48,394438,1,4
408,48,394711,1,0
264,48,394847,1,0
120,48,394983,2,2,B|155:132|113:228,1,180
400,216,395529,5,4
400,216,395802,2,0,L|352:216,2,45
112,216,396074,1,2
112,216,396347,1,2
344,48,396620,2,0,B|267:97|165:72,1,180,4|0
256,192,397029,1,0
168,336,397165,2,2,B|244:286|346:311,1,180
112,136,397711,5,4
384,232,397983,2,0,B|404:185|454:177,1,90
432,320,398256,1,4
336,48,398529,2,0,B|288:64|248:32,1,90
336,152,398802,1,4
171,42,398938,1,0
293,230,399074,1,0
82,56,399211,1,0
251,310,399347,2,4,B|183:249|78:257,1,180,4|4
360,336,399893,5,8
360,336,400165,1,0
408,200,400302,1,0
464,64,400438,1,2
464,64,400711,1,2
192,160,400983,1,8
192,160,401256,2,0,B|141:154|119:108,1,90
192,240,401529,2,2,B|283:244|351:324,1,180,2|2
264,48,402074,5,8
448,264,402347,1,0
448,264,402483,1,0
448,264,402620,1,2
264,48,402893,1,2
48,240,403165,1,8
48,240,403438,1,0
184,192,403574,1,0
320,152,403711,1,2
320,152,403983,1,2
48,48,404256,5,8
144,320,404529,1,0
144,320,404665,1,0
144,320,404802,2,2,B|212:259|317:267,1,180,2|2
128,48,405347,2,0,B|115:138|29:199,1,180,8|0
176,152,405756,1,0
312,208,405893,2,2,B|251:140|259:35,1,180,2|2
80,264,406438,5,4
80,264,406711,2,0,B|131:270|153:316,2,90,0|0|4
320,112,407256,2,0,B|268:105|248:63,1,90
104,40,407529,1,4
111,181,407665,1,0
216,256,407802,1,0
357,288,407938,1,0
472,206,408074,1,4
472,206,408347,1,4
240,40,408620,6,0,L|432:40,1,180,8|0
312,136,409029,1,0
312,136,409165,2,8,L|128:136,1,180
400,232,409711,1,8
400,232,409983,2,0,L|304:232,1,90,0|0
216,344,410256,2,8,L|24:344,1,180
72,56,410802,5,8
72,56,411074,2,0,L|168:56,1,90
304,56,411347,1,8
304,56,411620,1,8
40,160,411893,2,0,L|96:232|192:232,1,180,8|0
328,232,412302,1,0
328,232,412438,1,8
328,232,412711,1,8
88,192,416550,5,0
472,72,416991,1,0
40,312,417285,1,0
472,312,417579,1,0
40,72,417873,1,0
424,192,418315,1,0
88,192,418609,1,0
256,368,418903,5,0
256,16,419344,1,0
256,368,419638,1,0
256,16,419932,2,0,C|248:40|264:40|232:64|280:64|208:96|304:96|232:128|280:128|256:160|256:240|256:384,1,630
384,272,421256,6,0,L|464:224|368:176,1,180,2|0
144,144,421697,6,0,L|64:96|160:48,2,180,8|8|0
384,192,422579,6,8,L|461:230|381:278,1,180
304,112,423021,6,2,L|256:32|208:128,1,180
128,272,423609,6,0,L|48:224|144:176,1,180,2|0
368,144,424050,6,0,L|448:96|352:48,2,180,8|8|0
128,192,424932,6,8,L|50:230|130:278,1,180
208,112,425373,6,2,L|256:32|304:128,1,180
256,192,425815,5,8
128,192,425962,6,0,L|128:304|192:272,1,180,6|0
323,273,426403,6,0,L|384:304|384:192,2,180
256,192,427138,1,4
368,304,427432,5,8
256,304,427579,1,0
144,304,427726,1,2
192,224,427873,1,0
320,224,428021,1,2
128,192,428315,6,0,L|128:80|192:112,1,180,6|0
323,110,428756,6,0,L|384:80|384:192,2,180
256,192,429491,1,4
368,80,429785,5,8
256,80,429932,1,0
144,80,430079,1,2
192,160,430226,1,0
328,160,430373,1,2
256,240,430521,1,8
376,360,431256,6,0,B|328:376|256:336|256:336|256:280|256:280|256:336|256:336|184:376|136:360,1,360,0|0
336,272,430668,6,0,B|448:240|480:176|480:48,2,270,8|0|0
136,200,431844,5,8
216,184,431991,1,0
256,112,432138,1,0
256,32,432285,1,0
256,112,432432,1,2
296,184,432579,1,0
376,200,432726,1,2
256,368,433021,5,8
136,24,433315,5,0
232,80,433462,1,0
256,192,433609,1,0
280,80,433756,1,0
376,24,433903,1,0
256,192,434197,12,0,435079
128,32,440552,5,0
128,160,440719,1,0
128,288,440885,1,0
256,352,441052,1,0
384,288,441219,2,0,L|384:160|384:32,1,255
512,192,441885,5,0
384,128,442052,1,0
256,192,442219,1,0
128,128,442385,1,0
0,192,442552,2,0,L|128:256|256:192|384:256|512:192,1,510
512,192,443385,1,0
448,64,443552,1,0
384,192,443719,1,0
320,64,443885,2,0,L|320:320,2,255
256,192,444719,1,0
192,64,444885,1,0
128,192,445052,1,0
64,64,445219,1,0
192,128,445385,1,0
320,192,445552,1,0
448,256,445719,1,0
448,128,445885,5,0
384,256,446052,1,0
320,128,446219,1,0
256,256,446385,1,0
256,128,446552,2,0,L|256:384,1,255
256,128,447219,1,0
192,256,447385,1,0
128,128,447552,1,0
64,256,447719,1,0
0,128,447885,2,0,L|0:384,1,255
128,352,448385,1,0
256,352,448552,2,0,L|512:352,1,255
512,224,449052,1,0
512,96,449219,1,0
384,160,449385,1,0
384,160,449469,1,0
384,160,449552,1,0
256,224,449719,1,0
256,192,449885,12,2,450885
256,192,451219,5,0
256,288,451552,1,0
160,96,451719,1,0
352,96,451885,1,0
128,192,452219,1,0
192,320,452385,1,0
320,320,452552,1,0
384,192,452719,1,0
320,64,452885,1,0
192,64,453052,1,0
256,192,453219,1,0
256,192,453552,1,0
256,192,453885,5,0
256,96,454219,1,0
352,288,454385,1,0
160,288,454552,1,0
384,192,454885,1,0
320,64,455052,1,0
192,64,455219,1,0
128,192,455385,1,0
192,320,455552,1,0
320,320,455719,1,0
256,192,455885,1,0
256,192,456052,12,0,456552
40,120,463712,6,0,C|64:56|168:24,1,130
391,348,463991,6,0,C|448:328|472:264,1,130
256,64,464409,6,0,C|256:360,1,260
472,120,464828,6,0,C|448:56|344:24,1,130
120,348,465107,6,0,C|64:328|40:264,1,130
256,64,465525,6,0,C|256:360,1,260
32,192,465944,6,0,C|192:192,1,130
480,192,466223,6,0,C|320:192,1,130
256,64,466642,6,0,C|256:360,1,260
480,192,467060,6,0,C|320:192,1,130
32,192,467339,6,0,C|192:192,1,130
256,328,467758,6,0,C|256:32,1,260
112,240,468177,6,0,C|176:240|160:304,1,130
392,152,468456,6,0,C|328:152|344:88,1,130
256,328,468874,6,0,C|256:32,1,260
400,240,469293,6,0,C|336:240|352:304,1,130
120,152,469572,6,0,C|184:152|168:88,1,130
256,328,469991,6,0,C|256:32,1,260
256,64,470409,6,0,C|256:360,3,260
256,64,471107,6,0,C|256:360,1,260
40,192,471525,5,0
72,272,471665,5,0
136,328,471805,5,0
216,352,471944,5,0
304,352,472084,5,0
384,328,472223,5,0
448,272,472363,5,0
480,192,472502,5,0
368,192,472642,6,0,L|328:200|336:160|296:176|304:136|272:152|272:112|240:128,1,260,4|8
136,64,472921,6,0,L|144:104|104:96|120:136|80:128|96:160|56:160|72:192,1,260,0|8
184,249,473200,6,0,L|201:241|201:281|233:265|225:305|265:289|257:329|297:321,1,260,0|8
288,216,473479,6,8,L|280:200|320:200|304:168|344:176|328:136|368:144|360:104,1,260,0|8
264,24,473758,6,0,L|272:64|232:56|248:96|208:88|224:120|184:120|192:137,1,260,4|8
112,72,474037,6,0,L|120:112|80:104|96:144|56:136|72:168|32:168|40:185,1,260,0|8
304,152,474316,6,0,L|312:192|272:184|288:224|248:216|264:248|224:248|232:265,1,260,0|8
336,264,474595,6,0,L|376:256|368:296|408:280|400:320|432:304|432:344|448:336,1,260,0|8
176,216,474874,6,0,L|169:200|209:200|193:168|233:176|217:136|257:144|249:104,1,260,4|8
152,120,475153,6,0,L|136:127|136:87|104:103|112:63|72:79|80:39|40:47,1,260,0|8
424,48,475432,6,0,L|433:90|393:82|409:122|369:114|385:146|345:146|352:162,1,260,0|8
248,320,475711,6,0,L|241:304|281:304|265:272|305:280|289:240|329:248|321:208,1,260,0|8
72,344,475991,6,0,L|65:328|105:328|89:296|129:304|113:264|153:272|145:232,1,260,4|8
224,152,476270,6,0,L|217:136|257:136|241:104|281:112|265:72|305:80|297:40,1,260,0|8
432,344,476549,6,0,L|416:351|416:311|384:327|392:287|352:303|360:263|320:271,1,260,0|8
208,272,476828,6,0,L|166:264|174:304|134:288|142:328|110:312|110:352|88:344,1,260,0|8
120,200,477107,6,0,L|128:176|136:216|144:168|152:216|160:176|168:216|176:168|184:216|192:176|200:216|208:168|216:216|224:176,3,520,4|8|4|8
392,200,478223,6,0,L|384:176|376:216|368:168|360:216|352:176|344:216|336:168|328:216|320:176|312:216|304:168|296:216|288:176,3,520,4|8|4|8
256,40,479339,6,0,L|256:48|272:56|240:56|240:80|272:80|272:104|240:104|240:128|272:128|256:144|256:184,6,260,0|8|0|8|0|8|8
160,192,480456,6,0,B|152:264|216:320,1,130
352,192,480735,2,0,B|360:264|296:320,1,130
112,216,481014,6,0,B|104:288|168:344,1,130
400,216,481293,2,0,B|408:288|344:344,1,130
256,240,481572,5,4
256,284,483939,5,12
256,280,484105,5,12
392,72,484272,2,0,B|336:64|336:64|280:64,1,110
184,112,484605,1,0
120,24,484772,1,0
184,248,484939,1,0
248,336,485105,1,0
96,184,485272,5,12
96,184,485439,1,12
208,176,485605,2,0,B|264:168|320:192,1,110
384,104,485939,1,0
480,160,486105,1,0
384,304,486272,1,0
480,256,486439,1,0
216,64,486605,5,12
360,148,486772,1,12
216,320,486939,1,0
360,240,487105,1,0
120,88,487272,5,12
384,192,487439,1,12
120,304,487605,1,0
384,192,487772,6,2,B|376:184|376:184|369:192|369:192|362:184|362:184|354:192|354:192|347:184|347:184|340:192|340:192|332:184|332:184|325:192|325:192|292:184|292:184|256:200|256:200|216:184|216:184|176:192,1,220
200,187,488189,1,0
200,187,488272,1,8
43,134,488439,1,0
43,298,488605,5,8
96,280,488689,1,8
132,240,488772,1,8
140,184,488855,1,8
144,128,488939,1,8
212,324,489105,5,4
424,288,489272,1,4
292,112,489439,1,0
384,168,489605,2,0,B|348:208|280:224,1,110,8|8
240,32,489939,1,0
432,232,490105,2,0,B|388:276|320:292,1,110,0|8
80,256,490439,6,2,B|92:264|92:264|112:256|112:256|116:272|116:272|136:264|136:264|136:276|136:276|152:280|152:280|152:296|152:296|168:332|284:320,1,220
244,322,490855,1,0
244,322,490939,1,8
352,196,491105,1,0
212,112,491272,5,0
300,272,491439,1,0
100,108,491605,1,8
410,272,491772,1,0
212,112,491939,5,0
172,8,492105,1,0
172,212,492272,1,8
76,160,492439,1,8
200,308,492605,1,0
104,364,492772,1,0
300,272,492939,5,8
340,376,493105,1,0
340,172,493272,1,0
436,224,493439,1,0
312,76,493605,1,8
404,16,493772,6,2,B|416:32|416:32|396:40|396:40|420:52|420:52|396:64|396:64|416:76|416:76|404:108|404:108|420:140|420:140|404:196,1,220,10|2
411,170,494189,1,8
411,170,494272,1,8
400,280,494439,6,2,B|336:280|336:280|292:260|292:260|184:260,1,220,6|2
40,92,494939,1,8
120,168,495105,1,8
68,268,495272,5,0
256,44,495439,1,0
444,268,495605,1,8
68,268,495772,1,0
256,44,495939,1,8
256,44,496272,6,2,B|261:61|261:61|247:71|247:71|264:96|264:96|248:140|248:140|266:194|266:194|252:239|252:239|256:284,1,220,6|2
256,352,496772,1,0
256,352,496855,1,0
256,352,496939,1,8
148,336,497105,6,2,B|144:324|144:324|156:312|156:312|144:300|144:300|164:304|164:304|156:284|156:284|132:288|132:288|144:264|144:264|160:228|140:176,1,220,6|2
143,185,497522,1,0
143,185,497605,1,8
56,252,497772,1,8
40,144,497939,5,8
311,63,498105,2,2,B|271:171|139:187,1,220,10|2
192,88,498605,1,0
360,176,498772,2,0,B|320:224|260:248,2,110,10|0|8
470,176,499272,1,10
304,312,499439,5,8
256,336,499522,1,8
208,312,499605,1,8
256,40,499772,1,0
176,144,499939,6,0,B|148:196|92:156|92:156|64:176|12:200|40:276,2,220,4|8|0
388,84,500772,1,0
256,260,500939,1,8
256,40,501105,1,8
392,216,501272,1,0
66,195,501439,6,0,B|60:240|60:240|72:304,1,110,2|8
445,188,501772,2,2,B|452:144|452:144|440:80,1,110
168,240,502105,5,0
256,40,502272,1,8
344,240,502439,1,8
256,144,502605,5,4
256,364,502772,1,0
84,252,502939,1,8
428,252,503105,1,8
132,168,503272,1,0
372,168,503439,1,0
200,88,503605,1,10
310,88,503772,1,8
256,184,503939,6,0,B|248:227|248:227|268:264|268:264|256:304,2,110,0|0|2
256,16,504439,1,10
256,16,504522,1,0
256,16,504605,1,0
48,124,504772,1,0
463,124,504939,1,10
463,124,505022,1,8
463,124,505105,1,8
463,124,505189,1,8
463,124,505272,6,0,B|479:180|479:180|463:240,1,110,4|0
48,124,505605,2,0,B|32:180|32:180|48:240,1,110,8|0
408,320,505939,1,0
104,320,506105,1,0
360,320,506272,1,10
152,320,506439,1,10
320,280,506605,5,0
112,208,506772,1,0
376,184,506939,1,8
116,88,507105,2,0,B|172:136|264:116|296:32,2,220,8|2|2
363,105,507939,6,2,B|404:144|472:156,1,110,6|2
448,44,508272,1,8
308,216,508439,1,0
508,124,508605,1,0
288,124,508772,1,0
488,216,508939,2,0,B|468:280|380:252,1,110,10|8
404,148,509272,5,0
296,24,509439,1,2
156,192,509605,1,8
12,108,509772,1,0
128,16,516109,6,0,B|232:16,1,100,0|8
384,128,516509,2,0,B|280:128,1,100,0|8
128,256,516909,2,0,B|232:256,1,100,0|8
384,368,517309,2,0,B|280:368,1,100,0|8
128,256,517709,2,0,B|232:256,1,100,0|8
384,128,518109,2,0,B|280:128,1,100,0|8
128,16,518509,5,0
384,128,518709,1,8
128,256,518909,1,8
384,368,519109,1,8
384,368,519309,6,0,B|512:368,1,100,0|8
128,256,519709,2,0,B|0:256,1,100,0|8
384,128,520109,2,0,B|512:128,1,100,0|8
128,16,520509,2,0,B|0:16,1,100,0|8
384,128,520909,2,0,B|512:128,1,100,0|8
128,256,521309,2,0,B|0:256,1,100,0|8
384,368,521709,5,0
128,256,521909,1,8
384,128,522109,1,8
128,16,522309,1,8
256,32,522509,6,0,B|312:24|344:72,1,100,0|8
416,192,522909,2,0,B|424:248|376:280,1,100,0|8
256,352,523309,2,0,B|200:360|168:312,1,100,0|8
96,192,523709,2,0,B|88:136|136:104,1,100,0|8
256,32,524109,2,0,B|312:24|344:72,1,100,0|8
416,192,524509,2,0,B|424:248|376:280,1,100,0|8
256,352,524909,5,0
96,192,525109,1,8
416,192,525309,1,8
256,32,525509,1,8
256,352,525709,6,0,B|200:360|168:312,1,100,0|8
256,32,526109,2,0,B|312:24|344:72,1,100,0|8
96,192,526509,2,0,B|88:136|136:104,1,100,0|8
416,192,526909,2,0,B|424:248|376:280,1,100,0|8
96,192,527309,5,0
416,192,527509,1,8
256,32,527709,1,0
256,352,527909,1,8
216,72,528109,6,0,B|304:128,1,100,0|8
296,72,528509,2,0,B|208:128,1,100,0|8
80,264,528909,6,0,B|168:320,1,100,0|8
160,264,529309,2,0,B|72:320,1,100,0|8
352,264,529709,6,0,B|440:320,1,100,0|8
432,264,530109,2,0,B|344:320,1,100,0|8
216,208,530509,5,0
296,176,530709,1,8
136,144,530909,5,0
376,240,531109,1,8
56,272,531309,5,0
456,112,531509,1,8
32,32,531709,5,0
480,352,531909,1,8
32,352,532109,5,0
480,32,532509,1,8
32,352,532909,1,0
480,32,533309,1,8
32,32,533709,5,0
480,352,534109,1,8
32,32,534509,1,0
480,352,534909,1,8
32,352,535309,5,4
256,192,535509,1,0
480,32,535709,1,8
256,192,535909,1,0
32,32,536109,1,4
256,192,536309,1,0
480,352,536509,1,4
256,80,536909,6,0,B|256:24,3,50,4|0|0|0
144,191,537309,1,4
256,304,537509,1,4
368,192,537709,1,4
176,336,544155,5,8
256,368,544325,1,0
336,336,544494,2,0,B|408:264,1,78.3999981307984,4|0
304,272,544833,2,0,B|376:200,1,78.3999981307984
272,208,545172,2,0,B|344:136,1,78.3999981307984
240,144,545511,2,0,B|312:72,1,78.3999981307984
256,32,545850,1,0
0,208,547206,6,0,B|-28:270|8:369|107:405|169:377,1,297.920002841186,4|0
254,292,547715,2,0,B|282:229|245:130|146:94|84:122,1,297.920002841186,0|0
128,248,548223,1,8
128,248,548393,1,0
341,6,548562,6,0,B|404:-21|503:14|540:113|512:176,1,297.920002841186,4|0
428,260,549071,2,0,B|365:289|266:253|229:154|258:92,1,297.920002841186,0|0
384,136,549579,1,8
384,136,549749,1,0
170,6,549918,6,0,B|107:-21|8:14|-28:113|0:176,1,297.920002841186,4|0
82,260,550427,2,0,B|146:289|245:253|282:154|254:92,1,297.920002841186,0|0
128,136,550935,1,8
128,136,551105,1,0
340,376,551274,6,0,B|404:405|503:369|540:270|512:208,1,297.920002841186,4|0
427,122,551782,2,0,B|365:94|266:130|229:229|258:292,1,297.920002841186,0|0
384,248,552291,1,8
384,248,552460,1,0
194,258,552630,6,0,B|130:233|86:138|130:42|194:18,1,297.920002841186,4|0
313,16,553138,2,0,B|378:41|422:137|378:233|314:257,1,297.920002841186,0|0
256,136,553647,1,8
256,136,553816,1,0
138,310,553986,6,0,B|162:374|258:418|353:374|378:310,1,297.920002841186,4|0
377,190,554494,2,0,B|353:126|257:82|161:126|137:190,1,297.920002841186,0|0
256,248,555003,1,8
256,248,555172,1,0
256,192,555342,8,0,556698
256,192,560355,5,4
392,72,560799,6,0,B|288:24|128:24,1,255,2|0
72,48,561244,2,2,B|24:120|112:144|56:232,1,170
176,312,561688,5,2
336,312,561799,1,0
184,312,561910,1,2
328,312,562021,1,0
256,288,562133,2,0,B|256:104,1,170,0|2
408,104,562577,6,0,B|408:368,1,255,2|0
483,359,563021,2,0,B|483:183,1,170,2|2
192,48,563466,5,2
152,112,563577,1,0
360,112,563688,1,2
320,48,563799,1,0
256,88,563910,2,0,B|256:280,1,170,0|2
120,192,564355,6,0,B|32:256|32:328|32:328|120:368,1,255,2|0
176,319,564799,2,2,B|256:369|336:319,1,170
392,192,565244,6,0,B|480:256|480:328|480:328|392:368,1,255,2|0
336,319,565688,2,2,B|256:369|176:319,1,170
256,48,566133,5,2
368,128,566244,1,0
322,258,566355,1,2
184,258,566466,1,0
138,128,566577,5,2
256,200,566688,1,0
368,128,566799,1,2
256,48,566910,1,0
128,0,567021,5,2
136,128,567133,1,0
256,200,567244,1,2
368,128,567355,1,0
0,96,567466,5,2
512,96,567688,1,0
256,192,567910,6,2,B|240:48|96:0,1,255,6|0
256,192,568355,2,0,B|272:288|352:336,1,170,2|0
328,136,568799,5,2
328,248,568910,1,0
184,248,569021,1,2
184,136,569133,1,0
256,107,569244,2,0,B|256:291,1,170,0|2
392,40,569688,6,0,B|472:112|472:288,1,255,2|0
416,328,570133,2,2,B|360:360|360:360|320:344|257:364,1,170
80,248,570577,5,2
80,136,570688,1,0
432,136,570799,5,2
432,248,570910,1,0
256,107,571021,6,0,B|256:283,1,170,0|2
168,152,571466,6,2,B|144:48|240:0,1,170,2|0
296,32,571799,1,0
360,72,571910,2,2,B|384:176|288:224,1,170,2|0
168,232,572355,6,2,B|144:336|240:384,1,170,2|0
296,352,572688,1,0
360,312,572799,2,2,B|384:208|288:160,1,170,2|0
128,160,573244,5,2
72,104,573355,1,0
169,92,573466,5,2
155,14,573577,1,0
242,60,573688,5,2
275,0,573799,1,0
320,76,573910,5,2
388,37,574021,1,0
374,134,574133,5,2
453,141,574244,1,0
386,212,574355,5,2
446,263,574466,1,0
350,283,574577,6,0,B|304:304|254:278|239:229|256:192,1,170,2|0
160,312,575021,5,2
144,240,575133,1,0
80,272,575244,2,2,B|32:296|32:344,2,85,2|0|2
64,200,575577,1,0
128,168,575688,2,2,B|176:144|176:96,2,85,2|0|2
72,120,576021,1,0
112,56,576133,2,2,B|88:8|40:8,2,85,2|0|2
256,192,582643,5,8
256,192,582793,1,8
256,192,582943,1,8
120,56,583243,5,8
112,64,583393,1,8
128,64,583543,1,8
376,56,583843,5,8
360,40,583993,1,8
384,40,584143,1,8
120,288,584443,5,8
88,264,584593,1,8
88,304,584743,1,8
368,280,585043,5,8
416,288,585193,1,8
384,328,585343,1,8
272,176,585643,5,8
256,232,585793,1,8
216,192,585943,1,8
392,160,586243,5,8
456,160,586393,1,8
424,104,586543,1,8
120,168,586843,5,8
88,112,586993,1,8
56,168,587143,1,8
440,80,587443,5,8
392,32,587593,1,8
456,16,587743,1,8
464,192,588043,5,8
480,256,588193,1,8
416,240,588343,1,8
56,96,588643,5,8
120,96,588793,1,8
88,40,588943,1,8
360,112,589243,5,8
320,176,589393,1,8
400,176,589543,1,8
128,248,589843,5,8
200,248,589993,1,8
164,185,590143,1,8
256,336,590443,5,8
256,248,590593,1,8
336,288,590743,1,8
400,24,591043,5,8
488,24,591193,1,8
448,96,591343,1,8
32,112,591643,5,8
96,56,591793,1,8
112,136,591943,1,8
472,256,592243,5,8
400,296,592393,1,8
472,344,592543,1,8
48,328,592843,5,8
64,240,592993,1,8
136,296,593143,1,8
480,184,593443,5,8
392,224,593593,1,8
400,128,593743,1,8
168,96,594043,5,8
248,200,594193,1,8
112,208,594343,1,8
248,200,594643,5,8
168,96,594793,1,8
112,208,594943,1,8
448,56,595243,5,8
360,160,595393,1,8
448,56,595543,1,8
360,160,595843,5,8
360,160,595993,1,8
448,56,596143,1,8
184,40,596443,5,8
128,112,596593,1,8
224,120,596743,1,8
168,200,596893,1,8
264,208,597043,1,8
216,296,597643,5,8
312,312,597793,1,8
368,232,597943,1,8
40,216,598243,5,8
40,216,598543,1,8
40,216,598843,1,8
40,120,598993,1,8
104,48,599143,1,8
256,136,599443,5,8
200,240,599593,1,8
320,240,599743,1,8
256,112,600043,5,8
184,248,600193,1,8
336,248,600343,1,8
256,88,600643,5,8
160,264,600793,1,8
360,264,600943,1,8
256,64,601243,5,8
136,280,601393,1,8
384,280,601543,1,8
256,192,601843,5,4
432,296,608456,5,0
368,232,608606,5,0
256,280,608756,1,0
144,232,608906,1,0
256,136,609056,1,0
368,232,609206,1,0
256,280,609356,2,0,B|176:352|64:328,1,200
144,232,609806,1,0
144,96,609956,1,0
256,144,610106,1,0
368,96,610256,1,0
256,40,610406,1,0
256,320,610706,5,0
256,272,610781,1,0
256,224,610856,1,0
256,176,610931,1,0
256,128,611006,1,0
256,40,611156,1,0
80,56,611456,6,0,B|24:160,1,100,2|0
120,136,611756,2,0,B|64:240,1,100,2|0
112,304,612056,1,0
144,336,612131,1,0
112,304,612206,2,0,B|168:200,1,100,2|0
216,144,612506,1,0
200,56,612656,2,2,B|416:56,1,200,2|0
440,136,613106,1,0
352,136,613256,1,2
400,216,613406,1,0
488,240,613556,2,2,B|460:320|367:332|320:259,1,200
256,224,614006,1,0
24,200,614156,2,2,B|52:120|145:108|192:181,1,200
256,112,614606,1,0
344,128,614756,5,4
168,256,614906,1,0
344,256,615056,1,2
168,128,615206,1,0
432,48,615356,1,4
80,336,615506,1,0
432,336,615656,1,4
80,48,615806,1,0
168,24,615956,6,2,B|376:16,1,200,2|0
344,360,616406,2,2,B|136:368,1,200,2|0
200,240,616856,5,2
312,144,617006,1,0
136,176,617156,1,2
376,208,617306,1,0
160,88,617456,1,2
352,296,617606,1,0
224,32,617756,1,2
288,352,617906,1,0
304,40,618056,1,2
208,344,618206,1,0
376,80,618356,6,4,B|472:120|496:232,1,200,4|0
256,192,618806,1,0
136,304,618956,2,4,B|40:264|16:152,1,200,4|0
88,96,619406,1,0
160,48,619556,5,2
256,120,619706,1,0
352,48,619856,1,2
256,192,620006,1,0
160,48,620156,1,2
256,264,620306,1,0
352,48,620456,1,2
256,336,620606,1,0
176,304,620756,6,8,B|72:312,1,100,8|0
336,224,621056,2,8,B|440:232,1,100,8|0
176,152,621356,2,8,B|72:160,1,100,8|0
336,224,621656,1,0
176,304,621806,1,2
256,48,622106,1,2
336,304,622406,1,2
256,144,622706,5,0
256,232,622856,1,0
176,192,623006,1,0
336,192,623156,2,0,B|384:176|384:208|440:192,1,100,2|0
176,192,623456,2,0,B|128:176|128:208|72:192,1,100,2|0
160,96,623756,5,4
256,40,623906,1,0
352,96,624056,1,4
256,192,624206,1,0
352,288,624356,5,4
256,344,624506,1,0
160,288,624656,1,4
256,192,624806,1,0
120,192,624956,5,4
256,192,625106,1,0
392,192,625256,1,4
256,192,625406,1,0
200,120,625556,5,2
312,264,625706,1,0
267,101,625856,1,2
244,282,626006,1,0
328,136,626156,1,2
184,248,626306,1,0
346,203,626456,1,2
165,180,626606,1,0
160,40,626756,5,2
352,344,626906,1,0
295,16,627056,1,2
216,367,627206,1,0
407,95,627356,1,2
104,288,627506,1,0
431,231,627656,1,2
80,152,627806,1,0
168,128,627956,5,4
248,192,628106,1,0
256,176,628181,1,0
264,160,628256,1,2
248,192,628406,1,0
344,256,628556,5,4
264,192,628706,1,0
256,208,628781,1,0
248,224,628856,1,2
264,192,629006,1,0
192,256,629156,6,0,B|144:232|96:256,1,100,2|0
320,128,629456,2,0,B|368:152|416:128,1,100,2|0
320,256,629756,2,0,B|368:232|416:256,1,100,2|0
192,128,630056,2,0,B|144:152|96:128,1,100,2|0
256,40,630356,6,4,B|464:40,1,200,4|2
16,64,637609,5,0
512,64,637820,1,0
16,256,638031,1,0
512,256,638242,1,0
256,144,638665,1,0
16,64,639299,5,4
512,64,639510,1,4
16,256,639721,1,4
512,256,639932,1,4
256,144,640355,1,4
16,64,640989,5,0
512,64,641200,1,0
16,256,641411,1,0
512,256,641623,1,0
144,112,641834,1,0
384,112,642045,1,0
144,192,642256,1,0
384,192,642468,1,0
16,64,642679,5,4
512,64,642890,1,4
16,256,643101,1,4
512,256,643313,1,4
144,112,643524,1,4
384,112,643735,1,4
144,192,643947,1,4
384,192,644158,1,4
16,64,644369,5,0
512,64,644580,1,0
16,256,644792,1,0
512,256,645003,1,0
256,144,645425,1,0
16,64,646059,5,4
512,64,646270,1,4
16,256,646482,1,4
512,256,646693,1,4
256,144,647116,1,4
16,64,647749,5,0
512,64,647961,1,0
144,208,648172,1,0
16,256,648594,1,0
512,256,648806,1,0
384,208,649017,1,0
16,64,649439,5,4
512,64,649651,1,4
144,208,649862,1,4
16,256,650285,1,4
512,256,650496,1,4
384,208,650707,1,4
16,64,651130,5,0
216,33,657882,5,4
296,49,658085,1,8
216,97,658288,1,0
296,113,658491,1,8
216,161,658693,1,0
296,177,658896,1,8
216,225,659099,1,0
296,241,659301,1,8
216,289,659504,1,0
296,305,659707,1,8
144,305,659909,5,0
360,273,660112,1,8
144,233,660315,1,0
360,201,660518,1,8
144,161,660720,1,0
360,129,660923,1,8
144,89,661126,1,0
360,65,661328,1,8
432,345,661531,5,0
80,337,661734,1,8
432,281,661936,1,0
80,273,662139,1,8
432,217,662342,1,0
80,209,662545,1,8
432,153,662747,1,0
80,145,662950,1,8
432,89,663153,1,0
80,81,663355,1,8
432,25,663558,1,0
80,17,663761,1,8
256,193,663963,1,0
256,361,664369,5,4
256,361,664572,1,8
208,313,664774,1,0
304,313,664977,1,8
168,257,665180,1,0
344,257,665382,1,8
128,201,665585,1,0
384,201,665788,1,8
88,145,665991,1,4
424,145,666193,1,8
48,89,666396,1,0
464,89,666599,1,8
8,33,666801,1,0
504,33,667004,1,8
80,33,667207,5,0
456,49,667409,1,8
120,89,667612,1,4
416,97,667815,1,8
160,145,668018,1,0
368,145,668220,1,8
200,193,668423,1,4
320,193,668626,1,8
240,249,668828,1,0
280,249,669031,1,8
264,305,669234,1,4
264,305,669436,1,8
376,305,669639,5,4
136,305,669842,1,8
376,305,670045,1,4
136,305,670247,1,8
24,305,670450,5,4
480,305,670653,1,8
24,193,670855,1,4
480,193,671058,1,8
24,89,671261,1,0
480,89,671463,1,8
24,249,671666,1,0
480,249,671869,1,8
24,145,672072,1,0
480,145,672274,1,8
103,329,672477,5,0
112,48,672680,1,8
400,48,672882,1,0
400,329,673085,1,8
400,329,673288,5,0
400,48,673491,1,8
112,48,673693,1,0
103,329,673896,1,8
142,294,674099,5,0
148,85,674301,1,8
363,85,674504,1,0
363,294,674707,1,8
363,294,674909,5,0
363,85,675112,1,8
148,85,675315,1,0
142,294,675518,1,8
179,261,675720,5,0
183,120,675923,1,8
328,120,676126,1,0
328,261,676328,1,8
328,261,676531,5,0
328,120,676734,1,8
183,120,676936,1,0
179,261,677139,1,8
217,227,677342,5,4
219,157,677545,1,8
292,157,677747,1,0
292,227,677950,1,8
292,227,678153,5,0
292,157,678355,1,8
219,157,678558,1,0
217,227,678761,1,8
253,243,678963,5,4
205,193,679166,1,8
256,142,679369,1,0
305,191,679572,1,8
305,191,679774,5,0
256,142,679977,1,8
205,193,680180,1,0
253,243,680382,1,8
250,297,680585,5,4
151,193,680788,1,8
256,88,680990,1,0
357,190,681193,1,8
357,190,681396,5,4
256,88,681599,1,8
151,193,681801,1,0
250,297,682004,1,8
247,353,682207,5,4
95,192,682409,1,8
256,32,682612,1,8
412,188,682815,1,8
412,188,683018,5,4
256,32,683220,1,8
95,192,683423,1,4
249,304,683828,5,6
144,193,684031,1,10
256,81,684234,1,0
364,189,684436,1,10
364,189,684639,5,0
256,81,684842,1,10
144,193,685045,1,2
249,304,685247,1,8
172,267,685450,5,2
177,114,685653,1,10
334,114,685855,1,0
334,267,686058,1,10
334,267,686261,5,2
334,114,686463,1,10
177,114,686666,1,0
172,267,686869,1,10
249,304,687072,5,2
144,193,687274,1,8
255,81,687477,1,2
364,189,687680,1,8
364,189,687882,5,2
255,81,688085,1,10
144,193,688288,1,0
249,304,688490,1,10
256,17,688693,5,0
256,369,688896,1,10
328,17,689099,1,2
184,369,689301,1,8
400,17,689504,1,0
112,369,689707,1,8
472,17,689909,1,8
40,369,690112,1,8
256,17,690315,5,6
256,369,690518,1,10
184,17,690720,1,0
328,369,690923,1,10
112,17,691126,1,0
400,369,691328,1,10
40,17,691531,1,0
472,369,691734,1,10
208,193,691936,5,6
304,193,692139,1,10
256,129,692342,5,0
256,257,692545,1,10
136,193,692747,5,0
376,193,692950,1,10
256,57,693153,5,0
256,321,693355,1,10
64,193,693558,5,4
448,193,693761,1,10
224,161,693963,5,2
288,225,694166,1,8
288,161,694369,5,6
224,225,694572,1,10
256,105,694774,5,0
160,193,694977,1,10
256,281,695180,1,6
344,193,695382,1,10
328,121,695585,5,12
176,273,695788,1,8
208,145,695990,1,12
304,241,696193,1,4
256,193,696396,5,4
320,264,705859,5,12
36,36,706132,5,4
256,36,706405,5,2
416,164,706541,1,0
256,36,706677,1,2
416,164,706814,1,0
96,164,706950,1,4
256,36,707086,2,0,B|256:88,2,50,0|0|2
96,164,707359,1,0
256,36,707495,1,8
360,304,707632,1,0
152,304,707768,1,8
360,304,707905,1,0
152,304,708041,5,4
136,60,708177,6,0,B|40:36,1,100
376,324,708450,2,0,B|472:348,1,100,0|2
256,192,708723,1,0
28,132,708859,1,0
256,56,708995,1,0
484,132,709132,1,2
256,360,709268,1,0
256,360,709336,1,0
256,360,709405,5,0
304,336,709473,1,0
336,296,709541,1,0
336,244,709609,1,0
308,196,709677,1,2
256,180,709745,1,0
204,196,709814,1,0
176,244,709882,1,0
176,296,709950,1,2
208,336,710018,1,0
256,360,710086,1,0
256,300,710155,1,0
256,244,710223,1,4
120,184,710359,6,0,B|28:136,1,100,0|2
392,200,710632,2,0,B|480:246,1,100,0|4
460,68,710905,1,0
256,256,711041,1,0
52,68,711177,1,0
256,256,711314,1,2
392,200,711450,6,0,B|432:232|436:288,1,100,0|2
120,200,711723,2,0,B|80:168|76:112,1,100,0|8
348,308,711995,1,0
164,308,712132,1,8
256,108,712268,1,0
392,200,712405,5,2
120,200,712541,1,0
120,200,712609,1,0
120,200,712677,1,8
204,92,712814,5,0
308,92,712950,1,2
308,192,713086,1,0
204,192,713223,1,8
204,72,713359,1,0
308,72,713495,1,2
308,212,713632,1,0
204,212,713768,1,8
256,48,713905,1,0
308,236,714041,1,8
204,236,714177,1,0
156,136,714314,5,2
204,160,714382,1,0
256,148,714450,1,2
312,168,714518,1,0
356,136,714586,1,4
256,380,714723,6,0,B|200:396|160:364,1,100,0|8
256,4,714995,6,0,B|312:-12|352:20,1,100,0|4
504,192,715268,2,0,B|520:248|488:288,1,100,0|8
8,192,715540,2,0,B|-8:136|24:96,1,100,0|4
256,4,715814,6,0,B|200:-12|160:20,1,100,0|8
256,380,716086,2,0,B|312:396|352:364,1,100,0|4
472,192,716359,2,0,B|488:136|456:96,1,100,0|8
32,192,716631,6,0,B|16:248|48:288,1,100,0|4
256,308,716905,1,0
96,192,717041,1,2
416,192,717177,1,0
256,80,717314,1,8
136,316,717450,1,0
376,316,717586,1,8
96,192,717723,1,0
176,88,717859,5,2
216,16,717995,1,0
296,16,718132,1,2
336,88,718268,1,0
256,80,718405,1,2
256,160,718541,1,0
256,240,718677,5,2
256,320,718813,1,0
324,376,718950,1,4
392,320,719086,1,0
460,376,719223,1,8
472,280,719359,1,0
392,228,719495,1,8
320,276,719632,1,0
392,228,719768,1,0
256,144,719905,1,0
256,64,720041,5,2
188,8,720178,1,0
120,64,720314,1,0
52,8,720451,1,0
40,104,720587,1,8
120,156,720723,1,0
192,108,720860,1,8
120,156,720996,1,0
256,236,721132,5,14
492,20,721405,5,0
256,376,721541,1,0
20,24,721677,1,14
500,376,721950,5,2
256,24,722086,1,0
256,32,722155,1,0
256,44,722223,1,14
12,376,722495,1,2
256,24,722768,1,14
400,112,723314,5,2
400,112,723450,2,0,B|448:88|496:112,1,100,0|2
112,112,723723,2,0,B|64:88|16:112,1,100,0|2
208,320,723995,2,0,B|256:344|304:320,1,100,0|2
256,192,724268,1,0
404,280,724405,5,2
436,304,724473,1,0
468,328,724541,1,0
108,280,724677,1,2
76,304,724745,1,0
44,328,724813,1,0
256,84,724950,1,2
256,44,725018,1,0
256,0,725086,1,0
164,192,725223,1,0
348,192,725359,1,0
112,80,725495,5,4
144,336,725632,1,0
400,304,725768,1,0
368,48,725905,1,4
144,336,726177,1,0
420,192,726314,5,12
92,192,726450,1,0
257,274,726586,1,12
256,316,726655,1,0
256,356,726723,1,0
256,192,726859,5,0
256,192,726995,1,0
256,272,727132,1,2
256,112,727268,1,0
336,192,727405,1,2
176,192,727541,1,0
0,0,727677,5,12
512,0,727950,1,0
0,384,728223,5,12
512,384,728496,1,0
112,48,728768,5,12
400,48,728905,1,0
112,336,729041,1,12
400,336,729178,1,0
256,0,729314,5,12
52,192,729451,1,0
459,192,729587,1,12
256,395,729724,1,0
256,192,729859,12,2,734223
