osu file format v9

[General]
AudioFilename: easy sound.mp3
AudioLeadIn: 0
PreviewTime: 869417
Countdown: 0
SampleSet: Soft
StackLeniency: 0.7
Mode: 0
LetterboxInBreaks: 1

[Editor]
Bookmarks: 968028
DistanceSpacing: 0.8
BeatDivisor: 4
GridSize: 4

[Metadata]
Title:osu! Easy Compilation
Artist:Various Artists
Creator:Jayel
Version:Easy to Play
Source:
Tags:nymph_ asakura yume dragonsparta presents minnie mouse donald duck goofy winter xmas poisonchan aquabluu taikosu evianbubble piano instrumental tsukino sora tsunenori luigihann koji kondo 8-bit 1980s eirene edelweiss vn visual novel relax glasslake jpop j-pop ylinestra44 rockstar pink funhouse vivicat miyazaki hayao studio ghibli notshinta louis cyphre icebeam evil_twilight ending tetrametis kosiga m980 blissfulyoshi christmas vocaloid enameru-p 3d pv 3dpv dusty fuukolover Lanttu DAKETEN happy30 furukawa nagisa ed lisa teta makai senki disgaea plenair usagi-san odaril maritsu jaaku gakuen jamesleao diamondcrash danger days the true lives of the fabulous killjoys

[Difficulty]
HPDrainRate:3
CircleSize:4
OverallDifficulty:4
ApproachRate:6
SliderMultiplier:1.6
SliderTickRate:1

[Events]
//Background and Video events
0,0,"title another.jpg"
//Break Periods
2,46033,57334
2,87677,102207
2,142497,152123
2,178489,189665
2,231020,236891
2,259398,270594
2,289151,301102
2,332352,346875
2,384115,392194
2,422518,434650
2,463329,478767
2,510353,525612
2,564555,578902
2,622349,634688
2,680356,688856
2,731506,742738
2,763988,773172
2,811921,819521
2,854521,868367
2,906839,919629
//Storyboard Layer 0 (Background)
//Storyboard Layer 1 (Fail)
//Storyboard Layer 2 (Pass)
//Storyboard Layer 3 (Foreground)
//Storyboard Sound Samples
//Background Colour Transformations
3,100,163,162,255

[TimingPoints]
5749.47869832189,504.201680672269,4,1,0,50,1,0
13820,-100,4,2,0,50,0,0
54804,447.594181275643,4,2,0,50,1,0
55035,-80,4,2,0,75,0,0
74396,-106.382978723404,4,2,0,75,0,0
96682,410.958904109589,4,2,0,75,1,0
96878,-158.730158730159,4,2,0,45,0,0
116504,-158.730158730159,4,2,0,45,0,1
142908,-158.730158730159,4,2,0,45,0,0
152243,465.116279069767,4,2,0,45,1,0
152485,-113.636363636364,4,1,0,45,0,0
163415,-113.636363636364,4,1,0,45,0,1
178299,-113.636363636364,4,1,0,45,0,0
185347,631.578947368421,4,2,0,45,1,0
185426,-113.636363636364,4,2,0,45,0,0
237941,598.802395209581,4,1,0,65,1,0
237941,-113.636363636364,4,1,0,65,0,0
270491,576.923076923077,4,1,0,65,1,0
270491,-113.636363636364,4,2,0,25,0,0
299115,759.493670886076,4,2,0,25,1,0
299115,-100,4,2,0,55,0,0
342211,476.190476190476,4,2,0,55,1,0
342211,-80,4,2,0,55,0,0
347925,-80,4,1,0,45,0,0
348401,-80,4,1,0,50,0,0
348877,-80,4,1,0,55,0,0
349353,-80,4,1,0,60,0,0
349830,-80,4,1,0,60,0,1
365068,-80,4,2,0,50,0,1
372211,-80,4,1,0,60,0,1
380306,-80,4,1,0,50,0,0
391398,461.502961310668,4,1,0,75,1,0
391427,-158.730158730159,4,1,0,55,0,0
430558,428.571428571429,4,1,0,55,1,0
430558,-66.6666666666667,4,1,0,40,0,0
473223,659.48560123104,4,1,0,40,1,0
473223,-72.463768115942,4,1,0,60,0,0
504878,-72.463768115942,4,1,0,35,0,0
505537,-72.463768115942,4,1,0,40,0,0
506197,-72.463768115942,4,1,0,42,0,0
506856,-72.463768115942,4,1,0,45,0,0
507516,-72.463768115942,4,1,0,50,0,0
508175,-72.463768115942,4,1,0,52,0,0
508835,-72.463768115942,4,1,0,55,0,0
509494,-72.463768115942,4,1,0,57,0,0
510154,-72.463768115942,4,1,0,60,0,0
524355,384.615384615385,4,1,0,60,1,0
526662,-100,4,1,0,30,0,0
526855,-100,4,1,0,20,0,0
527047,-100,4,1,0,50,0,0
527239,-100,4,1,0,40,0,0
527431,-100,4,1,0,60,0,0
552047,-100,4,1,0,60,0,1
564355,-100,4,1,0,60,0,0
577315,659.340659340659,4,1,0,60,1,0
577315,-94.3396226415094,4,2,0,50,0,0
633645,465.116279069767,4,2,0,50,1,0
633688,-84.0336134453781,4,1,0,80,0,0
688106,600,3,2,0,50,1,0
688508,-87.719298245614,3,2,0,65,0,0
740931,714.285714285714,4,2,0,65,1,0
741109,-80,4,2,0,70,0,0
770622,600,4,2,0,65,1,0
770622,-84.0336134453781,4,2,0,55,0,0
775422,-166.666666666667,4,2,0,55,0,1
811422,-166.666666666667,4,2,0,55,0,0
816321,500,4,2,0,100,1,0
816446,-133.333333333333,4,2,0,100,0,0
846571,-133.333333333333,4,1,0,50,0,0
848071,-133.333333333333,4,2,0,100,0,0
865158,370.37037037037,4,2,0,80,1,0
870250,-100,4,1,0,50,0,0
870435,-100,4,2,0,80,0,0
870991,-100,4,1,0,50,0,0
879602,-200,4,1,0,50,0,0
880898,-100,4,1,0,50,0,0
917788,361.44578313253,4,1,0,50,1,0
917968,-66.6666666666667,4,1,0,100,0,0
920860,-66.6666666666667,4,2,0,100,0,0
922767,-66.6666666666667,4,1,0,100,0,0
923571,-66.6666666666667,4,1,0,100,0,1
924022,-66.6666666666667,4,2,0,100,0,1
924203,-66.6666666666667,4,1,0,100,0,1
925468,-66.6666666666667,4,2,0,100,0,1
925830,-66.6666666666667,4,1,0,100,0,1
926914,-66.6666666666667,4,2,0,100,0,1
927095,-66.6666666666667,4,1,0,100,0,1
928360,-66.6666666666667,4,2,0,100,0,1
928721,-66.6666666666667,4,1,0,100,0,1
929806,-66.6666666666667,4,2,0,100,0,1
929986,-66.6666666666667,4,1,0,100,0,1
931251,-66.6666666666667,4,2,0,100,0,1
931613,-66.6666666666667,4,1,0,100,0,1
935047,-66.6666666666667,4,1,0,100,0,0
935137,-66.6666666666667,4,1,0,100,0,1
943812,-66.6666666666667,4,1,0,100,0,0

[Colours]
Combo1 : 0,0,255
Combo2 : 0,128,64
Combo3 : 255,128,0
Combo4 : 154,154,154

[HitObjects]
144,64,14320,1,2
48,152,14825,1,0
104,264,15329,1,2
208,344,15833,2,0,B|288:376|384:320,1,160,0|2
424,304,16589,1,0
392,248,16841,2,0,B|344:224|296:240,1,80
256,272,17346,1,2
232,336,17598,2,0,B|144:356|136:312,1,80
88,216,18354,5,2
40,96,18858,1,0
152,40,19362,1,2
280,40,19867,2,0,B|360:0|448:48,1,160,0|2
432,104,20623,2,0,B|356:144|276:104,1,160
216,104,21379,2,0,B|136:104,2,80,2|0|0
96,272,22388,5,2
200,352,22892,1,0
328,352,23396,1,2
328,352,23900,2,0,B|432:352|432:216,1,160,0|2
432,184,24657,1,0
432,184,24909,1,0
432,120,25161,1,0
432,120,25413,1,2
320,64,25665,5,0
360,120,25917,1,0
320,176,26169,1,0
192,64,26673,5,0
152,120,26925,1,0
192,176,27178,1,0
256,192,27682,5,0
256,120,27934,2,0,B|248:64|296:24,1,80,2|0
328,192,28438,2,0,B|384:184|424:232,1,80,2|0
256,264,28942,2,0,B|264:320|216:360,1,80,2|0
184,192,29446,2,0,B|128:200|88:152,1,80,2|0
108,172,29951,1,4
152,296,30455,5,2
264,360,30959,1,0
376,296,31463,1,2
376,296,31967,2,2,B|432:272|432:184|368:160,1,160
328,120,32724,1,0
272,160,32976,2,0,B|256:144|208:144|192:160,1,80
200,224,33480,2,0,B|184:240|136:240|120:224,1,80,2|0
56,224,33984,1,0
184,72,34488,5,2
312,24,34993,1,0
424,88,35497,1,2
424,216,36001,2,0,B|456:264|456:320|424:368,1,160,0|2
360,368,36757,2,0,B|328:320|328:264|360:216,1,160
360,152,37514,1,2
304,184,37766,1,0
360,216,38018,1,0
344,344,38522,5,2
216,360,39026,1,0
112,288,39530,1,2
112,288,40035,2,0,B|56:264|56:176|120:152,1,160,0|2
112,96,40791,1,0
112,96,41043,1,0
240,96,41547,5,2
304,96,41799,2,0,B|384:96,2,80,0|4|0
280,224,42808,2,0,B|196:224,2,80
320,344,43816,5,0
320,344,44068,2,0,B|368:344|408:320,1,80
397,325,44573,2,0,B|432:304|456:256,1,80
450,267,45077,2,0,B|472:232|472:184,1,80
471,191,45581,2,0,B|472:144|448:104,1,80
488,312,58384,5,4
256,192,58496,12,0,61070
256,352,61517,5,8
256,256,61741,1,0
176,208,61965,2,0,B|112:200|104:128|120:64|192:64,1,199.999997019768,0|8
256,136,62636,1,2
336,64,62860,2,0,B|392:64|416:136|392:224|304:208,1,199.999997019768,0|8
256,256,63532,1,2
328,328,63755,2,0,B|440:320|480:176,3,199.999997019768,0|8|0|8
472,112,65322,1,0
48,192,65993,5,8
256,352,66441,1,0
472,192,66889,1,8
392,144,67112,1,0
392,240,67336,1,0
232,272,67784,6,0,B|160:184|232:80,2,199.999997019768,8|0|8
296,224,68903,6,0,B|264:176|304:128,1,99.9999985098839,0|4
144,288,69574,2,0,B|96:184|152:72,1,199.999997019768,8|0
208,192,70245,1,0
272,288,70469,2,0,B|328:184|264:72,2,199.999997019768,8|0|8
104,256,71812,1,0
400,240,72260,1,8
496,240,72483,1,2
448,328,72707,1,4
256,32,73602,5,0
80,104,74050,1,0
40,176,74274,1,0
80,248,74498,2,0,B|48:336|120:408|216:360,1,225.600001613617,4|0
240,288,75393,1,0
480,232,75840,1,2
480,152,76064,2,0,B|480:40|352:8|224:48|224:168,1,376.000002689362,0|2
96,64,77631,5,2
48,136,77855,2,0,B|88:152|104:184|104:184|120:152|160:128,1,150.400001075745,2|0
280,312,78750,2,0,B|240:296|224:264|224:264|208:296|168:320,1,150.400001075745,2|0
56,200,79645,2,0,B|16:272|48:344,2,150.400001075745
256,40,81435,5,0
256,120,81659,1,4
256,352,82554,5,8
120,208,83450,2,0,B|160:136|216:144|248:192|296:240|344:216|376:168,1,300.800002151489,0|8
56,48,85016,5,0
136,48,85240,2,0,B|208:152|320:152|408:24,1,300.800002151489,0|8
464,56,86359,1,0
360,208,86806,2,0,B|256:288|152:208,1,225.600001613617,0|8
256,320,103257,5,2
256,64,103668,1,0
256,240,104079,1,2
256,144,104490,1,0
192,192,104901,6,0,B|88:192,1,100.799998437881,2|0
128,112,105723,1,0
192,64,106134,1,0
272,56,106545,2,0,B|344:32|416:56|416:152,1,201.599996875763,2|0
368,208,107777,1,0
320,272,108188,1,2
240,272,108599,1,0
192,208,109010,1,2
288,80,109421,2,0,B|256:144|320:160|272:192,1,100.799998437881,0|4
288,336,110243,5,0
224,208,110654,1,2
256,272,111065,1,0
192,144,111476,1,2
320,48,111887,1,0
448,144,112298,2,0,B|496:256|400:320,1,201.599996875763,2|4
384,320,113531,5,4
368,320,113942,1,4
352,320,114353,1,4
448,160,114764,5,2
336,48,115175,1,2
160,80,115586,1,2
112,272,115997,1,2
312,272,116408,2,0,B|320:184|448:144|472:208|512:256|512:320|448:360|400:352|400:264,2,403.199993751526,4|2|4
112,136,120106,1,0
112,296,120517,1,2
248,208,120928,1,0
304,56,121339,5,2
456,112,121750,1,2
448,272,122161,1,2
304,336,122572,1,2
152,280,122983,2,0,B|80:264|64:160|88:96|160:72|224:96|264:184|208:256,2,403.199993751526,4|2|2
312,272,126682,1,0
416,152,127092,1,2
464,304,127503,1,0
344,192,127914,5,2
288,136,128325,1,2
232,80,128736,1,2
184,136,129147,1,2
96,272,129558,6,0,B|128:336|232:336|264:272,1,201.599996875763,4|0
176,152,130791,1,0
296,72,131202,2,0,B|360:104|360:200|296:240,1,201.599996875763,4|0
176,152,132435,1,0
320,80,132846,5,2
248,80,133257,1,2
320,224,133668,1,2
392,224,134079,1,2
248,296,134490,2,0,B|128:328|40:248|40:136,1,302.399995313644,4|0
160,40,136134,2,0,B|272:40|352:128|320:248,1,302.399995313644,2|0
440,136,137777,1,0
440,296,138188,5,2
440,256,138394,1,0
440,216,138599,1,0
280,208,139010,1,2
184,320,139421,2,0,B|80:288|80:192|104:144,1,201.599996875763,4|0
248,104,140654,5,0
392,168,141065,1,0
392,168,141271,1,2
264,256,141682,1,2
264,256,141887,2,0,B|152:256,1,100.799998437881
256,208,153173,5,0
200,176,153405,1,0
256,144,153638,2,0,B|328:112|304:56|240:40,1,140.800001342773
152,120,154568,1,8
192,72,154801,1,0
320,72,155266,1,0
360,120,155498,1,8
256,184,155963,5,0
256,248,156196,2,0,B|256:328,2,70.4000006713867,0|8|0
256,120,157126,1,0
256,56,157359,1,8
144,72,157824,5,0
128,136,158056,1,0
48,232,158522,2,8,B|88:320|192:256,1,140.800001342773,8|0
248,192,159452,2,0,B|272:176|296:176|328:200,1,70.4000006713867
256,192,160382,12,0,162940
256,32,163405,5,0
80,56,163870,5,0
136,88,164103,1,8
80,120,164336,1,0
136,152,164568,1,8
80,184,164801,1,0
136,216,165033,2,0,B|200:248,1,70.4000006713867,8|0
256,216,165498,1,8
312,248,165731,2,0,B|376:216,1,70.4000006713867,0|8
488,160,166429,1,0
432,128,166661,1,0
488,96,166894,1,0
432,56,167126,6,0,B|352:16,1,70.4000006713867,0|8
304,40,167591,2,0,B|240:80,2,70.4000006713867,0|8|0
336,96,168289,1,8
408,200,168754,1,8
360,240,168987,1,0
312,200,169219,1,8
264,240,169452,1,0
216,200,169684,2,8,B|112:312,1,140.800001342773
72,344,170382,1,0
24,304,170615,1,8
72,264,170847,5,0
24,224,171080,2,0,B|80:176,1,70.4000006713867,8|0
24,144,171545,2,0,B|-24:96,2,35.2000003356934,8|8|0
72,104,172010,1,8
120,144,172243,1,0
168,104,172475,1,8
256,16,172940,5,8
304,56,173173,2,0,B|248:104,1,70.4000006713867,0|8
304,136,173638,1,0
256,176,173870,2,0,B|208:216,2,35.2000003356934,8|8|0
304,216,174336,1,8
432,216,174801,5,8
488,248,175033,1,0
432,280,175266,2,0,B|368:320,1,70.4000006713867,8|0
320,280,175731,1,8
272,320,175963,1,0
224,280,176196,2,0,B|224:336|96:328,1,140.800001342773,8|8
56,296,176894,1,0
104,256,177126,2,8,B|168:256|168:176|248:176,1,140.800001342773,8|0
264,216,177824,1,8
296,160,178056,1,0
328,104,178289,1,0
344,72,190715,5,0
312,112,190873,1,0
360,120,191031,1,8
360,256,191662,1,0
272,336,191978,1,0
168,272,192294,1,8
112,48,193241,5,0
160,56,193399,1,0
200,88,193557,1,8
208,208,194189,2,0,B|128:240,1,70.4000006713867
200,312,194820,1,8
296,176,195610,6,0,B|344:160,2,35.2000003356934,2|0|2
448,320,196715,1,0
416,208,197031,1,0
312,264,197347,1,8
232,72,198136,6,0,B|192:56,2,35.2000003356934,0|2|0
280,72,198610,2,0,B|264:120,3,35.2000003356934,8|0|0|0
280,216,199399,2,0,B|336:184,2,35.2000003356934,8|0|0
232,208,199873,1,8
232,208,200189,1,2
232,208,200504,1,4
128,48,201136,5,8
248,48,201452,1,0
320,152,201768,1,2
256,256,202083,1,0
128,256,202399,1,8
64,144,202715,1,2
288,88,203662,5,8
296,192,203978,1,0
208,256,204294,1,2
104,216,204610,1,0
88,104,204925,1,8
192,48,205241,1,2
368,48,205873,5,0
432,152,206189,2,0,B|384:216,1,70.4000006713867,8|0
288,184,206820,1,0
184,216,207136,2,0,B|160:184,1,35.2000003356934,0|2
160,48,207768,2,0,B|200:72,1,35.2000003356934,0|2
224,96,208083,5,0
144,176,208399,1,0
224,256,208715,1,8
304,176,209031,1,0
432,160,209347,1,0
432,264,209662,2,0,B|400:288,1,35.2000003356934,2|0
296,256,210136,2,0,B|272:304,2,35.2000003356934,2|0|2
152,304,210925,6,0,B|120:272,2,35.2000003356934,2|0|8
152,168,211873,1,2
248,104,212189,1,0
368,80,212504,1,8
304,280,213452,2,0,B|272:248,2,35.2000003356934,2|0|8
144,248,214399,1,0
112,160,214715,2,0,B|152:128,2,35.2000003356934,2|0|8
408,80,215978,5,0
360,80,216136,1,0
320,48,216294,1,8
112,128,217241,1,0
160,128,217399,1,0
184,168,217557,1,8
432,176,218504,6,0,B|472:216,2,35.2000003356934,0|0|8
320,176,219136,1,0
384,280,219452,1,2
264,240,219768,1,0
168,320,220083,1,8
208,232,220399,1,0
184,96,220873,5,0
208,136,221031,1,2
256,128,221189,1,0
376,128,221504,1,2
376,328,222294,1,2
344,288,222452,1,0
296,304,222610,1,8
296,200,222925,1,0
128,200,223399,6,0,B|160:232,2,35.2000003356934,2|0|2
152,56,224189,1,0
312,72,224820,2,0,B|280:88,2,35.2000003356934,2|0|8
392,96,225452,1,0
424,272,226083,6,0,B|456:248,2,35.2000003356934,0|2|8
248,208,227031,2,0,B|208:200,2,35.2000003356934,0|2|0
296,304,227662,1,8
184,280,227978,1,0
136,200,228294,5,2
184,208,228452,1,0
144,48,228925,1,8
184,80,229083,1,2
288,96,229399,1,0
336,80,229557,2,0,B|296:152,1,70.4000006713867
240,224,230189,1,8
240,224,230504,1,0
240,224,230820,1,4
104,80,237941,5,0
104,80,238090,1,0
192,80,238390,1,0
280,80,238689,1,0
280,80,238839,1,0
368,80,239138,1,0
256,224,239737,5,4
120,96,240336,5,0
256,96,240785,1,0
392,96,241234,1,0
320,216,241683,5,0
408,240,241982,1,0
496,264,242282,1,0
496,264,242432,1,0
424,320,242731,6,0,B|352:320,3,70.4000006713867
264,320,243929,2,0,B|184:320,3,70.4000006713867
152,240,245126,5,0
72,128,245575,1,0
208,120,246024,1,0
344,104,246473,1,0
416,168,246773,1,0
352,232,247072,1,0
352,232,247222,1,0
288,168,247521,6,0,B|368:168,3,70.4000006713867
432,112,248719,2,0,B|352:112,3,70.4000006713867
184,136,250216,5,0
184,136,250366,1,0
184,136,250515,1,0
184,136,250665,1,0
272,136,250964,1,0
360,136,251264,2,0,B|360:192,2,35.2000003356934
360,48,251863,1,0
360,48,252012,1,0
360,48,252162,1,0
272,208,252611,5,0
272,208,252761,1,0
272,208,252911,1,0
272,208,253060,1,0
184,192,253360,1,0
112,128,253659,1,2
200,104,253958,1,2
200,104,254108,1,2
288,88,254408,5,0
376,112,254707,1,0
376,200,255006,5,0
376,200,255156,1,0
376,200,255306,1,0
376,200,255455,1,0
368,288,255755,1,0
280,312,256054,1,0
280,312,256204,1,0
280,312,256354,1,0
232,216,256653,1,0
232,216,256803,1,0
232,216,256952,1,0
152,104,257402,5,4
288,104,257851,1,4
424,104,258300,1,4
424,240,258749,5,0
424,240,258899,1,0
328,240,259198,1,0
256,24,271644,5,0
360,136,272221,1,0
256,248,272798,1,2
144,136,273375,1,0
256,248,273952,1,2
56,344,274817,5,0
136,360,275106,1,2
216,344,275394,1,0
296,360,275683,1,2
376,344,275971,1,0
456,360,276260,1,0
328,152,277125,5,0
328,152,277414,1,0
328,152,277702,1,2
184,152,278279,1,0
184,152,278567,1,0
184,152,278856,1,2
256,280,279433,1,0
256,280,279721,1,0
256,24,280875,5,0
152,136,281452,1,0
256,248,282029,1,2
368,136,282606,1,0
256,248,283183,1,2
456,344,284048,5,0
376,360,284337,1,2
296,344,284625,1,0
216,360,284914,1,2
136,344,285202,1,0
56,360,285490,1,0
128,144,286356,6,0,B|136:88|192:72,2,70.4000006713867,0|2|0
208,152,287221,2,0,B|232:240,1,70.4000006713867,0|2
296,184,287798,2,0,B|320:272,1,70.4000006713867
392,256,288375,2,0,B|384:312|328:328,2,70.4000006713867,0|2|0
288,264,302152,5,4
360,208,302532,5,0
440,208,302912,1,8
400,136,303292,1,2
400,136,303482,2,0,B|376:88|320:80|272:120,1,120,2|2
216,136,304431,5,8
152,184,304811,1,2
120,216,305001,1,0
152,248,305190,1,8
216,296,305570,1,2
216,216,305950,1,8
216,136,306330,1,2
280,184,306709,1,8
304,216,306899,1,0
280,248,307089,1,2
360,256,307469,5,8
392,224,307659,1,2
360,192,307849,1,2
328,224,308039,2,2,B|272:192|272:160|304:136,1,80
256,128,308608,1,2
224,96,308798,2,2,B|152:112|144:184,1,120
176,208,309558,2,0,B|232:288|288:312|336:272|352:240|368:192|336:160|264:112,1,360,0|4
112,112,312026,5,8
192,136,312406,1,2
192,136,312596,1,2
136,192,312975,1,2
136,192,313165,1,2
184,256,313545,6,8,B|144:304|216:352,1,80,8|0
224,328,314115,2,0,B|264:280|192:232,1,80,8|0
184,256,314684,1,2
184,256,314874,2,0,B|128:208|112:136|184:64,1,200,0|8
216,144,316203,5,8
296,144,316583,1,8
328,112,316773,1,2
360,144,316963,1,2
328,176,317152,1,8
408,184,317532,2,0,B|384:272|288:328|184:240,1,280
256,192,319621,5,2
256,192,320001,1,0
256,192,320380,1,8
200,248,320760,1,0
144,192,321140,1,2
200,136,321520,1,0
256,192,321899,5,8
312,248,322279,1,0
368,192,322659,1,2
424,136,323039,1,0
448,208,323418,2,0,B|368:288|256:352|176:288|128:240|96:192,1,400,8|0
104,208,325697,5,8
104,208,326077,2,0,B|272:208,4,160
104,208,329494,2,0,B|184:128|296:64|376:128|424:176|456:224,1,400,2|2
368,208,331773,5,8
368,208,331963,1,0
368,208,332152,1,2
116,348,347925,5,0
160,320,348084,1,0
208,296,348242,1,0
256,320,348401,1,8
304,296,348560,1,0
352,320,348718,1,0
396,348,348877,1,0
388,192,349353,5,8
240,256,349830,2,0,B|184:256|152:192|176:128|240:128,2,199.999997019768,4|8|0
348,260,351099,2,0,B|408:288,1,66.6666656732559,0|8
348,124,351576,2,0,B|408:96,1,66.6666656732559
104,192,352211,2,0,B|168:268|216:116|280:192,1,199.999997019768,8|0
164,124,353004,2,0,B|104:96,1,66.6666656732559,0|8
164,260,353480,2,0,B|104:288,1,66.6666656732559
408,192,354115,2,0,B|344:116|296:268|232:192,1,199.999997019768,8|0
256,88,354909,5,0
300,132,355068,2,0,B|304:176|256:148|256:148|208:176|212:132,1,133.333331346512,8|0
152,144,355544,2,4,B|104:208|180:260|204:220|228:176|256:244|256:244|284:176|308:220|332:260|408:208|360:144,2,399.999994039536
256,312,357925,6,0,B|256:112,1,199.999997019768,8|0
184,192,358718,1,0
156,236,358877,1,8
328,192,359195,1,0
356,236,359353,1,0
200,272,359830,2,0,B|200:340|256:368|312:340|312:272,1,199.999997019768,8|0
384,192,360623,5,0
384,140,360782,2,0,B|320:104|256:140,1,133.333331346512,8|0
244,88,361258,2,0,B|120:84|208:188|88:184,2,199.999997019768,0|8|0
332,28,362528,1,0
384,40,362687,2,0,B|404:116|324:146,1,133.333331346512,8|0
288,183,363163,2,0,B|288:140|236:124|192:156|184:208|224:244|264:224,3,199.999997019768,4|8|4|8
428,268,365068,6,0,B|428:236|468:220,2,66.6666656732559,4|0|0
428,268,365544,2,0,B|456:284|448:328,2,66.6666656732559,8|0|8
428,268,366020,2,0,B|400:284|364:256,2,66.6666656732559
320,196,366496,6,0,B|320:164|360:148,2,66.6666656732559,8|0|8
320,196,366972,2,0,B|348:212|340:256,2,66.6666656732559,4|0|0
320,196,367449,2,0,B|292:212|256:184,2,66.6666656732559,8|0|8
192,188,367925,6,0,B|192:156|152:140,2,66.6666656732559
192,188,368401,2,0,B|164:204|172:248,2,66.6666656732559,8|0|8
192,188,368877,2,0,B|220:204|252:176,2,66.6666656732559,4|0|0
84,116,369353,6,0,B|84:148|44:164,2,66.6666656732559,8|0|8
84,116,369830,2,0,B|56:100|64:56,2,66.6666656732559
84,116,370306,2,0,B|112:100|144:128,2,66.6666656732559,8|0|8
256,192,370782,12,8,372211
212,120,372687,6,0,B|236:44|368:80|332:224|256:192|180:160|144:304|276:340|300:264,1,399.999994039536,4|0
408,264,373957,1,0
376,220,374115,1,8
104,120,374433,1,0
136,164,374591,1,0
256,292,375068,2,0,B|256:88,1,199.999997019768,8|0
136,220,375861,5,0
104,264,376020,1,8
376,164,376337,1,0
408,120,376496,1,0
256,92,376972,2,0,B|256:292,1,199.999997019768
152,316,377766,5,0
204,304,377925,2,0,B|216:232|140:196,1,133.333331346512,8|0
104,236,378401,2,0,B|88:184|-52:200|64:136|48:76,3,199.999997019768,4|8|4|8
256,192,380306,12,0,383639
256,192,393244,5,8
152,192,393705,2,0,B|96:192,1,50.3999992189407,0|8
104,88,394397,1,0
152,72,394628,1,8
200,72,394859,1,0
248,88,395090,1,8
392,136,395782,6,0,B|456:136,4,50.3999992189407,0|0|8|8|0
360,176,396936,1,8
280,240,397397,2,0,B|216:240,1,50.3999992189407,0|8
160,312,398089,2,0,B|144:328|112:312,2,50.3999992189407,0|8|0
208,296,398782,1,8
360,296,399474,5,8
384,256,399705,1,0
376,216,399935,1,8
352,176,400166,1,8
304,168,400397,1,0
264,192,400628,1,8
232,304,401089,6,0,B|200:312|176:304,1,50.3999992189407,0|8
168,208,401781,2,0,B|200:288|264:328,1,151.199997656822,0|8
344,272,402935,5,0
360,224,403166,1,8
376,128,403627,1,0
344,88,403858,1,8
248,56,404320,5,8
160,96,404781,2,0,B|136:88|112:96,1,50.3999992189407,0|8
112,200,405473,2,0,B|128:224|168:232,2,50.3999992189407,0|8|0
104,152,406166,1,8
160,16,406858,5,0
208,32,407089,1,0
232,80,407319,1,8
232,136,407550,1,8
208,184,407781,1,0
168,216,408012,1,8
72,224,408473,6,0,B|32:232|40:280,1,50.3999992189407,0|8
128,272,409165,1,8
128,272,409396,2,0,B|184:272,1,50.3999992189407,8|0
232,272,409858,1,8
328,240,410319,5,0
336,192,410550,1,8
320,96,411011,1,0
272,80,411242,1,8
176,104,411704,5,8
272,128,412165,2,0,B|312:136|328:160,1,50.3999992189407,0|8
400,104,412857,2,0,B|360:168|280:192,1,151.199997656822,0|8
232,280,414011,5,0
192,248,414242,1,8
192,144,414703,1,0
232,112,414934,1,8
304,184,415396,5,8
288,88,415857,2,0,B|256:88|240:112,1,50.3999992189407,0|8
144,136,416549,2,0,B|136:104|160:72,2,50.3999992189407,0|8|0
144,136,417242,1,8
104,224,417703,5,0
152,224,417934,1,8
248,224,418395,1,0
248,224,418626,1,8
336,272,419088,6,0,B|400:280,2,50.3999992189407,0|8|8
336,168,420011,2,0,B|384:152,2,50.3999992189407,0|8|8
248,208,420934,2,0,B|136:192|152:296,2,151.199997656822,8|0|8
44,80,435700,6,0,B|44:16|112:-12|208:28|164:80|116:132|216:172|284:144|284:80,3,359.999989271164
108,308,438057,5,0
197,274,438272,1,0
287,241,438486,1,0
377,208,438700,1,0
468,176,438915,1,0
468,80,439129,2,0,B|468:16|400:-12|304:28|348:80|396:132|296:172|228:144|228:80,3,359.999989271164
404,308,441486,5,0
315,274,441700,1,0
225,241,441915,1,0
135,208,442129,1,0
44,176,442343,1,0
44,80,442557,2,0,B|44:16|112:-12|208:28|164:80|116:132|216:172|284:144|284:80,3,359.999989271164
108,308,444915,5,0
197,274,445129,1,0
287,241,445343,1,0
377,208,445557,1,0
468,176,445772,1,0
468,80,445986,2,0,B|468:16|400:-12|304:28|348:80|396:132|296:172|228:144|228:80,3,359.999989271164,0|0|8|8
460,360,448343,5,0
460,360,448557,1,0
460,192,448986,1,0
26,18,449415,5,0
105,47,449629,1,8
184,76,449843,1,0
40,164,450272,1,4
198,222,450700,1,4
486,94,451129,5,0
407,123,451343,1,8
328,152,451557,1,0
472,240,451986,1,4
314,298,452415,1,4
24,164,452843,5,0
103,193,453057,1,8
182,222,453272,1,0
38,310,453700,1,4
196,368,454129,1,4
256,308,454343,2,0,B|289:219|245:114|140:70|52:104,1,359.999989271164
52,360,455200,5,0
52,360,455415,1,0
52,192,455843,1,0
486,18,456272,5,0
407,47,456486,1,8
328,76,456700,1,0
472,164,457129,1,4
314,222,457557,1,4
26,94,457986,5,0
105,123,458200,1,8
184,152,458415,1,0
40,240,458843,1,4
198,298,459272,1,4
488,164,459700,5,0
409,193,459915,1,8
330,222,460129,1,0
474,310,460557,1,4
316,368,460986,1,4
256,192,461200,12,0,463129
304,288,479817,5,0
312,280,479982,1,0
320,272,480147,1,0
360,192,480477,1,8
432,136,480807,2,0,B|400:88|328:104,1,110.399999078751
256,64,481466,1,0
256,72,481631,1,0
256,80,481796,1,8
192,136,482126,1,0
128,192,482455,6,0,B|168:264|168:264|248:248|280:320,1,220.799998157501,0|8
352,272,483445,2,0,B|320:208|264:192|264:192|288:144|264:96,1,220.799998157501
256,88,484269,1,0
248,80,484434,1,8
112,192,485093,6,8,B|152:248|152:248|152:344|256:336,1,220.799998157501,0|8
240,248,486082,1,0
232,160,486412,2,0,B|325:152|325:248|325:248|368:304,1,220.799998157501,0|8
416,232,487401,1,0
496,192,487731,6,0,B|464:128|392:152|392:152|360:128|360:64,1,220.799998157501,0|8
272,40,488720,2,0,B|264:80|272:120|296:152,1,110.399999078751
360,200,489380,2,0,B|304:176|248:200,1,110.399999078751,0|8
304,272,490039,5,0
296,272,490204,1,0
288,272,490369,2,0,B|232:264|232:264|192:256|168:208|176:152|224:136,1,220.799998157501,0|8
307,130,491358,1,0
317,42,491688,2,0,B|381:42|397:98|397:98|412:42|486:40,1,220.799998157501,0|8
472,128,492677,5,0
472,136,492842,1,0
472,144,493007,2,0,B|472:208|416:232,1,110.399999078751
384,152,493667,6,0,B|320:160|296:96,1,110.399999078751,8|0
128,152,494326,2,8,B|192:160|216:96,1,110.399999078751,8|0
256,184,494986,1,4
256,272,495315,6,0,B|256:328,2,55.1999995393753
336,232,495975,2,0,B|387:260|448:232,1,110.399999078751,0|8
388,160,496634,2,0,B|428:120|484:144|484:144|500:80|452:39,1,220.799998157501
368,80,497623,1,8
296,128,497953,5,0
288,136,498118,1,0
280,144,498283,1,8
200,104,498613,1,0
168,24,498942,2,0,B|104:40|112:112,1,110.399999078751,8|0
24,128,499602,2,0,B|64:160|112:136|112:136|192:152|192:240,1,220.799998157501,8|4
103,220,500591,5,0
101,230,500756,1,0
99,240,500921,1,0
168,296,501251,2,0,B|213:284|213:284|230:256|258:239,1,110.399999078751,0|8
336,272,501910,2,0,B|272:256|248:200|256:128|312:96,1,220.799998157501
232,56,502899,1,8
312,16,503229,6,0,B|296:152|448:160,1,220.799998157501
480,240,504218,1,8
392,232,504548,1,0
392,320,504878,6,0,B|328:312|312:248,1,110.399999078751
120,320,505537,2,0,B|184:312|200:248,1,110.399999078751
392,64,506197,2,0,B|328:72|312:136,1,110.399999078751
120,64,506856,2,0,B|184:72|200:136,1,110.399999078751
256,192,507516,5,0
168,208,507845,2,0,B|168:256|168:256|176:288|208:304,1,110.399999078751
344,176,508505,2,0,B|344:128|344:128|336:96|304:80,1,110.399999078751
232,136,509164,2,0,B|184:112|184:112|168:80|176:56,1,110.399999078751
280,248,509824,2,0,B|328:272|328:272|344:304|336:328,1,110.399999078751,0|4
224,32,526662,5,0
144,44,526855,1,0
132,124,527047,1,0
204,164,527239,1,0
256,104,527431,2,0,B|344:104|412:144,1,160
456,208,528008,1,0
468,288,528201,5,8
408,340,528393,2,0,B|364:340|316:364,1,80
288,288,528778,2,0,B|200:288|132:248,1,160
56,252,529355,1,0
56,252,529547,1,0
20,180,529739,2,0,B|36:88,1,80,8|0
104,136,530124,2,0,B|120:44,1,80
192,28,530508,5,4
348,68,530893,1,0
272,92,531085,1,8
148,196,531470,1,0
224,220,531662,1,8
384,244,532047,1,0
384,244,532431,1,0
304,236,532624,1,0
236,292,532816,2,0,B|156:332|68:324,2,160,8|0|4
236,292,533778,5,0
236,292,533970,1,0
236,292,534162,1,0
324,316,534355,5,8
404,304,534547,1,0
456,244,534739,1,0
424,172,534931,2,0,B|420:88|456:12,1,160
372,24,535508,1,0
228,92,535893,2,0,B|136:80,1,80,8|0
76,112,536278,1,0
76,112,536470,1,0
92,192,536662,6,0,B|172:216|188:312,1,160,8|0
240,372,537239,2,0,B|264:292|360:276,1,160,8|0
432,300,537816,2,0,B|352:276|336:180,1,160,8|0
336,184,538585,1,0
220,76,538970,5,8
104,52,539162,1,0
80,168,539355,1,8
196,196,539547,1,0
208,276,539739,2,0,B|292:284|380:252,1,160,4|0
440,284,540316,1,0
420,208,540508,6,0,B|419:167|432:124,1,80,8|0
492,80,540893,1,0
372,76,541085,2,0,B|328:144|344:236,1,160
300,296,541662,2,0,B|368:340|460:324,2,160,8|0|0
220,280,542624,1,0
220,280,542816,5,8
60,300,543201,1,0
60,300,543393,1,8
116,148,543778,1,0
116,148,543970,1,8
276,132,544355,1,0
216,280,544739,6,0,B|140:308|56:300,1,160,0|8
36,140,545508,2,0,B|120:112|196:120,1,160,0|4
328,36,546278,2,0,B|404:60,1,80,0|8
448,216,546855,2,0,B|372:192,1,80,0|8
296,224,547239,1,0
220,244,547431,2,0,B|60:196,2,160,0|0|8
276,300,548393,1,0
296,224,548585,1,8
296,224,548970,1,0
224,80,549355,6,0,B|308:96,2,80,0|0|8
132,160,549931,2,0,B|48:176,2,80
212,160,550508,1,0
276,208,550701,2,0,B|364:216|432:176,1,160
428,96,551278,2,0,B|428:272,2,160,8|0|4
364,48,552239,1,0
288,72,552431,6,0,B|200:88,1,80
140,48,552816,2,0,B|96:120|100:204,1,160,8|0
20,204,553393,2,0,B|64:276|60:360,1,160
132,324,553970,2,0,B|224:320,1,80
288,300,554355,1,8
360,332,554547,1,0
436,304,554739,6,0,B|464:216|448:128,1,160,0|4
400,84,555316,1,0
372,160,555508,1,0
452,144,555701,1,0
400,84,555893,2,0,B|436:64|500:56,2,80,8|0|0
324,60,556470,1,0
164,32,556855,5,0
88,56,557047,1,0
48,124,557239,2,0,B|60:164|56:216,1,80
120,256,557624,1,8
100,332,557816,6,0,B|176:356|260:324,1,160,0|4
300,256,558393,2,0,B|332:248|384:268,1,80
444,312,558778,1,0
484,244,558970,2,0,B|476:204|480:164,1,80,8|0
448,92,559355,2,0,B|360:80|288:112,1,160
236,56,559931,1,0
156,40,560124,2,0,B|128:120|48:172,1,160,0|8
59,164,560701,1,0
20,232,560893,6,0,B|32:320,1,80
108,332,561278,1,8
264,308,561662,1,0
340,328,561855,1,8
208,240,562239,1,0
220,160,562431,1,8
188,88,562624,1,0
112,64,562816,2,0,B|72:76|44:108,1,80
204,136,563201,2,0,B|292:112|340:40,1,160,0|8
412,32,563778,5,0
480,68,563970,1,8
492,148,564162,1,0
464,224,564355,1,4
456,144,579952,5,2
376,144,580282,1,0
336,72,580611,2,0,B|296:48|256:72,1,84.8000014152527,8|0
216,144,581271,1,2
296,144,581600,1,0
256,72,581930,2,0,B|216:48|176:72,1,84.8000014152527,8|0
136,144,582589,5,2
216,144,582919,1,0
176,72,583249,2,0,B|136:48|96:72,1,84.8000014152527,8|0
56,144,583908,1,2
96,216,584238,1,0
176,216,584567,2,0,B|232:216,2,42.4000007076264,8|0|0
96,216,585227,5,2
56,288,585556,1,0
136,288,585886,2,0,B|176:312|216:288,1,84.8000014152527,8|0
176,216,586545,1,2
96,216,586875,1,0
136,144,587205,2,0,B|176:120|216:144,1,84.8000014152527,8|0
256,216,587864,1,2
448,192,590501,6,8,B|424:156|376:136|328:156|304:192,1,169.600002830505,4|8
344,264,591490,1,0
264,264,591820,2,0,B|240:300|192:320|144:300|120:264,1,169.600002830505,2|8
160,192,592809,1,0
120,120,593139,6,0,B|144:84|192:64|240:84|264:120,1,169.600002830505,4|8
224,192,594128,1,0
304,192,594457,2,0,B|392:192,2,84.8000014152527,2|0|8
224,192,595446,1,0
144,192,595776,6,0,B|100:160|84:120|100:72|160:36,1,169.600002830505,4|8
224,48,596765,1,0
304,48,597095,2,0,B|304:136,1,84.8000014152527,2|0
304,216,597754,6,0,B|344:240|384:216,2,84.8000014152527,8|0|4
304,132,598743,2,8,B|264:108|224:132,1,84.8000014152527,0|8
224,216,599402,2,0,B|184:240|144:216,1,84.8000014152527,0|8
64,216,600062,1,8
104,144,600391,5,4
144,216,600721,1,0
256,192,601051,12,2,603358
256,192,603688,5,4
176,192,604018,1,0
216,120,604347,2,0,B|256:96|296:120,1,84.8000014152527,8|0
336,192,605007,1,2
288,264,605336,1,0
216,264,605666,2,0,B|176:288|136:264,1,84.8000014152527,8|0
176,192,606325,6,0,B|168:148|120:136,2,84.8000014152527,4|0|8
256,192,607315,1,0
336,192,607644,2,0,B|344:236|392:248,2,84.8000014152527,4|0|8
296,120,608633,1,0
256,192,608963,5,4
176,192,609293,1,0
216,264,609622,2,0,B|256:288|296:264,1,84.8000014152527,8|0
336,192,610282,1,2
296,120,610611,1,0
216,120,610941,2,0,B|192:80|216:40,1,84.8000014152527,8|0
288,80,611600,6,0,B|324:104|344:152|324:200|288:224,1,169.600002830505,4|8
216,264,612589,2,0,B|192:224|216:184,1,84.8000014152527,0|2
288,224,613249,1,0
288,304,613578,1,8
216,344,613908,1,0
136,312,614238,6,0,B|48:312,1,84.8000014152527,4|0
96,240,614897,2,0,B|196:240,1,84.8000014152527,8|0
264,240,615556,2,0,B|272:288|312:304,2,84.8000014152527,2|0|8
264,72,616875,6,0,B|352:72,1,84.8000014152527,4|0
264,152,617534,2,0,B|264:244,1,84.8000014152527,8|0
184,152,618194,2,0,B|88:152,1,84.8000014152527,2|0
184,72,618853,2,0,B|208:36|256:16|304:36|328:72,2,169.600002830505,8|0|8
184,232,620831,6,8,B|184:280|144:304,1,84.8000014152527
104,232,621490,2,0,B|20:232,2,84.8000014152527,0|2|4
88,328,635738,5,0
52,260,635970,2,2,B|84:212|48:172|48:172|8:132|56:76,1,190.399997843742,2|8
120,128,636668,1,8
256,336,637133,5,0
256,192,637598,2,0,B|460:192,1,190.399997843742
440,112,638296,2,4,B|392:24|256:24,1,190.399997843742
176,128,639226,1,4
64,192,639458,5,0
102,260,639691,1,0
164,312,639924,2,2,B|260:360|364:304,1,190.399997843742,4|8
256,192,640854,1,0
416,192,641319,1,0
496,192,641551,1,0
456,264,641784,1,0
456,88,642249,2,0,B|320:8|176:88,1,285.599996765614,0|4
256,336,643412,5,0
296,152,643877,1,0
296,232,644110,1,0
216,232,644342,1,0
216,152,644575,1,4
464,192,645040,1,0
464,192,645272,1,0
464,192,645505,1,4
48,192,645970,1,0
48,192,646203,1,0
48,192,646435,1,4
168,68,646900,2,4,B|256:4|352:72,3,190.399997843742
256,352,648993,5,0
256,192,649458,1,0
256,32,649924,1,0
104,32,650389,2,0,B|-16:120|-16:272|108:356,1,380.799995687485,4|0
160,296,651551,1,2
352,296,652017,1,4
184,72,652482,5,0
256,32,652714,1,0
256,112,652947,1,0
256,192,653179,1,0
256,352,653645,1,0
408,352,654110,2,0,B|528:264|528:112|404:28,1,380.799995687485,4|0
352,88,655272,1,2
160,88,655738,1,4
256,88,656203,5,0
256,168,656435,1,0
336,168,656668,1,0
400,248,656900,2,0,B|108:248,1,285.599996765614
48,352,657831,5,8
464,352,658296,1,0
464,352,658528,1,8
256,32,658993,1,0
256,32,659226,1,8
256,32,659458,1,8
256,296,659924,5,0
256,216,660156,1,0
176,216,660389,1,0
112,136,660621,2,0,B|404:136,1,285.599996765614
464,32,661551,5,8
48,32,662017,1,0
48,32,662249,1,8
256,352,662714,1,0
256,352,662947,1,0
256,352,663179,1,8
328,72,663645,5,0
256,32,663877,1,0
256,112,664110,1,0
256,192,664342,1,0
256,352,664807,1,0
104,352,665272,2,4,B|-16:264|-16:112|108:28,1,380.799995687485,4|0
160,88,666435,1,2
352,88,666900,1,0
184,312,667365,5,0
256,352,667598,1,0
256,272,667831,1,0
256,192,668063,1,0
256,32,668528,1,0
408,32,668993,2,0,B|528:120|528:272|404:356,1,380.799995687485,4|0
352,296,670156,1,2
160,296,670621,1,0
256,304,671086,5,0
256,224,671319,1,0
256,144,671551,1,0
256,64,671784,1,0
176,64,672017,1,0
96,64,672249,1,0
16,64,672482,1,0
16,144,672714,5,8
256,360,673179,1,0
256,360,673412,1,0
496,144,673877,1,0
496,144,674110,1,8
496,144,674342,1,8
256,80,674807,5,0
256,160,675040,1,0
256,240,675272,1,0
256,320,675505,1,0
336,320,675738,1,0
416,320,675970,1,0
496,320,676203,1,0
496,240,676435,5,8
256,24,676900,1,0
256,24,677133,1,8
16,240,677598,1,0
16,240,677831,1,8
16,240,678063,1,8
256,192,678528,12,4,680156
128,184,689906,6,0,B|0:184|0:40|168:40,1,273.600002609253,2|0
216,40,691106,2,0,B|320:40,1,91.200000869751,2|0
376,40,691706,2,8,B|512:40|512:312|352:312,1,364.800003479004
240,312,693506,6,0,B|48:312|48:216|224:216,1,273.600002609253,2|0
256,208,694706,1,2
400,184,695306,2,8,B|512:160|480:8|280:-8|224:104,1,364.800003479004
144,184,697106,6,0,B|144:352|360:344,1,273.600002609253,2|0
392,344,698306,1,2
392,200,698906,2,8,B|392:0|192:0|192:208,1,364.800003479004
192,304,700706,6,0,B|312:384|456:296,1,273.600002609253,2|0
448,232,701906,1,2
448,88,702506,2,8,B|312:88|180:60|436:224|312:176|160:176,1,364.800003479004
184,320,704306,6,0,B|336:384|416:240,1,273.600002609253,2|0
432,176,705506,1,2
424,32,706106,2,0,B|280:8|240:120,1,182.400001739502,8|2
216,136,707006,1,0
200,208,707306,1,8
192,352,707906,6,0,B|256:384|416:360|352:200,1,273.600002609253,2|0
344,160,709106,1,2
344,16,709706,2,8,B|512:8|520:160|504:248|392:256,1,364.800003479004
280,248,711506,6,0,B|144:248|144:104|296:104,1,273.600002609253,2|0
296,176,712706,1,2
440,176,713306,2,0,B|440:304|344:304,1,182.400001739502,8|2
272,304,714206,1,0
200,304,714506,1,8
64,256,715106,6,2,B|216:256|216:48,1,273.600002609253,2|0
264,16,716306,1,2
304,152,716906,2,8,B|304:320|304:360|520:360,1,364.800003479004
504,216,718706,6,2,B|504:24|200:16,1,364.800003479004
104,24,720506,1,8
104,240,721406,1,0
176,240,721706,1,8
320,240,722306,2,0,B|520:240|520:32|96:32,2,547.200005218506,2|8|2
176,240,726506,5,8
48,176,727106,1,2
32,32,727706,2,8,B|344:32|344:160,1,364.800003479004
256,192,729506,12,2,731306
256,192,743788,5,4
352,160,744145,2,0,B|344:96|272:88,1,99.9999985098839
160,224,744859,2,0,B|168:288|240:296,1,99.9999985098839
256,192,745573,1,8
256,196,745931,1,8
184,120,746288,6,0,B|112:48,2,99.9999985098839,0|0|8
256,192,747359,1,8
328,264,747716,2,0,B|400:336,2,99.9999985098839,0|0|8
424,240,748788,5,8
428,236,748966,1,0
432,232,749145,1,0
512,192,749502,1,4
424,144,749859,1,8
360,64,750216,2,0,B|360:0|296:0,1,99.9999985098839,8|0
264,96,750931,5,0
256,192,751288,1,8
248,288,751645,1,8
208,384,752002,6,0,B|148:384|148:320,1,99.9999985098839
88,240,752716,1,8
84,236,752895,1,0
80,232,753073,1,8
0,192,753431,1,0
88,144,753788,1,0
296,112,754502,6,0,B|328:176|256:216|184:176|216:112,1,199.999997019768,8|4
256,24,755573,1,8
256,20,755931,1,8
304,272,756288,6,0,B|256:248|208:272,1,99.9999985098839
256,360,757002,1,8
256,364,757359,1,8
204,192,757716,6,0,B|312:192,2,99.9999985098839,0|0|8
120,136,758788,1,8
256,48,759145,1,0
392,136,759502,1,0
168,144,759859,5,8
256,96,760216,1,8
256,100,760395,1,0
256,104,760573,1,0
344,144,760931,1,4
344,240,761288,5,8
256,288,761645,2,0,B|256:340,2,49.999999254942,8|0|0
168,240,762359,1,4
256,192,762716,1,8
256,196,763073,1,8
256,288,763431,5,0
256,96,763788,1,4
112,336,774222,6,0,B|144:368|208:352,1,95.1999989218712,2|0
304,256,774822,1,0
224,144,775122,1,0
320,48,775422,6,0,B|368:48|416:96,1,96.0000022888184,4|0
405,86,776322,1,2
48,256,776922,5,0
128,304,777222,1,2
208,256,777522,1,0
192,160,777822,1,8
112,192,778122,1,0
32,144,778422,2,0,B|40:92|96:64,1,96.0000022888184,2|0
208,256,779322,5,0
288,304,779622,1,2
384,272,779922,1,0
400,176,780222,2,0,B|352:160|320:112,1,96.0000022888184,2|0
324,118,781122,1,0
32,32,781722,5,0
80,112,782022,1,8
32,192,782322,1,0
80,272,782622,1,2
448,176,783822,5,2
368,224,784122,1,0
352,320,784422,1,0
256,352,784722,1,0
176,288,785022,6,0,B|148:252|156:184,1,96.0000022888184,4|0
208,112,785922,1,2
48,64,786522,1,0
32,160,786822,1,2
96,224,787122,1,0
192,208,787422,5,8
272,256,787722,1,0
352,208,788022,2,0,B|360:156|416:128,1,96.0000022888184,0|2
464,320,789222,1,2
288,368,789822,6,0,B|144:320,1,144.000003433228
64,288,791022,2,0,B|48:240|64:192,1,96.0000022888184,8|0
192,80,791922,2,0,B|208:128|192:176,1,96.0000022888184,2|0
64,304,793422,5,2
160,336,793722,1,0
240,288,794022,1,0
240,192,794322,1,0
320,144,794622,6,0,B|368:144|416:192,1,96.0000022888184,4|0
448,272,795522,1,0
96,192,796122,5,0
192,160,796422,1,0
288,176,796722,1,0
320,80,797022,1,8
240,32,797322,1,0
160,80,797622,2,0,B|108:72|80:16,1,96.0000022888184,0|2
112,192,798522,5,0
176,272,798822,1,0
128,352,799122,1,0
32,336,799422,2,0,B|0:288|16:240,1,96.0000022888184,8|0
32,160,800322,1,0
368,320,800922,5,0
320,240,801222,1,0
368,160,801522,1,0
320,80,801822,1,2
96,96,803022,5,2
144,176,803322,1,0
112,272,803622,1,0
32,320,803922,1,0
0,240,804222,6,0,B|-8:192|32:136,1,96.0000022888184,4|0
112,112,805122,1,0
256,272,805722,1,0
176,304,806022,1,0
112,240,806322,1,0
144,144,806622,5,2
224,176,806922,1,0
304,128,807222,2,0,B|336:88|316:24,1,96.0000022888184,0|8
64,176,808422,1,0
192,352,809022,6,0,B|336:304,1,144.000003433228
192,208,810222,2,0,B|176:160|188:112,1,96.0000022888184
320,32,811122,2,0,B|336:80|320:128,1,96.0000022888184
256,192,820571,12,0,823321
48,56,824321,5,0
112,56,824571,2,2,B|192:64|192:144,1,119.999996423721,2|0
156,176,825321,1,0
120,128,825571,2,2,B|44:132|40:208,1,119.999996423721,2|0
112,200,826321,2,0,B|208:280,2,119.999996423721
352,192,828321,5,0
328,136,828571,2,2,B|256:40,1,119.999996423721
208,72,829321,1,0
232,128,829571,2,2,B|128:200,1,119.999996423721
160,248,830321,1,0
256,320,830821,1,0
352,248,831321,1,0
184,192,832071,5,0
184,192,832321,1,0
344,112,833071,5,0
344,112,833321,1,0
352,288,834071,5,0
352,288,834321,2,0,B|232:288,2,119.999996423721
256,136,836071,5,0
304,168,836321,1,0
248,192,836571,2,2,B|160:288,1,119.999996423721
120,240,837321,1,0
136,184,837571,2,2,B|200:80,1,119.999996423721
256,80,838321,2,0,B|388:80,2,119.999996423721
432,104,840071,6,0,B|368:104,2,59.9999982118607,0|0|2
336,168,841071,2,0,B|292:244,2,59.9999982118607,2|0|2
280,272,842071,1,0
224,272,842321,1,0
136,192,842821,1,0
224,112,843321,1,0
224,112,843571,1,4
224,112,843821,1,4
288,216,844321,6,0,B|256:336,2,119.999996423721,0|0|2
256,96,845821,1,0
176,192,846321,1,0
296,192,846821,1,0
296,192,847321,1,0
416,192,847821,1,0
416,192,848321,5,0
368,80,848821,2,0,B|280:176,1,119.999996423721,0|2
216,72,849821,2,0,B|112:176,1,119.999996423721,0|4
131,156,850571,1,4
256,192,850821,12,0,854321
136,344,869417,5,2
40,344,869602,1,0
88,256,869788,1,0
376,40,870158,1,0
472,40,870343,1,4
424,128,870528,1,2
256,192,870899,1,0
168,224,871084,6,0,B|176:288|256:320|336:288|344:220,1,240
256,192,871825,1,0
24,24,872380,1,0
120,24,872565,2,0,B|280:24,1,160
440,128,873306,2,0,B|272:128,1,160
120,232,874047,2,0,B|284:232,1,160
440,336,874788,2,4,B|264:336,2,160,0|4|4
160,72,876269,5,0
352,72,876639,1,0
360,264,877010,2,0,B|376:344|256:392|128:352|148:256,1,320
256,104,878121,1,0
144,264,878491,2,0,B|136:176|256:140|368:176|360:272,1,320
256,40,879788,5,0
256,48,879880,1,0
256,56,879973,2,0,B|232:136|280:136|256:216,1,160
72,160,881084,2,0,B|32:184|40:232,1,80
136,232,881454,2,0,B|152:312|240:248|256:328,2,160
256,192,882288,12,0,882936
112,64,883306,5,0
208,40,883491,1,0
176,136,883676,2,0,B|208:224|152:296,1,160
96,216,884232,2,0,B|56:136|112:64,4,160
184,168,885899,6,0,B|336:240,1,160
360,144,886454,1,0
424,216,886639,2,0,B|456:312|352:336,1,160
328,240,887195,2,0,B|224:256|256:360,4,160
424,216,888862,6,0,B|528:200|488:96,1,160
400,128,889417,1,0
372,40,889602,2,0,B|272:72|312:168,1,160
336,248,890158,5,2
160,304,890528,1,2
208,120,890899,1,2
272,184,891084,1,2
184,216,891269,1,2
248,280,891454,6,0,B|264:328|232:360,1,80
160,304,891825,2,0,B|72:264|104:160,1,160
112,80,892380,1,0
192,136,892565,2,0,B|280:176|328:88,1,160
240,56,893121,5,2
432,88,893491,1,2
320,240,893862,1,2
376,168,894047,1,2
416,256,894232,1,8
352,328,894417,2,0,B|312:352|272:320,1,80,2|0
224,248,894788,6,0,B|168:176|64:224,1,160,4|0
136,296,895343,1,0
79,217,895528,2,0,B|48:128|136:72,1,160
200,16,896084,2,0,B|248:112|168:168,4,160
128,80,897751,6,0,B|56:152|112:224,1,160
200,248,898306,1,0
136,320,898491,2,0,B|224:368|296:288,1,160
288,208,899047,2,0,B|376:200|344:280|432:272,4,160
280,304,900714,6,0,B|224:368|128:336,1,160,4|0
40,312,901269,1,0
112,248,901454,2,0,B|168:184|264:216,1,160
136,64,902195,5,2
328,64,902565,1,2
232,232,902936,1,2
424,232,903306,5,2
424,328,903491,1,0
344,280,903676,2,0,B|312:184|400:144,1,160
312,192,904232,1,0
280,88,904417,2,0,B|312:184|216:224,1,160
200,128,904973,5,0
104,128,905158,1,0
8,128,905343,1,0
312,256,905714,1,0
408,256,905899,1,4
504,256,906084,1,4
256,192,906454,5,0
312,120,906639,1,4
256,384,920679,5,4
336,264,921041,1,0
336,264,921221,1,0
336,264,921402,1,2
176,264,921763,1,0
176,264,921944,1,0
176,264,922125,1,2
176,120,922486,1,0
176,120,922667,1,0
176,120,922848,1,4
336,120,923209,1,0
276,364,923571,6,0,B|236:316|248:256|296:248|308:188|268:140,1,239.999992847443,0|8
216,192,924113,1,8
164,248,924294,2,0,B|124:200|136:140|184:132|196:72|156:24,1,239.999992847443,0|8
104,80,924836,1,0
40,44,925016,1,4
8,120,925197,5,0
8,192,925378,1,8
8,264,925559,1,8
8,336,925739,1,0
76,308,925920,1,8
76,308,926101,1,8
236,364,926462,6,0,B|276:316|264:256|216:248|204:188|244:140,1,239.999992847443,0|8
296,192,927004,1,8
348,248,927185,2,0,B|388:200|376:140|328:132|316:72|356:24,1,239.999992847443,0|8
408,80,927727,1,0
472,44,927908,1,4
504,120,928089,5,0
504,192,928269,1,8
504,264,928450,1,8
504,336,928631,1,0
436,308,928812,1,8
436,308,928992,1,8
32,192,929354,6,0,B|-32:156|-48:96|-32:36|32:0,1,239.999992847443,0|8
76,60,929896,1,8
116,0,930077,2,0,B|180:36|196:96|180:156|116:192,1,239.999992847443,0|8
76,132,930619,1,0
76,132,930800,1,4
76,272,930980,5,0
148,272,931161,1,0
220,272,931342,1,8
292,272,931522,1,0
256,208,931703,1,8
256,208,931884,1,8
152,92,932245,6,0,B|200:24|312:24|360:92,1,239.999992847443,4|8
296,336,932968,2,0,B|376:316|432:232|396:148,1,239.999992847443,4|8
112,152,933691,2,0,B|84:236|132:328|248:340,1,239.999992847443,4|8
256,192,934414,1,4
256,192,934775,1,8
420,288,935137,6,0,B|484:252|500:192|484:132|420:96,1,239.999992847443,0|8
376,156,935679,1,0
336,96,935860,2,0,B|272:132|256:192|272:252|336:288,1,239.999992847443,0|8
376,228,936402,1,0
376,228,936583,1,4
364,368,936763,5,0
292,368,936944,1,8
220,368,937125,1,0
148,368,937306,1,4
184,304,937486,1,0
184,304,937667,1,8
44,248,938028,6,0,B|-20:212|-36:152|-20:92|44:56,1,239.999992847443,4|8
88,116,938571,1,0
128,56,938751,2,0,B|192:92|208:152|192:212|128:248,1,239.999992847443,4|8
88,188,939294,1,0
88,188,939474,1,4
256,240,939655,5,0
220,304,939836,1,8
292,304,940016,1,0
364,304,940197,1,4
436,304,940378,1,0
436,304,940559,1,8
512,8,940920,6,0,B|464:48|404:36|396:-12|336:-24|288:16,1,239.999992847443,4|8
256,80,941462,1,8
224,144,941643,2,0,B|176:184|116:172|108:124|48:112|0:152,1,239.999992847443,4|8
56,204,942185,1,0
0,248,942366,1,4
0,320,942547,5,0
64,284,942727,1,8
128,320,942908,1,0
192,284,943089,1,4
260,324,943269,1,0
260,324,943450,1,8
224,56,943812,6,0,B|308:28|400:76|412:192,1,239.999992847443,4|8
160,88,944534,2,0,B|88:136|92:240|160:300,1,239.999992847443,4|8
400,232,945257,2,0,B|384:320|292:376|188:328,1,239.999992847443,4|8
224,164,945980,5,0
212,152,946101,1,0
200,140,946221,1,0
188,128,946342,1,8
176,116,946462,1,0
164,104,946583,1,0
152,92,946703,6,0,B|200:24|312:24|360:92,1,239.999992847443,4|8
296,336,947426,2,0,B|376:320|432:232|396:152,1,239.999992847443,4|8
112,152,948149,2,0,B|84:236|132:328|248:340,1,239.999992847443,4|8
256,56,948872,1,4
224,92,948992,1,0
232,140,949113,1,0
256,164,949233,1,8
288,184,949354,1,0
288,236,949474,1,0
256,272,949595,1,2
256,192,949685,12,0,952848
