osu file format v14

[General]
AudioFilename: Various Artists - drop pop candy (Multi-Language Version).mp3
AudioLeadIn: 0
PreviewTime: 53521
Countdown: 0
SampleSet: Soft
StackLeniency: 0.2
Mode: 0
LetterboxInBreaks: 0
WidescreenStoryboard: 1

[Editor]
Bookmarks: 1945,225098
DistanceSpacing: 0.5
BeatDivisor: 4
GridSize: 4
TimelineZoom: 1

[Metadata]
Title:drop pop candy (Multi-Language Version)
TitleUnicode:drop pop candy (Multi-Language Version)
Artist:Various Artists
ArtistUnicode:Various Artists
Creator:Gero
Version:Unrequited Love
Source:
Tags:VOCALOID ボーカロイド ニコニコ Nico Nico Douga SoundCloud Edited Self Cover Rin Kagamine 鏡音リン Megurine Luka 巡音ルカ Rin*Luka オリジナル No title+ Plus and No title- Minus Giga-P GigaP ギガP Key Mochizuki けい Okiku お菊 REOL れをる Ilonka Obilinovic ilonqueen feat. Panqueque Kuraiinu + JubyPhonic Latin American Spanish Español Latino Americano Latinoamericano English Japanese Nihongo 日本語 UNDERTALE Sans & Papyrus the Skeleton Video Game Reference Determination Determinada Referencia Videojuego Juego
BeatmapID:1083694
BeatmapSetID:477623

[Difficulty]
HPDrainRate:7
CircleSize:4.5
OverallDifficulty:7
ApproachRate:8
SliderMultiplier:1.6
SliderTickRate:2

[Events]
//Background and Video events
Video,0,"Video.avi"
0,0,"BG.jpg",0,0
//Break Periods
//Storyboard Layer 0 (Background)
//Storyboard Layer 1 (Fail)
//Storyboard Layer 2 (Pass)
//Storyboard Layer 3 (Foreground)
//Storyboard Sound Samples

[TimingPoints]
1945,461.538461538462,4,2,1,40,1,0
7714,-100,4,2,1,60,0,0
8868,-100,4,2,1,70,0,0
9329,-100,4,2,1,80,0,0
31368,-100,4,2,1,50,0,0
31483,-100,4,2,1,80,0,0
42329,-100,4,2,1,50,0,0
42445,-100,4,2,1,80,0,0
46137,-100,4,2,1,50,0,0
46252,-100,4,2,1,80,0,0
53637,-100,4,2,1,90,0,1
68291,-100,4,2,1,90,0,0
68423,461.538461538462,4,2,1,90,1,1
83175,461.538461538462,4,2,1,80,1,0
105213,-100,4,2,1,50,0,0
105329,461.538461538462,4,2,1,80,1,0
116175,-100,4,2,1,50,0,0
116290,-100,4,2,1,80,0,0
119982,-100,4,2,1,50,0,0
120098,-100,4,2,1,80,0,0
127482,-100,4,2,1,90,0,1
142136,-100,4,2,1,90,0,0
142252,-100,4,2,1,90,0,1
157021,-100,4,2,1,80,0,0
173636,-100,4,2,1,90,0,1
188290,-100,4,2,1,90,0,0
188405,-100,4,2,1,90,0,1
203175,-100,4,2,1,80,0,0
210444,-100,4,2,1,50,0,0
210559,-100,4,2,1,80,0,0

[Colours]
Combo1 : 157,157,79
Combo2 : 220,118,143
Combo3 : 102,121,187
Combo4 : 94,176,100
Combo5 : 203,140,114
Combo6 : 133,129,129
Combo7 : 236,130,60
Combo8 : 66,202,171
SliderBorder : 255,255,255
SliderTrackOverride : 99,222,219

[HitObjects]
439,230,1945,6,0,P|450:192|439:154,1,80,2|2,0:0|0:0,0:0:0:0:
358,192,2406,2,0,P|347:230|358:268,1,80,4|2,0:1|0:3,0:0:0:0:
366,276,2752,1,0,0:0:0:0:
374,284,2868,2,0,B|342:261|342:261|301:261,1,80,2|2,0:0|0:0,0:0:0:0:
211,261,3329,2,0,B|170:261|170:261|138:284,1,80,2|2,0:1|0:1,0:0:0:0:
75,346,3791,5,2,0:0:0:0:
12,283,4021,1,2,0:0:0:0:
75,346,4252,1,2,0:1:0:0:
12,283,4483,2,0,B|44:240|32:192|32:192|16:130,1,160,2|2,0:0|0:0,0:0:0:0:
78,68,5175,1,2,0:0:0:0:
15,5,5406,1,2,0:0:0:0:
78,68,5637,6,0,P|116:79|154:68,1,80,2|2,0:0|0:0,0:0:0:0:
218,128,6098,2,0,P|256:117|294:128,1,80,4|2,0:1|0:3,0:0:0:0:
302,136,6445,1,0,0:0:0:0:
310,144,6560,1,2,0:0:0:0:
372,81,6791,1,2,0:0:0:0:
434,143,7021,1,2,0:1:0:0:
371,205,7252,6,0,P|341:277|371:349,1,160,2|4,0:1|3:0,0:0:0:0:
379,357,7829,1,4,3:0:0:0:
387,365,7945,1,4,3:0:0:0:
256,336,8175,1,4,3:0:0:0:
248,328,8291,1,4,3:0:0:0:
240,320,8406,2,0,L|202:333,3,40,4|4|2|4,3:0|3:0|3:0|3:0,0:0:0:0:
180,296,8868,1,8,1:2:0:0:
117,358,9098,1,8,1:2:0:0:
54,295,9329,6,0,B|54:226|54:226|62:206|62:206|62:136,1,160,4|8,0:0|0:0,0:0:0:0:
124,74,10021,1,0,0:0:0:0:
186,136,10252,2,0,P|256:169|326:136,1,160,2|8,0:0|0:0,0:0:0:0:
388,74,10945,1,0,0:0:0:0:
450,136,11175,6,0,B|450:187|450:187|456:204|456:204|456:254,1,120,2|2,0:0|0:0,0:0:0:0:
487,286,11637,1,8,0:0:0:0:
424,348,11868,1,2,0:0:0:0:
413,354,11983,1,0,0:0:0:0:
402,360,12098,1,0,0:0:0:0:
317,309,12329,1,2,0:0:0:0:
328,303,12445,1,0,0:0:0:0:
339,297,12560,1,8,0:0:0:0:
401,234,12791,1,8,0:0:0:0:
309,181,13021,6,0,B|274:201|256:239|256:239|238:201|203:181,1,160,2|8,0:0|0:0,0:0:0:0:
256,112,13714,1,0,0:0:0:0:
310,44,13945,2,0,B|348:44|348:44|392:44|417:80,2,120,2|2|2,0:0|0:0|0:0,0:0:0:0:
256,112,14868,5,2,0:0:0:0:
202,44,15098,2,0,L|178:11,2,40,0|0|8,0:0|0:0|0:0,0:0:0:0:
256,112,15560,2,0,L|256:152,2,40,4|4|4,3:0|3:0|3:0,0:0:0:0:
310,44,16021,2,0,L|333:11,2,40,4|4|8,3:0|3:0|0:0,0:0:0:0:
364,112,16483,1,8,0:0:0:0:
310,180,16714,6,0,B|298:218|298:218|310:256,1,80,4|0,0:0|0:0,0:0:0:0:
222,332,17175,2,0,B|234:294|234:294|222:256,1,80,8|0,0:0|0:0,0:0:0:0:
145,295,17637,2,0,L|290:364,1,160,4|8,0:3|0:0,0:0:0:0:
366,294,18329,6,0,P|404:284|442:294,1,80,0|4,0:0|0:3,0:0:0:0:
288,238,18791,2,0,B|256:262|256:262|224:238,1,80,0|8,0:0|0:0,0:0:0:0:
69,294,19252,2,0,P|107:284|145:295,1,80,0|4,0:0|0:3,0:0:0:0:
107,375,19714,2,0,L|37:230,1,160
100,168,20406,5,4,0:3:0:0:
162,230,20637,2,0,P|173:268|162:306,2,80,0|8|0,0:0|0:0|0:0,0:0:0:0:
100,168,21329,2,0,P|84:111|100:54,1,120,4|0,0:3|0:0,0:0:0:0:
131,22,21791,2,0,L|51:22,1,80,8|0,0:0|0:0,0:0:0:0:
193,84,22252,1,4,0:3:0:0:
193,84,22483,6,0,B|216:116|256:132|256:132|296:116|319:84,1,160
256,24,23175,1,4,0:3:0:0:
193,84,23406,2,0,B|193:124|193:124|180:162,1,80,0|8,0:0|0:0,0:0:0:0:
256,208,23868,1,0,0:0:0:0:
331,254,24098,5,4,0:3:0:0:
256,300,24329,1,0,0:0:0:0:
181,254,24560,1,8,0:0:0:0:
256,208,24791,1,0,0:0:0:0:
181,254,25021,2,0,P|109:224|37:254,1,160,4|8,0:3|0:0,0:0:0:0:
184,160,25714,6,0,P|256:190|328:160,1,160
390,97,26406,1,8,0:0:0:0:
452,159,26637,1,2,0:3:0:0:
460,167,26752,1,2,0:3:0:0:
468,175,26868,2,0,L|410:231,1,80,4|0,0:3|0:0,0:0:0:0:
473,293,27329,2,0,L|415:349,1,80,8|0,0:0|0:0,0:0:0:0:
353,287,27791,6,0,B|273:287|273:287|216:343,1,160,2|10,0:0|0:0,0:0:0:0:
160,276,28483,1,2,0:0:0:0:
100,211,28714,2,0,B|95:192|95:192|100:173,2,40,2|2|2,0:0|0:0|0:0,0:0:0:0:
160,276,29175,1,8,0:0:0:0:
218,211,29406,2,0,B|223:192|223:192|218:173,2,40,2|0|4,0:0|0:0|0:3,0:0:0:0:
160,275,29868,6,0,L|304:205,1,160,2|2,0:0|0:0,0:0:0:0:
367,144,30560,2,0,P|404:134|442:144,1,80,2|0,0:0|0:0,0:0:0:0:
294,85,31021,2,0,P|256:96|218:85,1,80,10|0,0:0|0:0,0:0:0:0:
209,76,31368,1,4,0:1:0:0:
200,67,31483,6,0,P|230:139|200:211,1,160,4|8,0:0|0:0,0:0:0:0:
256,280,32175,1,0,0:0:0:0:
312,211,32406,2,0,B|354:211|354:211|381:237,1,80,4|0,0:3|0:0,0:0:0:0:
200,211,32868,2,0,B|158:211|158:211|131:237,1,80,8|0,0:0|0:0,0:0:0:0:
219,357,33329,6,0,P|256:370|293:357,2,80,4|0|8,0:3|0:0|0:0,0:0:0:0:
188,276,34021,2,0,B|236:276|256:242|256:242|276:276|324:276,1,160
386,338,34714,1,8,0:0:0:0:
448,275,34945,1,0,0:0:0:0:
385,212,35175,6,0,L|498:98,1,160,4|8,0:3|0:0,0:0:0:0:
435,36,35868,1,0,0:0:0:0:
372,98,36098,2,0,P|334:109|296:98,1,80,4|0,0:3|0:0,0:0:0:0:
157,159,36560,2,0,P|195:149|233:160,1,80,8|0,0:0|0:0,0:0:0:0:
295,222,37021,5,4,0:3:0:0:
232,284,37252,1,0,0:0:0:0:
308,236,37483,1,8,0:0:0:0:
245,298,37714,2,0,L|188:354,1,80,0|4,0:0|0:3,0:0:0:0:
126,292,38175,1,0,0:0:0:0:
187,229,38406,2,0,P|200:192|188:155,1,80,8|0,0:0|0:0,0:0:0:0:
126,92,38868,6,0,P|188:135|250:92,1,160,4|8,0:0|0:0,0:0:0:0:
312,30,39560,1,0,0:0:0:0:
312,30,39675,1,0,0:0:0:0:
312,30,39791,2,0,B|350:18|350:18|388:30,1,80,4|0,0:3|0:0,0:0:0:0:
428,109,40252,2,0,B|390:121|390:121|352:109,1,80,8|0,0:0|0:0,0:0:0:0:
490,45,40714,6,0,L|443:197,1,160,4|8,0:3|0:0,0:0:0:0:
380,260,41406,1,0,0:0:0:0:
442,322,41637,2,0,B|464:312|464:312|479:312,2,40,4|2|2,0:3|0:3|0:3,0:0:0:0:
380,260,42098,2,0,L|307:292,1,80,8|4,0:0|0:1,0:0:0:0:
232,244,42560,6,0,B|196:232|174:192|174:192|196:152|232:140,1,160,4|8,0:2|0:0,0:0:0:0:
304,192,43252,1,0,0:0:0:0:
232,244,43483,2,0,P|194:255|156:244,1,80,4|2,0:3|0:3,0:0:0:0:
124,212,43829,2,0,P|142:268|124:324,1,120,2|0,0:3|0:0,0:0:0:0:
115,332,44291,1,0,0:0:0:0:
106,340,44406,6,0,B|148:340|148:340|174:366,1,80,4|0,0:3|0:0,0:0:0:0:
256,328,44868,1,8,0:0:0:0:
337,366,45098,1,2,0:3:0:0:
337,366,45214,1,2,0:3:0:0:
337,366,45329,2,0,B|364:340|364:340|406:340,1,80,4|2,0:3|0:3,0:0:0:0:
414,331,45675,1,2,0:3:0:0:
422,322,45791,1,8,0:0:0:0:
372,248,46021,1,0,0:0:0:0:
364,239,46137,1,4,0:1:0:0:
356,230,46252,6,0,B|344:192|344:192|356:154,1,80,4|0,0:0|0:0,0:0:0:0:
418,91,46714,1,8,0:0:0:0:
355,28,46945,1,0,0:0:0:0:
292,90,47175,6,0,P|256:105|220:90,1,80,4|0,0:0|0:0,0:0:0:0:
157,28,47637,1,8,0:0:0:0:
94,91,47868,1,0,0:0:0:0:
156,154,48098,6,0,B|168:192|168:192|156:230,1,80,4|0,0:0|0:0,0:0:0:0:
93,292,48560,1,8,0:0:0:0:
155,354,48791,1,0,0:0:0:0:
93,292,49021,6,0,L|36:235,1,80,4|0,0:0|0:0,0:0:0:0:
156,230,49483,2,0,L|212:286,1,80,8|0,0:0|0:0,0:0:0:0:
275,224,49945,6,0,P|311:209|347:224,1,80,4|0,0:0|0:0,0:0:0:0:
481,160,50406,2,0,P|445:176|409:161,1,80,8|0,0:0|0:0,0:0:0:0:
346,98,50868,5,4,0:0:0:0:
346,98,50983,1,0,0:0:0:0:
346,98,51098,1,0,0:0:0:0:
408,35,51329,1,8,0:0:0:0:
346,98,51560,1,8,0:0:0:0:
283,35,51791,6,0,L|169:148,1,160,4|8,0:0|3:0,0:0:0:0:
88,114,52483,1,8,3:0:0:0:
79,122,52598,1,8,3:0:0:0:
70,130,52714,1,8,3:0:0:0:
7,192,52945,1,8,3:0:0:0:
69,254,53175,2,0,B|89:254|89:254|117:254|142:279,1,80,8|2,1:2|0:3,0:0:0:0:
216,232,53637,6,0,B|252:249|252:249|288:232,1,80,4|2,0:0|0:0,0:0:0:0:
426,169,54098,2,0,B|390:152|390:152|354:169,1,80,10|2,1:2|0:0,0:0:0:0:
481,238,54560,1,4,0:3:0:0:
481,238,54675,1,2,0:0:0:0:
481,238,54791,2,0,P|516:169|481:100,1,160,2|2,0:0|0:0,0:0:0:0:
419,38,55483,5,4,0:3:0:0:
357,100,55714,1,2,0:0:0:0:
419,38,55945,2,0,L|495:14,1,80,10|2,1:2|0:0,0:0:0:0:
357,100,56406,2,0,L|333:23,1,80,4|2,0:3|0:0,0:0:0:0:
418,161,56868,2,0,L|341:184,1,80,10|2,1:2|0:3,0:0:0:0:
332,192,57214,1,2,0:0:0:0:
323,200,57329,6,0,L|169:245,1,160,4|10,0:3|1:2,0:0:0:0:
107,307,58021,1,2,0:0:0:0:
44,244,58252,2,0,P|43:204|62:169,1,80,4|2,0:3|0:0,0:0:0:0:
125,106,58714,1,8,1:2:0:0:
187,168,58945,1,2,0:0:0:0:
187,168,59060,1,2,0:0:0:0:
187,168,59175,6,0,P|256:203|325:168,1,160,4|8,0:3|1:2,0:0:0:0:
387,106,59868,1,2,0:0:0:0:
387,106,59983,1,2,0:0:0:0:
387,106,60098,2,0,L|358:78,2,40,4|2|2,0:3|0:3|0:0,0:0:0:0:
449,169,60560,2,0,P|468:204|468:244,1,80,10|2,1:2|0:3,0:0:0:0:
405,307,61021,5,4,0:0:0:0:
467,369,61252,1,2,0:0:0:0:
405,307,61483,2,0,B|365:307|365:307|336:335,1,80,10|2,1:2|0:0,0:0:0:0:
274,272,61945,1,4,0:3:0:0:
274,272,62060,1,2,0:0:0:0:
274,272,62175,2,0,L|161:385,1,160,2|2,0:0|0:0,0:0:0:0:
98,322,62868,6,0,P|87:284|98:246,1,80,4|2,0:3|0:0,0:0:0:0:
159,106,63329,2,0,P|169:145|159:183,1,80,10|2,1:2|0:0,0:0:0:0:
80,145,63791,1,4,0:3:0:0:
80,145,63906,1,2,0:3:0:0:
80,145,64021,1,2,0:0:0:0:
159,183,64252,1,10,1:2:0:0:
238,144,64483,1,2,0:3:0:0:
159,183,64714,6,0,L|102:239,1,80,4|0,0:3|0:0,0:0:0:0:
93,231,65060,1,0,0:0:0:0:
84,222,65175,2,0,L|140:278,1,80,10|2,1:2|0:0,0:0:0:0:
132,287,65521,1,2,0:3:0:0:
123,295,65637,1,4,0:3:0:0:
185,357,65868,2,0,P|256:325|327:357,1,160,2|2,0:0|0:0,0:0:0:0:
335,365,66445,1,2,0:0:0:0:
343,373,66560,5,4,0:3:0:0:
405,310,66791,2,0,B|424:315|424:315|443:310,2,40,0|0|8,0:0|0:0|1:2,0:0:0:0:
342,247,67252,1,2,0:0:0:0:
342,247,67368,1,2,0:0:0:0:
342,247,67483,1,4,0:3:0:0:
404,184,67714,5,8,1:3:0:0:
404,184,67829,1,6,1:3:0:0:
404,184,67945,2,0,B|423:189|423:189|442:184,3,40,8|14|8|14,1:2|1:3|1:2|0:3,0:0:0:0:
475,145,68423,6,0,P|464:182|474:220,1,80,4|2,0:0|0:0,0:0:0:0:
391,350,68884,2,0,P|401:312|391:274,1,80,10|2,1:2|0:0,0:0:0:0:
200,311,69346,2,0,P|256:330|312:311,1,120,6|2,0:3|0:0,0:0:0:0:
352,292,69807,1,8,1:2:0:0:
292,228,70038,1,2,0:0:0:0:
292,228,70153,1,0,0:0:0:0:
292,228,70269,6,0,B|256:246|256:246|220:228,1,80,4|2,0:3|0:0,0:0:0:0:
86,165,70730,2,0,B|122:147|122:147|158:165,1,80,10|2,1:2|0:0,0:0:0:0:
45,237,71192,2,0,L|16:120,1,120,6|2,0:3|0:0,0:0:0:0:
52,96,71653,1,8,1:2:0:0:
128,52,71884,1,2,0:0:0:0:
128,52,71999,1,0,0:0:0:0:
128,51,72115,6,0,B|168:51|168:51|196:79,1,80,6|2,0:3|0:0,0:0:0:0:
384,51,72576,2,0,B|344:51|344:51|315:79,1,80,10|2,1:2|0:0,0:0:0:0:
200,168,73038,2,0,B|232:168|256:186|256:186|280:168|312:168,1,120,6|2,0:3|0:0,0:0:0:0:
348,192,73499,1,8,1:2:0:0:
294,261,73730,1,2,0:0:0:0:
294,261,73846,1,0,0:0:0:0:
294,261,73961,6,0,P|256:272|218:261,1,80,6|2,0:3|0:0,0:0:0:0:
79,197,74423,2,0,P|117:187|155:198,1,80,10|2,1:2|0:0,0:0:0:0:
117,279,74884,2,0,L|104:317,2,40,6|2|2,0:3|0:3|0:0,0:0:0:0:
79,197,75346,2,0,L|104:121,1,80,10|2,1:2|0:0,0:0:0:0:
32,68,75807,5,6,0:3:0:0:
103,14,76038,1,2,0:0:0:0:
103,14,76153,1,2,0:0:0:0:
103,14,76269,2,0,P|141:3|179:14,1,80,10|2,1:2|0:0,0:0:0:0:
293,92,76730,2,0,P|255:102|218:92,1,80,6|2,0:3|0:0,0:0:0:0:
328,68,77076,2,0,L|281:133,1,80,2|0,0:0|0:0,0:0:0:0:
313,164,77423,1,2,0:0:0:0:
480,316,77653,5,4,0:0:0:0:
409,370,77884,1,2,0:0:0:0:
409,370,77999,1,2,0:0:0:0:
409,370,78115,2,0,P|371:381|333:370,1,80,10|2,1:2|0:0,0:0:0:0:
218,291,78576,2,0,P|256:281|294:292,1,80,6|2,0:3|0:0,0:0:0:0:
184,316,78923,2,0,L|230:250,1,80,2|0,0:0|0:0,0:0:0:0:
199,220,79269,1,2,0:0:0:0:
256,100,79499,5,4,0:0:0:0:
294,15,79730,1,2,0:0:0:0:
294,15,79846,1,2,0:0:0:0:
294,15,79961,2,0,B|256:3|256:3|218:15,1,80,10|2,1:2|0:0,0:0:0:0:
201,103,80423,2,0,P|256:124|311:103,1,120,6|2,0:3|0:0,0:0:0:0:
344,76,80884,1,10,1:2:0:0:
408,136,81115,1,2,0:0:0:0:
408,136,81230,1,2,0:3:0:0:
408,136,81346,5,6,0:3:0:0:
344,198,81576,2,0,P|315:224|300:261,1,80,2|10,0:0|1:2,0:0:0:0:
167,198,82038,1,2,0:0:0:0:
167,198,82153,1,2,0:3:0:0:
167,198,82269,2,0,P|196:224|211:261,1,80,6|2,0:3|0:0,0:0:0:0:
288,348,82730,2,0,B|256:372|256:372|224:348,1,80,10|2,1:2|0:0,0:0:0:0:
215,339,83076,1,2,0:3:0:0:
206,330,83175,5,6,0:3:0:0:
156,256,83405,2,0,P|256:200|356:256,1,240,2|4,0:0|0:3,0:0:0:0:
418,318,84328,2,0,L|446:346,2,40,2|2|8,0:0|0:3|0:0,0:0:0:0:
480,255,84790,1,2,0:3:0:0:
480,255,84905,1,2,0:3:0:0:
480,255,85021,6,0,B|500:218|480:182|476:178|472:174|452:138|472:101,1,160,4|8,0:3|0:0,0:0:0:0:
425,26,85713,2,0,P|453:85|387:80,1,160,2|2,0:0|0:0,0:0:0:0:
377,70,86290,1,2,0:3:0:0:
368,61,86405,2,0,L|339:89,2,40,8|2|2,0:0|0:0|0:3,0:0:0:0:
298,8,86867,6,0,L|241:64,1,80,4|2,0:3|0:0,0:0:0:0:
296,132,87328,2,0,L|239:188,1,80,8|0,0:0|0:0,0:0:0:0:
187,256,87790,2,0,B|208:256|208:256|264:256|292:301,1,120,4|2,0:3|0:0,0:0:0:0:
316,260,88251,2,0,P|305:297|316:335,1,80,8|0,0:0|0:0,0:0:0:0:
392,192,88713,6,0,P|422:120|392:48,1,160,2|8,0:1|1:2,0:0:0:0:
313,84,89405,1,8,0:3:0:0:
313,84,89521,1,8,0:3:0:0:
313,84,89636,2,0,B|295:120|295:120|313:156,1,80,2|2,0:1|0:1,0:0:0:0:
199,156,90098,2,0,B|217:120|217:120|199:84,1,80,8|2,1:2|0:0,0:0:0:0:
120,120,90559,6,0,L|63:177,1,80,4|0,0:0|0:0,0:0:0:0:
135,240,91021,2,0,L|78:297,1,80,8|0,0:0|0:0,0:0:0:0:
5,356,91482,2,0,P|77:326|149:356,1,160,4|8,0:3|0:0,0:0:0:0:
301,292,92175,6,0,P|255:239|210:292,1,160
363,355,92867,1,8,0:0:0:0:
425,293,93098,1,0,0:0:0:0:
362,230,93328,2,0,B|350:192|350:192|362:154,1,80,4|0,0:3|0:0,0:0:0:0:
299,15,93790,2,0,B|311:53|311:53|299:91,1,80,8|0,0:0|0:0,0:0:0:0:
290,99,94136,1,0,0:0:0:0:
281,107,94251,5,4,0:3:0:0:
218,169,94482,1,0,0:0:0:0:
155,106,94713,2,0,B|115:106|115:106|87:134,1,80,8|0,0:0|0:0,0:0:0:0:
16,80,95175,2,0,P|-7:134|16:188,1,120,4|0,0:3|0:0,0:0:0:0:
46,218,95636,1,8,0:0:0:0:
108,280,95867,1,0,0:0:0:0:
45,342,96098,5,4,0:3:0:0:
108,280,96328,2,0,P|145:267|182:280,1,80,0|8,0:0|0:0,0:0:0:0:
256,232,96790,2,0,P|328:262|400:232,1,160
476,192,97482,1,8,0:0:0:0:
399,151,97713,1,0,0:0:0:0:
399,151,97944,6,0,L|443:78,1,80,4|0,0:3|0:0,0:0:0:0:
399,233,98405,2,0,L|443:306,1,80,8|0,0:0|0:0,0:0:0:0:
476,192,98867,2,0,L|316:192,1,160,4|8,0:3|0:0,0:0:0:0:
256,128,99559,6,0,B|304:192|304:192|256:256,1,160
196,192,100251,1,8,0:0:0:0:
136,256,100482,1,0,0:0:0:0:
136,256,100598,1,0,0:0:0:0:
136,256,100713,1,4,0:3:0:0:
196,320,100944,1,0,0:0:0:0:
136,256,101175,2,0,P|99:243|62:256,1,80,8|0,0:0|0:0,0:0:0:0:
196,320,101636,6,0,B|232:332|256:370|256:370|280:332|316:320,1,160,4|10,0:3|0:0,0:0:0:0:
376,256,102328,1,2,0:0:0:0:
316,192,102559,1,4,0:3:0:0:
316,192,102675,1,2,0:0:0:0:
316,192,102790,2,0,B|286:152|286:152|226:152|226:152|196:192,1,160,2|2,0:0|0:0,0:0:0:0:
187,183,103367,1,2,0:0:0:0:
178,174,103482,5,4,0:3:0:0:
115,111,103713,2,0,L|167:262,1,160,2|2,0:0|0:0,0:0:0:0:
105,324,104405,1,4,0:3:0:0:
42,261,104636,1,0,0:0:0:0:
105,324,104867,2,0,L|174:362,1,80,10|0,0:0|0:0,0:0:0:0:
183,354,105213,1,4,0:1:0:0:
191,345,105328,5,4,0:3:0:0:
256,284,105559,1,0,0:0:0:0:
321,345,105790,1,8,0:0:0:0:
386,284,106021,1,0,0:0:0:0:
321,223,106252,2,0,L|377:166,1,80,4|0,0:3|0:0,0:0:0:0:
415,86,106713,2,0,P|377:75|339:86,1,80,8|0,0:0|0:0,0:0:0:0:
256,52,107175,5,4,0:3:0:0:
172,85,107405,2,0,P|134:75|97:86,1,80,0|8,0:0|0:0,0:0:0:0:
134,166,107867,2,0,L|191:223,1,80,0|4,0:0|0:3,0:0:0:0:
182,231,108213,1,2,0:3:0:0:
173,239,108329,1,2,0:3:0:0:
110,301,108559,1,8,0:0:0:0:
172,363,108790,1,0,0:0:0:0:
234,300,109021,6,0,B|314:300|314:300|370:356,1,160,4|8,0:3|0:0,0:0:0:0:
432,294,109713,1,2,0:3:0:0:
432,294,109829,1,2,0:3:0:0:
432,294,109944,1,4,0:3:0:0:
369,231,110175,1,0,0:0:0:0:
432,294,110405,2,0,P|470:305|508:294,1,80,8|0,0:0|0:0,0:0:0:0:
369,231,110867,6,0,P|331:220|293:231,1,80,4|0,0:3|0:0,0:0:0:0:
230,168,111329,1,8,0:0:0:0:
292,105,111559,1,0,0:0:0:0:
230,168,111790,2,0,L|190:168,2,40,4|2|2,0:3|0:3|0:3,0:0:0:0:
292,105,112252,2,0,L|332:105,2,40,8|2|2,0:0|0:3|0:3,0:0:0:0:
230,168,112713,6,0,B|222:132|185:104|185:104|222:76|230:40,1,160,4|8,0:3|0:0,0:0:0:0:
292,105,113405,1,2,0:3:0:0:
292,105,113521,1,2,0:3:0:0:
292,105,113636,2,0,P|329:118|366:105,1,80,4|0,0:3|0:0,0:0:0:0:
496,192,114098,2,0,P|459:179|422:192,1,80,8|0,0:0|0:0,0:0:0:0:
292,279,114559,6,0,P|329:291|366:278,1,80,4|0,0:3|0:0,0:0:0:0:
229,216,115021,1,8,0:0:0:0:
229,216,115252,2,0,L|290:363,1,160,0|2,0:0|0:3,0:0:0:0:
165,279,115944,2,0,L|133:205,1,80,8|4,0:0|0:1,0:0:0:0:
188,108,116405,6,0,P|256:72|324:108,1,160,4|8,0:3|0:0,0:0:0:0:
292,192,117098,1,2,0:3:0:0:
292,192,117213,1,2,0:3:0:0:
292,192,117329,2,0,B|256:209|256:209|220:192,1,80,4|2,0:3|0:3,0:0:0:0:
204,152,117675,2,0,L|256:260,1,120,2|2,0:3|0:3,0:0:0:0:
318,322,118252,5,4,0:3:0:0:
380,259,118482,1,0,0:0:0:0:
318,322,118713,1,8,0:0:0:0:
380,259,118944,2,0,B|424:192|424:192|380:125,1,160
318,62,119636,1,8,0:0:0:0:
256,124,119867,1,0,0:0:0:0:
256,124,119982,1,4,0:1:0:0:
256,124,120098,6,0,B|218:124|218:124|188:94,1,80,4|0,0:0|0:0,0:0:0:0:
120,148,120559,1,8,0:0:0:0:
120,236,120790,1,0,0:0:0:0:
188,290,121021,6,0,B|218:260|218:260|256:260,1,80,4|0,0:0|0:0,0:0:0:0:
312,192,121482,1,8,0:0:0:0:
256,124,121713,1,0,0:0:0:0:
312,192,121944,6,0,B|339:192|339:192|347:188|347:188|347:196|347:196|355:192|355:192|382:192,1,80,4|0,0:0|0:0,0:0:0:0:
440,124,122405,1,8,0:0:0:0:
498,192,122636,1,0,0:0:0:0:
440,260,122867,6,0,B|401:260|401:260|372:289,1,80,4|0,0:0|0:0,0:0:0:0:
440,124,123329,2,0,B|401:124|401:124|372:95,1,80,8|0,0:0|0:0,0:0:0:0:
300,232,123790,6,0,L|237:282,1,80,4|0,0:0|0:0,0:0:0:0:
300,152,124252,2,0,L|237:101,1,80,8|0,0:0|0:0,0:0:0:0:
160,144,124713,5,4,0:0:0:0:
84,192,124944,1,0,0:0:0:0:
160,240,125175,1,8,0:0:0:0:
236,192,125405,1,8,0:0:0:0:
160,144,125636,5,4,3:0:0:0:
256,284,126098,1,4,3:0:0:0:
352,144,126559,1,4,3:0:0:0:
256,4,127021,1,8,1:2:0:0:
160,144,127482,6,0,P|123:157|86:144,1,80,4|2,0:0|0:0,0:0:0:0:
219,75,127944,2,0,P|256:62|293:75,1,80,8|2,1:2|0:0,0:0:0:0:
352,144,128405,1,4,0:3:0:0:
352,144,128521,1,2,0:0:0:0:
352,144,128636,2,0,P|317:75|352:6,1,160,2|2,0:0|0:0,0:0:0:0:
409,75,129329,5,4,0:3:0:0:
352,144,129559,1,2,0:0:0:0:
409,213,129790,2,0,L|352:269,1,80,10|2,1:2|0:0,0:0:0:0:
292,332,130252,2,0,B|268:332|256:346|256:346|244:332|220:332,1,80,4|2,0:3|0:0,0:0:0:0:
159,269,130713,2,0,L|103:213,1,80,10|2,1:2|0:3,0:0:0:0:
93,203,131059,1,2,0:0:0:0:
84,194,131175,6,0,P|151:230|219:194,1,160,4|10,0:3|1:2,0:0:0:0:
256,112,131867,1,2,0:0:0:0:
293,194,132098,2,0,B|308:231|308:231|293:268,1,80,4|2,0:3|0:0,0:0:0:0:
356,331,132559,1,8,1:2:0:0:
418,268,132790,1,2,0:0:0:0:
418,268,132905,1,2,0:0:0:0:
418,268,133021,6,0,B|443:192|443:192|418:116,1,160,4|8,0:3|1:2,0:0:0:0:
356,53,133713,1,2,0:0:0:0:
356,53,133829,1,2,0:0:0:0:
356,53,133944,2,0,L|385:25,2,40,4|2|2,0:3|0:3|0:0,0:0:0:0:
418,116,134405,1,10,1:2:0:0:
356,53,134636,1,2,0:3:0:0:
293,114,134867,5,4,0:0:0:0:
356,179,135098,1,2,0:0:0:0:
293,114,135329,2,0,B|264:86|264:86|224:86,1,80,10|2,1:2|0:0,0:0:0:0:
161,23,135790,1,4,0:3:0:0:
161,23,135905,1,2,0:0:0:0:
161,23,136021,2,0,B|161:71|161:71|161:137|103:158,1,160,2|2,0:0|0:0,0:0:0:0:
65,236,136713,6,0,P|103:247|141:236,1,80,4|2,0:3|0:0,0:0:0:0:
294,176,137175,2,0,P|256:165|218:176,1,80,10|2,1:2|0:0,0:0:0:0:
256,256,137636,1,4,0:3:0:0:
256,268,137752,1,2,0:3:0:0:
256,279,137867,1,2,0:3:0:0:
294,176,138098,1,10,1:2:0:0:
256,96,138329,1,2,0:3:0:0:
218,176,138559,6,0,L|179:246,1,80,4|0,0:3|0:0,0:0:0:0:
170,237,138905,1,0,0:0:0:0:
161,228,139021,2,0,L|122:298,1,80,10|2,1:2|0:0,0:0:0:0:
113,289,139367,1,2,0:3:0:0:
104,280,139482,1,4,0:3:0:0:
185,345,139713,2,0,P|256:377|327:345,1,160,2|2,0:0|0:0,0:0:0:0:
335,337,140290,1,2,0:0:0:0:
343,329,140405,5,4,0:3:0:0:
275,271,140636,2,0,B|256:276|256:276|237:271,2,40,0|0|8,0:0|0:0|1:2,0:0:0:0:
343,213,141098,1,2,0:0:0:0:
343,213,141213,1,2,0:0:0:0:
343,213,141329,1,4,0:3:0:0:
275,155,141559,5,8,1:3:0:0:
275,155,141675,1,6,1:3:0:0:
275,155,141790,2,0,B|256:160|256:160|237:155,3,40,8|14|8|14,1:2|1:3|1:2|0:3,0:0:0:0:
204,121,142252,5,4,0:0:0:0:
256,50,142482,1,2,0:0:0:0:
308,121,142713,1,10,1:2:0:0:
256,192,142944,1,2,0:0:0:0:
308,263,143175,2,0,B|277:263|256:288|256:288|235:263|204:263,1,120,6|2,0:3|0:0,0:0:0:0:
176,228,143636,1,8,1:2:0:0:
113,290,143867,1,2,0:0:0:0:
113,290,143982,1,0,0:0:0:0:
113,290,144098,6,0,B|131:326|131:326|113:362,1,80,6|2,0:3|0:0,0:0:0:0:
176,228,144559,2,0,B|158:192|158:192|176:156,1,80,10|2,1:2|0:0,0:0:0:0:
256,192,145021,2,0,L|136:192,1,120,6|2,0:3|0:0,0:0:0:0:
92,192,145482,1,8,1:2:0:0:
25,132,145713,1,2,0:0:0:0:
25,132,145829,1,0,0:0:0:0:
25,133,145944,6,0,B|65:133|65:133|93:105,1,80,6|2,0:3|0:0,0:0:0:0:
25,251,146405,2,0,B|65:251|65:251|93:279,1,80,10|2,1:2|0:0,0:0:0:0:
176,248,146867,2,0,B|198:192|198:192|176:136,1,120,6|2,0:3|0:0,0:0:0:0:
212,112,147329,1,8,1:2:0:0:
288,68,147559,1,2,0:0:0:0:
288,68,147675,1,0,0:0:0:0:
288,68,147790,6,0,P|326:57|364:68,1,80,6|2,0:3|0:0,0:0:0:0:
502,128,148252,2,0,P|464:138|426:127,1,80,10|2,1:2|0:0,0:0:0:0:
464,46,148713,2,0,L|477:8,2,40,6|2|2,0:3|0:3|0:0,0:0:0:0:
502,128,149175,2,0,L|477:204,1,80,10|2,1:2|0:0,0:0:0:0:
365,308,149636,5,6,0:3:0:0:
294,362,149867,1,2,0:0:0:0:
294,362,149982,1,2,0:0:0:0:
294,362,150098,2,0,P|256:373|218:362,1,80,10|2,1:2|0:0,0:0:0:0:
147,308,150559,2,0,P|109:298|72:308,1,80,6|2,0:3|0:0,0:0:0:0:
182,332,150905,2,0,L|135:267,1,80,2|0,0:0|0:0,0:0:0:0:
111,229,151252,1,2,0:0:0:0:
147,76,151482,5,4,0:0:0:0:
218,22,151713,1,2,0:0:0:0:
218,22,151829,1,2,0:0:0:0:
218,22,151944,2,0,P|256:11|294:22,1,80,10|2,1:2|0:0,0:0:0:0:
365,76,152405,2,0,P|403:86|441:75,1,80,6|2,0:3|0:0,0:0:0:0:
331,51,152752,2,0,L|377:117,1,80,2|0,0:0|0:0,0:0:0:0:
401,155,153098,1,2,0:0:0:0:
365,308,153329,5,4,0:0:0:0:
294,369,153559,1,2,0:0:0:0:
294,369,153675,1,2,0:0:0:0:
294,369,153790,2,0,B|256:381|256:381|218:369,1,80,10|2,1:2|0:0,0:0:0:0:
147,308,154252,2,0,P|125:254|147:200,1,120,6|2,0:3|0:0,0:0:0:0:
116,168,154713,1,8,1:2:0:0:
53,105,154944,1,2,0:0:0:0:
53,105,155059,1,2,0:3:0:0:
53,105,155175,5,6,0:3:0:0:
115,42,155405,2,0,B|155:42|155:42|183:70,1,80,2|10,0:0|1:2,0:0:0:0:
288,148,155867,1,2,0:0:0:0:
288,148,155982,1,2,0:3:0:0:
288,148,156098,2,0,B|276:164|256:171|256:171|236:164|224:148,1,80,6|2,0:3|0:0,0:0:0:0:
328,70,156559,2,0,B|357:42|357:42|397:42,1,80,10|2,1:2|0:0,0:0:0:0:
405,33,156905,1,2,0:3:0:0:
412,25,157021,5,6,0:3:0:0:
478,91,157252,2,0,L|364:204,1,160
427,266,157944,1,4,0:3:0:0:
364,328,158175,1,0,0:0:0:0:
427,266,158405,2,0,B|463:249|463:249|499:266,1,80,8|0,0:0|0:0,0:0:0:0:
365,204,158867,6,0,B|329:221|329:221|293:204,1,80,4|0,0:3|0:0,0:0:0:0:
256,124,159329,1,8,0:0:0:0:
219,44,159559,2,0,B|176:44|176:44|115:45|89:110,1,160
48,192,160252,1,8,0:0:0:0:
89,273,160482,1,0,0:0:0:0:
130,192,160713,6,0,B|154:192|166:178|166:178|178:192|202:192,1,80,4|2,0:3|0:0,0:0:0:0:
292,110,161175,2,0,B|268:110|256:124|256:124|244:110|220:110,1,80,8|2,0:0|0:0,0:0:0:0:
310,192,161636,2,0,B|334:192|346:178|346:178|358:192|382:192,1,80,4|2,0:3|0:0,0:0:0:0:
422,273,162098,1,8,0:0:0:0:
464,192,162329,1,2,0:0:0:0:
422,110,162559,6,0,B|405:74|405:74|422:38,2,80,4|0|8,0:3|0:0|0:0,0:0:0:0:
502,74,163252,2,0,L|342:74,1,160
255,37,163944,1,8,0:0:0:0:
170,74,164175,1,0,0:0:0:0:
170,74,164290,1,0,0:0:0:0:
170,74,164405,6,0,B|170:114|170:114|187:149,1,80,4|2,0:3|0:0,0:0:0:0:
324,149,164867,2,0,B|342:114|342:114|342:74,1,80,8|2,0:0|0:0,0:0:0:0:
256,208,165329,2,0,L|256:288,1,80,4|2,0:3|0:0,0:0:0:0:
193,350,165790,1,8,0:0:0:0:
256,288,166021,1,2,0:0:0:0:
319,350,166252,5,4,0:3:0:0:
381,286,166482,2,0,B|400:260|432:260|432:260|452:260,1,80,0|8,0:0|0:0,0:0:0:0:
365,192,166944,2,0,L|285:192,1,80,0|4,0:0|0:3,0:0:0:0:
381,97,167405,2,0,B|400:124|432:124|432:124|452:124,1,80,0|8,0:0|0:0,0:0:0:0:
508,192,167867,1,0,0:0:0:0:
451,124,168098,5,4,0:3:0:0:
508,192,168329,1,0,0:0:0:0:
451,260,168559,2,0,P|436:296|451:332,1,80,8|0,0:0|0:0,0:0:0:0:
395,192,169021,2,0,P|323:162|251:192,1,160,4|8,0:3|0:0,0:0:0:0:
180,244,169713,1,0,0:0:0:0:
108,192,169944,6,0,B|108:161|108:161|112:153|112:153|116:145|116:145|116:113,1,80,4|0,0:3|0:0,0:0:0:0:
180,244,170405,2,0,B|180:275|180:275|176:283|176:283|172:291|172:291|172:323,1,80,8|8,3:0|3:0,0:0:0:0:
180,330,170752,1,8,3:0:0:0:
188,338,170867,1,8,3:0:0:0:
256,280,171098,1,8,3:0:0:0:
324,338,171329,1,8,1:2:0:0:
256,268,171559,1,2,0:0:0:0:
188,338,171790,5,2,3:0:0:0:
108,192,172252,1,2,3:0:0:0:
404,192,172713,1,2,3:0:0:0:
324,338,173175,1,8,1:2:0:0:
292,56,173636,6,0,P|256:41|220:56,1,80,4|2,0:0|0:0,0:0:0:0:
220,144,174098,2,0,P|256:159|292:144,1,80,10|2,1:2|0:0,0:0:0:0:
368,100,174559,1,4,0:3:0:0:
368,100,174675,1,2,0:0:0:0:
368,100,174790,2,0,L|278:232,1,160,2|2,0:0|0:0,0:0:0:0:
340,294,175482,5,4,0:3:0:0:
402,231,175713,2,0,L|422:196,2,40,2|2|10,0:0|0:3|1:2,0:0:0:0:
464,293,176175,1,2,0:3:0:0:
464,293,176290,1,2,0:0:0:0:
464,293,176405,2,0,L|484:258,2,40,4|2|2,0:3|0:3|0:0,0:0:0:0:
401,355,176867,1,10,1:2:0:0:
340,294,177098,1,2,0:0:0:0:
340,294,177213,1,0,0:0:0:0:
340,294,177329,6,0,P|303:281|266:294,1,80,4|2,0:3|0:0,0:0:0:0:
128,230,177790,2,0,P|165:243|202:230,1,80,10|2,1:2|0:0,0:0:0:0:
210,221,178136,1,2,0:3:0:0:
218,212,178252,1,4,0:3:0:0:
280,149,178482,1,2,0:0:0:0:
217,86,178713,1,8,1:2:0:0:
279,23,178944,1,2,0:0:0:0:
279,23,179059,1,2,0:0:0:0:
279,23,179175,6,0,B|359:23|359:23|415:79,1,160,4|8,0:3|1:2,0:0:0:0:
478,142,179867,1,2,0:0:0:0:
478,142,179982,1,2,0:0:0:0:
478,142,180098,2,0,L|507:170,2,40,4|2|2,0:3|0:3|0:0,0:0:0:0:
415,204,180559,2,0,L|471:260,1,80,8|2,1:2|0:3,0:0:0:0:
409,322,181021,5,4,0:0:0:0:
346,259,181252,1,2,0:0:0:0:
283,321,181482,2,0,B|264:332|256:350|256:350|248:332|229:321,1,80,10|2,1:2|0:0,0:0:0:0:
166,259,181944,1,4,0:3:0:0:
166,259,182059,1,2,0:0:0:0:
166,259,182175,2,0,B|138:259|114:243|106:215|106:215|98:243|74:259|46:259,1,160,2|2,0:0|0:0,0:0:0:0:
106,323,182867,5,4,0:3:0:0:
166,259,183098,1,2,0:0:0:0:
229,321,183329,2,0,B|248:332|256:350|256:350|264:332|283:321,1,80,10|2,1:2|0:0,0:0:0:0:
346,259,183790,1,4,0:3:0:0:
346,259,183905,1,2,0:3:0:0:
346,259,184021,1,2,0:3:0:0:
283,197,184252,2,0,B|264:186|256:168|256:168|248:186|229:197,1,80,10|2,1:2|0:3,0:0:0:0:
166,259,184713,6,0,L|109:203,1,80,4|2,0:3|0:0,0:0:0:0:
100,211,185059,1,0,0:0:0:0:
91,220,185175,2,0,L|147:164,1,80,10|2,1:2|0:0,0:0:0:0:
139,155,185521,1,2,0:3:0:0:
130,147,185636,1,4,0:3:0:0:
192,84,185867,2,0,B|256:132|256:132|320:84,1,160,2|2,0:0|0:0,0:0:0:0:
328,75,186444,1,2,0:0:0:0:
336,66,186559,5,4,0:3:0:0:
396,129,186790,2,0,B|417:129|417:129|430:115,2,40,0|0|8,0:0|0:0|1:2,0:0:0:0:
333,192,187252,1,2,0:0:0:0:
333,192,187367,1,2,0:0:0:0:
333,192,187482,1,4,0:3:0:0:
396,255,187713,5,8,1:3:0:0:
396,255,187829,1,6,1:3:0:0:
396,255,187944,2,0,B|417:255|417:255|430:268,3,40,8|14|8|14,1:2|1:3|1:2|1:3,0:0:0:0:
468,244,188405,5,4,0:0:0:0:
396,192,188636,1,2,0:0:0:0:
468,140,188867,2,0,B|485:104|485:104|468:68,1,80,10|2,1:2|0:0,0:0:0:0:
375,105,189329,6,0,B|348:105|348:105|340:109|340:109|340:101|340:101|332:105|332:105|305:105,1,80,8|0,1:0|0:0,0:0:0:0:
256,56,189675,2,0,B|275:75|275:75|278:84|278:84|284:78|284:78|286:86|286:86|305:105,1,80,8|0,1:0|0:0,0:0:0:0:
256,154,190021,2,0,B|275:135|275:135|278:126|278:126|284:132|284:132|286:124|286:124|305:105,1,80,8|6,1:0|0:3,0:0:0:0:
164,192,190482,2,0,L|124:192,2,40,2|0|10,0:0|0:0|1:2,0:0:0:0:
256,230,190944,1,2,0:0:0:0:
256,230,191059,1,0,0:0:0:0:
256,230,191175,6,0,B|275:249|275:249|278:258|278:258|284:252|284:252|286:260|286:260|305:279,1,80,8|0,1:0|0:0,0:0:0:0:
256,328,191521,2,0,B|275:309|275:309|278:300|278:300|284:306|284:306|286:298|286:298|305:279,1,80,8|0,1:0|0:0,0:0:0:0:
375,279,191867,2,0,B|348:279|348:279|340:275|340:275|340:283|340:283|332:279|332:279|305:279,1,80,8|6,1:0|0:3,0:0:0:0:
356,192,192329,2,0,L|396:192,2,40,2|0|10,0:0|0:0|1:2,0:0:0:0:
304,105,192790,1,2,0:0:0:0:
304,105,192905,1,0,0:0:0:0:
304,105,193021,6,0,B|264:105|264:105|236:77,1,80,8|0,1:0|0:0,0:0:0:0:
208,145,193367,2,0,B|208:105|208:105|236:77,1,80,8|0,1:0|0:0,0:0:0:0:
168,49,193713,2,0,B|208:49|208:49|236:77,1,80,8|6,1:0|0:3,0:0:0:0:
313,33,194175,6,0,L|284:4,2,40,2|0|10,0:0|0:0|1:2,0:0:0:0:
389,77,194636,1,2,0:0:0:0:
465,33,194867,1,6,0:3:0:0:
465,33,194982,1,2,0:3:0:0:
465,33,195098,1,2,0:3:0:0:
389,77,195329,2,0,L|418:106,3,40,10|4|6|6,1:2|3:0|3:0|3:0,0:0:0:0:
468,140,195789,5,4,0:0:0:0:
396,192,196020,1,2,0:0:0:0:
468,244,196251,2,0,B|485:280|485:280|468:316,1,80,10|2,1:2|0:0,0:0:0:0:
375,279,196713,6,0,B|348:279|348:279|340:275|340:275|340:283|340:283|332:279|332:279|305:279,1,80,8|0,1:0|0:0,0:0:0:0:
256,328,197059,2,0,B|275:309|275:309|278:300|278:300|284:306|284:306|286:298|286:298|305:279,1,80,8|0,1:0|0:0,0:0:0:0:
256,230,197405,2,0,B|275:249|275:249|278:258|278:258|284:252|284:252|286:260|286:260|305:279,1,80,8|6,1:0|0:3,0:0:0:0:
164,192,197867,2,0,L|124:192,2,40,2|0|10,0:0|0:0|1:2,0:0:0:0:
256,154,198328,1,2,0:0:0:0:
256,154,198443,1,0,0:0:0:0:
256,154,198559,6,0,B|275:135|275:135|278:126|278:126|284:132|284:132|286:124|286:124|305:105,1,80,8|0,1:0|0:0,0:0:0:0:
256,56,198905,2,0,B|275:75|275:75|278:84|278:84|284:78|284:78|286:86|286:86|305:105,1,80,8|0,1:0|0:0,0:0:0:0:
375,105,199251,2,0,B|348:105|348:105|340:109|340:109|340:101|340:101|332:105|332:105|305:105,1,80,8|6,1:0|0:3,0:0:0:0:
356,192,199713,2,0,L|396:192,2,40,2|0|10,0:0|0:0|1:2,0:0:0:0:
304,279,200174,1,2,0:0:0:0:
304,279,200289,1,0,0:0:0:0:
304,279,200405,6,0,B|264:279|264:279|236:307,1,80,8|0,1:0|0:0,0:0:0:0:
208,239,200751,2,0,B|208:279|208:279|236:307,1,80,8|0,1:0|0:0,0:0:0:0:
168,335,201098,2,0,B|208:335|208:335|236:307,1,80,8|6,1:0|0:3,0:0:0:0:
313,351,201559,6,0,L|284:380,2,40,2|0|10,0:0|0:0|1:2,0:0:0:0:
389,307,202020,1,2,0:0:0:0:
465,351,202251,1,6,0:3:0:0:
465,351,202366,1,2,0:3:0:0:
465,351,202482,1,2,0:3:0:0:
389,307,202713,2,0,L|418:278,3,40,10|4|6|6,1:2|3:0|3:0|3:0,0:0:0:0:
468,244,203175,5,4,0:0:0:0:
396,192,203405,2,0,B|342:151|288:192|284:196|280:200|226:241|172:200,1,240,2|4,0:0|0:3,0:0:0:0:
108,136,204329,1,0,0:0:0:0:
170,73,204559,1,8,0:0:0:0:
107,10,204790,1,0,0:0:0:0:
170,73,205021,6,0,P|208:84|246:73,1,80,4|2,0:3|0:0,0:0:0:0:
254,64,205367,1,0,0:0:0:0:
262,55,205482,1,10,0:0:0:0:
324,117,205713,1,2,0:0:0:0:
386,54,205944,2,0,B|386:126|386:126|394:142|394:142|394:212,1,160,4|10,0:3|0:0,0:0:0:0:
456,274,206636,5,2,0:0:0:0:
393,336,206867,1,4,0:3:0:0:
330,273,207098,2,0,P|256:247|182:273,1,160,2|0,0:0|0:0,0:0:0:0:
119,336,207790,1,4,0:3:0:0:
56,274,208021,1,0,0:0:0:0:
119,212,208252,1,8,0:0:0:0:
182,273,208482,1,2,0:0:0:0:
182,273,208598,1,2,0:0:0:0:
182,273,208713,6,0,P|202:306|207:346,1,80,4|2,0:3|0:0,0:0:0:0:
329,273,209175,2,0,P|309:306|304:346,1,80,10|0,0:0|0:0,0:0:0:0:
256,227,209636,2,0,B|256:200|256:200|252:192|252:192|260:192|260:192|256:184|256:184|256:156,1,80,4|0,0:3|0:0,0:0:0:0:
193,94,210098,1,8,0:0:0:0:
256,31,210329,1,0,0:0:0:0:
256,31,210444,1,4,0:1:0:0:
256,31,210559,6,0,P|328:61|400:31,1,160,4|8,0:0|1:2,0:0:0:0:
256,156,211252,1,2,0:0:0:0:
256,156,211367,1,2,0:0:0:0:
256,156,211482,2,0,P|218:145|180:156,1,80,4|2,0:3|0:0,0:0:0:0:
23,191,211944,2,0,P|61:202|99:192,1,80,4|4,0:1|0:1,0:0:0:0:
180,227,212405,5,4,0:3:0:0:
99,192,212636,1,2,0:0:0:0:
180,156,212867,1,8,0:0:0:0:
180,156,213098,2,0,B|256:131|256:131|332:156,1,160,2|2,0:0|0:0,0:0:0:0:
413,192,213790,1,4,0:1:0:0:
331,227,214021,1,4,0:1:0:0:
413,192,214252,6,0,L|493:192,1,80,4|2,0:3|0:0,0:0:0:0:
331,227,214713,2,0,L|251:227,1,80,8|2,0:0|0:0,0:0:0:0:
242,235,215059,1,0,0:0:0:0:
233,243,215175,1,4,0:3:0:0:
295,305,215405,1,0,0:0:0:0:
286,313,215521,1,2,0:0:0:0:
277,321,215636,1,4,0:1:0:0:
214,383,215867,1,4,0:1:0:0:
151,320,216098,6,0,B|113:308|113:308|75:320,1,80,4|2,0:3|0:0,0:0:0:0:
12,257,216559,1,8,0:0:0:0:
75,194,216790,2,0,B|113:206|113:206|151:194,1,80,2|4,0:0|0:3,0:0:0:0:
113,116,217252,1,2,0:0:0:0:
113,116,217367,1,4,0:3:0:0:
113,116,217482,2,0,B|107:97|107:97|113:78,3,40,4|2|4|4,0:1|0:0|0:3|0:3,0:0:0:0:
144,46,217944,6,0,B|133:64|113:70|113:70|93:64|82:46,1,80,4|2,0:3|0:0,0:0:0:0:
225,79,218405,2,0,B|236:61|256:55|256:55|276:61|287:79,1,80,8|2,1:2|0:0,0:0:0:0:
295,87,218752,1,0,0:0:0:0:
303,95,218867,1,4,0:3:0:0:
256,172,219098,1,2,0:0:0:0:
303,249,219329,1,4,0:1:0:0:
256,326,219559,1,4,0:1:0:0:
209,249,219790,6,0,B|182:249|182:249|174:245|174:245|174:253|174:253|166:249|166:249|139:249,2,80,4|2|8,0:3|0:0|0:0,0:0:0:0:
303,249,220482,2,0,B|330:249|330:249|338:245|338:245|338:253|338:253|346:249|346:249|373:249,2,80,2|4|2,0:0|0:3|0:0,0:0:0:0:
256,172,221175,1,4,0:1:0:0:
209,249,221405,1,4,0:1:0:0:
256,172,221636,6,0,L|256:92,1,80,4|2,0:3|0:0,0:0:0:0:
318,29,222098,1,8,0:0:0:0:
380,91,222329,1,2,0:0:0:0:
388,99,222444,1,0,0:0:0:0:
396,107,222559,1,4,0:3:0:0:
458,169,222790,1,0,0:0:0:0:
450,177,222905,1,2,0:0:0:0:
442,185,223020,1,4,0:1:0:0:
379,247,223252,1,4,0:1:0:0:
441,309,223482,5,4,0:3:0:0:
379,247,223713,2,0,B|328:247|328:247|286:247|256:282|256:314,1,160,2|2,0:0|0:0,0:0:0:0:
193,254,224405,1,4,0:3:0:0:
256,192,224636,1,4,0:3:0:0:
256,172,224751,1,6,0:3:0:0:
256,152,224866,1,4,0:1:0:0:
256,132,224982,1,6,0:3:0:0:
256,112,225097,5,2,0:0:0:0:
