osu file format v14

[General]
AudioFilename: Various Artists - drop pop candy (Multi-Language Version).mp3
AudioLeadIn: 0
PreviewTime: 53521
Countdown: 0
SampleSet: Soft
StackLeniency: 0.7
Mode: 0
LetterboxInBreaks: 0
WidescreenStoryboard: 1

[Editor]
Bookmarks: 1945,158867,168098,225098
DistanceSpacing: 1.2
BeatDivisor: 4
GridSize: 4
TimelineZoom: 1

[Metadata]
Title:drop pop candy (Multi-Language Version)
TitleUnicode:drop pop candy (Multi-Language Version)
Artist:Various Artists
ArtistUnicode:Various Artists
Creator:Gero
Version:Relaxing
Source:
Tags:VOCALOID ボーカロイド ニコニコ Nico Nico Douga SoundCloud Edited Self Cover Rin Kagamine 鏡音リン Megurine Luka 巡音ルカ Rin*Luka オリジナル No title+ Plus and No title- Minus Giga-P GigaP ギガP Key Mochizuki けい Okiku お菊 REOL れをる Ilonka Obilinovic ilonqueen feat. Panqueque Kuraiinu + JubyPhonic Latin American Spanish Español Latino Americano Latinoamericano English Japanese Nihongo 日本語 UNDERTALE Sans & Papyrus the Skeleton Video Game Reference Determination Determinada Referencia Videojuego Juego
BeatmapID:1020287
BeatmapSetID:477623

[Difficulty]
HPDrainRate:2
CircleSize:3.5
OverallDifficulty:2
ApproachRate:3
SliderMultiplier:0.8
SliderTickRate:2

[Events]
//Background and Video events
Video,0,"Video.avi"
0,0,"BG.jpg",0,0
//Break Periods
2,159067,168098
//Storyboard Layer 0 (Background)
//Storyboard Layer 1 (Fail)
//Storyboard Layer 2 (Pass)
//Storyboard Layer 3 (Foreground)
//Storyboard Sound Samples

[TimingPoints]
1945,461.538461538462,4,2,1,40,1,0
7714,-100,4,2,1,60,0,0
8868,-100,4,2,1,70,0,0
9329,-100,4,2,1,80,0,0
31368,-100,4,2,1,50,0,0
31483,-100,4,2,1,80,0,0
42329,-100,4,2,1,50,0,0
42445,-100,4,2,1,80,0,0
46137,-100,4,2,1,50,0,0
46252,-100,4,2,1,80,0,0
53637,-100,4,2,1,90,0,1
68291,-100,4,2,1,90,0,0
68423,461.538461538462,4,2,1,90,1,1
83175,461.538461538462,4,2,1,80,1,0
105213,-100,4,2,1,50,0,0
105329,461.538461538462,4,2,1,80,1,0
116175,-100,4,2,1,50,0,0
116290,-100,4,2,1,80,0,0
119982,-100,4,2,1,50,0,0
120098,-100,4,2,1,80,0,0
127482,-100,4,2,1,90,0,1
142136,-100,4,2,1,90,0,0
142252,-100,4,2,1,90,0,1
157021,-100,4,2,1,80,0,0
173636,-100,4,2,1,90,0,1
188290,-100,4,2,1,90,0,0
188405,-100,4,2,1,90,0,1
203175,-100,4,2,1,80,0,0
210444,-100,4,2,1,50,0,0
210559,-100,4,2,1,80,0,0

[Colours]
Combo1 : 157,157,79
Combo2 : 220,118,143
Combo3 : 102,121,187
Combo4 : 94,176,100
Combo5 : 203,140,114
Combo6 : 133,129,129
Combo7 : 236,130,60
Combo8 : 66,202,171
SliderBorder : 255,255,255
SliderTrackOverride : 99,222,219

[HitObjects]
305,230,1945,6,0,P|316:192|305:154,1,80,2|4,0:0|0:1,0:0:0:0:
207,154,2868,2,0,P|196:192|207:230,1,80,2|2,0:0|0:1,0:0:0:0:
212,324,3791,2,0,B|228:348|256:364|256:364|284:348|300:324,2,120,2|2|2,0:0|0:0|0:0,0:0:0:0:
256,228,5637,6,0,B|273:192|273:192|256:156,1,80,2|4,0:0|0:1,0:0:0:0:
212,60,6560,2,0,B|228:36|256:20|256:20|284:36|300:60,2,120,2|2|4,0:0|0:1|3:0,0:0:0:0:
144,127,8406,1,4,3:0:0:0:
76,60,8868,1,8,1:2:0:0:
144,127,9329,6,0,B|256:170|256:170|368:127,1,240,4|8,0:0|0:0,0:0:0:0:
304,56,11175,2,0,P|256:25|208:56,2,120,2|2|8,0:0|0:0|0:0,0:0:0:0:
368,127,13021,5,2,0:0:0:0:
436,60,13483,2,0,B|464:84|464:84|464:127|464:127|464:170|464:170|436:194,1,160,8|8,0:0|0:0,0:0:0:0:
368,127,14868,2,0,B|427:187|427:187|471:231|471:299|440:328,1,240,2|8,0:0|0:0,0:0:0:0:
367,267,16714,6,0,B|359:267|359:267|331:267|311:282|305:305,1,80,4|8,0:0|0:0,0:0:0:0:
206,305,17637,2,0,B|201:282|181:267|153:267|153:267|145:267,1,80,4|8,0:3|0:0,0:0:0:0:
204,192,18560,2,0,B|236:198|256:220|256:220|276:198|308:192,2,120,4|0|8,0:3|0:0|0:0,0:0:0:0:
256,112,20406,6,0,L|256:32,2,80,4|8|4,0:3|0:0|0:3,0:0:0:0:
204,192,21791,1,8,0:0:0:0:
256,272,22252,2,0,L|256:352,2,80,4|8|4,0:3|0:0|0:3,0:0:0:0:
308,192,23637,1,8,0:0:0:0:
360,112,24098,6,0,B|256:52|256:52|152:112,1,240,4|8,0:3|0:0,0:0:0:0:
204,192,25945,2,0,B|256:222|256:222|308:192,2,120,4|2|8,0:3|0:3|0:0,0:0:0:0:
256,112,27791,5,2,0:0:0:0:
432,192,28714,1,2,0:0:0:0:
256,272,29637,1,4,0:3:0:0:
80,192,30560,1,2,0:0:0:0:
256,111,31483,6,0,B|296:111|296:111|320:143,1,80,4|8,0:0|0:0,0:0:0:0:
320,241,32406,2,0,B|296:273|296:273|256:273,1,80,4|8,0:3|0:0,0:0:0:0:
200,192,33329,2,0,L|80:192,2,120,4|0|8,0:3|0:0|0:0,0:0:0:0:
256,111,35175,6,0,B|316:128|338:192|338:192|316:256|256:273,1,240,4|8,0:3|0:0,0:0:0:0:
200,192,37021,2,0,L|440:192,1,240,4|8,0:3|0:0,0:0:0:0:
508,123,38868,5,4,0:0:0:0:
440,54,39329,2,0,B|388:54|388:54|336:54|300:109,1,160,8|8,0:0|0:0,0:0:0:0:
256,192,40714,2,0,B|256:239|256:239|252:247|252:247|260:247|260:247|256:255|256:255|256:302,2,120,4|0|8,0:3|0:0|0:0,0:0:0:0:
212,109,42560,6,0,P|175:96|138:109,2,80,4|8|4,0:2|0:0|0:3,0:0:0:0:
256,26,43945,1,8,0:0:0:0:
300,109,44406,2,0,P|337:96|374:109,2,80,4|8|4,0:3|0:0|0:3,0:0:0:0:
256,192,45791,1,8,0:0:0:0:
212,275,46252,6,0,B|256:342|256:342|300:275,1,160,4|4,0:0|0:0,0:0:0:0:
256,192,47637,1,8,0:0:0:0:
300,109,48098,2,0,B|256:42|256:42|212:109,1,160,4|4,0:0|0:0,0:0:0:0:
168,192,49483,1,8,0:0:0:0:
124,275,49945,6,0,L|180:332,1,80,4|8,0:0|0:0,0:0:0:0:
256,272,50868,2,0,L|312:329,1,80,4|8,0:0|0:0,0:0:0:0:
388,269,51791,2,0,B|400:224|424:200|470:192|470:192|424:184|400:160|388:115,1,240,4|8,0:0|1:2,0:0:0:0:
312,55,53637,6,0,B|388:30|388:30|464:55,1,160,4|4,0:0|0:3,0:0:0:0:
388,115,55021,1,10,1:2:0:0:
465,176,55483,2,0,P|478:213|465:250,1,80,4|10,0:3|1:2,0:0:0:0:
396,318,56406,1,4,0:3:0:0:
328,250,56868,1,10,1:2:0:0:
260,317,57329,6,0,B|180:317|180:317|123:260,1,160,4|4,0:3|0:3,0:0:0:0:
56,192,58714,1,8,1:2:0:0:
123,124,59175,2,0,B|180:67|180:67|260:67,1,160,4|4,0:3|0:3,0:0:0:0:
328,134,60560,1,10,1:2:0:0:
396,66,61021,6,0,L|364:222,1,160,4|4,0:0|0:3,0:0:0:0:
432,290,62406,1,10,1:2:0:0:
364,357,62868,2,0,B|328:375|328:375|292:357,1,80,4|10,0:3|1:2,0:0:0:0:
224,289,63791,2,0,B|188:271|188:271|152:289,1,80,4|10,0:3|1:2,0:0:0:0:
84,356,64714,6,0,B|52:333|44:289|44:289|52:245|84:222,1,160,4|4,0:3|0:3,0:0:0:0:
151,154,66098,1,10,1:2:0:0:
218,86,66560,2,0,P|256:75|294:86,1,80,4|8,0:3|1:2,0:0:0:0:
361,153,67483,2,0,P|399:164|437:153,1,80,4|8,0:3|1:2,0:0:0:0:
507,82,68423,6,0,L|337:251,1,240,4|8,0:0|1:2,0:0:0:0:
300,164,70269,2,0,B|244:180|212:144|212:104|256:68|300:104|300:144|268:180|212:164,1,240,4|8,0:3|1:2,0:0:0:0:
174,251,72115,2,0,L|5:82,1,240,6|8,0:3|1:2,0:0:0:0:
72,14,73961,1,6,0:3:0:0:
139,81,74423,2,0,B|179:81|179:81|207:109,1,80,10|6,1:2|0:3,0:0:0:0:
256,28,75346,1,10,1:2:0:0:
304,109,75807,6,0,B|352:145|365:209|365:209|352:273|304:309,1,240,6|10,0:3|1:2,0:0:0:0:
208,309,77653,2,0,B|160:273|147:209|147:209|160:145|208:109,1,240,4|10,0:0|1:2,0:0:0:0:
256,24,79499,2,0,B|256:73|256:73|252:81|252:81|260:81|260:81|256:89|256:89|256:121|256:121|252:129|252:129|260:129|260:129|256:137|256:137|256:169|256:169|252:177|252:177|260:177|260:177|256:185|256:185|256:234,1,240,4|10,0:0|1:2,0:0:0:0:
208,309,81346,6,0,B|256:373|256:373|304:309,1,160,6|6,0:3|0:3,0:0:0:0:
371,241,82730,1,10,1:2:0:0:
305,175,83175,6,0,P|256:59|207:175,2,320,6|4|4,0:3|0:3|0:3,0:0:0:0:
305,270,87328,2,0,B|292:312|292:312|220:312|220:312|207:270,1,160,8|8,0:0|0:0,0:0:0:0:
207,175,88713,6,0,B|232:152|248:116|256:68|256:68|264:116|280:152|305:175,1,240,2|8,0:1|1:2,0:0:0:0:
256,256,90559,6,0,B|247:295|247:295|256:334,1,80,4|8,0:0|0:0,0:0:0:0:
346,295,91482,2,0,P|401:316|456:295,2,120,4|0|8,0:3|0:0|0:0,0:0:0:0:
398,215,93329,2,0,P|453:194|508:215,2,120,4|0|8,0:3|0:0|0:0,0:0:0:0:
346,135,95175,5,4,0:3:0:0:
398,55,95636,1,8,0:0:0:0:
346,135,96098,2,0,P|256:202|166:135,1,240,4|8,0:3|0:0,0:0:0:0:
114,55,97944,5,4,0:3:0:0:
62,135,98405,1,8,0:0:0:0:
114,215,98867,2,0,P|125:253|114:291,1,80,4|8,0:3|0:0,0:0:0:0:
26,253,99790,2,0,L|186:253,1,160,4|4,0:3|0:3,0:0:0:0:
256,320,101175,1,8,0:0:0:0:
326,253,101636,5,4,0:3:0:0:
256,72,102559,1,4,0:3:0:0:
186,253,103482,1,4,0:3:0:0:
256,72,104405,1,4,0:3:0:0:
326,253,105328,6,0,P|364:264|402:253,1,80,4|8,0:3|0:0,0:0:0:0:
476,192,106252,1,4,0:3:0:0:
401,130,106713,1,8,0:0:0:0:
476,69,107175,2,0,B|447:30|396:30|396:30|368:30,2,120,4|0|8,0:3|0:0|0:0,0:0:0:0:
401,130,109020,6,0,P|287:145|215:55,1,240,4|8,0:3|0:0,0:0:0:0:
296,55,110867,2,0,P|224:145|111:130,1,240,4|8,0:3|0:0,0:0:0:0:
36,192,112713,5,4,0:3:0:0:
111,254,113175,2,0,B|150:270|156:314|156:314|199:328|208:370,1,160,8|8,0:0|0:0,0:0:0:0:
256,288,114559,2,0,L|256:168,2,120,4|0|8,0:3|0:0|0:0,0:0:0:0:
303,370,116405,6,0,B|312:328|355:314|355:314|361:270|401:254,1,160,4|4,0:3|0:3,0:0:0:0:
476,192,117790,1,8,0:0:0:0:
401,130,118252,2,0,B|376:107|376:107|376:55|376:55|401:32,2,120,4|0|8,0:3|0:0|0:0,0:0:0:0:
476,192,120097,6,0,B|401:220|401:220|326:192,1,160,4|4,0:0|0:0,0:0:0:0:
256,124,121482,1,8,0:0:0:0:
186,192,121944,2,0,B|111:220|111:220|36:192,1,160,4|4,0:0|0:0,0:0:0:0:
111,130,123329,1,8,0:0:0:0:
186,192,123790,6,0,B|209:224|209:224|209:264,1,80,4|8,0:0|0:0,0:0:0:0:
302,264,124713,2,0,B|302:224|302:224|326:192,1,80,4|8,0:0|0:0,0:0:0:0:
401,130,125636,1,4,3:0:0:0:
256,12,126559,1,4,3:0:0:0:
111,130,127482,6,0,P|68:192|111:254,1,160,4|4,0:0|0:3,0:0:0:0:
178,321,128867,1,10,1:2:0:0:
245,253,129329,2,0,L|301:309,1,80,4|10,0:3|1:2,0:0:0:0:
369,241,130252,2,0,L|425:297,1,80,4|10,0:3|1:2,0:0:0:0:
493,229,131175,6,0,B|493:157|493:157|489:149|489:149|485:141|485:141|485:70,1,160,4|4,0:3|0:3,0:0:0:0:
404,20,132560,1,8,1:2:0:0:
323,71,133021,2,0,B|276:71|260:44|256:36|256:36|252:44|236:71|189:71,1,160,4|4,0:3|0:3,0:0:0:0:
108,20,134405,1,10,1:2:0:0:
27,70,134867,6,0,B|27:141|27:141|23:149|23:149|19:157|19:157|19:229,1,160,4|4,0:0|0:3,0:0:0:0:
86,297,136252,1,10,1:2:0:0:
153,227,136714,2,0,P|170:192|153:157,1,80,4|10,0:3|1:2,0:0:0:0:
221,89,137636,2,0,P|204:54|221:19,1,80,4|10,0:3|1:2,0:0:0:0:
310,54,138559,6,0,B|337:82|380:89|380:89|337:96|310:124,1,160,4|4,0:3|0:3,0:0:0:0:
380,192,139944,1,10,1:2:0:0:
310,260,140405,2,0,B|337:288|380:295|380:295|337:302|310:330,1,160,4|4,0:3|0:3,0:0:0:0:
221,295,141790,1,10,1:2:0:0:
132,259,142252,6,0,B|156:208|208:200|208:200|180:179|172:139|180:99|208:78,1,240,4|8,0:0|1:2,0:0:0:0:
304,78,144098,2,0,B|332:99|340:139|332:179|304:200|304:200|356:208|380:259,1,240,6|8,0:3|1:2,0:0:0:0:
291,295,145944,2,0,B|291:327|314:350|314:350|256:339|198:350|198:350|221:327|221:295,1,240,6|8,0:3|1:2,0:0:0:0:
256,204,147790,5,6,0:3:0:0:
208,120,148252,1,10,1:2:0:0:
256,36,148713,1,6,0:3:0:0:
304,120,149175,1,10,1:2:0:0:
304,120,149636,6,0,B|304:226|208:226|208:332,1,240,6|10,0:3|1:2,0:0:0:0:
304,332,151482,2,0,B|304:226|208:226|208:120,1,240,4|10,0:0|1:2,0:0:0:0:
256,36,153329,5,4,0:0:0:0:
304,120,153790,2,0,B|300:160|256:179|256:179|212:160|208:120,1,160,10|8,1:2|1:2,0:0:0:0:
160,204,155175,2,0,B|256:276|256:276|352:204,1,240,6|10,0:3|1:2,0:0:0:0:
304,120,157021,6,0,P|256:34|208:120,1,240,6|8,0:3|0:0,0:0:0:0:
256,204,158867,1,4,0:3:0:0:
200,55,169944,5,4,0:3:0:0:
256,276,170867,1,8,3:0:0:0:
312,55,171790,1,2,3:0:0:0:
256,133,172252,2,0,B|256:160|256:160|252:168|252:168|260:168|260:168|256:176|256:176|256:203,2,80,2|2|8,3:0|3:0|1:2,0:0:0:0:
200,55,173636,6,0,B|124:30|124:30|48:55,1,160,4|4,0:0|0:3,0:0:0:0:
124,115,175021,1,10,1:2:0:0:
47,176,175482,2,0,P|34:213|47:250,1,80,4|10,0:3|1:2,0:0:0:0:
116,318,176405,1,4,0:3:0:0:
184,250,176867,1,10,1:2:0:0:
252,317,177329,6,0,B|332:317|332:317|389:260,1,160,4|4,0:3|0:3,0:0:0:0:
456,192,178713,1,8,1:2:0:0:
389,124,179175,2,0,B|332:67|332:67|252:67,1,160,4|4,0:3|0:3,0:0:0:0:
184,134,180559,1,8,1:2:0:0:
116,66,181021,6,0,L|148:222,1,160,4|4,0:0|0:3,0:0:0:0:
80,290,182405,1,10,1:2:0:0:
148,357,182867,2,0,B|184:375|184:375|220:357,1,80,4|10,0:3|1:2,0:0:0:0:
288,289,183790,2,0,B|324:271|324:271|360:289,1,80,4|10,0:3|1:2,0:0:0:0:
428,356,184713,6,0,B|460:333|468:289|468:289|460:245|428:222,1,160,4|4,0:3|0:3,0:0:0:0:
361,154,186098,1,10,1:2:0:0:
294,86,186559,2,0,P|256:75|218:86,1,80,4|8,0:3|1:2,0:0:0:0:
151,153,187482,2,0,P|113:164|75:153,1,80,4|8,0:3|1:2,0:0:0:0:
5,82,188405,6,0,L|175:251,1,240,4|10,0:0|1:2,0:0:0:0:
212,164,190252,2,0,B|268:180|300:144|300:104|256:68|212:104|212:144|244:180|300:164,1,240,6|10,0:3|1:2,0:0:0:0:
338,251,192098,2,0,L|507:82,1,240,6|10,0:3|1:2,0:0:0:0:
440,14,193944,5,6,0:3:0:0:
373,81,194405,2,0,B|333:81|333:81|305:109,1,80,10|6,1:2|0:3,0:0:0:0:
256,28,195329,1,10,1:2:0:0:
208,109,195790,6,0,B|160:145|147:209|147:209|160:273|208:309,1,240,4|10,0:0|1:2,0:0:0:0:
304,309,197636,2,0,B|352:273|365:209|365:209|352:145|304:109,1,240,6|10,0:3|1:2,0:0:0:0:
256,24,199482,2,0,B|256:73|256:73|260:81|260:81|252:81|252:81|256:89|256:89|256:121|256:121|260:129|260:129|252:129|252:129|256:137|256:137|256:169|256:169|260:177|260:177|252:177|252:177|256:185|256:185|256:234,1,240,6|10,0:3|1:2,0:0:0:0:
304,309,201329,6,0,B|256:373|256:373|208:309,1,160,6|6,0:3|0:3,0:0:0:0:
141,241,202713,1,10,1:2:0:0:
207,175,203175,6,0,P|256:59|305:175,1,320,4|4,0:0|0:3,0:0:0:0:
371,241,205482,1,10,0:0:0:0:
304,309,205944,2,0,B|288:332|256:343|256:343|224:332|208:309,2,120,4|2|8,0:3|0:0|0:0,0:0:0:0:
256,224,207790,2,0,B|248:204|233:192|233:192|248:180|256:160,1,80,4|8,0:3|0:0,0:0:0:0:
304,75,208713,2,0,B|288:52|256:41|256:41|224:52|208:75,2,120,4|0|8,0:3|0:0|0:0,0:0:0:0:
371,143,210559,5,4,0:0:0:0:
438,75,211021,1,8,1:2:0:0:
505,143,211482,2,0,B|505:182|505:182|476:210,1,80,4|4,0:3|0:1,0:0:0:0:
393,259,212405,2,0,B|357:307|357:307|393:355,2,120,4|2|4,0:3|0:0|0:1,0:0:0:0:
477,307,214252,6,0,L|317:307,1,160,4|4,0:3|0:3,0:0:0:0:
256,232,215636,1,4,0:1:0:0:
317,157,216098,2,0,B|328:124|346:105|346:105|328:86|317:53,2,120,4|2|4,0:3|0:0|0:1,0:0:0:0:
378,232,217944,5,4,0:3:0:0:
317,307,218405,2,0,B|299:315|284:332|284:332|276:316|256:307|256:307|236:316|228:332|228:332|213:315|195:307,1,160,8|4,1:2|0:1,0:0:0:0:
134,232,219790,1,4,0:3:0:0:
195,157,220252,2,0,B|213:149|228:132|228:132|236:148|256:157|256:157|276:148|284:132|284:132|299:149|317:157,1,160,8|4,0:0|0:1,0:0:0:0:
378,232,221636,5,4,0:3:0:0:
256,380,222559,1,4,0:3:0:0:
134,232,223482,2,0,B|208:248|256:184|256:184|304:248|378:232,1,280,4|2,0:3|0:0,0:0:0:0:
