osu file format v14

[General]
AudioFilename: Song_YuruYuri Marathon.mp3
AudioLeadIn: 0
PreviewTime: 487897
Countdown: 0
SampleSet: Soft
StackLeniency: 0.4
Mode: 0
LetterboxInBreaks: 0
WidescreenStoryboard: 1

[Editor]
DistanceSpacing: 0.8
BeatDivisor: 4
GridSize: 32
TimelineZoom: 2.599999

[Metadata]
Title:Yuruyuri Songs Compilation
TitleUnicode:ゆるゆり Songs Compilation
Artist:Various Artists
ArtistUnicode:Various Artists
Creator:Karia
Version:Yuriest
Source:ゆるゆり
Tags:MY SWEET MEMORY Precious Friends Gorakubu, Ai to Yuuki to Kibou to Yuujou no Theme YuruYuri I love heart U Yuriyurarararayuruyuri Daijiken Shiawase Gift Girl's Power de Yuru Yurinrinrinrinrin My Pace de Ikimashou 100% Chu~Gakusei Chochocho! YuruYuri*Capriccio!!! Watashi, Shuyaku no Akaza Akari desu Majokko Mirakurun♪ Yes! YuYuYu*YuruYuri♪♪ After School Days Happy Time wa Owaranai Onna to Onna no Yuri-Game Nanamori-chu*Gorakubu Akaza Akari(CV:Mikami Shiori) Yui & Chinatsu(CV:Tsuda Minami & Ookubo Rumi) Majokko Mirakurun(CV:Taketatsu Ayana) Akari & Chinatsu(CV:Mikami Shiori & Ookubo Rumi) YuruYuri yryr marathon
BeatmapID:970416
BeatmapSetID:452417

[Difficulty]
HPDrainRate:5
CircleSize:4
OverallDifficulty:8.2
ApproachRate:9
SliderMultiplier:1.82
SliderTickRate:1

[Events]
//Background and Video events
0,0,"Hi.jpg",0,0
//Break Periods
2,39049,43382
2,77058,83482
2,120695,125493
2,144293,148789
2,178389,183039
2,209784,212927
2,239344,243912
2,277793,281832
2,307895,311210
2,347438,350844
2,374381,378341
2,414309,418281
2,446324,451695
2,479034,483081
2,520205,523868
2,570141,579642
//Storyboard Layer 0 (Background)
//Storyboard Layer 1 (Fail)
//Storyboard Layer 2 (Pass)
//Storyboard Layer 3 (Foreground)
//Storyboard Sound Samples

[TimingPoints]
7882,645.161290322581,4,2,1,65,1,0
11107,-100,4,2,1,40,0,0
11430,-100,4,2,1,45,0,0
11752,-100,4,2,1,50,0,0
12075,-100,4,2,1,55,0,0
12398,-100,4,2,1,60,0,0
13043,-166.666666666667,4,2,1,70,0,0
13527,-166.666666666667,4,2,1,5,0,0
13849,-166.666666666667,4,2,1,65,0,0
15623,-90.9090909090909,4,2,1,75,0,0
16107,-90.9090909090909,4,2,1,30,0,0
16269,-90.9090909090909,4,2,1,75,0,0
26430,-90.9090909090909,4,2,1,30,0,0
26591,-90.9090909090909,4,2,1,75,0,0
36269,-100,4,2,99,60,0,0
43982,410.958904109589,4,2,1,65,1,0
50557,-100,4,2,1,75,0,0
84082,413.793103448276,4,2,1,65,1,0
84082,-117.647058823529,4,2,1,65,0,0
89461,-200,4,2,1,65,0,0
89875,-133.333333333333,4,2,1,65,0,0
90702,-100,4,2,2,75,0,0
91013,-100,4,2,2,5,0,0
91116,-100,4,2,2,75,0,0
94323,-100,4,2,2,5,0,0
94426,-100,4,2,2,75,0,0
97633,-100,4,2,2,5,0,0
97737,-100,4,2,2,75,0,0
99288,-100,4,2,2,5,0,0
99392,-100,4,2,2,75,0,0
102288,-142.857142857143,4,2,2,75,0,0
102599,-142.857142857143,4,2,2,5,0,0
102702,-83.3333333333333,4,2,2,75,0,0
103116,-100,4,2,2,75,0,0
104254,-100,4,2,2,5,0,0
104357,-100,4,2,2,75,0,0
107564,-100,4,2,2,5,0,0
107668,-100,4,2,2,75,0,0
110875,-100,4,2,2,5,0,0
110978,-100,4,2,2,75,0,0
112530,-100,4,2,2,5,0,0
112633,-100,4,2,2,75,0,0
117185,-117.647058823529,4,2,99,65,0,0
120392,-117.647058823529,4,2,2,5,0,0
120495,-117.647058823529,4,2,2,65,0,0
126093,375,4,2,1,65,1,0
129093,-100,4,2,3,75,0,0
143343,-100,4,2,3,65,0,0
149389,342.857142857143,4,2,1,65,1,0
149389,-117.647058823529,4,2,1,65,0,0
150760,-117.647058823529,4,2,99,35,0,0
151446,-100,4,2,99,45,0,0
152046,-100,4,2,99,5,0,0
152131,-100,4,2,1,65,0,0
152174,-100,4,2,1,5,0,0
153503,-100,4,2,4,75,0,0
175446,-100,4,2,99,45,0,0
176817,-100,4,2,99,65,0,0
183639,324.324324324324,4,2,1,65,1,0
188666,-100,4,2,1,75,0,0
196611,-125,4,2,1,75,0,0
196936,-111.111111111111,4,2,1,75,0,0
197260,-100,4,2,1,75,0,0
197584,-90.9090909090909,4,2,1,75,0,0
198720,-100,4,2,1,75,0,0
206990,-111.111111111111,4,2,1,75,0,0
207314,-100,4,2,1,75,0,0
207638,-90.9090909090909,4,2,1,75,0,0
207963,-83.3333333333333,4,2,1,75,0,0
209260,-100,4,2,1,75,0,0
213527,337.078651685393,4,2,5,65,1,0
216560,-83.3333333333333,4,2,1,65,0,0
217571,-100,4,2,5,75,0,0
221448,-111.111111111111,4,2,5,75,0,0
221701,-111.111111111111,4,2,5,5,0,0
221785,-100,4,2,5,75,0,0
222038,-100,4,2,5,5,0,0
222122,-90.9090909090909,4,2,5,75,0,0
222375,-90.9090909090909,4,2,5,5,0,0
222459,-83.3333333333333,4,2,5,75,0,0
222543,-83.3333333333333,4,2,5,5,0,0
222628,-100,4,2,5,75,0,0
232234,-111.111111111111,4,2,5,75,0,0
232487,-111.111111111111,4,2,5,5,0,0
232571,-100,4,2,5,75,0,0
232824,-100,4,2,5,5,0,0
232909,-90.9090909090909,4,2,5,75,0,0
233161,-90.9090909090909,4,2,5,5,0,0
233246,-83.3333333333333,4,2,5,75,0,0
233330,-83.3333333333333,4,2,5,5,0,0
233414,-100,4,2,5,75,0,0
244512,324.324324324324,4,2,1,65,1,0
247106,-100,4,2,1,75,0,0
247349,-100,4,2,1,5,0,0
247430,-100,4,2,1,75,0,0
249944,-100,4,2,1,5,0,0
250025,-100,4,2,1,75,0,0
252539,-100,4,2,1,5,0,0
252620,-100,4,2,1,75,0,0
254890,-111.111111111111,4,2,1,75,0,0
255133,-111.111111111111,4,2,1,5,0,0
255214,-100,4,2,1,75,0,0
255457,-100,4,2,1,5,0,0
255539,-90.9090909090909,4,2,1,75,0,0
255782,-90.9090909090909,4,2,1,5,0,0
255863,-83.3333333333333,4,2,1,75,0,0
256106,-83.3333333333333,4,2,1,5,0,0
256187,-100,4,2,1,75,0,0
257728,-100,4,2,1,5,0,0
257809,-100,4,2,1,75,0,0
260322,-100,4,2,1,5,0,0
260403,-100,4,2,1,75,0,0
262917,-100,4,2,1,5,0,0
262998,-100,4,2,1,75,0,0
265268,-111.111111111111,4,2,1,75,0,0
265512,-111.111111111111,4,2,1,5,0,0
265593,-100,4,2,1,75,0,0
265836,-100,4,2,1,5,0,0
265917,-90.9090909090909,4,2,1,75,0,0
266160,-90.9090909090909,4,2,1,5,0,0
266241,-83.3333333333333,4,2,1,75,0,0
266484,-83.3333333333333,4,2,1,5,0,0
266566,-100,4,2,1,75,0,0
282432,315.789473684211,4,2,4,65,1,0
282510,-100,4,2,4,5,0,0
283063,-100,4,2,4,65,0,0
283142,-100,4,2,4,5,0,0
283695,-100,4,2,4,65,0,0
283774,-100,4,2,4,5,0,0
284326,-100,4,2,4,65,0,0
284405,-100,4,2,4,5,0,0
284642,-100,4,2,4,65,0,0
285037,-100,4,2,4,5,0,0
285274,-100,4,2,4,65,0,0
285353,-100,4,2,4,5,0,0
285589,-100,4,2,4,65,0,0
285668,-100,4,2,4,5,0,0
285905,-100,4,2,4,65,0,0
285984,-100,4,2,4,5,0,0
286221,-100,4,2,4,65,0,0
287484,-100,4,2,4,75,0,0
295300,-100,4,2,4,5,0,0
295379,-100,4,2,4,75,0,0
295932,-100,4,2,4,5,0,0
296010,-100,4,2,4,75,0,0
296405,-100,4,2,4,5,0,0
296484,-100,4,2,4,75,0,0
296563,-100,4,2,4,5,0,0
296642,-100,4,2,4,75,0,0
296721,-100,4,2,4,5,0,0
296800,-100,4,2,4,75,0,0
296879,-100,4,2,4,5,0,0
296958,-66.6666666666667,4,2,4,75,0,0
297589,-100,4,2,4,75,0,0
306510,-100,4,2,4,5,0,0
306589,-100,4,2,4,75,0,0
306668,-100,4,2,4,5,0,0
306747,-100,4,2,4,75,0,0
306826,-100,4,2,4,5,0,0
306905,-100,4,2,4,75,0,0
306984,-100,4,2,4,5,0,0
307063,-66.6666666666667,4,2,4,75,0,0
311810,285.714285714286,4,2,6,50,1,0
311810,-142.857142857143,4,2,6,50,0,0
312952,-117.647058823529,4,2,6,55,0,0
314095,-100,4,2,6,60,0,0
315238,-100,4,2,1,65,0,0
316381,-100,4,2,1,25,0,0
316667,-100,4,2,6,65,0,0
317524,-100,4,2,6,75,0,0
318738,-100,4,2,6,5,0,0
318810,-100,4,2,6,75,0,0
321024,-100,4,2,6,5,0,0
321095,-100,4,2,6,75,0,0
323310,-100,4,2,6,5,0,0
323381,-100,4,2,6,75,0,0
325524,-100,4,2,6,25,0,0
325667,-100,4,2,6,75,0,0
325810,-100,4,2,6,25,0,0
325952,-142.857142857143,4,2,6,75,0,0
326667,-100,4,2,6,75,0,0
327881,-100,4,2,6,5,0,0
327952,-100,4,2,6,75,0,0
330167,-100,4,2,6,5,0,0
330238,-100,4,2,6,75,0,0
332452,-100,4,2,6,5,0,0
332524,-100,4,2,6,75,0,0
334667,-100,4,2,6,25,0,0
334810,-100,4,2,6,75,0,0
334952,-100,4,2,6,25,0,0
335095,-142.857142857143,4,2,6,75,0,0
335810,-100,4,2,6,75,0,0
336024,-100,4,2,6,5,0,0
336095,-100,4,2,6,75,0,0
337167,-100,4,2,6,5,0,0
337238,-100,4,2,6,75,0,0
346810,-86.9565217391304,4,2,6,75,0,0
347167,-86.9565217391304,4,2,6,5,0,0
347238,-86.9565217391304,4,2,6,65,0,0
350339,315.789473684211,4,2,1,65,1,0
351444,-133.333333333333,4,2,1,65,0,0
351681,-133.333333333333,4,2,1,5,0,0
351760,-100,4,2,1,50,0,0
352233,-100,4,2,1,55,0,0
352865,-100,4,2,1,60,0,0
353496,-100,4,2,1,65,0,0
354128,-100,4,2,1,75,0,0
360049,-100,4,2,1,5,0,0
360128,-100,4,2,1,75,0,0
361312,-100,4,2,1,5,0,0
361391,-100,4,2,1,75,0,0
374181,315.789473684211,4,2,1,65,1,0
378941,315.789473684211,4,2,1,65,1,0
378941,-117.647058823529,4,2,1,65,0,0
381467,-111.111111111111,4,2,1,65,0,0
381704,-111.111111111111,4,2,1,5,0,0
381783,-111.111111111111,4,2,1,65,0,0
382730,-105.263157894737,4,2,1,65,0,0
382967,-105.263157894737,4,2,1,5,0,0
383046,-105.263157894737,4,2,1,65,0,0
383993,-100,4,2,1,70,0,0
386519,-100,4,2,1,75,0,0
392441,-100,4,2,1,5,0,0
392519,-100,4,2,1,75,0,0
395362,-100,4,2,0,65,0,0
395993,-100,4,2,1,75,0,0
418881,324.324324324324,4,2,1,65,1,0
425367,-100,4,2,1,75,0,0
429340,-100,4,2,1,5,0,0
429421,-100,4,2,1,75,0,0
431935,-100,4,2,1,5,0,0
432016,-100,4,2,1,75,0,0
434529,-100,4,2,1,5,0,0
434610,-100,4,2,1,75,0,0
435421,-133.333333333333,4,2,1,75,0,0
435664,-133.333333333333,4,2,1,5,0,0
435745,-100,4,2,1,75,0,0
451142,329.67032967033,4,2,1,65,1,0
452295,-117.647058823529,4,2,4,65,0,0
453779,-83.3333333333333,4,2,4,65,0,0
453944,-83.3333333333333,4,2,4,5,0,0
453999,-83.3333333333333,4,2,4,65,0,0
454163,-83.3333333333333,4,2,4,5,0,0
454218,-83.3333333333333,4,2,4,65,0,0
454603,-83.3333333333333,4,2,4,5,0,0
454658,-83.3333333333333,4,2,4,65,0,0
454823,-83.3333333333333,4,2,4,5,0,0
454878,-83.3333333333333,4,2,4,65,0,0
457735,-100,4,2,4,75,0,0
459383,-66.6666666666667,4,2,4,75,0,0
460372,-100,4,2,4,75,0,0
462021,-66.6666666666667,4,2,4,75,0,0
463010,-100,4,2,4,75,0,0
469933,-66.6666666666667,4,2,4,75,0,0
470922,-100,4,2,4,75,0,0
472570,-66.6666666666667,4,2,4,75,0,0
473559,-100,4,2,4,75,0,0
474136,-100,4,2,4,5,0,0
474218,-100,4,2,4,75,0,0
474795,-100,4,2,4,5,0,0
474878,-100,4,2,4,75,0,0
476196,-142.857142857143,4,2,4,75,0,0
476444,-142.857142857143,4,2,4,5,0,0
476526,-76.9230769230769,4,2,4,75,0,0
476773,-76.9230769230769,4,2,4,5,0,0
476856,-142.857142857143,4,2,4,75,0,0
477103,-142.857142857143,4,2,4,5,0,0
477185,-76.9230769230769,4,2,4,75,0,0
477433,-76.9230769230769,4,2,4,5,0,0
477515,-100,4,2,4,75,0,0
483681,324.324324324324,4,2,1,65,1,0
487897,-153.846153846154,4,2,1,45,0,0
488221,-125,4,2,1,55,0,0
488545,-100,4,2,1,65,0,0
488870,-100,4,2,1,75,0,1
499167,-100,4,2,1,75,0,0
499248,-100,4,2,1,75,0,1
519924,-100,4,2,1,5,0,1
520005,-100,4,2,1,75,0,0
524468,315.789473684211,4,2,1,65,1,0
529520,-100,4,2,1,75,0,0
580242,342.857142857143,4,2,1,65,1,0
584184,-100,4,2,99,45,0,0
585384,-100,4,2,7,65,0,0
585727,-166.666666666667,4,2,7,55,0,0
585984,-166.666666666667,4,2,7,5,0,0
586070,-125,4,2,7,60,0,0
586327,-125,4,2,7,5,0,0
586413,-100,4,2,7,65,0,0
586756,-83.3333333333333,4,2,7,70,0,0
587099,-83.3333333333333,4,2,7,75,0,0
587356,-83.3333333333333,4,2,7,5,0,0
587442,-83.3333333333333,4,2,7,75,0,0
588727,-83.3333333333333,4,2,7,5,0,0
588813,-83.3333333333333,4,2,7,75,0,0
592842,-83.3333333333333,4,2,7,5,0,0
592927,-83.3333333333333,4,2,7,75,0,0
594213,-83.3333333333333,4,2,7,5,0,0
594299,-83.3333333333333,4,2,7,75,0,0
596699,-125,4,2,7,75,0,0
596956,-125,4,2,7,5,0,0
597042,-111.111111111111,4,2,7,75,0,0
597384,-100,4,2,7,75,0,0
597642,-100,4,2,7,5,0,0
597727,-90.9090909090909,4,2,7,75,0,0
598070,-66.6666666666667,4,2,7,75,0,0
598242,-66.6666666666667,4,2,7,40,0,0
598584,-100,4,2,7,75,0,0
599442,-66.6666666666667,4,2,7,75,0,0
599613,-66.6666666666667,4,2,7,40,0,0
599956,-100,4,2,7,75,0,0
602870,-90.9090909090909,4,2,7,75,0,0
603042,-90.9090909090909,4,2,7,5,0,0
603099,-90.9090909090909,4,2,7,75,0,0
603270,-90.9090909090909,4,2,7,5,0,0
603327,-90.9090909090909,4,2,7,75,0,0
603442,-90.9090909090909,4,2,7,5,0,0
603556,-83.3333333333333,4,2,7,75,0,0
603813,-83.3333333333333,4,2,7,5,0,0
603899,-83.3333333333333,4,2,7,75,0,0
605184,-83.3333333333333,4,2,7,5,0,0
605270,-83.3333333333333,4,2,7,75,0,0
606556,-83.3333333333333,4,2,7,5,0,0
606642,-83.3333333333333,4,2,7,75,0,0
611870,-83.3333333333333,4,2,7,5,0,0
612127,-90.9090909090909,4,2,7,70,0,0
612213,-90.9090909090909,4,2,7,5,0,0
612470,-100,4,2,7,65,0,0
612556,-100,4,2,7,5,0,0
612813,-111.111111111111,4,2,7,60,0,0
612899,-111.111111111111,4,2,7,5,0,0
613156,-83.3333333333333,4,2,7,75,0,0
625499,-100,4,2,7,75,0,0
625842,-100,4,2,7,5,0,0
626184,-100,4,2,7,75,0,0
626527,-100,4,2,7,5,0,0
626870,-100,4,2,7,75,0,0
631842,-83.3333333333333,4,2,7,10,0,0
633384,-83.3333333333333,4,2,7,5,0,0

[Colours]
Combo1 : 168,255,255
Combo2 : 255,51,51
Combo3 : 255,255,87
Combo4 : 255,64,255

[HitObjects]
148,61,7881,6,0,P|142:113|135:171,1,91,4|0,0:0|0:0,0:0:0:0:
61,236,8365,1,0,0:0:0:0:
61,236,8527,2,0,P|55:190|50:145,1,91,8|0,0:0|0:0,0:0:0:0:
147,236,9011,1,2,0:0:0:0:
147,236,9172,2,0,L|138:298,2,45.5,2|8|2,0:0|0:0|0:0,0:0:0:0:
238,55,9817,2,0,L|254:158,1,91,8|0,0:0|0:0,0:0:0:0:
301,333,10462,6,0,P|360:287|310:188,1,182,4|8,0:0|0:0,0:0:0:0:
170,235,11430,1,8,0:0:0:0:
326,112,11752,1,8,0:0:0:0:
240,272,12075,1,8,0:0:0:0:
200,68,12398,1,8,0:0:0:0:
227,150,12559,1,2,0:0:0:0:
142,132,12720,1,4,0:3:0:0:
428,71,13043,6,0,B|325:26|312:137|212:69,1,218.399993334961,4|8,0:0|0:0,0:0:0:0:
156,26,14494,1,8,0:0:0:0:
145,108,14656,1,8,0:0:0:0:
32,289,14978,5,8,0:0:0:0:
103,249,15140,1,8,0:0:0:0:
161,307,15301,1,2,0:0:0:0:
433,257,15623,6,0,P|373:248|268:231,1,150.150004582214,4|0,0:0|0:0,0:0:0:0:
195,169,16269,2,0,P|203:224|212:284,1,100.10000305481,8|0,0:0|0:0,0:0:0:0:
155,340,16752,1,2,0:0:0:0:
290,252,16914,1,2,0:0:0:0:
126,234,17075,1,8,0:0:0:0:
267,336,17236,1,2,0:0:0:0:
267,336,17559,2,0,P|217:329|177:358,1,100.10000305481,8|2,0:0|0:0,0:0:0:0:
3,237,18204,6,0,P|58:247|112:255,1,100.10000305481,2|0,0:0|0:0,0:0:0:0:
225,98,18849,2,0,P|219:147|216:170,1,50.0500015274048,8|2,0:0|0:0,0:0:0:0:
183,220,19172,1,2,0:0:0:0:
298,151,19333,1,8,0:0:0:0:
341,278,19494,2,0,P|391:284|438:251,1,100.10000305481,2|2,0:0|0:0,0:0:0:0:
189,230,20140,2,0,P|139:224|92:257,1,100.10000305481,8|0,0:0|0:0,0:0:0:0:
325,286,20785,5,2,0:0:0:0:
325,286,21107,1,2,0:0:0:0:
276,74,21430,2,0,P|267:128|258:180,1,100.10000305481,8|0,0:0|0:0,0:0:0:0:
243,255,21914,1,2,0:0:0:0:
186,109,22075,1,2,0:0:0:0:
58,214,22236,1,8,0:0:0:0:
192,191,22398,1,2,0:0:0:0:
192,191,22720,2,0,P|148:168|96:180,1,100.10000305481,8|0,0:0|0:0,0:0:0:0:
29,238,23204,1,2,0:0:0:0:
93,97,23365,5,2,0:0:0:0:
138,251,23527,1,8,0:0:0:0:
93,97,23688,2,0,P|136:71|198:88,1,100.10000305481,2|8,0:0|0:0,0:0:0:0:
236,198,24172,1,2,0:0:0:0:
289,54,24333,1,0,0:0:0:0:
342,206,24494,1,8,0:0:0:0:
224,106,24656,5,8,0:0:0:0:
393,149,24817,2,0,P|416:105|398:49,1,100.10000305481,8|8,0:0|0:0,0:0:0:0:
326,210,25301,1,8,0:0:0:0:
326,210,25462,1,0,0:0:0:0:
481,165,25623,1,8,0:0:0:0:
319,231,25785,1,0,0:0:0:0:
464,331,25946,6,0,P|507:279|467:196,1,150.150004582214,4|0,0:0|0:0,0:0:0:0:
403,141,26591,2,0,P|398:196|393:248,1,100.10000305481,8|0,0:0|0:0,0:0:0:0:
338,308,27075,1,2,0:0:0:0:
205,237,27236,1,2,0:0:0:0:
353,188,27398,1,8,0:0:0:0:
202,252,27559,1,2,0:0:0:0:
202,252,27882,2,0,P|180:208|197:153,1,100.10000305481,8|0,0:0|0:0,0:0:0:0:
55,338,28527,6,0,P|103:331|167:322,1,100.10000305481,2|2,0:0|0:0,0:0:0:0:
0,263,29172,2,0,P|48:256|112:247,1,100.10000305481,8|2,0:0|0:0,0:0:0:0:
166,330,29656,1,8,0:0:0:0:
204,179,29817,1,2,0:0:0:0:
166,330,29978,1,8,0:0:0:0:
316,286,30140,2,0,L|254:274,1,50.0500015274048,2|0,0:0|0:0,0:0:0:0:
377,348,30462,1,8,0:0:0:0:
356,195,30623,1,4,0:3:0:0:
356,195,30785,1,2,0:0:0:0:
166,330,31107,6,0,L|266:313,1,100.10000305481,4|2,0:0|0:0,0:0:0:0:
44,264,31752,2,0,L|144:247,1,100.10000305481,8|2,0:0|0:0,0:0:0:0:
82,338,32236,1,2,0:0:0:0:
82,338,32398,1,2,0:0:0:0:
31,186,32559,1,8,0:0:0:0:
190,210,32720,2,0,P|209:166|195:109,2,100.10000305481,2|8|2,0:0|0:0|0:0,0:0:0:0:
9,75,33688,6,0,P|0:123|18:168,1,100.10000305481,4|2,0:0|0:0,0:0:0:0:
196,100,34333,1,8,0:0:0:0:
151,211,34494,1,4,0:3:0:0:
266,187,34656,1,2,0:0:0:0:
266,187,34817,1,2,0:0:0:0:
102,125,34978,1,4,0:0:0:0:
415,140,36269,6,0,L|306:124,2,91,2|0|0,0:0|0:0|0:0,0:0:0:0:
501,194,37236,1,0,0:0:0:0:
508,103,37559,2,0,L|500:193,1,91,2|0,0:0|0:0,0:0:0:0:
415,245,38204,2,0,L|428:336,1,91
504,365,38688,1,0,0:0:0:0:
504,365,38849,5,2,0:0:0:0:
431,238,43982,6,0,L|424:328,1,91,4|2,0:0|0:0,0:0:0:0:
424,328,44290,1,2,0:0:0:0:
424,328,44392,1,8,0:0:0:0:
267,226,44598,2,0,B|330:216|330:216|378:237|378:237|459:224,1,182,2|2,0:0|0:0,0:0:0:0:
293,312,45214,2,0,P|244:304|202:298,1,91,8|0,0:0|0:0,0:0:0:0:
113,138,45625,5,4,0:0:0:0:
11,265,45831,1,2,0:0:0:0:
11,265,45934,1,2,0:0:0:0:
11,265,46036,2,0,L|118:252,1,91,8|0,0:0|0:0,0:0:0:0:
171,91,46447,2,0,P|186:144|163:194,1,91,0|2,0:0|0:0,0:0:0:0:
106,35,46858,1,8,0:0:0:0:
266,102,47064,1,0,0:0:0:0:
266,102,47166,1,0,0:0:0:0:
266,102,47269,5,12,0:0:0:0:
107,195,47475,1,2,0:0:0:0:
192,33,47680,1,2,0:0:0:0:
351,171,47886,5,8,0:0:0:0:
170,113,48091,1,2,0:0:0:0:
357,56,48297,1,2,0:0:0:0:
205,198,48502,5,8,0:0:0:0:
274,16,48708,1,2,0:0:0:0:
280,51,48810,1,2,0:0:0:0:
286,86,48913,1,8,0:0:0:0:
341,311,49735,6,0,P|347:267|352:218,1,91,2|0,0:0|0:0,0:0:0:0:
297,153,50043,1,8,0:0:0:0:
266,132,50146,1,8,0:0:0:0:
230,125,50249,1,2,0:0:0:0:
194,132,50351,1,2,0:0:0:0:
162,150,50454,1,2,0:0:0:0:
145,182,50557,6,0,L|158:293,1,91,4|2,0:0|0:0,0:0:0:0:
85,115,50968,1,8,0:0:0:0:
231,220,51173,1,2,0:0:0:0:
266,212,51276,1,8,0:0:0:0:
302,206,51379,1,2,0:0:0:0:
337,200,51482,1,8,0:0:0:0:
373,194,51584,1,2,0:0:0:0:
499,55,51790,2,0,P|465:33|402:43,1,91,8|2,0:0|0:0,0:0:0:0:
416,35,52098,1,2,0:0:0:0:
416,35,52201,5,2,0:0:0:0:
358,181,52406,1,2,0:0:0:0:
305,18,52612,1,8,0:0:0:0:
160,141,52817,1,2,0:0:0:0:
195,134,52920,1,8,0:0:0:0:
230,127,53023,1,2,0:0:0:0:
265,121,53125,1,8,0:0:0:0:
301,115,53228,1,2,0:0:0:0:
183,217,53434,2,0,P|174:263|195:306,1,91,8|2,0:0|0:0,0:0:0:0:
382,332,53845,6,0,P|334:341|285:350,1,91,2|2,0:0|0:0,0:0:0:0:
448,238,54255,1,8,0:0:0:0:
328,110,54461,1,2,0:0:0:0:
324,146,54564,1,8,0:0:0:0:
320,182,54666,1,2,0:0:0:0:
317,218,54769,1,8,0:0:0:0:
314,254,54872,1,2,0:0:0:0:
156,160,55077,2,0,L|164:214,3,45.5,8|0|0|0,0:0|0:0|0:0|0:0,0:0:0:0:
113,274,55488,5,2,0:0:0:0:
242,203,55694,1,2,0:0:0:0:
74,159,55899,1,8,0:0:0:0:
256,97,56105,1,2,0:0:0:0:
225,77,56208,1,8,0:0:0:0:
190,67,56310,1,2,0:0:0:0:
153,69,56413,1,8,0:0:0:0:
119,82,56516,1,2,0:0:0:0:
281,177,56721,2,0,P|326:168|371:160,1,91,8|2,0:0|0:0,0:0:0:0:
380,150,57029,1,2,0:0:0:0:
389,140,57132,6,0,P|384:189|378:240,1,91,4|2,0:0|0:0,0:0:0:0:
301,87,57543,1,8,0:0:0:0:
465,152,57749,1,2,0:0:0:0:
465,152,57851,1,8,0:0:0:0:
465,152,57954,1,2,0:0:0:0:
273,193,58160,1,2,0:0:0:0:
430,71,58365,1,8,0:0:0:0:
273,193,58571,1,2,0:0:0:0:
468,245,58776,6,0,P|428:235|374:259,1,91,2|2,0:0|0:0,0:0:0:0:
252,372,59187,1,8,0:0:0:0:
193,201,59392,1,2,0:0:0:0:
186,235,59495,1,8,0:0:0:0:
182,270,59598,1,2,0:0:0:0:
178,307,59701,1,8,0:0:0:0:
175,343,59803,1,2,0:0:0:0:
107,200,60009,2,0,P|63:192|14:215,1,91,8|2,0:0|0:0,0:0:0:0:
16,216,60317,1,2,0:0:0:0:
13,224,60420,5,2,0:0:0:0:
105,382,60625,1,2,0:0:0:0:
254,264,60831,1,8,0:0:0:0:
60,309,61036,1,2,0:0:0:0:
60,309,61139,1,8,0:0:0:0:
60,309,61242,1,2,0:0:0:0:
243,362,61447,1,2,0:0:0:0:
60,309,61653,1,8,0:0:0:0:
181,131,61858,6,0,B|217:170|217:170|197:299,1,182,4|2,0:0|0:0,0:0:0:0:
197,297,62475,1,8,0:0:0:0:
378,192,62680,2,0,P|287:205|201:219,1,136.5,4|2,0:0|0:0,0:0:0:0:
167,160,63091,1,2,0:0:0:0:
161,163,63194,1,2,0:0:0:0:
156,167,63297,2,0,L|166:231,3,45.5,2|0|0|0,0:0|0:0|0:0|0:0,0:0:0:0:
235,266,63708,6,0,P|245:213|253:162,1,91,4|2,0:0|0:0,0:0:0:0:
152,307,64118,1,8,0:0:0:0:
326,251,64324,1,2,0:0:0:0:
361,258,64427,1,8,0:0:0:0:
396,265,64529,1,2,0:0:0:0:
431,272,64632,1,8,0:0:0:0:
466,279,64735,1,2,0:0:0:0:
336,164,64940,2,0,P|397:153|435:147,1,91,8|2,0:0|0:0,0:0:0:0:
425,148,65249,1,2,0:0:0:0:
425,148,65351,5,2,0:0:0:0:
262,94,65557,1,2,0:0:0:0:
312,259,65762,1,8,0:0:0:0:
150,160,65968,1,2,0:0:0:0:
126,188,66071,1,8,0:0:0:0:
122,224,66173,1,2,0:0:0:0:
134,259,66276,1,8,0:0:0:0:
160,284,66379,1,2,0:0:0:0:
307,162,66584,2,0,P|300:214|294:259,1,91,8|2,0:0|0:0,0:0:0:0:
211,49,66995,6,0,P|218:101|224:146,1,91,2|2,0:0|0:0,0:0:0:0:
386,74,67406,1,8,0:0:0:0:
322,245,67612,1,2,0:0:0:0:
318,209,67714,1,8,0:0:0:0:
314,172,67817,1,2,0:0:0:0:
310,135,67920,1,8,0:0:0:0:
307,98,68023,1,2,0:0:0:0:
468,193,68228,2,0,L|478:138,3,45.5,8|0|0|0,0:0|0:0|0:0|0:0,0:0:0:0:
503,71,68639,5,2,0:0:0:0:
367,163,68845,1,2,0:0:0:0:
512,262,69050,1,8,0:0:0:0:
324,330,69255,1,2,0:0:0:0:
360,334,69358,1,8,0:0:0:0:
396,339,69461,1,2,0:0:0:0:
432,344,69564,1,8,0:0:0:0:
467,349,69666,1,2,0:0:0:0:
360,174,69872,2,0,P|347:217|367:264,1,91,8|2,0:0|0:0,0:0:0:0:
423,89,70283,5,4,0:0:0:0:
277,171,70488,1,2,0:0:0:0:
188,15,70694,1,8,0:0:0:0:
332,90,70899,1,2,0:0:0:0:
332,90,71002,1,8,0:0:0:0:
332,90,71105,2,0,P|281:99|239:107,1,91,2|2,0:0|0:0,0:0:0:0:
95,214,71516,1,8,0:0:0:0:
151,30,71721,1,2,0:0:0:0:
151,30,71824,1,2,0:0:0:0:
151,30,71927,6,0,P|158:82|166:133,1,91,2|2,0:0|0:0,0:0:0:0:
297,217,72338,1,8,0:0:0:0:
103,261,72543,1,2,0:0:0:0:
138,267,72646,1,8,0:0:0:0:
173,273,72749,1,2,0:0:0:0:
209,279,72851,1,8,0:0:0:0:
244,285,72954,1,2,0:0:0:0:
81,366,73160,2,0,P|61:326|73:266,1,91,8|2,0:0|0:0,0:0:0:0:
158,104,73571,6,0,P|162:148|142:188,1,91,4|2,0:0|0:0,0:0:0:0:
0,222,73982,1,8,0:0:0:0:
110,43,74187,1,4,0:0:0:0:
225,214,74392,1,0,0:0:0:0:
291,25,74598,1,2,0:0:0:0:
318,49,74701,1,2,0:0:0:0:
336,80,74803,1,8,0:0:0:0:
346,115,74906,1,2,0:0:0:0:
346,151,75009,1,2,0:0:0:0:
335,185,75112,1,2,0:0:0:0:
312,213,75214,1,4,0:0:0:0:
256,192,75317,12,4,76858,0:0:0:0:
467,95,84082,6,0,P|405:57|349:117,1,154.700002950668,2|0,0:0|0:0,0:0:0:0:
350,104,84702,1,2,0:0:0:0:
497,190,84909,1,8,0:0:0:0:
339,227,85116,2,0,L|332:186,3,25.7833338251114,8|0|0|0,0:0|0:0|0:0|0:0,0:0:0:0:
408,46,85530,5,4,0:0:0:0:
408,46,86564,2,0,L|397:178,1,116.025002213001,8|0,0:0|0:0,0:0:0:0:
338,216,86978,2,0,L|258:200,1,77.3500014753342,2|2,0:0|0:0,0:0:0:0:
81,118,87392,1,4,0:0:0:0:
79,105,87806,5,2,0:0:0:0:
154,239,88013,1,8,0:0:0:0:
218,59,88219,1,8,0:0:0:0:
81,193,88426,1,8,0:0:0:0:
235,141,88633,1,2,0:0:0:0:
40,95,88840,1,8,0:0:0:0:
245,45,89047,1,8,0:0:0:0:
241,58,89461,6,0,L|168:46,1,68.25,8|2,0:0|0:0,0:0:0:0:
237,71,89875,6,0,L|123:78,1,102.375003905296,8|2,0:0|0:0,0:0:0:0:
70,123,90288,5,8,0:0:0:0:
133,260,90495,1,8,0:0:0:0:
133,260,90599,1,8,0:0:0:0:
133,260,90702,6,0,L|296:244,1,136.5,4|0,0:0|0:0,0:0:0:0:
341,206,91116,2,0,B|357:164|357:164|340:117,1,91,8|0,0:0|0:0,0:0:0:0:
198,217,91530,1,2,0:0:0:0:
352,290,91737,1,0,0:0:0:0:
260,145,91944,1,8,0:0:0:0:
204,307,92150,1,0,0:0:0:0:
39,232,92357,5,2,0:0:0:0:
39,232,92564,1,0,0:0:0:0:
204,307,92771,2,0,P|224:267|206:213,1,91,8|0,0:0|0:0,0:0:0:0:
128,55,93185,1,2,0:0:0:0:
118,71,93288,2,0,L|132:163,1,91,0|0,1:0|0:0,0:0:0:0:
202,206,93599,2,0,L|215:116,1,91,8|0,0:0|0:0,0:0:0:0:
397,40,94013,6,0,P|406:123|350:136,1,136.5,2|0,0:0|0:0,0:0:0:0:
292,113,94426,2,0,L|301:20,1,91,8|0,0:0|0:0,0:0:0:0:
277,204,94840,1,2,0:0:0:0:
217,41,95047,1,0,0:0:0:0:
83,169,95254,2,0,P|129:160|178:152,1,91,8|0,0:0|0:0,0:0:0:0:
8,271,95668,6,0,P|54:262|103:254,1,91,2|0,0:0|0:0,0:0:0:0:
187,76,96082,1,12,0:0:0:0:
256,251,96288,1,0,1:0:0:0:
256,251,96392,1,0,1:0:0:0:
256,251,96495,5,0,1:0:0:0:
289,266,96599,1,0,1:0:0:0:
325,263,96702,1,8,1:2:0:0:
355,242,96806,1,0,1:0:0:0:
363,206,96909,1,8,1:2:0:0:
354,170,97013,1,0,1:0:0:0:
334,139,97116,1,0,1:0:0:0:
341,103,97219,1,0,1:0:0:0:
367,78,97323,6,0,L|511:93,1,136.5,4|0,0:0|0:0,0:0:0:0:
502,92,97737,1,8,0:0:0:0:
448,274,97944,1,2,0:0:0:0:
443,237,98047,1,0,1:0:0:0:
438,200,98150,1,2,0:0:0:0:
433,163,98254,1,0,1:0:0:0:
429,126,98357,1,2,0:0:0:0:
257,210,98564,1,8,0:0:0:0:
417,259,98771,1,4,0:0:0:0:
233,349,98978,6,0,P|196:297|226:225,1,136.5,4|0,0:0|0:0,0:0:0:0:
217,232,99392,1,8,0:0:0:0:
28,283,99599,1,2,0:0:0:0:
64,287,99702,1,0,1:0:0:0:
100,291,99806,1,2,0:0:0:0:
136,295,99909,1,0,1:0:0:0:
172,299,100013,1,2,0:0:0:0:
41,202,100219,2,0,P|19:163|30:116,1,91,8|0,0:0|0:0,0:0:0:0:
181,27,100633,5,4,0:0:0:0:
98,150,100840,2,0,L|154:141,1,45.5
232,127,101047,1,8,0:0:0:0:
82,242,101254,2,0,L|138:233,1,45.5
215,217,101461,1,2,0:0:0:0:
213,230,101564,1,0,1:0:0:0:
211,243,101668,1,2,0:0:0:0:
149,63,101875,1,8,0:0:0:0:
320,123,102082,2,0,L|314:157,2,30.3333333333333
248,102,102288,6,0,P|291:110|342:81,1,95.5499970840455,2|0,0:0|0:0,0:0:0:0:
248,102,102702,6,0,P|310:70|392:129,1,163.799995001221,12|0,0:0|0:0,0:0:0:0:
423,186,103116,5,0,1:0:0:0:
419,222,103219,1,0,1:0:0:0:
414,258,103323,1,0,1:0:0:0:
410,294,103426,1,0,1:0:0:0:
426,326,103530,5,0,1:0:0:0:
394,308,103633,1,0,1:0:0:0:
358,300,103737,1,0,1:0:0:0:
322,304,103840,1,0,1:0:0:0:
289,320,103944,6,0,P|233:340|161:305,1,136.5,4|0,0:0|0:0,0:0:0:0:
136,235,104357,2,0,P|140:282|146:344,1,91,8|0,0:0|0:0,0:0:0:0:
211,156,104771,1,2,0:0:0:0:
55,237,104978,1,0,0:0:0:0:
140,69,105185,1,8,0:0:0:0:
217,234,105392,1,0,0:0:0:0:
44,152,105599,5,2,0:0:0:0:
44,152,105806,1,0,0:0:0:0:
240,111,106013,2,0,P|195:100|151:89,1,91,8|0,0:0|0:0,0:0:0:0:
342,173,106426,1,2,0:0:0:0:
328,186,106530,2,0,P|282:193|237:200,1,91,0|0,1:0|0:0,0:0:0:0:
185,262,106840,2,0,P|177:310|201:356,1,91,8|0,0:0|0:0,0:0:0:0:
360,216,107254,6,0,P|300:207|211:194,1,136.5,2|0,0:0|0:0,0:0:0:0:
179,128,107668,2,0,P|233:122|272:118,1,91,8|0,0:0|0:0,0:0:0:0:
423,18,108082,1,2,0:0:0:0:
337,166,108288,1,0,0:0:0:0:
423,18,108495,2,0,P|431:68|440:127,1,91,8|0,0:0|0:0,0:0:0:0:
476,282,108909,6,0,P|482:237|490:192,1,91,2|0,0:0|0:0,0:0:0:0:
370,354,109323,1,8,0:0:0:0:
219,237,109530,1,0,1:0:0:0:
219,237,109633,1,0,1:0:0:0:
219,237,109737,5,0,1:0:0:0:
247,258,109840,1,0,0:0:0:0:
283,262,109944,1,8,0:0:0:0:
315,246,110047,1,0,0:0:0:0:
333,214,110150,1,10,0:0:0:0:
328,177,110254,1,2,0:0:0:0:
306,148,110357,1,2,0:0:0:0:
269,142,110461,1,2,0:0:0:0:
235,155,110564,6,0,L|382:138,1,136.5,4|0,0:0|0:0,0:0:0:0:
370,139,110978,1,8,0:0:0:0:
226,21,111185,1,2,0:0:0:0:
197,42,111288,1,0,1:0:0:0:
183,75,111392,1,2,0:0:0:0:
185,111,111495,1,0,1:0:0:0:
204,141,111599,1,2,0:0:0:0:
367,222,111806,1,8,0:0:0:0:
170,263,112013,1,4,0:0:0:0:
374,339,112219,6,0,B|338:311|338:311|225:337,1,136.5,4|0,0:0|0:0,0:0:0:0:
249,331,112633,1,8,0:0:0:0:
303,158,112840,1,0,0:0:0:0:
112,219,113047,1,2,0:0:0:0:
147,225,113150,1,0,1:0:0:0:
183,231,113254,1,2,0:0:0:0:
218,237,113357,1,0,1:0:0:0:
254,243,113461,1,2,0:0:0:0:
71,294,113668,1,0,0:0:0:0:
206,149,113875,6,0,P|223:103|202:47,1,91,4|0,0:0|0:0,0:0:0:0:
102,222,114288,1,8,0:0:0:0:
53,49,114495,1,0,1:0:0:0:
53,49,114599,1,0,1:0:0:0:
53,49,114702,1,0,1:0:0:0:
196,166,114909,1,8,0:0:0:0:
1,133,115116,1,8,0:0:0:0:
1,133,115219,1,0,0:0:0:0:
1,133,115323,1,0,0:0:0:0:
213,63,115530,5,0,1:0:0:0:
107,127,115944,1,0,1:0:0:0:
213,191,116357,1,0,1:0:0:0:
107,255,116771,1,0,1:0:0:0:
213,319,117185,6,0,L|380:309,1,154.700002950668,6|2,0:0|0:0,0:0:0:0:
272,204,117806,1,0,0:0:0:0:
272,204,118013,2,0,L|285:285,1,77.3500014753342,2|0,0:0|0:0,0:0:0:0:
346,138,118426,2,0,L|359:219,1,77.3500014753342,2|0,0:0|0:0,0:0:0:0:
248,82,118840,1,2,0:0:0:0:
237,91,119461,5,2,0:0:0:0:
389,55,119668,1,2,0:0:0:0:
340,209,119875,1,0,1:0:0:0:
340,209,119978,1,0,1:0:0:0:
340,209,120082,2,0,P|379:178|448:212,1,116.025002213001,4|0,0:3|0:0,0:0:0:0:
456,222,120495,5,4,0:0:0:0:
85,299,126093,6,0,P|163:331|237:254,1,182,4|0,0:0|0:0,0:0:0:0:
88,122,126655,1,8,0:0:0:0:
154,251,126843,1,0,0:0:0:0:
214,72,127030,1,0,0:0:0:0:
67,207,127218,1,0,0:0:0:0:
268,158,127405,1,0,0:0:0:0:
50,91,127593,1,8,0:0:0:0:
50,91,127968,6,0,P|27:88|69:113,1,182,0|2,0:0|0:0,0:0:0:0:
196,15,128530,1,8,0:0:0:0:
200,51,128624,1,8,0:0:0:0:
204,87,128718,1,8,0:0:0:0:
209,122,128811,1,8,0:0:0:0:
214,158,128905,1,8,0:0:0:0:
219,194,128999,1,8,0:0:0:0:
224,230,129093,6,0,P|271:218|317:207,1,91,4|0,0:0|0:0,0:0:0:0:
486,159,129468,1,8,0:0:0:0:
486,159,129655,2,0,P|439:147|393:136,1,91,2|0,0:0|0:0,0:0:0:0:
317,290,130030,1,2,0:0:0:0:
260,116,130218,1,8,0:0:0:0:
394,232,130405,1,2,0:0:0:0:
197,270,130593,5,2,0:0:0:0:
345,209,130780,1,2,0:0:0:0:
157,142,130968,1,10,0:0:0:0:
334,221,131155,1,2,0:0:0:0:
274,47,131343,2,0,P|263:99|252:156,1,91
78,192,131718,2,0,P|129:201|190:213,1,91,8|0,0:0|0:0,0:0:0:0:
215,373,132093,5,2,0:0:0:0:
255,197,132280,1,2,0:0:0:0:
125,323,132468,1,10,0:0:0:0:
314,290,132655,2,0,L|205:267,1,91,2|0,0:0|0:0,0:0:0:0:
47,227,133030,2,0,L|156:204,1,91,2|8,0:0|0:0,0:0:0:0:
267,138,133405,1,2,0:0:0:0:
59,72,133593,5,2,0:0:0:0:
149,222,133780,1,2,0:0:0:0:
194,36,133968,1,2,0:0:0:0:
149,222,134155,2,0,P|198:215|246:208,1,91,10|0,0:0|0:0,0:0:0:0:
357,67,134530,2,0,P|334:102|343:163,1,91,10|0,0:0|0:0,0:0:0:0:
336,149,134811,1,0,0:0:0:0:
336,149,134905,1,2,0:0:0:0:
485,255,135093,6,0,P|454:226|392:224,1,91,6|0,0:0|0:0,0:0:0:0:
241,313,135468,1,10,0:0:0:0:
322,141,135655,2,0,P|329:192|336:239,1,91,2|0,0:0|0:0,0:0:0:0:
213,71,136030,2,0,P|220:122|227:169,1,91,2|8,0:0|0:0,0:0:0:0:
294,13,136405,1,2,0:0:0:0:
141,122,136593,5,2,0:0:0:0:
3,18,136780,1,2,0:0:0:0:
50,201,136968,1,10,0:0:0:0:
122,32,137155,1,2,0:0:0:0:
177,207,137343,2,0,P|188:150|197:102,1,91
8,237,137718,2,0,P|48:231|103:224,1,91,8|0,0:0|0:0,0:0:0:0:
271,141,138093,5,2,0:0:0:0:
179,298,138280,1,2,0:0:0:0:
367,265,138468,1,10,0:0:0:0:
177,207,138655,2,0,L|283:229,1,91,2|0,0:0|0:0,0:0:0:0:
460,164,139030,2,0,L|354:186,1,91,2|8,0:0|0:0,0:0:0:0:
274,335,139405,1,2,0:0:0:0:
222,124,139593,5,2,0:0:0:0:
282,321,139780,1,2,0:0:0:0:
342,128,139968,1,10,0:0:0:0:
189,269,140155,1,10,0:0:0:0:
189,269,140249,1,8,0:0:0:0:
189,269,140343,1,8,0:0:0:0:
130,79,140530,2,0,P|121:130|113:176,1,91,2|8,0:0|0:0,0:0:0:0:
70,9,140905,1,2,0:0:0:0:
274,90,141093,5,6,0:0:0:0:
0,201,141843,1,6,0:0:0:0:
274,290,142593,1,6,0:0:0:0:
126,105,143343,6,0,P|92:162|136:222,1,136.5,8|0,0:0|0:0,0:0:0:0:
192,254,143718,2,0,L|244:245,1,45.5
303,204,143905,2,0,L|360:209,1,45.5
408,261,144093,5,6,0:0:0:0:
49,33,149389,5,2,0:0:0:0:
137,119,149560,6,0,P|145:101|149:80,1,38.6750007376671
54,140,149731,1,2,0:0:0:0:
197,226,149903,6,0,P|212:214|226:198,1,38.6750007376671
114,202,150074,1,2,0:0:0:0:
194,348,150246,6,0,P|213:345|233:338,1,38.6750007376671
134,285,150417,1,2,0:0:0:0:
39,378,150589,6,0,L|30:323,1,38.6750007376671
24,250,150760,6,0,L|51:257,11,25.7833338251114,2|2|2|2|2|2|2|2|2|2|2|2,0:0|0:0|0:0|0:0|0:0|0:0|0:0|0:0|0:0|0:0|0:0|0:0,0:0:0:0:
114,202,151446,6,0,L|151:196,5,30.3333333333333,2|2|2|2|2|2,0:0|0:0|0:0|0:0|0:0|0:0,0:0:0:0:
206,255,151789,6,0,L|357:270,1,136.5
412,223,152131,6,0,L|448:217,1,22.75,8|0,0:0|0:0,0:0:0:0:
447,111,153503,6,0,P|374:71|310:150,1,182,4|8,0:0|0:0,0:0:0:0:
368,296,154017,1,0,0:0:0:0:
193,246,154189,2,0,L|241:238|289:230,1,91,2|0,0:0|0:0,0:0:0:0:
101,176,154531,1,8,0:0:0:0:
162,347,154703,1,0,0:0:0:0:
0,262,154874,6,0,L|48:270|96:278,1,91,2|0,0:0|0:0,0:0:0:0:
250,352,155217,1,8,0:0:0:0:
212,164,155389,1,0,0:0:0:0:
380,248,155560,2,0,P|387:198|394:151,1,91,2|0,0:0|0:0,0:0:0:0:
315,304,155903,1,8,0:0:0:0:
465,204,156074,1,0,0:0:0:0:
272,102,156246,6,0,P|337:46|417:103,1,182,4|8,0:0|0:0,0:0:0:0:
271,191,156760,1,0,0:0:0:0:
199,26,156931,2,0,P|194:77|189:127,1,91,2|0,0:0|0:0,0:0:0:0:
98,274,157274,1,8,0:0:0:0:
17,95,157446,1,0,0:0:0:0:
206,169,157617,6,0,P|161:175|106:183,1,91,2|0,0:0|0:0,0:0:0:0:
317,251,157960,2,0,P|272:257|217:265,1,91,8|0,0:0|0:0,0:0:0:0:
335,93,158303,1,2,0:0:0:0:
408,279,158474,1,0,0:0:0:0:
252,151,158646,1,8,0:0:0:0:
454,209,158817,1,8,0:0:0:0:
454,209,158903,1,8,0:0:0:0:
454,209,158989,6,0,P|486:169|457:89,1,136.5,4|0,0:0|0:0,0:0:0:0:
398,45,159331,2,0,L|297:62,1,91,8|0,0:0|0:0,0:0:0:0:
122,113,159674,2,0,B|270:131,1,136.5
307,195,160017,2,0,P|313:244|283:288,1,91,8|0,0:0|0:0,0:0:0:0:
100,334,160360,6,0,P|146:327|203:319,1,91,2|0,0:0|0:0,0:0:0:0:
0,261,160703,2,0,P|46:254|103:246,1,91,8|0,0:0|0:0,0:0:0:0:
219,94,161046,1,2,0:0:0:0:
168,248,161217,1,0,0:0:0:0:
7,126,161389,1,8,0:0:0:0:
185,163,161560,1,8,0:0:0:0:
185,163,161646,1,8,0:0:0:0:
185,163,161731,6,0,L|80:175,1,91,4|0,0:0|0:0,0:0:0:0:
284,146,162074,1,8,0:0:0:0:
115,77,162246,1,0,0:0:0:0:
245,229,162417,1,2,0:0:0:0:
343,55,162589,1,8,0:0:0:0:
470,209,162760,2,0,P|491:173|471:104,1,91,4|0,0:3|0:0,0:0:0:0:
376,281,163103,5,4,0:0:0:0:
312,101,163274,1,0,0:0:0:0:
455,222,163446,1,8,0:0:0:0:
263,171,163617,1,0,0:0:0:0:
461,103,163789,5,0,1:0:0:0:
435,77,163874,1,0,1:0:0:0:
399,70,163960,1,0,1:0:0:0:
364,83,164046,1,0,1:0:0:0:
340,110,164131,1,0,1:0:0:0:
306,124,164217,1,0,1:0:0:0:
269,126,164303,1,0,1:0:0:0:
235,111,164389,1,0,1:0:0:0:
211,83,164474,6,0,P|204:157|194:269,1,182,4|8,0:0|0:0,0:0:0:0:
115,87,164989,1,0,0:0:0:0:
1,240,165160,2,0,P|47:233|96:227,1,91,2|0,0:0|0:0,0:0:0:0:
283,204,165503,1,8,0:0:0:0:
120,305,165674,1,0,0:0:0:0:
179,124,165846,6,0,P|188:186|195:237,1,91,2|0,0:0|0:0,0:0:0:0:
376,275,166189,1,8,0:0:0:0:
211,325,166360,1,0,0:0:0:0:
309,149,166531,2,0,P|300:211|293:262,1,91,2|0,0:0|0:0,0:0:0:0:
243,63,166874,1,8,0:0:0:0:
386,189,167046,1,0,0:0:0:0:
199,279,167217,6,0,P|274:250|342:321,1,182,4|8,0:0|0:0,0:0:0:0:
147,347,167731,1,0,0:0:0:0:
248,159,167903,2,0,P|256:210|264:262,1,91,2|0,0:0|0:0,0:0:0:0:
236,60,168246,1,8,0:0:0:0:
176,231,168417,1,0,0:0:0:0:
236,60,168589,6,0,P|201:36|148:44,1,91,2|0,0:0|0:0,0:0:0:0:
342,125,168931,2,0,P|298:132|249:140,1,91,8|0,0:0|0:0,0:0:0:0:
100,259,169274,1,2,0:0:0:0:
180,107,169446,1,0,0:0:0:0:
224,293,169617,1,8,0:0:0:0:
65,183,169789,1,8,0:0:0:0:
65,183,169874,1,8,0:0:0:0:
65,183,169960,6,0,P|131:177|208:171,1,136.5,4|0,0:0|0:0,0:0:0:0:
259,229,170303,2,0,L|355:235,1,91,8|0,0:0|0:0,0:0:0:0:
434,61,170646,2,0,P|466:119|429:175,1,136.5,2|0,0:0|0:0,0:0:0:0:
353,157,170989,2,0,P|339:117|360:66,1,91,8|0,0:0|0:0,0:0:0:0:
241,244,171331,6,0,L|334:237,1,91,2|0,0:0|0:0,0:0:0:0:
145,161,171674,2,0,L|238:154,1,91,8|0,0:0|0:0,0:0:0:0:
78,252,172017,1,2,0:0:0:0:
248,160,172189,1,0,0:0:0:0:
52,114,172360,1,8,0:0:0:0:
233,29,172531,1,8,0:0:0:0:
233,29,172617,1,8,0:0:0:0:
233,29,172703,6,0,L|222:135,1,91,4|0,0:0|0:0,0:0:0:0:
145,293,173046,1,8,0:0:0:0:
229,131,173217,1,0,0:0:0:0:
81,240,173389,1,2,0:0:0:0:
282,192,173560,1,8,0:0:0:0:
81,240,173731,2,0,P|61:204|76:142,1,91,4|0,0:3|0:0,0:0:0:0:
160,323,174074,5,4,0:0:0:0:
237,138,174246,1,0,0:0:0:0:
151,328,174417,1,8,0:0:0:0:
93,128,174589,1,0,0:0:0:0:
254,247,174760,5,0,1:0:0:0:
288,235,174846,1,0,1:0:0:0:
315,211,174931,1,0,1:0:0:0:
330,178,175017,1,0,1:0:0:0:
334,141,175103,1,0,1:0:0:0:
326,105,175189,1,0,1:0:0:0:
307,74,175274,1,0,1:0:0:0:
277,52,175360,1,0,1:0:0:0:
241,44,175446,6,0,L|205:51,18,30.3333333333333,2|2|2|2|2|2|2|2|2|2|2|2|2|2|2|2|2|2|2,0:0|0:0|0:0|0:0|0:0|0:0|0:0|0:0|0:0|0:0|0:0|0:0|0:0|0:0|0:0|0:0|0:0|0:0|0:0,0:0:0:0:
474,96,176817,1,0,1:0:0:0:
249,210,177503,5,2,0:0:0:0:
273,114,177674,1,2,0:0:0:0:
369,138,177846,1,2,0:0:0:0:
345,234,178017,1,2,0:0:0:0:
302,29,178189,5,4,0:0:0:0:
401,340,183639,6,0,P|446:293|413:220,1,136.5,4|0,0:0|0:0,0:0:0:0:
370,171,183963,2,0,L|279:182,1,91,8|0,0:0|0:0,0:0:0:0:
199,332,184287,1,2,0:0:0:0:
199,332,184449,1,2,0:0:0:0:
135,155,184611,2,0,B|113:195|113:195|126:244,1,91,8|0,0:0|0:0,0:0:0:0:
203,46,184936,6,0,P|212:117|222:194,1,136.5,4|0,0:0|0:0,0:0:0:0:
220,181,185260,1,8,0:0:0:0:
382,99,185422,2,0,P|373:153|364:203,1,91,0|2,0:0|0:0,0:0:0:0:
285,264,185747,1,2,0:0:0:0:
464,298,185909,2,0,P|416:307|367:316,1,91,8|0,0:0|0:0,0:0:0:0:
170,352,186233,5,4,0:0:0:0:
170,352,186314,1,0,0:0:0:0:
170,352,186395,1,0,0:0:0:0:
325,294,186557,1,2,0:0:0:0:
136,252,186720,1,8,0:0:0:0:
136,252,186801,1,8,0:0:0:0:
136,252,186882,1,2,0:0:0:0:
251,354,187044,1,2,0:0:0:0:
316,176,187206,2,0,L|330:273,1,91,8|2,0:0|0:0,0:0:0:0:
301,78,187530,1,12,0:0:0:0:
233,259,187693,5,2,0:0:0:0:
219,174,188017,1,2,0:0:0:0:
205,89,188341,1,2,0:0:0:0:
222,92,188422,1,2,0:0:0:0:
239,95,188503,1,8,0:0:0:0:
58,120,188666,6,0,L|252:93,1,182,4|2,0:0|0:0,0:0:0:0:
46,39,189152,1,8,0:0:0:0:
154,187,189314,1,0,0:0:0:0:
216,19,189476,1,2,0:0:0:0:
128,98,189639,1,2,0:0:0:0:
324,131,189801,1,8,0:0:0:0:
128,216,189963,6,0,B|193:204|193:204|235:227|235:227|311:213,1,182,4|2,0:0|0:0,0:0:0:0:
420,65,190449,2,0,L|406:168,1,91,8|0,0:0|0:0,0:0:0:0:
332,341,190774,2,0,P|321:280|308:199,1,136.5,2|0,0:0|0:0,0:0:0:0:
296,126,191098,1,8,0:0:0:0:
230,322,191260,6,0,P|155:358|82:286,1,182,4|2,0:0|0:0,0:0:0:0:
202,150,191747,2,0,P|210:200|217:246,1,91,8|0,0:0|0:0,0:0:0:0:
263,75,192071,1,2,0:0:0:0:
133,204,192233,1,2,0:0:0:0:
327,155,192395,1,8,0:0:0:0:
140,64,192557,6,0,B|103:46|103:46|121:191,1,182,4|2,0:0|0:0,0:0:0:0:
247,29,193044,2,0,P|288:21|332:52,1,91,8|0,0:0|0:0,0:0:0:0:
383,215,193368,1,2,0:0:0:0:
258,128,193530,1,2,0:0:0:0:
447,54,193693,1,8,0:0:0:0:
454,80,193774,1,0,0:0:0:0:
443,105,193855,1,0,0:0:0:0:
450,131,193936,1,0,0:0:0:0:
441,157,194017,6,0,P|383:120|304:146,1,136.5,4|0,0:0|0:0,0:0:0:0:
272,200,194341,1,8,0:0:0:0:
201,24,194503,2,0,P|176:62|188:114,1,91,0|2,0:0|0:0,0:0:0:0:
37,220,194828,1,2,0:0:0:0:
37,220,194990,2,0,P|72:192|116:195,1,91,8|0,0:0|0:0,0:0:0:0:
188,234,195233,1,0,0:0:0:0:
204,251,195314,6,0,L|191:342,1,91,2|0,0:0|0:0,0:0:0:0:
165,141,195639,1,8,0:0:0:0:
296,297,195801,2,0,P|344:301|385:266,1,91,0|2,0:0|0:0,0:0:0:0:
494,125,196125,1,2,0:0:0:0:
494,125,196287,2,0,P|486:180|480:220,1,91,8|0,0:0|0:0,0:0:0:0:
313,89,196611,6,0,L|328:202,1,109.2,2|0,0:0|0:0,0:0:0:0:
298,101,196936,6,0,P|257:67|182:86,1,122.849996250916,8|0,0:0|0:0,0:0:0:0:
115,121,197260,6,0,P|161:90|143:14,1,136.5
33,25,197584,6,0,B|5:61|5:61|23:181,1,150.150004582214,8|0,0:0|0:0,0:0:0:0:
47,283,197909,5,8,0:0:0:0:
266,217,198071,1,8,0:0:0:0:
28,179,198233,1,8,0:0:0:0:
275,233,198395,1,8,0:0:0:0:
275,233,198720,6,0,L|285:191,2,30.3333333333333,2|0|0,0:0|0:0|0:0,0:0:0:0:
237,309,198882,2,0,L|244:338,2,30.3333333333333,8|0|0,0:0|0:0|0:0,0:0:0:0:
192,237,199044,6,0,B|228:205|228:205|370:237,1,182,4|2,0:0|0:0,0:0:0:0:
486,368,199530,1,8,0:0:0:0:
430,185,199693,1,0,0:0:0:0:
366,347,199855,1,2,0:0:0:0:
466,274,200017,1,2,0:0:0:0:
270,311,200179,1,8,0:0:0:0:
432,194,200341,6,0,P|468:114|383:60,1,182,4|2,0:0|0:0,0:0:0:0:
275,233,200828,2,0,L|372:248,1,91,8|0,0:0|0:0,0:0:0:0:
217,94,201152,2,0,P|206:171|195:247,1,136.5,2|0,0:0|0:0,0:0:0:0:
229,305,201476,1,8,0:0:0:0:
22,240,201638,6,0,B|86:227|86:227|135:244|135:244|207:228,1,182,4|2,0:0|0:0,0:0:0:0:
28,140,202125,1,8,0:0:0:0:
107,284,202287,1,0,0:0:0:0:
176,104,202449,1,2,0:0:0:0:
99,195,202611,1,2,0:0:0:0:
56,10,202774,1,8,0:0:0:0:
257,69,202936,6,0,P|191:77|77:92,1,182,4|2,0:0|0:0,0:0:0:0:
288,142,203422,2,0,P|308:189|293:238,1,91,8|0,0:0|0:0,0:0:0:0:
138,350,203747,1,8,0:0:0:0:
197,177,203909,1,2,0:0:0:0:
246,371,204071,1,8,0:0:0:0:
246,371,204152,1,0,0:0:0:0:
246,371,204233,1,0,0:0:0:0:
246,371,204314,1,0,0:0:0:0:
246,371,204395,6,0,L|342:358,1,91,4|0,0:0|0:0,0:0:0:0:
158,298,204720,2,0,L|254:285,1,91,8|0,0:0|0:0,0:0:0:0:
422,364,205044,1,2,0:0:0:0:
422,364,205206,1,2,0:0:0:0:
370,162,205368,2,0,L|348:260,1,91,8|0,0:0|0:0,0:0:0:0:
212,93,205693,6,0,L|227:194,1,91,4|0,0:0|0:0,0:0:0:0:
381,54,206017,2,0,L|359:152,1,91,8|0,0:0|0:0,0:0:0:0:
303,326,206341,1,2,0:0:0:0:
303,326,206503,1,2,0:0:0:0:
146,200,206666,1,8,0:0:0:0:
277,241,206828,1,2,0:0:0:0:
67,283,206990,6,0,P|31:244|62:171,1,122.849996250916,2|0,0:0|0:0,0:0:0:0:
151,289,207314,6,0,P|158:227|167:146,1,136.5,8|0,0:0|0:0,0:0:0:0:
121,41,207638,6,0,L|140:205,1,150.150004582214,2|0,0:0|0:0,0:0:0:0:
206,49,207963,6,0,P|257:13|344:81,1,163.799995001221,8|0,0:0|0:0,0:0:0:0:
388,188,208287,5,4,0:0:0:0:
388,188,209260,6,0,L|401:84,1,91,8|0,0:0|0:0,0:0:0:0:
372,312,209584,1,4,0:0:0:0:
437,70,213527,5,4,0:0:0:0:
437,70,213695,1,2,0:0:0:0:
289,122,213864,2,0,L|380:139,1,91,8|0,0:0|0:0,0:0:0:0:
230,53,214201,1,0,0:0:0:0:
230,53,214369,1,2,0:0:0:0:
378,105,214538,2,0,L|287:122,1,91,8|0,0:0|0:0,0:0:0:0:
99,156,214875,5,4,0:0:0:0:
254,206,215043,1,8,0:0:0:0:
68,251,215212,1,8,0:0:0:0:
68,251,215296,1,8,0:0:0:0:
68,251,215380,1,8,0:0:0:0:
164,95,215549,1,2,0:0:0:0:
164,95,215633,1,2,0:0:0:0:
164,95,215718,1,8,0:0:0:0:
211,289,215886,1,8,0:0:0:0:
211,289,215970,1,8,0:0:0:0:
211,289,216055,1,8,0:0:0:0:
211,289,216139,1,8,0:0:0:0:
211,289,216223,6,0,P|258:284|205:266,1,136.5,4|0,0:3|0:0,0:0:0:0:
320,280,216560,6,0,P|350:239|296:271,1,163.799995001221,8|0,0:0|0:0,0:0:0:0:
337,353,216897,1,8,0:0:0:0:
420,187,217066,1,8,0:0:0:0:
387,188,217150,1,8,0:0:0:0:
354,189,217234,1,8,0:0:0:0:
321,190,217319,1,8,0:0:0:0:
288,191,217403,1,8,0:0:0:0:
255,193,217487,1,8,0:0:0:0:
222,194,217571,5,4,0:0:0:0:
340,107,217740,1,2,0:0:0:0:
279,268,217909,1,8,0:0:0:0:
225,97,218077,1,2,0:0:0:0:
279,268,218246,2,0,P|333:264|389:260,1,91,2|2,0:0|0:0,0:0:0:0:
202,335,218583,1,8,0:0:0:0:
291,179,218751,1,2,0:0:0:0:
364,363,218920,6,0,P|386:325|374:266,1,91,2|2,0:0|0:0,0:0:0:0:
194,322,219257,1,8,0:0:0:0:
371,267,219425,1,2,0:0:0:0:
179,209,219594,2,0,P|157:171|169:112,1,91,2|2,0:0|0:0,0:0:0:0:
286,258,219931,1,8,0:0:0:0:
432,121,220100,1,2,0:0:0:0:
432,121,220184,1,0,0:0:0:0:
432,121,220268,5,2,0:0:0:0:
260,163,220437,1,2,0:0:0:0:
456,204,220605,1,8,0:0:0:0:
363,36,220774,1,2,0:0:0:0:
363,36,220858,1,0,0:0:0:0:
363,36,220942,2,0,L|347:130,1,91,2|2,0:0|0:0,0:0:0:0:
414,306,221279,1,8,0:0:0:0:
245,264,221448,6,0,P|231:236|279:258,1,122.849996250916,4|0,0:0|0:0,0:0:0:0:
245,264,221785,6,0,P|228:217|291:241,1,136.5,4|0,0:0|0:0,0:0:0:0:
245,264,222122,6,0,P|219:217|296:215,1,150.150004582214,4|0,0:0|0:0,0:0:0:0:
245,264,222459,6,0,L|181:253,1,54.5999983337403,4|0,0:0|0:0,0:0:0:0:
73,197,222628,1,0,1:0:0:0:
105,192,222712,1,0,1:0:0:0:
137,187,222796,1,0,1:0:0:0:
169,182,222880,1,0,1:0:0:0:
201,177,222965,5,4,0:0:0:0:
253,21,223133,1,2,0:0:0:0:
85,60,223302,1,8,0:0:0:0:
249,116,223470,1,2,0:0:0:0:
70,182,223639,2,0,P|116:191|163:201,1,91,2|2,0:0|0:0,0:0:0:0:
259,352,223976,1,8,0:0:0:0:
335,191,224144,1,2,0:0:0:0:
259,352,224313,6,0,L|248:258,1,91,2|2,0:0|0:0,0:0:0:0:
337,91,224650,1,8,0:0:0:0:
172,167,224819,1,2,0:0:0:0:
172,167,224903,1,0,0:0:0:0:
172,167,224987,1,2,0:0:0:0:
364,224,225156,1,2,0:0:0:0:
265,51,225324,2,0,L|247:160,1,91,8|0,0:0|0:0,0:0:0:0:
77,263,225661,5,4,0:0:0:0:
77,263,225830,1,2,0:0:0:0:
151,78,225998,1,8,0:0:0:0:
284,226,226167,1,0,0:0:0:0:
81,175,226335,5,2,0:0:0:0:
285,120,226504,1,2,0:0:0:0:
158,291,226673,1,8,0:0:0:0:
227,160,226841,1,0,0:0:0:0:
268,365,227010,5,4,0:0:0:0:
152,215,227178,1,8,0:0:0:0:
342,256,227347,2,0,L|249:279,1,91,8|0,0:0|0:0,0:0:0:0:
399,156,227684,1,8,0:0:0:0:
399,156,227768,1,8,0:0:0:0:
399,156,227852,1,8,0:0:0:0:
451,352,228021,1,8,0:0:0:0:
456,316,228105,1,8,0:0:0:0:
462,280,228189,1,8,0:0:0:0:
468,243,228274,1,8,0:0:0:0:
474,207,228358,5,4,0:0:0:0:
307,257,228527,1,2,0:0:0:0:
440,122,228695,1,8,0:0:0:0:
377,301,228864,1,2,0:0:0:0:
244,167,229032,2,0,P|291:175|341:183,1,91,2|2,0:0|0:0,0:0:0:0:
166,249,229369,1,8,0:0:0:0:
131,69,229538,1,2,0:0:0:0:
166,249,229706,6,0,P|174:195|182:143,1,91,2|2,0:0|0:0,0:0:0:0:
73,328,230043,1,8,0:0:0:0:
254,267,230212,1,2,0:0:0:0:
74,162,230380,2,0,B|58:206|58:206|83:259,1,91,2|2,0:0|0:0,0:0:0:0:
164,64,230718,1,8,0:0:0:0:
295,202,230886,1,2,0:0:0:0:
150,158,231055,6,0,P|203:145|259:132,1,91,2|2,0:0|0:0,0:0:0:0:
437,177,231392,1,8,0:0:0:0:
248,130,231560,1,2,0:0:0:0:
451,66,231729,1,2,0:0:0:0:
368,249,231897,1,2,0:0:0:0:
368,249,231982,1,0,0:0:0:0:
368,249,232066,1,8,0:0:0:0:
302,68,232234,6,0,P|255:72|299:104,1,122.849996250916,4|0,0:0|0:0,0:0:0:0:
302,68,232571,6,0,P|252:59|272:120,1,136.5,4|0,0:0|0:0,0:0:0:0:
302,68,232909,6,0,P|254:49|258:126,1,150.150004582214,4|0,0:0|0:0,0:0:0:0:
302,68,233246,6,0,L|293:10,1,54.5999983337403,4|0,0:0|0:0,0:0:0:0:
372,116,233414,1,0,1:0:0:0:
401,127,233498,1,0,1:0:0:0:
433,129,233583,1,0,1:0:0:0:
462,118,233667,1,0,1:0:0:0:
482,94,233751,5,4,0:0:0:0:
418,246,233920,1,2,0:0:0:0:
370,51,234088,1,8,0:0:0:0:
418,246,234257,1,2,0:0:0:0:
218,193,234425,2,0,P|262:184|309:175,1,91,2|2,0:0|0:0,0:0:0:0:
129,214,234762,1,8,0:0:0:0:
309,285,234931,1,2,0:0:0:0:
130,376,235100,6,0,P|107:334|119:287,1,91,2|2,0:0|0:0,0:0:0:0:
267,161,235437,1,8,0:0:0:0:
184,324,235605,1,2,0:0:0:0:
128,140,235774,1,2,0:0:0:0:
207,335,235942,1,2,0:0:0:0:
3,280,236111,2,0,P|49:271|103:262,1,91,8|2,0:0|0:0,0:0:0:0:
313,215,236448,5,4,0:0:0:0:
136,127,236616,1,2,0:0:0:0:
244,295,236785,1,8,0:0:0:0:
294,100,236953,1,0,0:0:0:0:
153,278,237122,5,4,0:0:0:0:
360,243,237291,1,2,0:0:0:0:
185,147,237459,1,8,0:0:0:0:
276,336,237628,1,0,0:0:0:0:
345,112,237796,5,4,0:0:0:0:
221,233,237965,1,8,0:0:0:0:
413,180,238133,1,8,0:0:0:0:
413,180,238218,1,8,0:0:0:0:
413,180,238302,1,8,0:0:0:0:
268,50,238470,5,2,0:0:0:0:
272,81,238555,1,2,0:0:0:0:
276,112,238639,1,8,0:0:0:0:
280,143,238723,1,8,0:0:0:0:
284,174,238807,1,8,0:0:0:0:
288,205,238892,1,8,0:0:0:0:
293,236,238976,1,8,0:0:0:0:
298,267,239060,1,8,0:0:0:0:
303,298,239144,1,4,0:0:0:0:
95,255,244512,6,0,L|191:242,1,91,4|2,0:0|0:0,0:0:0:0:
78,345,244836,2,0,L|174:332,1,91,2|2,0:0|0:0,0:0:0:0:
7,280,245160,1,2,0:0:0:0:
183,338,245322,5,8,0:0:0:0:
135,157,245484,1,8,0:0:0:0:
40,328,245647,1,8,0:0:0:0:
265,285,245809,1,8,0:0:0:0:
348,45,247106,6,0,P|343:105|335:191,1,136.5,4|0,0:0|0:0,0:0:0:0:
263,219,247430,2,0,P|310:196|357:213,1,91,8|0,0:0|0:0,0:0:0:0:
179,125,247755,1,0,0:0:0:0:
213,293,247917,1,2,0:0:0:0:
179,125,248079,2,0,P|171:180|165:220,1,91,8|0,0:0|0:0,0:0:0:0:
43,46,248403,6,0,B|56:182|56:182|105:139,1,182,2|8,0:0|0:0,0:0:0:0:
281,135,248890,1,2,0:0:0:0:
281,135,249052,2,0,P|240:124|183:109,1,91,0|2,0:0|0:0,0:0:0:0:
368,160,249376,1,8,0:0:0:0:
203,237,249539,1,0,0:0:0:0:
404,257,249701,6,0,B|440:285|440:285|431:382,1,136.5,2|0,0:0|0:0,0:0:0:0:
336,353,250025,2,0,B|317:312|317:312|330:260,1,91,8|0,0:0|0:0,0:0:0:0:
461,144,250349,1,0,0:0:0:0:
279,204,250512,1,2,0:0:0:0:
476,244,250674,1,8,0:0:0:0:
335,112,250836,1,0,0:0:0:0:
476,244,250998,6,0,B|467:187|467:187|492:135|492:135|477:64,1,182,2|8,0:0|0:0,0:0:0:0:
342,220,251484,1,0,0:0:0:0:
326,130,251647,2,0,L|341:219,1,91,0|2,0:0|0:0,0:0:0:0:
183,111,251971,2,0,P|214:81|278:93,1,91,8|0,0:0|0:0,0:0:0:0:
67,184,252295,6,0,P|149:192|237:200,1,136.5,4|0,0:0|0:0,0:0:0:0:
267,251,252620,1,8,0:0:0:0:
62,285,252782,2,0,B|40:246|40:246|54:195,1,91,8|0,0:0|0:0,0:0:0:0:
187,269,253106,1,2,0:0:0:0:
0,348,253268,1,8,0:0:0:0:
187,269,253430,1,2,0:0:0:0:
350,384,253593,6,0,P|374:351|361:291,1,91,0|2,0:0|0:0,0:0:0:0:
242,151,253917,1,8,0:0:0:0:
122,314,254079,1,8,0:0:0:0:
297,260,254241,2,0,P|249:249|203:238,1,91,0|2,0:0|0:0,0:0:0:0:
447,222,254566,2,0,P|399:211|353:200,1,91,8|0,0:0|0:0,0:0:0:0:
149,169,254890,6,0,B|282:144,1,122.849996250916,2|0,0:0|0:0,0:0:0:0:
269,146,255214,6,0,B|133:126,1,136.5,8|0,0:0|0:0,0:0:0:0:
133,125,255539,6,0,L|281:97,1,150.150004582214,2|0,0:0|0:0,0:0:0:0:
280,97,255863,6,0,L|118:70,1,163.799995001221,8|0,0:0|0:0,0:0:0:0:
118,70,256187,5,4,0:0:0:0:
215,233,256349,1,8,0:0:0:0:
215,233,256430,1,8,0:0:0:0:
215,233,256512,1,8,0:0:0:0:
330,68,256674,1,8,0:0:0:0:
173,136,256836,5,8,0:0:0:0:
298,164,256998,1,2,0:0:0:0:
216,215,257160,1,2,0:0:0:0:
254,91,257322,1,2,0:0:0:0:
307,292,257484,6,0,B|340:322|340:322|435:298,1,136.5,4|0,0:0|0:0,0:0:0:0:
495,238,257809,2,0,P|446:226|399:215,1,91,8|0,0:0|0:0,0:0:0:0:
278,90,258133,1,0,0:0:0:0:
311,272,258295,1,2,0:0:0:0:
377,84,258457,1,8,0:0:0:0:
235,227,258620,1,0,0:0:0:0:
183,22,258782,6,0,P|115:59|156:158,1,182,2|8,0:0|0:0,0:0:0:0:
330,192,259268,1,2,0:0:0:0:
330,192,259430,2,0,P|280:200|224:211,1,91,0|2,0:0|0:0,0:0:0:0:
54,246,259755,2,0,P|104:254|160:265,1,91,8|0,0:0|0:0,0:0:0:0:
335,313,260079,6,0,P|373:274|340:192,1,136.5,2|0,0:0|0:0,0:0:0:0:
275,219,260403,2,0,P|263:267|304:305,1,91,8|0,0:0|0:0,0:0:0:0:
453,347,260728,1,0,0:0:0:0:
265,380,260890,1,2,0:0:0:0:
344,195,261052,1,8,0:0:0:0:
279,375,261214,1,0,0:0:0:0:
150,202,261376,6,0,P|161:279|176:389,1,182,2|8,0:0|0:0,0:0:0:0:
231,178,261863,1,2,0:0:0:0:
84,275,262025,2,0,P|38:279|-6:249,1,91,0|2,0:0|0:0,0:0:0:0:
42,93,262349,2,0,P|88:89|132:119,1,91,8|0,0:0|0:0,0:0:0:0:
227,306,262674,6,0,P|234:230|242:154,1,136.5,4|0,0:0|0:0,0:0:0:0:
252,89,262998,1,8,0:0:0:0:
317,270,263160,2,0,P|360:278|405:251,1,91,8|0,0:0|0:0,0:0:0:0:
464,103,263484,1,2,0:0:0:0:
266,181,263647,1,8,0:0:0:0:
472,261,263809,6,0,P|421:212|315:281,1,182,2|2,0:0|0:0,0:0:0:0:
170,375,264295,1,8,0:0:0:0:
100,189,264457,2,0,L|83:296,1,91,8|0,0:0|0:0,0:0:0:0:
22,345,264782,1,2,0:0:0:0:
182,268,264944,2,0,P|230:264|265:293,1,91,8|0,0:0|0:0,0:0:0:0:
333,101,265268,6,0,L|353:225,1,122.849996250916,2|0,0:0|0:0,0:0:0:0:
352,222,265593,6,0,L|372:77,1,136.5,8|0,0:0|0:0,0:0:0:0:
370,86,265917,6,0,L|394:239,1,150.150004582214,2|0,0:0|0:0,0:0:0:0:
393,234,266241,6,0,L|416:62,1,163.799995001221,8|0,0:0|0:0,0:0:0:0:
414,71,266566,5,2,0:0:0:0:
271,209,266728,1,8,0:0:0:0:
271,209,266809,1,8,0:0:0:0:
271,209,266890,1,8,0:0:0:0:
182,58,267052,1,2,0:0:0:0:
326,118,267214,5,2,0:0:0:0:
197,159,267376,1,2,0:0:0:0:
244,73,267539,1,2,0:0:0:0:
285,202,267701,1,2,0:0:0:0:
128,66,267863,6,0,P|61:110|99:194,1,182,2|8,0:0|0:0,0:0:0:0:
181,352,268349,1,0,0:0:0:0:
181,352,268512,2,0,P|187:301|192:255,1,91,0|2,0:0|0:0,0:0:0:0:
22,348,268836,2,0,P|61:371|117:350,1,91,8|0,0:0|0:0,0:0:0:0:
274,233,269160,6,0,P|226:240|172:250,1,91,2|0,0:0|0:0,0:0:0:0:
365,303,269484,2,0,P|317:310|263:320,1,91,8|0,0:0|0:0,0:0:0:0:
414,194,269809,1,0,0:0:0:0:
414,194,269971,1,2,0:0:0:0:
459,379,270133,1,8,0:0:0:0:
511,206,270295,1,0,0:0:0:0:
343,297,270457,6,0,P|286:256|337:157,1,182,2|8,0:0|0:0,0:0:0:0:
168,286,270944,1,0,0:0:0:0:
168,286,271106,2,0,P|227:278|277:271,1,91,0|2,0:0|0:0,0:0:0:0:
78,216,271430,2,0,P|137:208|187:201,1,91,8|0,0:0|0:0,0:0:0:0:
5,287,271755,5,2,0:0:0:0:
5,287,271917,1,0,0:0:0:0:
89,126,272079,1,8,0:0:0:0:
89,126,272241,1,0,0:0:0:0:
199,270,272403,1,0,0:0:0:0:
199,270,272566,1,2,0:0:0:0:
256,77,272728,2,0,P|265:126|273:172,1,91,8|0,0:0|0:0,0:0:0:0:
426,41,273052,6,0,P|385:22|342:34,1,91,2|0,0:0|0:0,0:0:0:0:
482,167,273376,2,0,P|491:114|498:67,1,91,8|0,0:0|0:0,0:0:0:0:
327,203,273701,2,0,P|367:221|410:209,1,91,2|0,0:0|0:0,0:0:0:0:
271,77,274025,2,0,P|262:130|255:177,1,91,8|0,0:0|0:0,0:0:0:0:
86,274,274349,6,0,P|138:265|184:256,1,91,2|0,0:0|0:0,0:0:0:0:
0,206,274674,2,0,P|52:197|98:188,1,91,8|0,0:0|0:0,0:0:0:0:
264,284,274998,1,2,0:0:0:0:
148,131,275160,1,2,0:0:0:0:
329,220,275322,1,8,0:0:0:0:
138,279,275484,1,0,0:0:0:0:
238,80,275647,6,0,P|248:161|260:266,1,182,4|8,0:0|0:0,0:0:0:0:
323,69,276133,1,0,0:0:0:0:
465,196,276295,2,0,P|415:189|371:182,1,91,2|0,0:0|0:0,0:0:0:0:
190,280,276620,2,0,P|240:273|284:266,1,91,8|0,0:0|0:0,0:0:0:0:
130,132,276944,5,8,0:0:0:0:
103,156,277025,1,8,0:0:0:0:
89,189,277106,1,8,0:0:0:0:
93,225,277187,1,8,0:0:0:0:
111,255,277268,1,4,0:3:0:0:
248,187,277430,1,4,0:3:0:0:
37,123,277593,1,8,0:0:0:0:
78,86,282432,6,0,L|138:77,1,45.5,8|0,0:0|0:0,0:0:0:0:
69,166,283063,6,0,L|129:157,1,45.5,8|0,0:0|0:0,0:0:0:0:
60,246,283695,6,0,L|120:237,1,45.5,8|0,0:0|0:0,0:0:0:0:
51,326,284326,6,0,L|111:317,1,45.5,8|0,0:0|0:0,0:0:0:0:
188,303,284642,5,2,0:0:0:0:
188,303,284800,1,2,0:0:0:0:
51,326,284958,6,0,L|111:317,1,45.5,8|0,0:0|0:0,0:0:0:0:
60,246,285274,6,0,L|120:237,1,45.5,8|0,0:0|0:0,0:0:0:0:
69,166,285589,6,0,L|129:157,1,45.5,8|0,0:0|0:0,0:0:0:0:
78,86,285905,6,0,L|138:77,1,45.5,8|0,0:0|0:0,0:0:0:0:
230,224,286221,5,8,0:0:0:0:
287,57,286379,1,8,0:0:0:0:
152,169,286537,1,8,0:0:0:0:
347,130,286695,1,8,0:0:0:0:
284,322,286853,1,2,0:0:0:0:
257,296,286932,1,2,0:0:0:0:
244,262,287010,1,2,0:0:0:0:
245,224,287089,1,2,0:0:0:0:
263,193,287168,2,0,B|305:175|305:175|364:193,1,91,8|0,0:0|0:0,0:0:0:0:
168,276,287484,5,4,0:0:0:0:
131,96,287642,1,0,0:0:0:0:
86,281,287800,1,8,0:0:0:0:
219,203,287958,1,0,0:0:0:0:
18,174,288116,2,0,P|63:167|114:159,1,91,2|0,0:0|0:0,0:0:0:0:
224,19,288432,2,0,P|215:71|207:114,1,91,8|0,0:0|0:0,0:0:0:0:
335,267,288747,5,4,0:0:0:0:
181,186,288905,1,0,0:0:0:0:
381,152,289063,1,8,0:0:0:0:
237,277,289221,1,0,0:0:0:0:
317,94,289379,5,2,0:0:0:0:
437,231,289537,1,0,0:0:0:0:
254,184,289695,1,8,0:0:0:0:
449,134,289853,1,0,0:0:0:0:
356,342,290010,6,0,L|342:248,1,91,4|0,0:0|0:0,0:0:0:0:
447,61,290326,2,0,L|429:153,1,91,8|0,0:0|0:0,0:0:0:0:
231,180,290642,2,0,P|282:153|335:172,1,91,2|0,0:0|0:0,0:0:0:0:
119,68,290958,2,0,P|157:110|213:111,1,91,8|0,0:0|0:0,0:0:0:0:
378,27,291274,5,4,0:0:0:0:
378,27,291432,1,0,0:0:0:0:
332,230,291589,1,8,0:0:0:0:
507,136,291747,2,0,B|468:113|468:113|414:127,1,91,0|2,0:0|0:0,0:0:0:0:
347,311,292063,1,0,0:0:0:0:
246,132,292221,1,8,0:0:0:0:
368,210,292379,1,0,0:0:0:0:
155,265,292537,6,0,P|131:230|146:168,1,91,4|0,0:0|0:0,0:0:0:0:
225,22,292853,1,8,0:0:0:0:
87,91,293010,1,0,0:0:0:0:
289,123,293168,1,2,0:0:0:0:
92,76,293326,1,0,0:0:0:0:
225,224,293484,1,8,0:0:0:0:
182,88,293642,1,0,0:0:0:0:
391,144,293800,6,0,P|343:151|296:158,1,91,4|0,0:0|0:0,0:0:0:0:
465,41,294116,2,0,P|417:48|370:55,1,91,8|0,0:0|0:0,0:0:0:0:
334,244,294432,1,2,0:0:0:0:
480,123,294589,1,0,0:0:0:0:
408,310,294747,1,8,0:0:0:0:
339,132,294905,1,0,0:0:0:0:
511,240,295063,6,0,P|453:233|370:223,1,136.5,4|0,0:0|0:0,0:0:0:0:
300,259,295379,2,0,B|285:302|285:302|303:351,1,91,8|0,0:0|0:0,0:0:0:0:
232,154,295695,2,0,P|185:146|227:186,1,136.5,2|0,0:0|0:0,0:0:0:0:
218,192,296010,1,8,0:0:0:0:
174,57,296168,1,0,0:0:0:0:
108,231,296326,6,0,L|59:239,1,45.5,8|0,0:0|0:0,0:0:0:0:
168,133,296484,2,0,L|119:125,1,45.5,8|0,0:0|0:0,0:0:0:0:
231,253,296642,2,0,L|182:261,1,45.5,8|0,0:0|0:0,0:0:0:0:
295,128,296800,2,0,L|246:120,1,45.5,8|0,0:0|0:0,0:0:0:0:
356,254,296958,5,2,0:0:0:0:
360,217,297037,1,2,0:0:0:0:
365,181,297116,1,2,0:0:0:0:
370,145,297195,1,2,0:0:0:0:
375,108,297274,2,0,P|401:82|389:135,1,136.500005207062,8|0,0:0|0:0,0:0:0:0:
269,21,297589,6,0,P|276:69|284:120,1,91,4|0,0:0|0:0,0:0:0:0:
102,173,297905,2,0,P|149:182|200:192,1,91,8|0,0:0|0:0,0:0:0:0:
6,241,298221,1,2,0:0:0:0:
76,66,298379,1,0,0:0:0:0:
116,267,298537,1,8,0:0:0:0:
6,131,298695,1,0,0:0:0:0:
204,195,298853,5,4,0:0:0:0:
23,255,299010,1,0,0:0:0:0:
153,102,299168,1,8,0:0:0:0:
196,308,299326,1,0,0:0:0:0:
71,191,299484,2,0,L|119:185|175:178,1,91,2|0,0:0|0:0,0:0:0:0:
353,264,299800,2,0,L|305:258|249:251,1,91,8|0,0:0|0:0,0:0:0:0:
443,129,300116,6,0,P|452:178|431:217,1,91,4|0,0:0|0:0,0:0:0:0:
265,86,300432,2,0,P|256:135|277:174,1,91,8|0,0:0|0:0,0:0:0:0:
450,54,300747,2,0,P|408:44|356:30,1,91,2|0,0:0|0:0,0:0:0:0:
168,99,301063,2,0,P|210:89|262:75,1,91,8|0,0:0|0:0,0:0:0:0:
71,28,301379,5,4,0:0:0:0:
71,28,301537,1,0,0:0:0:0:
164,195,301695,1,8,0:0:0:0:
289,26,301853,2,0,P|314:67|306:121,1,91,0|2,0:0|0:0,0:0:0:0:
164,216,302168,1,0,0:0:0:0:
213,25,302326,1,8,0:0:0:0:
286,187,302484,1,0,0:0:0:0:
88,68,302642,5,4,0:0:0:0:
236,124,302800,1,0,0:0:0:0:
35,169,302958,1,8,0:0:0:0:
174,66,303116,1,0,0:0:0:0:
134,261,303274,2,0,P|127:211|121:160,1,91,2|0,0:0|0:0,0:0:0:0:
244,305,303589,2,0,P|288:311|341:274,1,91,8|0,0:0|0:0,0:0:0:0:
379,105,303905,5,4,0:0:0:0:
277,235,304063,1,0,0:0:0:0:
321,46,304221,1,8,0:0:0:0:
379,219,304379,1,0,0:0:0:0:
440,29,304537,5,2,0:0:0:0:
280,136,304695,1,0,0:0:0:0:
475,188,304853,1,8,0:0:0:0:
312,264,305010,1,0,0:0:0:0:
376,79,305168,6,0,P|385:127|394:180,1,91,4|0,0:0|0:0,0:0:0:0:
220,66,305484,2,0,P|255:42|307:49,1,91,8|0,0:0|0:0,0:0:0:0:
109,131,305800,2,0,P|157:136|212:142,1,91,2|0,0:0|0:0,0:0:0:0:
37,56,306116,1,8,0:0:0:0:
37,56,306274,1,0,0:0:0:0:
142,235,306432,6,0,L|152:181,1,45.5,8|0,0:0|0:0,0:0:0:0:
59,265,306589,2,0,L|71:199,1,45.5,8|0,0:0|0:0,0:0:0:0:
230,271,306747,2,0,L|240:217,1,45.5,8|0,0:0|0:0,0:0:0:0:
147,301,306905,2,0,L|159:235,1,45.5,8|0,0:0|0:0,0:0:0:0:
341,328,307063,5,2,0:0:0:0:
365,300,307142,1,2,0:0:0:0:
375,265,307221,1,2,0:0:0:0:
369,229,307300,1,2,0:0:0:0:
345,199,307379,2,0,P|323:183|330:242,1,136.500005207062,8|0,0:0|0:0,0:0:0:0:
422,47,307695,5,4,0:0:0:0:
461,143,311810,6,0,L|469:68,3,63.6999980560303,4|0|0|0,0:0|0:0|0:0|0:0,0:0:0:0:
375,154,312381,2,0,L|383:79,1,63.6999980560303
430,223,312667,2,0,L|424:286,1,63.6999980560303,8|0,0:0|0:0,0:0:0:0:
273,317,312952,38,0,L|281:238,3,77.3500014753342,4|0|0|0,0:0|0:0|0:0|0:0,0:0:0:0:
185,331,313524,2,0,L|194:253,1,77.3500014753342
242,94,313810,2,0,L|234:170,1,77.3500014753342,8|0,0:0|0:0,0:0:0:0:
102,34,314095,6,0,P|142:18|205:48,1,91,4|0,0:0|0:0,0:0:0:0:
340,89,314381,2,0,P|300:105|237:75,1,91
91,127,314667,2,0,P|131:111|194:141,1,91
350,179,314953,2,0,P|310:195|247:165,1,91,8|0,0:0|0:0,0:0:0:0:
82,217,315238,5,4,0:0:0:0:
256,192,315310,12,0,316381,0:0:0:0:
91,171,316667,5,0,0:0:0:0:
167,119,316952,1,0,0:0:0:0:
229,186,317238,1,0,0:0:0:0:
302,17,317524,6,0,B|312:83|312:83|297:127|297:127|310:206,1,182,4|8,0:0|0:0,0:0:0:0:
464,282,317952,2,0,P|420:274|365:265,1,91
269,358,318238,1,0,0:0:0:0:
222,192,318381,1,8,0:0:0:0:
102,340,318524,6,0,P|52:302|82:226,1,136.5,4|0,0:0|0:0,0:0:0:0:
119,175,318810,2,0,L|218:194,1,91,0|8,0:0|0:0,0:0:0:0:
53,117,319095,1,0,0:0:0:0:
53,117,319238,2,0,P|31:80|56:24,1,91
220,105,319524,1,8,0:0:0:0:
56,194,319667,1,0,0:0:0:0:
244,263,319810,6,0,B|277:230|277:230|257:75,1,182,4|8,0:0|0:0,0:0:0:0:
138,258,320238,2,0,P|190:268|249:279,1,91
411,329,320524,1,0,0:0:0:0:
220,362,320667,1,8,0:0:0:0:
411,329,320810,6,0,P|447:284|406:202,1,136.5,4|0,0:0|0:0,0:0:0:0:
341,172,321095,2,0,P|345:225|349:276,1,91,0|8,0:0|0:0,0:0:0:0:
411,105,321381,1,0,0:0:0:0:
258,215,321524,1,0,0:0:0:0:
258,215,321667,1,0,0:0:0:0:
222,36,321810,2,0,P|182:14|129:32,1,91,8|0,0:0|0:0,0:0:0:0:
0,166,322095,6,0,P|93:155|183:145,1,182,4|8,0:0|0:0,0:0:0:0:
313,16,322524,2,0,P|308:70|304:110,1,91
214,261,322810,1,0,0:0:0:0:
393,188,322952,1,8,0:0:0:0:
334,380,323095,6,0,P|325:321|313:237,1,136.5,4|0,0:0|0:0,0:0:0:0:
243,194,323381,2,0,P|238:245|234:289,1,91,0|8,0:0|0:0,0:0:0:0:
184,90,323667,1,0,0:0:0:0:
356,148,323810,2,0,P|310:156|260:165,1,91
438,56,324095,2,0,P|392:64|342:73,1,91,8|0,0:0|0:0,0:0:0:0:
432,272,324381,6,0,P|484:221|437:129,1,182,4|8,0:0|0:0,0:0:0:0:
337,292,324810,2,0,P|331:245|325:199,1,91
423,355,325095,1,0,0:0:0:0:
243,270,325238,1,8,0:0:0:0:
432,175,325381,6,0,L|418:273,1,91,12|0,0:0|0:0,0:0:0:0:
460,79,325667,2,0,L|446:177,1,91,8|0,0:0|0:0,0:0:0:0:
291,37,325952,6,0,P|341:6|401:35,1,127.399996112061,8|0,0:0|0:0,0:0:0:0:
216,111,326381,1,12,0:0:0:0:
372,175,326524,1,0,0:0:0:0:
164,232,326667,6,0,P|258:248|357:264,1,182,4|8,0:0|0:0,0:0:0:0:
150,322,327095,2,0,L|54:334,1,91
137,156,327381,1,0,0:0:0:0:
225,335,327524,1,8,0:0:0:0:
271,130,327667,6,0,P|323:91|388:137,1,136.5,4|0,0:0|0:0,0:0:0:0:
426,187,327952,2,0,L|415:283,1,91,0|8,0:0|0:0,0:0:0:0:
505,94,328238,1,0,0:0:0:0:
505,94,328381,2,0,P|458:104|409:113,1,91
301,268,328667,1,8,0:0:0:0:
229,103,328810,1,0,0:0:0:0:
413,201,328952,6,0,P|332:193|227:183,1,182,4|8,0:0|0:0,0:0:0:0:
82,309,329381,2,0,P|128:308|176:269,1,91
54,129,329667,1,0,0:0:0:0:
0,319,329810,1,8,0:0:0:0:
69,123,329952,6,0,P|110:145|52:161,1,136.5,4|0,0:0|0:0,0:0:0:0:
18,65,330238,2,0,B|60:44|60:44|111:53,1,91,0|8,0:0|0:0,0:0:0:0:
201,219,330524,1,0,0:0:0:0:
248,29,330667,1,0,0:0:0:0:
248,29,330810,1,0,0:0:0:0:
355,199,330952,2,0,P|376:157|362:103,1,91,8|0,0:0|0:0,0:0:0:0:
237,284,331238,6,0,B|280:251|280:251|416:285,1,182,4|8,0:0|0:0,0:0:0:0:
213,364,331667,2,0,P|161:354|97:341,1,91
43,174,331952,1,0,0:0:0:0:
113,354,332095,1,8,0:0:0:0:
177,144,332238,6,0,P|208:195|158:250,1,136.5,4|0,0:0|0:0,0:0:0:0:
85,231,332524,2,0,B|65:190|65:190|78:140,1,91,0|8,0:0|0:0,0:0:0:0:
229,31,332810,1,0,0:0:0:0:
32,63,332952,2,0,P|83:72|127:79,1,91
310,115,333238,2,0,P|259:124|215:131,1,91,8|0,0:0|0:0,0:0:0:0:
434,172,333524,6,0,P|344:191|249:208,1,182,4|8,0:0|0:0,0:0:0:0:
362,60,333952,2,0,B|376:106|376:106|363:155,1,91
295,328,334238,1,0,0:0:0:0:
224,139,334381,1,8,0:0:0:0:
408,218,334524,6,0,L|309:235,1,91,12|0,0:0|0:0,0:0:0:0:
507,212,334810,2,0,L|408:229,1,91,8|0,0:0|0:0,0:0:0:0:
209,294,335095,6,0,L|339:317,1,127.399996112061,8|0,0:0|0:0,0:0:0:0:
396,380,335524,1,0,0:0:0:0:
396,380,335667,1,0,0:0:0:0:
445,172,335810,6,0,P|451:224|463:322,1,136.5,4|0,0:0|0:0,0:0:0:0:
497,381,336095,2,0,P|505:333|512:285,1,91,8|0,0:0|0:0,0:0:0:0:
327,348,336381,2,0,P|357:372|422:364,1,91
241,259,336667,2,0,P|230:295|263:352,1,91,8|0,0:0|0:0,0:0:0:0:
344,165,336952,6,0,P|373:220|311:270,1,136.5,4|0,0:0|0:0,0:0:0:0:
248,251,337238,2,0,L|239:155,1,91,8|0,0:0|0:0,0:0:0:0:
239,160,337452,1,0,0:0:0:0:
239,160,337524,1,0,0:0:0:0:
150,329,337667,1,0,0:0:0:0:
150,329,337738,1,0,0:0:0:0:
150,329,337810,1,0,0:0:0:0:
7,215,337952,1,8,0:0:0:0:
213,243,338095,1,4,0:0:0:0:
205,255,338524,5,0,0:0:0:0:
65,358,338667,1,0,0:0:0:0:
111,164,338810,1,0,0:0:0:0:
99,177,339095,5,0,0:0:0:0:
281,243,339238,1,0,0:0:0:0:
77,286,339381,1,0,0:0:0:0:
92,291,339667,6,0,P|83:195|73:103,1,182,0|8,0:0|0:0,0:0:0:0:
185,264,340095,1,0,0:0:0:0:
262,110,340238,1,8,0:0:0:0:
50,192,340381,1,4,0:0:0:0:
57,206,340810,5,0,0:0:0:0:
171,44,340952,1,0,0:0:0:0:
259,234,341095,1,0,0:0:0:0:
251,249,341381,5,0,0:0:0:0:
101,122,341524,1,0,0:0:0:0:
306,76,341667,1,0,0:0:0:0:
297,87,341952,6,0,P|255:50|180:141,1,182,0|8,0:0|0:0,0:0:0:0:
320,173,342381,1,0,0:0:0:0:
137,237,342524,1,8,0:0:0:0:
359,288,342667,1,4,0:0:0:0:
352,303,343095,5,0,0:0:0:0:
203,183,343238,1,0,0:0:0:0:
405,224,343381,1,0,0:0:0:0:
417,234,343667,5,0,0:0:0:0:
227,301,343810,1,0,0:0:0:0:
360,143,343952,1,0,0:0:0:0:
347,131,344238,6,0,B|353:197|353:197|333:242|333:242|346:326,1,182,0|8,0:0|0:0,0:0:0:0:
260,143,344667,1,0,0:0:0:0:
445,231,344810,1,8,0:0:0:0:
226,282,344952,1,4,0:0:0:0:
237,297,345381,5,0,0:0:0:0:
179,109,345524,1,0,0:0:0:0:
132,314,345667,1,0,0:0:0:0:
120,302,345952,5,0,0:0:0:0:
316,229,346095,1,8,0:0:0:0:
39,148,346381,5,8,0:0:0:0:
322,64,346667,5,8,0:0:0:0:
226,184,346810,1,0,0:0:0:0:
219,181,346881,1,0,0:0:0:0:
212,177,346952,2,0,P|197:128|252:164,1,156.975002994061,8|0,0:0|0:0,0:0:0:0:
210,257,347238,1,4,0:0:0:0:
85,317,351444,6,0,L|74:194,1,102.375003905296,4|0,0:0|0:0,0:0:0:0:
72,184,351760,1,8,0:0:0:0:
170,243,351917,1,8,0:0:0:0:
142,97,352075,1,8,0:0:0:0:
230,184,352233,5,8,0:0:0:0:
245,20,352391,1,8,0:0:0:0:
141,153,352549,1,8,0:0:0:0:
314,70,352707,1,8,0:0:0:0:
109,27,352865,6,0,L|168:16,1,45.5,8|0,0:0|0:0,0:0:0:0:
190,94,353023,2,0,L|249:105,1,45.5,2|0,0:0|0:0,0:0:0:0:
295,13,353181,2,0,L|354:2,1,45.5,8|0,0:0|0:0,0:0:0:0:
377,120,353339,2,0,L|436:131,1,45.5,2|0,0:0|0:0,0:0:0:0:
512,26,353496,5,8,0:0:0:0:
505,65,353575,1,2,0:0:0:0:
499,105,353654,1,2,0:0:0:0:
492,144,353733,1,2,0:0:0:0:
487,184,353812,1,8,0:0:0:0:
422,46,353970,1,0,0:0:0:0:
301,219,354128,6,0,P|356:211|393:206,1,91,4|0,0:0|0:0,0:0:0:0:
249,64,354444,2,0,P|243:111|236:158,1,91,8|0,0:0|0:0,0:0:0:0:
235,163,354681,1,0,0:0:0:0:
234,172,354760,1,2,0:0:0:0:
186,15,354917,1,2,0:0:0:0:
370,95,355075,1,8,0:0:0:0:
163,135,355233,1,0,0:0:0:0:
301,306,355391,5,2,0:0:0:0:
301,306,355549,1,0,0:0:0:0:
257,111,355707,1,8,0:0:0:0:
101,237,355865,1,0,0:0:0:0:
291,210,356023,2,0,L|185:183,1,91,2|2,0:0|0:0,0:0:0:0:
14,150,356339,2,0,L|120:123,1,91,8|0,0:0|0:0,0:0:0:0:
298,11,356654,6,0,P|287:65|278:109,1,91,4|0,0:0|0:0,0:0:0:0:
83,48,356970,2,0,P|131:37|188:24,1,91,8|0,0:0|0:0,0:0:0:0:
171,27,357207,1,0,0:0:0:0:
171,27,357286,1,2,0:0:0:0:
118,218,357444,1,2,0:0:0:0:
0,45,357602,1,8,0:0:0:0:
193,146,357760,1,0,0:0:0:0:
0,264,357917,5,4,0:0:0:0:
76,89,358075,1,2,0:0:0:0:
125,311,358233,5,8,0:0:0:0:
76,89,358391,1,2,0:0:0:0:
256,229,358549,5,2,0:0:0:0:
256,229,358628,1,2,0:0:0:0:
256,229,358707,1,2,0:0:0:0:
46,169,358865,1,8,0:0:0:0:
46,169,358944,1,2,0:0:0:0:
46,169,359023,1,2,0:0:0:0:
257,60,359181,6,0,P|249:105|239:159,1,91,4|0,0:0|0:0,0:0:0:0:
240,149,359417,1,0,0:0:0:0:
240,149,359496,1,8,0:0:0:0:
78,15,359654,2,0,P|86:60|96:114,1,91,2|0,0:0|0:0,0:0:0:0:
139,310,359970,2,0,L|150:253,1,45.5,8|0,0:0|0:0,0:0:0:0:
185,93,360128,1,8,0:0:0:0:
277,248,360286,1,0,0:0:0:0:
61,191,360444,6,0,P|114:182|152:175,1,91,4|0,0:0|0:0,0:0:0:0:
150,175,360681,1,0,0:0:0:0:
150,175,360760,1,8,0:0:0:0:
0,318,360917,2,0,P|53:309|91:302,1,91,2|0,0:0|0:0,0:0:0:0:
242,158,361233,2,0,L|232:216,1,45.5,8|0,0:0|0:0,0:0:0:0:
201,375,361391,1,8,0:0:0:0:
142,193,361549,1,0,0:0:0:0:
345,270,361707,5,4,0:0:0:0:
210,298,361865,1,0,0:0:0:0:
358,253,362023,2,0,P|376:211|363:161,1,91,8|0,0:0|0:0,0:0:0:0:
283,17,362339,1,2,0:0:0:0:
453,97,362496,1,2,0:0:0:0:
236,131,362654,1,8,0:0:0:0:
453,97,362812,5,0,0:0:0:0:
432,79,362891,1,2,0:0:0:0:
405,72,362970,1,2,0:0:0:0:
377,76,363049,1,2,0:0:0:0:
353,103,363128,5,8,0:0:0:0:
325,126,363207,1,0,0:0:0:0:
288,130,363286,1,0,0:0:0:0:
255,113,363365,1,0,0:0:0:0:
232,68,363444,5,8,0:0:0:0:
195,34,363523,1,0,0:0:0:0:
145,29,363602,1,0,0:0:0:0:
101,54,363681,1,0,0:0:0:0:
84,101,363760,1,0,0:0:0:0:
97,149,363839,1,0,0:0:0:0:
139,174,363917,6,0,L|198:164,1,45.5,8|0,0:0|0:0,0:0:0:0:
303,58,364075,2,0,L|293:105,1,45.5,8|0,0:0|0:0,0:0:0:0:
252,263,364233,6,0,P|301:257|355:249,1,91,4|0,0:0|0:0,0:0:0:0:
173,361,364549,2,0,P|222:355|276:347,1,91,8|0,0:0|0:0,0:0:0:0:
115,206,364865,1,2,0:0:0:0:
112,233,364944,1,2,0:0:0:0:
109,260,365023,1,2,0:0:0:0:
106,287,365102,1,2,0:0:0:0:
103,314,365181,1,8,0:0:0:0:
49,141,365339,1,0,0:0:0:0:
204,267,365496,6,0,P|251:265|296:235,1,91,2|0,0:0|0:0,0:0:0:0:
353,52,365812,1,8,0:0:0:0:
407,216,365970,1,0,0:0:0:0:
466,26,366128,2,0,L|452:125,1,91,2|2,0:0|0:0,0:0:0:0:
407,306,366444,2,0,L|394:215,1,91,8|0,0:0|0:0,0:0:0:0:
205,122,366760,6,0,P|258:112|303:104,1,91,4|0,0:0|0:0,0:0:0:0:
117,15,367075,2,0,P|103:57|123:101,1,91,8|0,0:0|0:0,0:0:0:0:
120,98,367312,1,0,0:0:0:0:
120,98,367391,1,2,0:0:0:0:
295,22,367549,1,2,0:0:0:0:
171,189,367707,1,8,0:0:0:0:
382,140,367865,1,0,0:0:0:0:
205,281,368023,5,2,0:0:0:0:
250,92,368181,1,2,0:0:0:0:
101,266,368339,5,8,0:0:0:0:
250,92,368496,1,2,0:0:0:0:
282,326,368654,5,8,0:0:0:0:
127,171,368812,1,0,0:0:0:0:
347,242,368970,2,0,P|370:207|364:158,1,91,8|0,0:0|0:0,0:0:0:0:
214,331,369286,5,8,0:0:0:0:
421,293,369444,1,8,0:0:0:0:
214,331,369602,2,0,L|319:313,1,91,8|0,0:0|0:0,0:0:0:0:
396,141,369917,5,8,0:0:0:0:
369,348,370075,1,8,0:0:0:0:
396,141,370233,2,0,L|382:245,1,91,8|0,0:0|0:0,0:0:0:0:
343,17,370549,5,8,0:0:0:0:
486,156,370707,1,8,0:0:0:0:
306,109,370865,1,0,0:0:0:0:
510,63,371023,1,8,0:0:0:0:
406,202,371181,1,2,0:0:0:0:
446,10,371339,1,8,0:0:0:0:
395,212,371496,2,0,P|354:228|301:211,1,91,8|0,0:0|0:0,0:0:0:0:
117,110,371812,6,0,L|176:96,3,45.5,4|0|0|0,0:0|0:0|0:0|0:0,0:0:0:0:
303,136,372128,2,0,L|244:122,3,45.5,8|0|0|0,0:0|0:0|0:0|0:0,0:0:0:0:
106,197,372444,2,0,L|165:183,3,45.5,4|0|0|0,0:0|0:0|0:0|0:0,0:0:0:0:
318,226,372760,2,0,L|259:212,3,45.5,8|0|0|0,0:0|0:0|0:0|0:0,0:0:0:0:
93,286,373075,5,8,0:0:0:0:
196,104,373233,1,8,0:0:0:0:
220,312,373391,1,8,0:0:0:0:
79,158,373549,1,8,0:0:0:0:
284,200,373707,1,8,0:0:0:0:
169,244,373865,5,2,0:0:0:0:
169,244,373944,1,2,0:0:0:0:
169,244,374023,1,8,0:0:0:0:
209,19,374181,1,4,0:0:0:0:
455,258,378941,6,0,L|448:339,1,77.3500014753342,2|0,0:0|0:0,0:0:0:0:
466,159,379256,1,8,0:0:0:0:
373,194,379414,2,0,L|390:201,2,19.3375003688335
391,182,379572,6,0,L|300:193,1,77.3500014753342,2|0,0:0|0:0,0:0:0:0:
187,254,379888,1,8,0:0:0:0:
218,160,380046,2,0,L|224:181,2,19.3375003688335
204,178,380204,6,0,L|212:93,1,77.3500014753342,2|0,0:0|0:0,0:0:0:0:
97,239,380519,1,8,0:0:0:0:
192,273,380677,2,0,L|163:280,2,19.3375003688335
183,261,380835,6,0,L|277:274,1,77.3500014753342,2|8,0:0|0:0,0:0:0:0:
259,271,381072,1,8,0:0:0:0:
259,271,381151,1,8,0:0:0:0:
321,123,381309,1,8,0:0:0:0:
321,123,381388,1,8,0:0:0:0:
321,123,381467,6,0,L|337:260,1,122.849996250916,2|0,0:0|0:0,0:0:0:0:
320,322,381783,1,8,0:0:0:0:
376,174,381941,1,2,0:0:0:0:
209,212,382098,1,0,0:0:0:0:
376,174,382256,1,2,0:0:0:0:
209,212,382414,2,0,P|186:179|189:136,1,81.8999975006104,8|0,0:0|0:0,0:0:0:0:
99,27,382730,6,0,P|126:75|59:123,1,129.674996537304,2|0,0:0|0:0,0:0:0:0:
8,96,383046,1,8,0:0:0:0:
175,53,383204,1,2,0:0:0:0:
85,212,383362,1,0,0:0:0:0:
175,53,383519,1,2,0:0:0:0:
85,212,383677,2,0,P|139:206|174:202,1,86.449997691536,8|0,0:0|0:0,0:0:0:0:
390,171,383993,5,2,0:0:0:0:
267,279,384151,1,2,0:0:0:0:
334,102,384309,1,2,0:0:0:0:
385,295,384467,1,2,0:0:0:0:
174,230,384625,6,0,L|235:217,1,45.5,2|0,0:0|0:0,0:0:0:0:
378,282,384783,2,0,L|317:295,1,45.5,2|0,0:0|0:0,0:0:0:0:
117,166,384941,2,0,L|178:153,1,45.5,2|0,0:0|0:0,0:0:0:0:
400,197,385098,2,0,L|339:210,1,45.5,2|0,0:0|0:0,0:0:0:0:
110,296,385256,5,2,0:0:0:0:
284,85,386519,6,0,P|268:127|284:182,1,91,4|0,0:0|0:0,0:0:0:0:
444,282,386835,1,8,0:0:0:0:
387,101,386993,1,2,0:0:0:0:
387,101,387072,1,2,0:0:0:0:
387,101,387151,1,2,0:0:0:0:
266,261,387309,1,0,0:0:0:0:
455,200,387467,2,0,P|417:178|365:189,1,91,8|0,0:0|0:0,0:0:0:0:
177,281,387783,6,0,P|220:291|260:272,1,91,2|0,0:0|0:0,0:0:0:0:
173,94,388098,1,8,0:0:0:0:
86,264,388256,1,2,0:0:0:0:
86,264,388335,1,2,0:0:0:0:
86,264,388414,1,2,0:0:0:0:
269,181,388572,1,0,0:0:0:0:
66,131,388730,1,8,0:0:0:0:
247,198,388888,1,0,0:0:0:0:
66,131,389046,6,0,P|112:123|168:114,1,91,2|0,0:0|0:0,0:0:0:0:
338,26,389362,1,8,0:0:0:0:
279,208,389519,1,2,0:0:0:0:
279,208,389598,1,2,0:0:0:0:
279,208,389677,1,2,0:0:0:0:
223,20,389835,1,0,0:0:0:0:
359,165,389993,2,0,P|405:169|449:140,1,91,8|0,0:0|0:0,0:0:0:0:
242,112,390309,6,0,P|196:108|152:137,1,91,2|0,0:0|0:0,0:0:0:0:
86,320,390625,1,8,0:0:0:0:
245,213,390783,1,2,0:0:0:0:
245,213,390862,1,2,0:0:0:0:
245,213,390941,1,2,0:0:0:0:
58,138,391098,1,0,0:0:0:0:
173,315,391256,1,8,0:0:0:0:
227,103,391414,1,0,0:0:0:0:
38,249,391572,6,0,P|97:238|145:229,1,91,2|0,0:0|0:0,0:0:0:0:
323,279,391888,2,0,P|382:268|430:259,1,91,8|2,0:0|0:0,0:0:0:0:
470,323,392125,1,2,0:0:0:0:
470,323,392204,2,0,B|455:273|455:273|471:237|471:237|460:182,1,136.5,2|0,0:0|0:0,0:0:0:0:
447,108,392519,1,8,0:0:0:0:
260,222,392677,1,0,0:0:0:0:
391,37,392835,5,2,0:0:0:0:
339,192,392993,1,0,0:0:0:0:
147,86,393151,1,8,0:0:0:0:
363,116,393309,1,2,0:0:0:0:
363,116,393388,1,2,0:0:0:0:
363,116,393467,5,2,0:0:0:0:
152,168,393625,1,0,0:0:0:0:
292,12,393783,1,8,0:0:0:0:
242,227,393941,1,0,0:0:0:0:
60,120,394098,5,2,0:0:0:0:
244,86,394256,1,0,0:0:0:0:
51,208,394414,1,8,0:0:0:0:
275,172,394572,1,0,0:0:0:0:
41,293,394730,5,2,0:0:0:0:
146,110,394888,1,0,0:0:0:0:
279,285,395046,1,8,0:0:0:0:
82,194,395204,1,0,0:0:0:0:
303,142,395362,5,2,0:0:0:0:
268,150,395441,1,2,0:0:0:0:
241,127,395519,1,2,0:0:0:0:
206,135,395598,1,2,0:0:0:0:
179,112,395677,1,2,0:0:0:0:
144,120,395756,1,2,0:0:0:0:
117,97,395835,1,2,0:0:0:0:
82,105,395914,1,2,0:0:0:0:
54,84,395993,6,0,L|47:28,1,45.5,8|0,0:0|0:0,0:0:0:0:
97,177,396151,2,0,L|87:234,1,45.5
182,71,396309,2,0,L|175:16,1,45.5,8|0,0:0|0:0,0:0:0:0:
232,186,396467,2,0,L|224:241,1,45.5
323,53,396625,6,0,P|367:38|434:69,1,91,4|0,0:0|0:0,0:0:0:0:
475,247,396941,1,8,0:0:0:0:
304,159,397098,1,2,0:0:0:0:
304,159,397177,1,2,0:0:0:0:
304,159,397256,1,2,0:0:0:0:
507,109,397414,1,0,0:0:0:0:
400,289,397572,2,0,P|393:239|387:197,1,91,8|0,0:0|0:0,0:0:0:0:
447,6,397888,6,0,P|440:51|434:96,1,91,2|0,0:0|0:0,0:0:0:0:
303,248,398204,1,8,0:0:0:0:
213,78,398362,1,2,0:0:0:0:
213,78,398441,1,2,0:0:0:0:
213,78,398519,1,2,0:0:0:0:
379,158,398677,1,0,0:0:0:0:
176,215,398835,1,8,0:0:0:0:
366,175,398993,1,0,0:0:0:0:
157,204,399151,6,0,P|133:165|138:120,1,91,2|0,0:0|0:0,0:0:0:0:
305,234,399467,1,8,0:0:0:0:
123,296,399625,1,2,0:0:0:0:
123,296,399704,1,2,0:0:0:0:
123,296,399783,2,0,L|233:317,1,91,2|0,0:0|0:0,0:0:0:0:
24,355,400098,1,8,0:0:0:0:
76,161,400256,1,0,0:0:0:0:
24,355,400414,6,0,P|0:320|6:260,1,91,2|0,0:0|0:0,0:0:0:0:
181,352,400730,2,0,P|138:351|92:312,1,91,8|0,0:0|0:0,0:0:0:0:
268,221,401046,2,0,P|243:255|184:270,1,91,2|0,0:0|0:0,0:0:0:0:
210,74,401362,2,0,P|224:114|202:170,1,91,8|0,0:0|0:0,0:0:0:0:
44,272,401677,5,2,0:0:0:0:
87,58,401835,1,2,0:0:0:0:
256,276,402151,5,2,0:0:0:0:
23,177,402467,1,2,0:0:0:0:
256,276,402783,1,2,0:0:0:0:
489,177,403098,2,0,L|479:282,1,91,2|0,0:0|0:0,0:0:0:0:
425,58,403414,5,2,0:0:0:0:
468,272,403572,1,2,0:0:0:0:
501,167,403730,1,2,0:0:0:0:
318,290,403888,1,8,0:0:0:0:
425,58,404204,5,2,0:0:0:0:
203,129,404835,1,2,0:0:0:0:
274,351,405467,1,2,0:0:0:0:
496,280,406098,1,2,0:0:0:0:
425,58,406730,5,0,0:0:0:0:
351,205,407046,1,2,0:0:0:0:
203,129,407362,5,0,0:0:0:0:
351,205,407677,1,2,0:0:0:0:
274,351,407993,5,0,0:0:0:0:
351,205,408309,1,2,0:0:0:0:
496,280,408625,5,0,0:0:0:0:
351,205,408941,1,2,0:0:0:0:
425,58,409256,5,8,0:0:0:0:
351,205,409414,1,8,0:0:0:0:
425,58,409572,1,8,0:0:0:0:
351,205,409730,1,8,0:0:0:0:
353,30,409888,5,8,0:0:0:0:
329,225,410046,1,8,0:0:0:0:
353,30,410204,1,8,0:0:0:0:
329,225,410362,1,8,0:0:0:0:
274,25,410519,5,8,0:0:0:0:
326,254,410677,1,8,0:0:0:0:
274,25,410835,1,8,0:0:0:0:
326,254,410993,1,8,0:0:0:0:
202,59,411151,5,8,0:0:0:0:
341,276,411309,1,8,0:0:0:0:
202,59,411467,1,8,0:0:0:0:
341,276,411625,1,8,0:0:0:0:
151,119,411783,5,2,0:0:0:0:
157,138,412098,1,2,0:0:0:0:
163,157,412414,1,2,0:0:0:0:
169,176,412730,5,2,0:0:0:0:
202,15,412888,1,2,0:0:0:0:
63,291,418881,6,0,P|146:324|207:241,1,182,4|8,0:0|0:0,0:0:0:0:
204,265,419367,1,2,0:0:0:0:
107,133,419529,2,0,B|91:175|91:175|104:226,1,91,0|2,0:0|0:0,0:0:0:0:
172,31,419853,2,0,L|180:83|188:135,1,91,8|0,0:0|0:0,0:0:0:0:
289,288,420178,6,0,P|299:190|307:96,1,182,0|8,0:0|0:0,0:0:0:0:
306,106,420664,1,2,0:0:0:0:
474,213,420826,2,0,P|427:221|378:230,1,91,0|2,0:0|0:0,0:0:0:0:
190,278,421151,2,0,P|236:286|285:295,1,91,8|0,0:0|0:0,0:0:0:0:
48,253,421475,5,8,0:0:0:0:
319,157,422124,1,8,0:0:0:0:
50,61,422772,5,8,0:0:0:0:
101,240,422935,1,8,0:0:0:0:
144,51,423097,1,8,0:0:0:0:
22,210,423259,5,8,0:0:0:0:
261,44,423583,1,8,0:0:0:0:
312,329,423908,1,8,0:0:0:0:
167,183,424232,5,8,0:0:0:0:
357,236,424394,1,8,0:0:0:0:
155,287,424556,1,8,0:0:0:0:
155,287,425367,6,0,L|143:381,1,91,4|0,0:0|0:0,0:0:0:0:
96,204,425691,2,0,L|84:113,1,91,8|0,0:0|0:0,0:0:0:0:
35,280,426016,1,2,0:0:0:0:
216,196,426178,1,8,0:0:0:0:
12,148,426340,1,8,0:0:0:0:
217,75,426502,6,0,B|183:44|183:44|45:74,1,182,2|2,0:0|0:0,0:0:0:0:
259,144,426989,1,8,0:0:0:0:
259,144,427151,1,0,0:0:0:0:
100,267,427313,1,2,0:0:0:0:
144,72,427475,1,8,0:0:0:0:
201,275,427637,2,0,P|249:283|289:252,1,91,8|0,0:0|0:0,0:0:0:0:
369,59,427962,6,0,P|343:115|402:158,1,136.5,4|0,0:0|0:0,0:0:0:0:
385,55,428286,2,0,P|339:64|294:73,1,91,8|0,0:0|0:0,0:0:0:0:
139,181,428610,1,2,0:0:0:0:
323,255,428772,1,8,0:0:0:0:
134,347,428935,1,8,0:0:0:0:
228,142,429097,6,0,P|236:199|249:297,1,136.5,2|0,0:0|0:0,0:0:0:0:
301,338,429421,1,2,0:0:0:0:
414,172,429583,1,8,0:0:0:0:
499,353,429745,1,0,0:0:0:0:
434,125,429908,1,2,0:0:0:0:
272,271,430070,1,8,0:0:0:0:
483,196,430232,1,8,0:0:0:0:
310,140,430394,1,0,0:0:0:0:
465,294,430556,6,0,P|416:303|367:311,1,91,4|0,0:0|0:0,0:0:0:0:
167,345,430881,2,0,P|212:343|247:300,1,91,8|0,0:0|0:0,0:0:0:0:
313,124,431205,1,2,0:0:0:0:
182,275,431367,1,8,0:0:0:0:
236,73,431529,1,8,0:0:0:0:
29,187,431691,6,0,P|93:178|177:166,1,136.5,2|0,0:0|0:0,0:0:0:0:
246,157,432016,1,2,0:0:0:0:
90,266,432178,1,8,0:0:0:0:
141,88,432340,1,0,0:0:0:0:
266,244,432502,1,2,0:0:0:0:
82,144,432664,1,8,0:0:0:0:
289,79,432826,1,8,0:0:0:0:
186,232,432989,1,0,0:0:0:0:
206,11,433151,6,0,P|213:61|220:108,1,91,4|0,0:0|0:0,0:0:0:0:
403,194,433475,2,0,P|363:187|306:178,1,91,8|0,0:0|0:0,0:0:0:0:
159,308,433799,1,2,0:0:0:0:
232,110,433962,1,8,0:0:0:0:
368,269,434124,1,8,0:0:0:0:
160,180,434286,6,0,B|128:207|128:207|145:324,1,136.5,2|0,0:0|0:0,0:0:0:0:
209,347,434610,1,8,0:0:0:0:
9,291,434772,1,8,0:0:0:0:
179,166,434935,1,8,0:0:0:0:
99,357,435097,1,8,3:2:0:0:
96,325,435178,1,0,3:0:0:0:
93,293,435259,1,0,3:0:0:0:
90,261,435340,1,0,3:0:0:0:
87,229,435421,6,0,B|125:195|125:195|141:255,1,102.375003905296,8|0,0:0|0:0,0:0:0:0:
16,259,435745,6,0,P|61:253|126:244,1,91,4|0,0:0|0:0,0:0:0:0:
216,79,436070,2,0,B|194:117|194:117|206:171,1,91,8|0,0:0|0:0,0:0:0:0:
255,348,436394,1,2,0:0:0:0:
391,188,436556,1,8,0:0:0:0:
200,254,436718,1,8,0:0:0:0:
423,312,436881,6,0,P|354:277|292:359,1,182,2|2,0:0|0:0,0:0:0:0:
376,142,437367,1,8,0:0:0:0:
376,142,437529,1,0,0:0:0:0:
508,293,437691,1,2,0:0:0:0:
304,241,437853,1,8,0:0:0:0:
502,168,438016,1,8,0:0:0:0:
423,281,438178,1,0,0:0:0:0:
459,57,438340,6,0,P|420:16|340:42,1,136.5,4|0,0:0|0:0,0:0:0:0:
311,120,438664,2,0,P|361:114|415:108,1,91,8|0,0:0|0:0,0:0:0:0:
199,55,438989,1,2,0:0:0:0:
276,247,439151,1,8,0:0:0:0:
326,42,439313,1,8,0:0:0:0:
173,209,439475,6,0,P|117:181|137:75,1,182,2|2,0:0|0:0,0:0:0:0:
249,231,439962,2,0,P|256:177|261:133,1,91,8|0,0:0|0:0,0:0:0:0:
234,339,440286,1,2,0:0:0:0:
178,136,440448,1,8,0:0:0:0:
357,244,440610,1,8,0:0:0:0:
153,299,440772,1,0,0:0:0:0:
284,122,440935,6,0,L|278:167|272:212,1,91,4|0,0:0|0:0,0:0:0:0:
84,100,441259,2,0,P|89:145|95:190,1,91,8|0,0:0|0:0,0:0:0:0:
238,52,441583,1,2,0:0:0:0:
169,252,441745,1,8,0:0:0:0:
375,196,441908,1,8,0:0:0:0:
163,116,442070,6,0,P|228:55|312:100,1,182,2|2,0:0|0:0,0:0:0:0:
331,265,442556,1,8,0:0:0:0:
413,125,442718,1,0,0:0:0:0:
232,210,442881,1,2,0:0:0:0:
429,276,443043,1,8,0:0:0:0:
310,106,443205,1,8,0:0:0:0:
256,289,443367,1,0,0:0:0:0:
453,200,443529,5,4,0:0:0:0:
453,200,443691,1,0,0:0:0:0:
296,93,443853,2,0,P|305:149|313:202,1,91,8|0,0:0|0:0,0:0:0:0:
390,10,444178,1,2,0:0:0:0:
205,106,444340,1,8,0:0:0:0:
406,164,444502,1,8,0:0:0:0:
218,276,444664,2,0,P|257:270|310:260,1,91,2|0,0:0|0:0,0:0:0:0:
84,305,444989,5,8,0:0:0:0:
151,88,445151,1,8,0:0:0:0:
84,305,445313,1,8,0:0:0:0:
28,85,445475,1,8,0:0:0:0:
186,233,445637,1,2,0:0:0:0:
159,227,445718,1,2,0:0:0:0:
132,221,445799,1,8,0:0:0:0:
104,215,445881,1,2,0:0:0:0:
77,210,445962,1,2,0:0:0:0:
289,253,446124,5,8,0:0:0:0:
174,114,452295,6,0,P|105:139|56:86,1,154.700002950668,4|8,0:0|0:0,0:0:0:0:
244,22,452790,1,8,0:0:0:0:
247,56,452872,1,8,0:0:0:0:
251,90,452955,1,8,0:0:0:0:
302,231,453120,5,2,0:0:0:0:
306,204,453202,1,2,0:0:0:0:
312,177,453284,1,2,0:0:0:0:
392,31,453449,5,2,0:0:0:0:
394,50,453532,1,2,0:0:0:0:
396,69,453614,1,2,0:0:0:0:
512,207,453779,6,0,B|467:237|467:237|407:217,1,109.199996667481,4|0,0:0|0:0,0:0:0:0:
364,156,453999,2,0,B|319:126|319:126|259:146,1,109.199996667481,4|0,0:0|0:0,0:0:0:0:
213,203,454218,2,0,L|222:304,1,72.7999977783204,12|8,0:0|0:0,0:0:0:0:
131,355,454438,6,0,P|74:363|36:316,1,109.199996667481,4|0,0:0|0:0,0:0:0:0:
17,250,454658,2,0,P|72:244|130:239,1,109.199996667481,4|0,0:0|0:0,0:0:0:0:
171,172,454878,2,0,P|136:166|95:158,1,72.7999977783204,12|8,0:0|0:0,0:0:0:0:
258,123,455098,1,4,0:0:0:0:
140,293,455592,5,8,0:0:0:0:
86,102,455757,1,8,0:0:0:0:
78,87,456251,1,8,0:0:0:0:
70,72,456581,5,8,0:0:0:0:
96,266,456746,1,8,0:0:0:0:
132,277,456828,1,8,0:0:0:0:
168,263,456911,1,8,0:0:0:0:
183,228,456993,1,8,0:0:0:0:
175,190,457076,1,2,0:0:0:0:
146,164,457158,1,2,0:0:0:0:
142,126,457240,1,2,0:0:0:0:
161,92,457323,1,2,0:0:0:0:
196,79,457405,5,4,0:0:0:0:
239,88,457488,1,0,0:0:0:0:
261,125,457570,1,0,0:0:0:0:
256,168,457652,1,0,0:0:0:0:
220,194,457735,6,0,L|31:165,1,182,4|8,0:0|0:0,0:0:0:0:
40,166,458229,1,0,0:0:0:0:
198,269,458394,1,2,0:0:0:0:
60,319,458559,1,2,0:0:0:0:
144,138,458724,1,8,0:0:0:0:
293,302,458889,2,0,P|348:248|294:155,1,182,2|2,0:0|0:0,0:0:0:0:
293,302,459383,6,0,P|288:242|281:156,1,136.500005207062,8|0,0:0|0:0,0:0:0:0:
202,341,459713,1,2,0:0:0:0:
381,276,459878,1,2,0:0:0:0:
202,341,460043,2,0,P|261:349|347:360,1,136.500005207062,8|0,0:0|0:0,0:0:0:0:
111,293,460372,6,0,B|135:249|135:249|268:233,1,182,4|8,0:0|0:0,0:0:0:0:
265,233,460867,1,0,0:0:0:0:
75,170,461032,1,2,0:0:0:0:
189,289,461196,1,2,0:0:0:0:
153,92,461361,1,8,0:0:0:0:
354,177,461526,2,0,B|166:197,1,182,2|2,0:0|0:0,0:0:0:0:
354,177,462021,6,0,P|393:119|347:51,1,136.500005207062,8|0,0:0|0:0,0:0:0:0:
265,220,462350,1,2,0:0:0:0:
453,189,462515,1,2,0:0:0:0:
265,220,462680,2,0,P|241:280|279:333,1,136.500005207062,8|8,0:0|0:0,0:0:0:0:
357,362,462927,1,8,0:0:0:0:
385,356,463010,6,0,P|425:308|396:233,1,136.5,4|0,0:0|0:0,0:0:0:0:
349,184,463339,2,0,L|259:197,1,91,8|0,0:0|0:0,0:0:0:0:
250,199,463587,1,0,0:0:0:0:
241,201,463669,1,2,0:0:0:0:
142,353,463834,1,2,0:0:0:0:
142,353,463916,1,2,0:0:0:0:
142,353,463999,1,8,0:0:0:0:
100,141,464163,1,8,0:0:0:0:
263,286,464328,5,2,0:0:0:0:
95,238,464493,1,2,0:0:0:0:
305,179,464658,1,8,0:0:0:0:
181,283,464823,1,0,0:0:0:0:
249,73,464988,5,2,0:0:0:0:
349,213,465152,1,0,0:0:0:0:
136,166,465317,1,8,0:0:0:0:
348,115,465482,1,8,0:0:0:0:
348,115,465565,1,8,0:0:0:0:
348,115,465647,6,0,P|339:214|330:309,1,182,4|2,0:0|0:0,0:0:0:0:
265,97,466142,1,8,0:0:0:0:
151,258,466306,2,0,P|220:245|256:237,1,91,2|0,0:0|0:0,0:0:0:0:
24,287,466636,1,8,0:0:0:0:
133,86,466801,6,0,P|127:136|121:187,1,91,4|0,0:0|0:0,0:0:0:0:
54,365,467131,1,8,0:0:0:0:
0,166,467295,1,8,0:0:0:0:
181,283,467460,1,8,0:0:0:0:
217,276,467543,1,8,0:0:0:0:
243,251,467625,1,8,0:0:0:0:
253,216,467707,1,8,0:0:0:0:
247,179,467790,1,8,0:0:0:0:
228,147,467872,1,8,0:0:0:0:
193,133,467955,5,2,0:0:0:0:
170,136,468037,1,2,0:0:0:0:
147,139,468120,1,2,0:0:0:0:
124,142,468202,1,2,0:0:0:0:
100,145,468284,6,0,B|73:169|63:193|63:193|58:253|110:335,1,182,4|8,0:0|0:0,0:0:0:0:
94,308,468779,1,0,0:0:0:0:
278,261,468944,1,2,0:0:0:0:
142,211,469109,1,2,0:0:0:0:
270,364,469273,1,8,0:0:0:0:
360,156,469438,2,0,B|396:193|396:193|380:331,1,182,4|2,0:0|0:0,0:0:0:0:
274,162,469933,6,0,P|282:108|293:25,1,136.500005207062,8|0,0:0|0:0,0:0:0:0:
197,224,470262,1,2,0:0:0:0:
147,53,470427,1,2,0:0:0:0:
197,224,470592,2,0,P|128:211|57:196,1,136.500005207062,8|0,0:0|0:0,0:0:0:0:
205,377,470922,6,0,P|252:323|210:231,1,182,4|8,0:0|0:0,0:0:0:0:
211,231,471416,1,0,0:0:0:0:
18,285,471581,1,2,0:0:0:0:
86,146,471746,1,2,0:0:0:0:
132,340,471911,1,8,0:0:0:0:
79,128,472076,2,0,B|114:92|114:92|250:125,1,182,4|2,0:0|0:0,0:0:0:0:
76,252,472570,6,0,P|32:257|80:232,1,136.5,8|8,0:0|0:0,0:0:0:0:
150,335,472900,2,0,P|135:376|133:322,1,136.5,2|2,0:0|0:0,0:0:0:0:
255,301,473229,2,0,P|287:331|237:310,1,136.5,8|0,0:0|0:0,0:0:0:0:
159,125,473559,6,0,P|165:180|172:243,1,91,4|0,0:0|0:0,0:0:0:0:
317,76,473889,2,0,P|309:126|295:212,1,136.5,8|0,0:0|0:0,0:0:0:0:
238,267,474218,1,2,0:0:0:0:
238,267,474383,1,2,0:0:0:0:
156,80,474548,2,0,P|98:56|42:125,1,136.5,8|0,0:0|0:0,0:0:0:0:
54,180,474878,6,0,P|107:175|159:169,1,91,2|0,0:0|0:0,0:0:0:0:
344,150,475207,1,8,0:0:0:0:
236,250,475372,1,2,0:0:0:0:
273,54,475537,1,2,0:0:0:0:
273,54,475620,1,2,0:0:0:0:
273,54,475702,2,0,L|284:111,1,45.5,2|0,0:0|0:0,0:0:0:0:
403,237,475867,1,8,0:0:0:0:
410,196,475949,1,2,0:0:0:0:
417,155,476032,1,2,0:0:0:0:
424,114,476114,1,2,0:0:0:0:
431,74,476196,6,0,P|394:45|333:68,1,95.5499970840455,4|0,0:3|0:0,0:0:0:0:
511,41,476526,6,0,B|475:74|475:74|336:50,1,177.449991876984,12|0,0:0|0:0,0:0:0:0:
240,152,476856,6,0,P|277:123|338:146,1,95.5499970840455,4|0,0:3|0:0,0:0:0:0:
159,119,477185,6,0,B|195:152|195:152|334:128,1,177.449991876984,12|0,0:0|0:0,0:0:0:0:
431,74,477515,1,4,0:0:0:0:
214,370,477845,5,8,0:0:0:0:
214,370,477955,2,0,L|246:298,1,60.6666666666667,8|8,0:0|0:0,0:0:0:0:
367,242,478174,5,4,0:3:0:0:
367,242,478284,2,0,L|289:250,1,60.6666666666667,4|4,0:3|0:3,0:0:0:0:
180,174,478504,5,2,0:0:0:0:
180,174,478614,2,0,L|225:237,1,60.6666666666667,2|2,0:0|0:0,0:0:0:0:
320,344,478834,5,4,0:0:0:0:
432,72,483681,5,4,0:0:0:0:
396,192,484329,1,4,0:0:0:0:
360,312,484978,1,4,0:0:0:0:
312,106,486275,5,8,0:0:0:0:
360,312,486437,5,12,0:0:0:0:
396,192,486762,1,12,0:0:0:0:
432,72,487086,1,12,0:0:0:0:
360,312,487410,5,8,0:0:0:0:
312,106,487572,1,8,0:0:0:0:
437,121,487897,6,0,L|444:76,3,29.574998646164
383,179,488221,2,0,L|388:218,2,36.4
327,122,488464,1,2,0:0:0:0:
312,106,488545,6,0,P|249:117|202:125,1,91,8|2,0:0|0:0,0:0:0:0:
94,310,488870,6,0,P|50:272|79:192,1,136.5,4|0,0:0|0:0,0:0:0:0:
119,141,489194,2,0,L|211:157,1,91,8|0,0:0|0:0,0:0:0:0:
352,283,489518,1,2,0:0:0:0:
352,283,489599,1,0,0:0:0:0:
352,283,489681,1,0,0:0:0:0:
301,93,489843,1,8,0:0:0:0:
168,244,490005,1,0,0:0:0:0:
378,180,490167,6,0,P|400:149|383:78,1,91,2|0,0:0|0:0,0:0:0:0:
243,242,490491,2,0,P|287:234|334:269,1,91,8|0,0:0|0:0,0:0:0:0:
103,216,490816,2,0,P|147:210|178:177,1,91,2|0,0:0|0:0,0:0:0:0:
41,336,491140,1,8,0:0:0:0:
41,336,491302,1,2,0:0:0:0:
86,114,491464,6,0,L|102:255,1,136.5,2|0,0:0|0:0,0:0:0:0:
161,308,491789,1,8,0:0:0:0:
249,127,491951,1,0,0:0:0:0:
382,264,492113,1,2,0:0:0:0:
382,264,492194,1,0,0:0:0:0:
382,264,492275,1,0,0:0:0:0:
176,222,492437,2,0,P|155:182|166:139,1,91,8|0,0:0|0:0,0:0:0:0:
343,25,492762,5,2,0:0:0:0:
275,233,492924,1,0,0:0:0:0:
181,27,493086,1,8,0:0:0:0:
345,128,493248,1,0,0:0:0:0:
129,171,493410,1,2,0:0:0:0:
129,171,493491,1,0,0:0:0:0:
129,171,493572,1,0,0:0:0:0:
129,171,493653,1,0,0:0:0:0:
129,171,493735,2,0,L|205:187,1,45.5,8|0,0:0|0:0,0:0:0:0:
250,202,493897,1,2,0:0:0:0:
27,285,494059,6,0,P|90:278|179:268,1,136.5,4|0,0:0|0:0,0:0:0:0:
250,202,494383,2,0,L|242:251|234:300,1,91,8|0,0:0|0:0,0:0:0:0:
172,101,494708,1,2,0:0:0:0:
172,101,494789,1,0,0:0:0:0:
172,101,494870,1,0,0:0:0:0:
336,235,495032,2,0,P|384:237|428:194,1,91,8|0,0:0|0:0,0:0:0:0:
254,59,495356,6,0,P|265:107|247:154,1,91,2|0,0:0|0:0,0:0:0:0:
118,307,495681,2,0,P|158:273|205:273,1,91,8|0,0:0|0:0,0:0:0:0:
0,158,496005,2,0,P|33:198|79:206,1,91,2|0,0:0|0:0,0:0:0:0:
260,143,496329,1,8,0:0:0:0:
260,143,496491,1,2,0:0:0:0:
192,359,496653,6,0,L|178:214,1,136.5,2|0,0:0|0:0,0:0:0:0:
166,142,496978,2,0,P|159:198|154:241,1,91,8|0,0:0|0:0,0:0:0:0:
5,322,497302,1,2,0:0:0:0:
70,130,497464,1,0,0:0:0:0:
147,325,497626,1,8,0:0:0:0:
0,204,497789,1,0,0:0:0:0:
222,149,497951,5,8,0:0:0:0:
55,258,498113,1,0,0:0:0:0:
293,314,498275,1,8,0:0:0:0:
88,240,498437,1,0,0:0:0:0:
308,182,498599,1,2,0:0:0:0:
345,163,498681,1,0,0:0:0:0:
358,124,498762,1,0,0:0:0:0:
348,84,498843,1,0,0:0:0:0:
319,54,498924,6,0,P|312:84|307:118,1,45.5,8|0,0:0|0:0,0:0:0:0:
214,208,499086,2,0,P|213:188|209:158,1,45.5,2|0,0:0|0:0,0:0:0:0:
132,13,499248,6,0,P|126:65|115:155,1,136.5,4|0,0:0|0:0,0:0:0:0:
45,194,499572,2,0,P|41:147|37:93,1,91,8|0,0:0|0:0,0:0:0:0:
144,261,499897,1,2,0:0:0:0:
144,261,499978,1,0,0:0:0:0:
144,261,500059,1,0,0:0:0:0:
235,72,500221,1,8,0:0:0:0:
72,187,500383,1,0,0:0:0:0:
285,141,500545,6,0,P|308:182|301:230,1,91,2|0,0:0|0:0,0:0:0:0:
441,54,500870,2,0,P|400:78|382:123,1,91,8|0,0:0|0:0,0:0:0:0:
180,18,501194,2,0,P|211:49|219:93,1,91,2|0,0:0|0:0,0:0:0:0:
75,245,501518,1,8,0:0:0:0:
75,245,501681,1,2,0:0:0:0:
297,195,501843,6,0,B|257:165|257:165|158:193,1,136.5,2|0,0:0|0:0,0:0:0:0:
111,242,502167,1,8,0:0:0:0:
299,316,502329,1,0,0:0:0:0:
229,137,502491,1,2,0:0:0:0:
229,137,502572,1,0,0:0:0:0:
229,137,502653,1,0,0:0:0:0:
420,227,502816,2,0,P|374:233|321:241,1,91,8|0,0:0|0:0,0:0:0:0:
141,351,503140,5,2,0:0:0:0:
102,137,503302,1,0,0:0:0:0:
240,321,503464,1,8,0:0:0:0:
60,239,503626,1,0,0:0:0:0:
271,179,503789,1,2,0:0:0:0:
271,179,503870,1,0,0:0:0:0:
271,179,503951,1,0,0:0:0:0:
271,179,504032,1,0,0:0:0:0:
271,179,504113,2,0,L|277:235,1,45.5,8|0,0:0|0:0,0:0:0:0:
320,294,504275,1,2,0:0:0:0:
374,82,504437,6,0,P|312:55|252:116,1,136.5,4|0,0:0|0:0,0:0:0:0:
182,59,504762,2,0,P|186:109|190:160,1,91,8|0,0:0|0:0,0:0:0:0:
319,303,505086,1,2,0:0:0:0:
319,303,505167,1,0,0:0:0:0:
319,303,505248,1,0,0:0:0:0:
113,282,505410,2,0,P|152:253|203:262,1,91,8|0,0:0|0:0,0:0:0:0:
376,133,505735,6,0,P|335:159|326:210,1,91,2|0,0:0|0:0,0:0:0:0:
153,51,506059,2,0,P|197:70|215:118,1,91,8|0,0:0|0:0,0:0:0:0:
246,330,506383,2,0,P|251:286|257:234,1,91,2|0,0:0|0:0,0:0:0:0:
332,62,506708,1,8,0:0:0:0:
332,62,506870,1,2,0:0:0:0:
487,224,507032,6,0,P|430:194|372:257,1,136.5,2|0,0:0|0:0,0:0:0:0:
402,310,507356,2,0,P|449:320|490:295,1,91,8|0,0:0|0:0,0:0:0:0:
332,154,507681,1,2,0:0:0:0:
332,154,507762,1,0,0:0:0:0:
332,154,507843,1,0,0:0:0:0:
270,350,508005,1,8,0:0:0:0:
213,150,508167,1,0,0:0:0:0:
46,304,508329,5,8,0:0:0:0:
234,241,508491,1,0,0:0:0:0:
10,166,508653,1,8,0:0:0:0:
210,255,508816,1,0,0:0:0:0:
130,54,508978,1,2,0:0:0:0:
126,94,509059,1,0,0:0:0:0:
122,134,509140,1,0,0:0:0:0:
119,174,509221,1,0,0:0:0:0:
116,214,509302,6,0,L|126:275,1,45.5,8|0,0:0|0:0,0:0:0:0:
240,364,509464,2,0,L|248:315,1,45.5,2|0,0:0|0:0,0:0:0:0:
335,175,509626,6,0,P|377:157|431:175,1,91,4|0,0:0|0:0,0:0:0:0:
505,319,509951,2,0,P|463:337|409:319,1,91,8|0,0:0|0:0,0:0:0:0:
335,175,510275,1,2,0:0:0:0:
247,319,510437,1,0,0:0:0:0:
233,107,510599,1,8,0:0:0:0:
157,304,510762,1,0,0:0:0:0:
4,152,510924,6,0,P|55:143|111:132,1,91,2|0,0:0|0:0,0:0:0:0:
256,267,511248,1,8,0:0:0:0:
311,53,511410,1,0,0:0:0:0:
170,191,511572,1,2,0:0:0:0:
170,191,511653,1,0,0:0:0:0:
170,191,511735,1,0,0:0:0:0:
370,135,511897,1,8,0:0:0:0:
370,135,511978,1,0,0:0:0:0:
370,135,512059,1,2,0:0:0:0:
159,196,512221,6,0,P|207:203|266:211,1,91,2|0,0:0|0:0,0:0:0:0:
452,297,512545,2,0,P|403:304|345:312,1,91,8|0,0:0|0:0,0:0:0:0:
255,117,512870,1,2,0:0:0:0:
395,230,513032,1,0,0:0:0:0:
478,36,513194,1,8,0:0:0:0:
341,154,513356,1,0,0:0:0:0:
163,11,513518,5,2,0:0:0:0:
236,210,513680,1,0,0:0:0:0:
332,12,513843,1,8,0:0:0:0:
186,135,514005,1,0,0:0:0:0:
403,97,514167,1,2,0:0:0:0:
403,97,514248,1,0,0:0:0:0:
403,97,514329,1,0,0:0:0:0:
200,40,514491,1,8,0:0:0:0:
200,40,514572,1,0,0:0:0:0:
200,40,514653,1,0,0:0:0:0:
319,246,514816,6,0,P|347:198|335:155,1,91,4|0,0:0|0:0,0:0:0:0:
164,292,515140,2,0,P|136:244|148:201,1,91,8|0,0:0|0:0,0:0:0:0:
325,330,515464,2,0,P|280:337|220:347,1,91,2|0,0:0|0:0,0:0:0:0:
412,226,515789,2,0,P|367:233|307:243,1,91,8|0,0:0|0:0,0:0:0:0:
129,139,516113,6,0,P|173:145|218:153,1,91,2|0,0:0|0:0,0:0:0:0:
368,23,516437,2,0,P|356:73|344:118,1,91,8|0,0:0|0:0,0:0:0:0:
158,225,516762,2,0,P|202:231|247:239,1,91,2|0,0:0|0:0,0:0:0:0:
44,188,517086,1,8,0:0:0:0:
247,134,517248,1,2,0:0:0:0:
21,102,517572,5,8,0:0:0:0:
252,153,517735,1,8,0:0:0:0:
249,171,518059,1,8,0:0:0:0:
245,187,518383,5,8,0:0:0:0:
17,246,518545,1,8,0:0:0:0:
20,264,518870,1,8,0:0:0:0:
23,283,519194,5,8,0:0:0:0:
251,348,519356,1,8,0:0:0:0:
160,85,519680,6,0,L|144:248,1,136.5,0|0,3:0|0:0,0:0:0:0:
133,302,520005,1,4,0:0:0:0:
438,259,524468,5,0,0:0:0:0:
418,347,524625,1,0,0:0:0:0:
438,259,524783,2,0,P|391:267|342:275,1,91,2|0,0:0|0:0,0:0:0:0:
185,299,525099,5,8,0:0:0:0:
185,299,525257,1,0,0:0:0:0:
165,211,525415,2,0,P|212:219|261:227,1,91,2|0,0:0|0:0,0:0:0:0:
458,171,525731,5,8,0:0:0:0:
438,259,525889,1,0,0:0:0:0:
458,171,526046,2,0,P|411:179|362:187,1,91,2|0,0:0|0:0,0:0:0:0:
165,211,526362,5,8,0:0:0:0:
165,211,526520,1,0,0:0:0:0:
145,123,526678,2,0,P|192:131|241:139,1,91,2|2,0:0|0:0,0:0:0:0:
467,183,526994,6,0,L|272:213,1,182,4|2,0:0|0:0,0:0:0:0:
52,97,527625,2,0,L|247:127,1,182,8|2,0:0|0:0,0:0:0:0:
378,334,528257,5,12,0:0:0:0:
322,58,528573,1,12,0:0:0:0:
90,226,528889,1,12,0:0:0:0:
264,195,529046,5,0,0:0:0:0:
261,212,529204,1,0,0:0:0:0:
257,229,529362,1,0,0:0:0:0:
96,107,529520,6,0,P|137:63|244:99,1,182,4|8,0:0|0:0,0:0:0:0:
241,95,529994,1,0,0:0:0:0:
90,226,530152,2,0,P|139:220|181:215,1,91,2|0,0:0|0:0,0:0:0:0:
370,130,530468,1,8,0:0:0:0:
310,272,530625,1,0,0:0:0:0:
248,70,530783,6,0,L|263:180,1,91,2|0,0:0|0:0,0:0:0:0:
384,331,531099,1,8,0:0:0:0:
442,187,531257,1,0,0:0:0:0:
289,267,531415,1,2,0:0:0:0:
468,304,531573,1,0,0:0:0:0:
337,152,531731,1,8,0:0:0:0:
388,309,531889,1,0,0:0:0:0:
441,98,532046,5,2,0:0:0:0:
366,234,532204,1,0,0:0:0:0:
319,48,532362,2,0,P|292:88|300:139,1,91,8|0,0:0|0:0,0:0:0:0:
456,242,532678,1,2,0:0:0:0:
263,287,532836,1,0,0:0:0:0:
443,131,532994,1,8,0:0:0:0:
352,349,533152,1,0,0:0:0:0:
222,117,533310,6,0,P|183:93|104:139,1,136.5,2|0,0:0|0:0,0:0:0:0:
70,204,533625,1,8,0:0:0:0:
4,15,533783,2,0,P|11:65|18:111,1,91,0|2,0:0|0:0,0:0:0:0:
196,200,534099,1,0,0:0:0:0:
196,200,534178,1,0,0:0:0:0:
196,200,534257,1,8,0:0:0:0:
4,264,534415,1,0,0:0:0:0:
213,354,534573,6,0,P|236:316|223:260,1,91,4|0,0:0|0:0,0:0:0:0:
102,103,534889,2,0,P|109:153|116:199,1,91,8|0,0:0|0:0,0:0:0:0:
210,16,535204,1,2,0:0:0:0:
350,161,535362,1,0,0:0:0:0:
179,96,535520,1,8,0:0:0:0:
179,96,535678,1,0,0:0:0:0:
397,61,535836,6,0,B|433:97|433:97|413:229,1,182,2|8,0:0|0:0,0:0:0:0:
263,94,536310,2,0,L|267:139|271:184,1,91,0|2,0:0|0:0,0:0:0:0:
463,123,536625,1,0,0:0:0:0:
312,268,536783,1,8,0:0:0:0:
380,140,536941,1,0,0:0:0:0:
177,218,537099,6,0,P|112:173|143:83,1,182,2|8,0:0|0:0,0:0:0:0:
266,243,537573,2,0,L|260:296|254:349,1,91,0|2,0:0|0:0,0:0:0:0:
230,151,537889,1,0,0:0:0:0:
349,321,538046,1,8,0:0:0:0:
491,167,538204,1,0,0:0:0:0:
491,167,538283,1,0,0:0:0:0:
491,167,538362,6,0,P|485:214|478:266,1,91,2|0,0:0|0:0,0:0:0:0:
343,96,538678,2,0,P|349:143|356:195,1,91,8|0,0:0|0:0,0:0:0:0:
491,25,538994,1,8,0:0:0:0:
354,186,539152,5,0,0:0:0:0:
372,185,539310,1,0,0:0:0:0:
388,185,539468,1,0,0:0:0:0:
491,25,539625,6,0,P|485:72|478:124,1,91,4|0,0:0|0:0,0:0:0:0:
373,299,539941,2,0,P|366:253|361:208,1,91,8|0,0:0|0:0,0:0:0:0:
230,70,540257,1,2,0:0:0:0:
386,116,540415,1,0,0:0:0:0:
187,179,540573,2,0,P|241:170|297:161,1,91,8|0,0:0|0:0,0:0:0:0:
95,267,540889,5,2,0:0:0:0:
56,80,541046,1,0,0:0:0:0:
123,286,541204,1,8,0:0:0:0:
49,89,541362,1,0,0:0:0:0:
250,146,541520,5,2,0:0:0:0:
48,207,541678,1,0,0:0:0:0:
195,44,541836,1,8,0:0:0:0:
245,248,541994,1,0,0:0:0:0:
333,49,542152,5,2,0:0:0:0:
195,154,542310,1,0,0:0:0:0:
399,195,542468,2,0,P|351:203|301:211,1,91,8|0,0:0|0:0,0:0:0:0:
460,92,542783,1,2,0:0:0:0:
376,282,542941,1,0,0:0:0:0:
305,56,543099,1,8,0:0:0:0:
491,215,543257,1,0,0:0:0:0:
223,271,543415,6,0,P|186:224|215:152,1,136.5,2|0,0:0|0:0,0:0:0:0:
282,118,543731,1,8,0:0:0:0:
104,209,543889,2,0,P|97:161|90:107,1,91,0|2,0:0|0:0,0:0:0:0:
260,209,544204,1,0,0:0:0:0:
260,209,544283,1,0,0:0:0:0:
260,209,544362,1,8,0:0:0:0:
70,292,544520,1,0,0:0:0:0:
273,197,544678,6,0,P|267:242|260:287,1,91,4|0,0:0|0:0,0:0:0:0:
166,90,544994,2,0,P|171:135|178:180,1,91,8|0,0:0|0:0,0:0:0:0:
248,21,545310,1,2,0:0:0:0:
78,127,545468,1,0,0:0:0:0:
286,186,545625,2,0,P|306:142|292:97,1,91,8|0,0:0|0:0,0:0:0:0:
176,275,545941,6,0,P|228:269|274:263,1,91,2|0,0:0|0:0,0:0:0:0:
83,368,546257,2,0,P|135:362|181:356,1,91,8|0,0:0|0:0,0:0:0:0:
4,234,546573,1,2,0:0:0:0:
185,357,546731,1,0,0:0:0:0:
109,161,546889,2,0,P|100:212|91:258,1,91,8|0,0:0|0:0,0:0:0:0:
235,83,547204,5,2,0:0:0:0:
240,123,547283,1,0,0:0:0:0:
246,163,547362,1,0,0:0:0:0:
252,203,547441,1,0,0:0:0:0:
257,243,547520,2,0,L|312:253,1,45.5,8|0,0:0|0:0,0:0:0:0:
421,322,547678,1,0,0:0:0:0:
421,322,547757,1,0,0:0:0:0:
421,322,547836,5,2,0:0:0:0:
378,181,547994,1,0,0:0:0:0:
325,363,548152,1,8,0:0:0:0:
448,241,548310,1,0,0:0:0:0:
247,316,548468,5,4,0:0:0:0:
227,291,548546,1,0,0:0:0:0:
222,259,548625,1,0,0:0:0:0:
236,230,548704,1,0,0:0:0:0:
268,204,548783,5,12,0:0:0:0:
296,174,548862,1,0,0:0:0:0:
300,133,548941,1,0,0:0:0:0:
290,93,549020,1,0,0:0:0:0:
257,67,549099,6,0,L|208:73,1,45.5,4|0,0:0|0:0,0:0:0:0:
150,144,549257,2,0,L|210:157,1,45.5
107,51,549415,2,0,L|58:57,1,45.5,12|0,0:0|0:0,0:0:0:0:
1,151,549573,2,0,L|61:164,1,45.5
178,235,549731,6,0,L|83:249,1,91,4|0,0:0|0:0,0:0:0:0:
278,305,550046,2,0,L|183:319,1,91,8|0,0:0|0:0,0:0:0:0:
352,159,550362,2,0,L|257:173,1,91,2|0,0:0|0:0,0:0:0:0:
452,229,550678,2,0,L|357:243,1,91,8|0,0:0|0:0,0:0:0:0:
497,71,550994,6,0,P|508:117|481:161,1,91,2|0,0:0|0:0,0:0:0:0:
346,10,551310,2,0,P|392:19|420:62,1,91,8|0,0:0|0:0,0:0:0:0:
334,246,551625,1,2,0:0:0:0:
265,33,551783,1,0,0:0:0:0:
334,246,551941,2,0,P|342:184|348:138,1,91,8|0,0:0|0:0,0:0:0:0:
160,278,552257,6,0,P|220:287|269:293,1,91,2|0,0:0|0:0,0:0:0:0:
58,352,552573,2,0,P|118:361|167:367,1,91,8|0,0:0|0:0,0:0:0:0:
161,178,552889,2,0,P|221:187|270:193,1,91,2|0,0:0|0:0,0:0:0:0:
59,252,553204,2,0,P|119:261|168:267,1,91,8|0,0:0|0:0,0:0:0:0:
27,94,553520,6,0,P|19:138|40:178,1,91,2|0,0:0|0:0,0:0:0:0:
168,14,553836,2,0,P|127:32|106:72,1,91,8|0,0:0|0:0,0:0:0:0:
167,265,554152,1,2,0:0:0:0:
249,72,554310,1,0,0:0:0:0:
167,265,554468,1,8,0:0:0:0:
105,135,554625,1,0,0:0:0:0:
310,211,554783,6,0,P|334:170|317:110,1,91,4|0,0:0|0:0,0:0:0:0:
249,333,555099,2,0,P|243:288|235:226,1,91,8|0,0:0|0:0,0:0:0:0:
412,353,555415,2,0,P|365:366|329:343,1,91,2|0,0:0|0:0,0:0:0:0:
256,156,555731,1,8,0:0:0:0:
256,156,555889,1,0,0:0:0:0:
181,345,556046,6,0,P|142:366|100:353,1,91,2|0,0:0|0:0,0:0:0:0:
0,178,556362,2,0,P|4:226|10:286,1,91,8|0,0:0|0:0,0:0:0:0:
162,125,556678,2,0,P|158:170|153:215,1,91,2|0,0:0|0:0,0:0:0:0:
343,145,556994,1,8,0:0:0:0:
273,263,557152,1,0,0:0:0:0:
484,250,557310,6,0,P|437:242|386:233,1,91,2|0,0:0|0:0,0:0:0:0:
194,176,557625,2,0,P|241:168|292:159,1,91,8|0,0:0|0:0,0:0:0:0:
420,322,557941,2,0,P|373:314|322:305,1,91,2|0,0:0|0:0,0:0:0:0:
128,366,558257,1,8,0:0:0:0:
211,255,558415,1,0,0:0:0:0:
3,324,558573,5,2,0:0:0:0:
3,324,558731,1,0,0:0:0:0:
88,135,558889,1,8,0:0:0:0:
88,135,559046,1,0,0:0:0:0:
231,302,559204,5,2,0:0:0:0:
62,219,559362,1,0,0:0:0:0:
260,289,559520,1,8,0:0:0:0:
45,334,559678,1,0,0:0:0:0:
182,152,559836,6,0,P|175:197|168:243,1,91,4|0,0:0|0:0,0:0:0:0:
86,48,560152,2,0,P|122:28|176:40,1,91,8|0,0:0|0:0,0:0:0:0:
358,113,560468,2,0,P|322:133|268:121,1,91,2|0,0:0|0:0,0:0:0:0:
448,12,560783,2,0,P|454:57|462:103,1,91,8|0,0:0|0:0,0:0:0:0:
261,37,561099,6,0,P|297:17|351:29,1,91,2|0,0:0|0:0,0:0:0:0:
179,130,561415,2,0,P|143:150|89:138,1,91,8|0,0:0|0:0,0:0:0:0:
273,236,561731,1,2,0:0:0:0:
179,31,561889,1,0,0:0:0:0:
273,236,562046,2,0,P|281:185|288:135,1,91,8|0,0:0|0:0,0:0:0:0:
161,312,562362,6,0,P|153:261|146:211,1,91,2|0,0:0|0:0,0:0:0:0:
328,330,562678,2,0,P|288:350|244:339,1,91,8|0,0:0|0:0,0:0:0:0:
423,227,562994,2,0,P|432:270|410:309,1,91,2|0,0:0|0:0,0:0:0:0:
260,153,563310,2,0,P|250:196|272:235,1,91,8|0,0:0|0:0,0:0:0:0:
434,91,563625,6,0,P|384:87|317:79,1,91,2|0,0:0|0:0,0:0:0:0:
511,199,563941,2,0,P|461:195|394:187,1,91,8|0,0:0|0:0,0:0:0:0:
232,121,564257,1,2,0:0:0:0:
358,277,564415,1,0,0:0:0:0:
448,88,564573,1,8,0:0:0:0:
261,214,564731,1,0,0:0:0:0:
261,214,564810,1,0,0:0:0:0:
261,214,564889,6,0,P|256:166|251:117,1,91,4|0,0:0|0:0,0:0:0:0:
327,312,565204,2,0,P|366:334|426:311,1,91,8|0,0:0|0:0,0:0:0:0:
250,210,565520,2,0,P|206:201|167:223,1,91,2|0,0:0|0:0,0:0:0:0:
56,333,565836,1,8,0:0:0:0:
56,333,565994,1,0,0:0:0:0:
157,138,566152,6,0,P|175:179|167:222,1,91,2|0,0:0|0:0,0:0:0:0:
12,84,566468,2,0,P|65:75|109:68,1,91,8|0,0:0|0:0,0:0:0:0:
250,210,566783,1,2,0:0:0:0:
195,9,566941,2,0,P|186:62|179:106,1,91,0|8,0:0|0:0,0:0:0:0:
121,319,567257,1,0,0:0:0:0:
193,98,567415,6,0,P|201:148|209:200,1,91,2|0,0:0|0:0,0:0:0:0:
375,64,567731,2,0,P|368:104|358:164,1,91,8|0,0:0|0:0,0:0:0:0:
218,296,568046,2,0,P|256:282|313:260,1,91,2|0,0:0|0:0,0:0:0:0:
497,315,568362,2,0,P|465:288|418:250,1,91,8|0,0:0|0:0,0:0:0:0:
366,48,568678,5,4,0:0:0:0:
366,48,568836,1,0,0:0:0:0:
241,207,568994,1,12,0:0:0:0:
241,207,569152,1,0,0:0:0:0:
442,151,569310,5,4,0:0:0:0:
243,87,569468,1,0,0:0:0:0:
465,47,569625,1,12,0:0:0:0:
231,168,569783,1,0,0:0:0:0:
502,243,569941,5,4,0:0:0:0:
447,322,580242,5,0,0:0:0:0:
498,236,580413,1,0,0:0:0:0:
435,157,580584,1,0,0:0:0:0:
337,181,580756,1,0,0:0:0:0:
334,280,580927,5,0,0:0:0:0:
266,326,581099,1,0,0:0:0:0:
191,292,581270,1,0,0:0:0:0:
178,210,581442,1,0,0:0:0:0:
239,156,581613,5,4,0:0:0:0:
420,251,582299,1,4,0:0:0:0:
360,65,582642,1,4,0:0:0:0:
497,305,582984,5,8,0:0:0:0:
263,204,583156,1,8,0:0:0:0:
490,90,583327,1,8,0:0:0:0:
357,209,584184,6,0,L|350:165,3,30.3333333333333,0|0|0|2,0:0|0:0|0:0|0:0,0:0:0:0:
357,209,585384,5,0,0:0:0:0:
413,231,585470,1,0,0:0:0:0:
408,290,585556,1,0,0:0:0:0:
352,305,585642,1,0,0:0:0:0:
319,254,585727,6,0,L|332:163,1,81.8999975006104,6|0,0:0|0:0,0:0:0:0:
319,254,586070,6,0,L|314:140,1,109.2,6|0,0:0|0:0,0:0:0:0:
319,254,586413,6,0,L|293:104,1,136.5,6|2,0:0|0:0,0:0:0:0:
319,254,586756,6,0,P|369:278|426:245,1,109.199996667481,6|2,0:0|0:0,0:0:0:0:
227,203,587099,6,0,P|145:214|64:225,1,163.799995001221,4|0,0:0|0:0,0:0:0:0:
3,287,587442,1,8,0:0:0:0:
136,143,587613,2,0,P|146:90|102:33,1,109.199996667481,0|2,0:0|0:0,0:0:0:0:
256,195,587956,1,0,0:0:0:0:
391,44,588127,2,0,P|365:90|376:143,1,109.199996667481,8|0,0:0|0:0,0:0:0:0:
427,347,588470,6,0,P|478:314|437:218,1,163.799995001221,2|0,0:0|0:0,0:0:0:0:
382,179,588813,1,8,0:0:0:0:
287,349,588984,2,0,P|280:291|273:238,1,109.199996667481,0|2,0:0|0:0,0:0:0:0:
88,302,589327,1,0,0:0:0:0:
194,136,589499,2,0,P|186:190|178:248,1,109.199996667481,8|0,0:0|0:0,0:0:0:0:
34,91,589842,6,0,P|79:64|142:96,1,109.199996667481,2|0,0:0|0:0,0:0:0:0:
302,16,590184,2,0,P|310:70|318:128,1,109.199996667481,8|0,0:0|0:0,0:0:0:0:
252,312,590527,1,2,0:0:0:0:
329,131,590699,1,0,0:0:0:0:
237,314,590870,1,8,0:0:0:0:
443,246,591042,1,2,0:0:0:0:
443,246,591127,1,2,0:0:0:0:
443,246,591213,6,0,P|474:302|448:358,1,109.199996667481,2|0,0:0|0:0,0:0:0:0:
286,224,591556,1,8,0:0:0:0:
466,119,591727,1,2,0:0:0:0:
461,140,591813,1,2,0:0:0:0:
457,161,591899,1,2,0:0:0:0:
330,310,592070,1,0,0:0:0:0:
240,125,592242,1,8,0:0:0:0:
240,125,592327,1,2,0:0:0:0:
240,125,592413,1,2,0:0:0:0:
240,125,592499,1,2,0:0:0:0:
240,125,592584,6,0,P|256:202|174:226,1,163.799995001221,6|0,0:0|0:0,0:0:0:0:
109,198,592927,2,0,L|118:89,1,109.199996667481,8|0,0:0|0:0,0:0:0:0:
118,89,593184,1,0,0:0:0:0:
118,89,593270,1,2,0:0:0:0:
16,249,593442,1,0,0:0:0:0:
208,208,593613,2,0,P|241:257|220:315,1,109.199996667481,8|0,0:0|0:0,0:0:0:0:
9,346,593956,6,0,L|180:368,1,163.799995001221,2|0,0:0|0:0,0:0:0:0:
240,313,594299,1,8,0:0:0:0:
40,227,594470,1,0,0:0:0:0:
214,168,594642,1,2,0:0:0:0:
139,263,594813,1,0,0:0:0:0:
101,61,594984,1,8,0:0:0:0:
101,61,595156,1,0,0:0:0:0:
295,132,595327,5,2,0:0:0:0:
262,135,595413,1,0,0:0:0:0:
229,138,595499,1,0,0:0:0:0:
196,141,595584,1,0,0:0:0:0:
163,144,595670,2,0,L|150:84,1,54.5999983337403,8|0,0:0|0:0,0:0:0:0:
126,250,595842,5,0,0:0:0:0:
157,253,595927,1,0,0:0:0:0:
190,257,596013,1,2,0:0:0:0:
222,262,596099,1,0,0:0:0:0:
254,266,596184,2,0,L|266:337,1,54.5999983337403
372,197,596356,2,0,L|360:268,1,54.5999983337403,8|0,0:0|0:0,0:0:0:0:
265,126,596527,1,2,0:0:0:0:
268,119,596613,1,2,0:0:0:0:
271,112,596699,6,0,P|314:86|376:115,1,109.2,2|0,0:0|0:0,0:0:0:0:
211,61,597042,6,0,P|175:42|125:53,1,81.8999975006104,8|2,0:0|0:0,0:0:0:0:
71,93,597299,1,2,0:0:0:0:
67,99,597384,6,0,L|83:247,1,136.5,2|0,0:0|0:0,0:0:0:0:
163,292,597727,6,0,P|189:292|217:282,1,50.0500015274048,2|2,0:0|0:0,0:0:0:0:
286,216,597899,2,0,P|310:215|334:223,1,50.0500015274048,2|2,0:0|0:0,0:0:0:0:
405,295,598070,6,0,P|457:298|419:256,1,136.500005207062,6|0,0:0|0:0,0:0:0:0:
421,255,598584,6,0,P|476:293|404:282,1,182,12|0,0:0|0:0,0:0:0:0:
338,125,599099,1,0,0:0:0:0:
107,295,599442,6,0,P|55:298|93:256,1,136.500005207062,6|0,0:0|0:0,0:0:0:0:
91,255,599956,6,0,P|36:293|108:282,1,182,12|0,0:0|0:0,0:0:0:0:
174,125,600470,1,0,0:0:0:0:
405,295,600813,5,6,0:0:0:0:
174,125,601499,2,0,L|196:320,1,182,2|2,0:0|0:0,0:0:0:0:
363,196,602013,1,2,0:0:0:0:
363,196,602099,1,2,0:0:0:0:
363,196,602184,6,0,L|349:302,1,91,2|0,0:0|0:0,0:0:0:0:
250,82,602527,2,0,L|264:188,1,91,2|0,0:0|0:0,0:0:0:0:
447,43,602870,6,0,B|432:155,1,100.10000305481,2|0,0:0|0:0,0:0:0:0:
363,196,603099,2,0,P|321:186|244:172,1,100.10000305481,2|0,0:0|0:0,0:0:0:0:
219,242,603327,2,0,P|192:245|149:250,1,66.7333353698731,2|0,0:0|0:0,0:0:0:0:
63,106,603556,6,0,B|80:278,1,163.799995001221,6|0,0:0|0:0,0:0:0:0:
137,333,603899,2,0,P|191:325|252:315,1,109.199996667481,8|0,0:0|0:0,0:0:0:0:
244,316,604156,1,0,0:0:0:0:
244,316,604242,1,2,0:0:0:0:
200,136,604413,1,0,0:0:0:0:
381,220,604584,2,0,P|407:176|393:115,1,109.199996667481,8|0,0:0|0:0,0:0:0:0:
220,237,604927,6,0,P|158:209|192:125,1,163.799995001221,2|0,0:0|0:0,0:0:0:0:
259,92,605270,1,8,0:0:0:0:
321,302,605442,1,0,0:0:0:0:
393,169,605613,1,2,0:0:0:0:
325,316,605784,1,0,0:0:0:0:
265,103,605956,1,8,0:0:0:0:
473,161,606127,1,0,0:0:0:0:
257,236,606299,6,0,P|336:245|426:255,1,163.799995001221,2|0,0:0|0:0,0:0:0:0:
475,323,606642,1,8,0:0:0:0:
360,137,606813,2,0,P|369:196|325:238,1,109.199996667481,0|2,0:0|0:0,0:0:0:0:
148,275,607156,1,0,0:0:0:0:
233,88,607327,1,8,0:0:0:0:
58,178,607499,1,2,0:0:0:0:
58,178,607584,1,2,0:0:0:0:
58,178,607670,1,2,0:0:0:0:
260,257,607842,5,2,0:0:0:0:
303,252,607927,1,0,0:0:0:0:
337,225,608013,1,2,0:0:0:0:
348,182,608099,1,0,0:0:0:0:
342,139,608184,1,2,0:0:0:0:
315,104,608270,1,0,0:0:0:0:
272,92,608356,5,2,0:0:0:0:
288,114,608442,1,0,0:0:0:0:
311,128,608527,1,2,0:0:0:0:
337,132,608613,1,0,0:0:0:0:
364,127,608699,1,2,0:0:0:0:
388,115,608784,1,0,0:0:0:0:
406,95,608870,1,2,0:0:0:0:
416,69,608956,1,0,0:0:0:0:
411,41,609042,5,6,0:0:0:0:
114,223,609727,1,4,0:0:0:0:
481,341,610413,5,6,0:0:0:0:
405,278,610584,1,2,0:0:0:0:
323,333,610756,1,2,0:0:0:0:
236,287,610927,1,2,0:0:0:0:
79,368,611099,5,2,0:0:0:0:
14,294,611270,1,2,0:0:0:0:
55,204,611442,1,2,0:0:0:0:
152,200,611613,1,2,0:0:0:0:
203,283,611784,6,0,L|192:351,1,54.5999983337403,8|0,0:0|0:0,0:0:0:0:
47,198,612127,6,0,L|56:262,1,50.0500015274048,8|0,0:0|0:0,0:0:0:0:
212,127,612470,6,0,L|202:191,1,45.5,8|0,0:0|0:0,0:0:0:0:
82,46,612813,6,0,L|88:104,1,40.9499987503052,8|0,0:0|0:0,0:0:0:0:
306,24,613156,5,6,0:0:0:0:
242,264,614184,2,0,L|216:270,6,27.2999991668701
150,301,614527,5,8,0:0:0:0:
280,98,614699,1,8,0:0:0:0:
412,299,614870,1,8,0:0:0:0:
143,209,615213,5,8,0:0:0:0:
373,140,615384,1,8,0:0:0:0:
54,55,615899,5,6,0:0:0:0:
256,203,617270,5,6,0:0:0:0:
11,284,617956,1,6,0:0:0:0:
165,58,618642,5,6,0:0:0:0:
307,359,620013,5,2,0:0:0:0:
343,369,620099,1,2,0:0:0:0:
379,357,620184,1,2,0:0:0:0:
398,323,620270,1,2,0:0:0:0:
396,284,620356,1,2,0:0:0:0:
370,255,620442,1,2,0:0:0:0:
332,248,620527,1,2,0:0:0:0:
297,265,620613,1,2,0:0:0:0:
258,262,620699,5,2,0:0:0:0:
223,246,620784,1,2,0:0:0:0:
204,212,620870,1,2,0:0:0:0:
202,173,620956,1,2,0:0:0:0:
218,138,621042,1,2,0:0:0:0:
250,118,621127,1,2,0:0:0:0:
288,116,621213,1,2,0:0:0:0:
323,131,621299,1,2,0:0:0:0:
347,160,621384,5,6,0:0:0:0:
221,40,621727,1,2,0:0:0:0:
347,160,622070,1,2,0:0:0:0:
176,207,622413,1,2,0:0:0:0:
261,123,622584,1,0,0:0:0:0:
261,123,622670,1,0,0:0:0:0:
261,123,622756,5,2,0:0:0:0:
176,207,622927,1,2,0:0:0:0:
80,137,623099,1,2,0:0:0:0:
120,304,623270,1,2,0:0:0:0:
120,304,623356,1,0,0:0:0:0:
120,304,623442,5,2,0:0:0:0:
145,331,623527,1,2,0:0:0:0:
182,337,623613,1,2,0:0:0:0:
217,321,623699,1,2,0:0:0:0:
240,291,623784,1,2,0:0:0:0:
274,274,623870,1,2,0:0:0:0:
311,280,623956,1,2,0:0:0:0:
342,302,624042,1,2,0:0:0:0:
352,338,624127,5,6,0:0:0:0:
419,61,625499,6,0,L|393:258,1,182,4|0,0:0|0:0,0:0:0:0:
93,61,626184,2,0,L|119:258,1,182,4|0,0:0|0:0,0:0:0:0:
419,61,626870,5,4,0:0:0:0:
402,39,626956,1,0,0:0:0:0:
378,25,627042,1,0,0:0:0:0:
352,16,627127,1,0,0:0:0:0:
324,16,627213,1,0,0:0:0:0:
297,22,627299,1,0,0:0:0:0:
273,36,627384,1,0,0:0:0:0:
257,58,627470,1,0,0:0:0:0:
248,84,627556,5,4,0:0:0:0:
239,58,627642,1,0,0:0:0:0:
223,36,627727,1,0,0:0:0:0:
199,22,627813,1,0,0:0:0:0:
172,16,627899,1,0,0:0:0:0:
144,16,627984,1,0,0:0:0:0:
118,25,628070,1,0,0:0:0:0:
94,39,628156,1,0,0:0:0:0:
77,61,628242,5,4,0:0:0:0:
330,215,629270,2,0,L|292:224,6,22.75
240,193,629613,5,12,0:0:0:0:
448,296,629784,1,8,0:0:0:0:
206,345,629956,1,8,0:0:0:0:
486,216,630127,1,12,0:0:0:0:
256,192,630213,12,0,633384,0:0:0:0:
