osu file format v14

[General]
AudioFilename: Badis' Medley.mp3
AudioLeadIn: 0
PreviewTime: 61793
Countdown: 0
SampleSet: Soft
StackLeniency: 0.7
Mode: 2
LetterboxInBreaks: 0
WidescreenStoryboard: 0

[Editor]
DistanceSpacing: 0.5
BeatDivisor: 4
GridSize: 16
TimelineZoom: 1.6

[Metadata]
Title:The psychedelic Medley
TitleUnicode:The psychedelic Medley
Artist:Various Artists
ArtistUnicode:Various Artists
Creator:Badis
Version:Deluge
Source:
Tags:Kuroma Crazy cinema story Space Diver Tama Collapse Penoreri Everlasting Message Ginkiha Starlight Express P-Light FUNKY SUMMER BEACH cosMo Evans VolteX Pf arrange For UltraPlayers Sota Fujimori Mother Ship Badis Kyuare BoberOfDarkness Hi_Hello JBHyperion WildOne94
BeatmapID:711393
BeatmapSetID:319645

[Difficulty]
HPDrainRate:4
CircleSize:4
OverallDifficulty:9.5
ApproachRate:9.5
SliderMultiplier:2.7
SliderTickRate:2

[Events]
//Background and Video events
0,0,"Background.jpg",0,0
//Break Periods
//Storyboard Layer 0 (Background)
//Storyboard Layer 1 (Fail)
//Storyboard Layer 2 (Pass)
//Storyboard Layer 3 (Foreground)
//Storyboard Sound Samples

[TimingPoints]
1017,437.956204379562,4,2,1,40,1,0
1783,-100,4,2,1,5,0,0
3535,-100,4,2,1,40,0,0
3754,-100,4,2,1,5,0,0
4301,-100,4,2,1,40,0,0
5068,-100,4,2,1,5,0,0
6272,-100,4,2,1,40,0,0
12403,-76.9230769230769,4,2,1,40,0,0
13279,-100,4,2,1,40,0,0
13617,352.941176470588,4,2,1,5,1,0
13706,-100,4,2,1,20,0,0
13882,-100,4,2,1,25,0,0
14059,-100,4,2,1,30,0,0
14235,-100,4,2,1,35,0,0
14412,-100,4,2,1,50,0,0
14588,-100,4,2,1,65,0,0
14676,-100,4,2,1,85,0,0
15205,352.941176470588,4,2,1,5,1,0
15206,-100,4,2,1,70,0,0
29234,-100,4,2,1,5,0,0
29322,-100,4,2,1,70,0,0
29499,-100,4,2,1,5,0,0
29587,-100,4,2,1,70,0,0
29763,-100,4,2,1,5,0,0
29852,-100,4,2,1,70,0,0
30028,-100,4,2,1,5,0,0
30116,-100,4,2,1,70,0,0
30293,-100,4,2,1,5,0,0
30381,-100,4,2,1,70,0,0
37706,-100,4,2,1,5,0,0
37761,331.491712707182,4,2,1,70,1,0
55577,-100,4,2,1,69,0,0
55660,-100,4,2,1,68,0,0
55743,-100,4,2,1,67,0,0
55826,-100,4,2,1,66,0,0
55909,-100,4,2,1,65,0,0
55992,-100,4,2,1,64,0,0
56075,-100,4,2,1,63,0,0
56157,-100,4,2,1,62,0,0
56240,-100,4,2,1,61,0,0
56323,-100,4,2,1,60,0,0
56406,-100,4,2,1,59,0,0
56489,-100,4,2,1,58,0,0
56572,-100,4,2,1,57,0,0
56655,-100,4,2,1,56,0,0
56738,-100,4,2,1,55,0,0
56820,-100,4,2,1,54,0,0
56903,-100,4,2,1,53,0,0
56986,-100,4,2,1,52,0,0
57069,-100,4,2,1,51,0,0
57152,-100,4,2,1,50,0,0
57235,-100,4,2,1,49,0,0
57318,-100,4,2,1,48,0,0
57401,-100,4,2,1,47,0,0
57483,-100,4,2,1,46,0,0
57566,-100,4,2,1,45,0,0
57649,-100,4,2,1,44,0,0
57732,-100,4,2,1,43,0,0
57815,-100,4,2,1,42,0,0
57898,-100,4,2,1,40,0,0
57981,-100,4,2,1,39,0,0
58063,-100,4,2,1,38,0,0
58146,-100,4,2,1,37,0,0
58229,-100,4,2,1,36,0,0
58312,-100,4,2,1,35,0,0
58395,-100,4,2,1,34,0,0
58478,-100,4,2,1,33,0,0
58561,-100,4,2,1,32,0,0
58644,-100,4,2,1,30,0,0
58892,-100,4,2,1,5,0,0
59005,253.164556962025,4,2,1,35,1,0
59258,-100,4,2,1,45,0,0
60270,-100,4,2,1,52,0,0
60397,-100,4,2,1,60,0,0
60523,-100,4,2,1,70,0,0
62802,254.237288135593,4,2,1,70,1,0
68395,-100,4,2,1,60,0,0
68649,-100,4,2,1,50,0,0
68908,-100,4,2,1,30,0,0
68993,-100,4,2,1,32,0,0
69077,-100,4,2,1,34,0,0
69162,-100,4,2,1,36,0,0
69246,-100,4,2,1,38,0,0
69330,-100,4,2,1,40,0,0
69415,-100,4,2,1,42,0,0
69499,-100,4,2,1,44,0,0
69584,-100,4,2,1,46,0,0
69668,-100,4,2,1,48,0,0
69752,-100,4,2,1,50,0,0
69837,-100,4,2,1,52,0,0
69921,-100,4,2,1,54,0,0
70005,-100,4,2,1,56,0,0
70090,-100,4,2,1,58,0,0
70174,-100,4,2,1,60,0,0
70259,-100,4,2,1,62,0,0
70343,-100,4,2,1,64,0,0
70427,-100,4,2,1,65,0,0
70512,-100,4,2,1,66,0,0
70596,-100,4,2,1,67,0,0
70681,-100,4,2,1,68,0,0
70765,-100,4,2,1,69,0,0
70849,-100,4,2,1,70,0,0
70942,-100,4,2,1,70,0,0
81073,-100,4,2,1,5,0,0
81127,150,4,2,1,50,1,0
81168,-100,4,2,1,5,0,0
81877,300,4,2,1,70,1,0
83002,-100,4,2,1,5,0,0
83077,-100,4,2,1,50,0,0
84277,-100,4,2,1,10,0,0
84427,-100,4,2,1,20,0,0
84577,-100,4,2,1,30,0,0
84727,-100,4,2,1,40,0,0
84877,-100,4,2,1,50,0,0
85027,-100,4,2,1,60,0,0
85177,-100,4,2,1,70,0,0
92527,-100,4,2,1,5,0,0
92652,-100,4,2,1,100,0,0
92653,342.857142857143,4,2,1,100,1,0
103452,-125,4,2,1,100,0,0
104225,-200,4,2,1,5,0,0
104316,333.333333333333,4,2,1,75,1,0
105649,-100,4,2,1,70,0,0
116149,-100,4,2,1,5,0,0
116253,298.507462686567,4,2,1,85,1,0
120133,-100,4,2,1,10,0,0
120208,-100,4,2,1,17,0,0
120282,-100,4,2,1,34,0,0
120357,-100,4,2,1,41,0,0
120432,-100,4,2,1,48,0,0
120506,-100,4,2,1,55,0,0
120581,-100,4,2,1,62,0,0
120655,-100,4,2,1,69,0,0
120730,-100,4,2,1,76,0,0
120805,-100,4,2,1,83,0,0
120879,-100,4,2,1,85,0,0
126029,-100,4,2,1,5,0,0
126103,-100,4,2,1,85,0,0
128327,394.736842105263,4,2,1,100,1,0

[Colours]
Combo1 : 0,124,249
Combo2 : 102,255,255
Combo3 : 0,0,170
Combo4 : 255,255,215

[HitObjects]
80,80,1017,5,0,0:0:0:0:
256,80,1345,1,8,0:0:0:0:
432,80,1673,1,0,0:0:0:0:
256,192,1783,12,0,3206,0:0:0:0:
160,128,3535,5,2,0:0:0:0:
320,128,3589,1,2,0:0:0:0:
368,128,3644,2,0,B|432:171|528:352|240:352,1,337.5
80,352,4301,5,2,0:0:0:0:
256,192,4958,1,2,0:0:0:0:
256,192,5068,12,0,6053,0:0:0:0:
96,64,6272,5,4,0:0:0:0:
400,96,6491,6,0,L|448:192,1,67.5,2|8,0:0|0:0,0:0:0:0:
320,192,6710,2,0,L|272:272,1,67.5,2|8,0:0|0:0,0:0:0:0:
400,48,6929,2,0,L|528:48,1,67.5,2|8,0:0|0:0,0:0:0:0:
96,208,7148,2,0,L|128:112,1,67.5,2|8,0:0|0:0,0:0:0:0:
224,80,7367,2,0,L|352:80,1,67.5,2|8,0:0|0:0,0:0:0:0:
96,80,7586,2,0,L|-32:80,1,67.5,2|0,0:0|0:0,0:0:0:0:
416,80,7805,2,0,L|544:80,1,67.5,2|0,0:0|0:0,0:0:0:0:
256,80,8024,5,2,0:0:0:0:
224,112,8097,1,2,0:0:0:0:
208,160,8170,1,2,0:0:0:0:
224,208,8243,1,2,0:0:0:0:
272,224,8316,1,2,0:0:0:0:
336,224,8389,1,2,0:0:0:0:
480,224,8462,1,14,0:0:0:0:
448,144,8571,6,0,L|336:144,1,67.5,0|2,0:0|0:0,0:0:0:0:
256,144,8790,2,0,L|368:144,1,67.5,0|2,0:0|0:0,0:0:0:0:
448,144,9009,2,0,L|336:144,1,67.5,0|2,0:0|0:0,0:0:0:0:
64,144,9228,2,0,L|176:144,1,67.5,0|2,0:0|0:0,0:0:0:0:
256,80,9447,2,0,L|288:160,1,67.5,0|2,0:0|0:0,0:0:0:0:
64,144,9666,6,0,L|192:144,1,67.5,0|2,0:0|0:0,0:0:0:0:
416,80,9830,1,2,0:0:0:0:
432,80,9885,1,2,0:0:0:0:
432,80,9940,1,2,0:0:0:0:
416,80,9995,1,2,0:0:0:0:
80,80,10104,5,4,0:0:0:0:
160,80,10214,5,2,0:0:0:0:
304,160,10268,1,2,0:0:0:0:
352,160,10323,1,2,0:0:0:0:
384,160,10378,1,2,0:0:0:0:
400,160,10433,2,0,L|400:272,1,67.5,2|4,0:0|0:0,0:0:0:0:
176,128,10652,5,2,0:0:0:0:
112,128,10706,1,2,0:0:0:0:
80,128,10761,1,2,0:0:0:0:
64,128,10816,1,2,0:0:0:0:
160,128,10871,1,2,0:0:0:0:
208,128,10925,1,2,0:0:0:0:
240,128,10980,1,2,0:0:0:0:
256,128,11035,5,2,0:0:0:0:
176,128,11089,1,2,0:0:0:0:
112,128,11144,1,2,0:0:0:0:
80,128,11199,1,2,0:0:0:0:
64,128,11254,1,2,0:0:0:0:
336,128,11308,1,2,0:0:0:0:
400,128,11363,1,2,0:0:0:0:
432,128,11418,5,2,0:0:0:0:
448,128,11473,1,2,0:0:0:0:
432,128,11527,5,8,0:0:0:0:
128,64,11600,1,8,0:2:0:0:
96,64,11673,1,8,0:0:0:0:
288,64,11746,1,4,0:0:0:0:
368,64,11965,5,8,0:0:0:0:
144,64,12075,1,4,0:0:0:0:
80,64,12294,1,8,0:0:0:0:
400,272,12403,2,0,B|480:208|496:128|464:64|96:80,1,526.499975898744,0|2,0:0|0:0,0:0:0:0:
16,80,13170,1,6,0:0:0:0:
464,288,13279,2,0,B|496:224|464:128|352:128,1,202.5,0|2,0:0|0:0,0:0:0:0:
320,128,13705,1,0,0:0:0:0:
224,112,13793,1,0,0:0:0:0:
48,112,13881,1,8,0:0:0:0:
32,176,13969,6,8,L|144:224,1,67.5
208,240,14146,2,8,L|336:240,1,67.5
368,240,14322,2,8,L|496:240,1,67.5
336,160,14499,2,8,L|208:160,1,67.5
128,112,14675,6,8,L|256:112,1,67.5
304,112,14852,2,8,L|176:112,1,67.5
128,112,15028,2,8,L|256:112,1,67.5
364,112,15205,2,8,L|492:112,1,67.5,12|8,0:0|0:0,0:0:0:0:
496,144,15381,6,0,L|448:208,1,67.5
304,272,15558,6,0,L|208:272,1,67.5,8|0,0:0|0:0,0:0:0:0:
64,272,15734,2,0,L|128:208,1,67.5
288,80,15911,2,0,L|384:80,1,67.5,8|0,0:0|0:0,0:0:0:0:
256,80,16087,6,0,L|160:80,1,67.5,8|0,0:0|0:0,0:0:0:0:
80,112,16263,2,0,L|144:32,1,67.5
208,32,16440,2,0,L|304:32,1,67.5,8|0,0:0|0:0,0:0:0:0:
432,80,16616,6,0,L|496:128,1,67.5,12|0,0:0|0:0,0:0:0:0:
480,192,16792,2,0,L|384:192,1,67.5
176,64,16969,2,0,L|115:144,1,67.5,8|0,0:0|0:0,0:0:0:0:
176,64,17146,6,0,L|272:64,1,67.5,8|0,0:0|0:0,0:0:0:0:
320,80,17322,2,0,L|416:80,1,67.5
256,128,17499,2,0,L|160:128,1,67.5,8|0,0:0|0:0,0:0:0:0:
368,80,17675,6,0,L|464:80,1,67.5,8|0,0:0|0:0,0:0:0:0:
336,80,17851,2,0,L|240:128,1,67.5
224,176,18028,2,0,L|320:176,1,67.5,12|0,0:0|0:0,0:0:0:0:
384,176,18204,6,0,L|480:176,1,67.5,8|0,0:0|0:0,0:0:0:0:
48,192,18380,2,0,L|80:128,1,67.5
224,64,18557,2,0,L|320:64,1,67.5,8|0,0:0|0:0,0:0:0:0:
464,192,18733,6,0,L|416:96,1,67.5,8|0,0:0|0:0,0:0:0:0:
256,80,18911,2,0,L|160:112,1,67.5
192,224,19086,2,0,L|288:224,1,67.5,8|0,0:0|0:0,0:0:0:0:
336,224,19263,6,0,L|368:288,1,67.5,8|0,0:0|0:0,0:0:0:0:
96,160,19439,2,0,L|144:96,1,67.5,4|0,0:0|0:0,0:0:0:0:
336,80,19616,2,0,L|432:80,1,67.5,8|0,0:0|0:0,0:0:0:0:
288,80,19793,6,0,L|192:80,1,67.5,8|0,0:0|0:0,0:0:0:0:
336,80,19969,2,0,L|432:80,1,67.5
128,80,20146,2,0,L|32:80,1,67.5,8|0,0:0|0:0,0:0:0:0:
352,80,20322,6,0,L|416:176,1,67.5,8|0,0:0|0:0,0:0:0:0:
384,208,20498,2,0,L|320:272,1,67.5
224,272,20675,2,0,L|128:272,1,67.5,8|0,0:0|0:0,0:0:0:0:
124,224,20851,6,0,L|224:208,1,67.5,12|0,0:0|0:0,0:0:0:0:
272,160,21027,2,0,L|368:160,1,67.5
240,160,21204,2,0,L|160:112,1,67.5,8|0,0:0|0:0,0:0:0:0:
352,64,21381,6,0,L|448:64,1,67.5,8|0,0:0|0:0,0:0:0:0:
192,64,21557,2,0,L|96:64,1,67.5
80,128,21734,2,0,L|144:208,1,67.5,8|0,0:0|0:0,0:0:0:0:
224,224,21911,6,0,L|320:224,1,67.5,8|0,0:0|0:0,0:0:0:0:
448,208,22087,2,0,L|464:112,1,67.5
144,112,22264,2,0,L|48:144,1,67.5,12|0,0:0|0:0,0:0:0:0:
48,208,22440,6,0,L|144:208,1,67.5,8|0,0:0|0:0,0:0:0:0:
240,144,22616,2,0,L|336:144,1,67.5
208,144,22793,2,0,L|112:144,1,67.5,8|0,0:0|0:0,0:0:0:0:
384,64,22969,6,0,L|480:64,1,67.5,8|0,0:0|0:0,0:0:0:0:
176,48,23145,2,0,L|80:48,1,67.5
48,96,23322,2,0,L|80:192,1,67.5,8|0,0:0|0:0,0:0:0:0:
128,208,23499,6,0,L|224:208,1,67.5,8|0,0:0|0:0,0:0:0:0:
432,256,23675,2,0,L|448:64,1,135,4|8,0:0|0:0,0:0:0:0:
160,80,23940,1,0,0:0:0:0:
96,80,24028,1,12,0:0:0:0:
368,64,24204,6,0,L|384:160,1,67.5,8|0,0:0|0:0,0:0:0:0:
384,192,24380,1,12,0:0:0:0:
144,64,24557,6,0,L|128:144,1,67.5,8|0,0:0|0:0,0:0:0:0:
128,192,24733,1,12,0:0:0:0:
451,64,24910,6,0,L|467:144,1,67.5,8|0,0:0|0:0,0:0:0:0:
467,192,25086,1,12,0:0:0:0:
61,64,25263,6,0,L|48:144,1,67.5,8|0,0:0|0:0,0:0:0:0:
45,192,25439,1,12,0:0:0:0:
368,64,25616,6,0,L|464:64,1,67.5,8|0,0:0|0:0,0:0:0:0:
368,64,25792,1,12,0:0:0:0:
64,96,25969,2,0,L|80:192,1,67.5,8|0,0:0|0:0,0:0:0:0:
224,96,26145,6,0,L|320:96,1,67.5,8|0,0:0|0:0,0:0:0:0:
448,96,26321,2,0,L|432:192,1,67.5
80,256,26498,2,0,L|96:160,1,67.5,12|0,0:0|0:0,0:0:0:0:
256,80,26675,6,0,L|352:80,1,67.5,8|0,0:0|0:0,0:0:0:0:
256,80,26852,2,0,L|352:80,1,67.5
448,80,27027,2,0,L|480:176,1,67.5,8|0,0:0|0:0,0:0:0:0:
64,80,27205,6,0,L|32:160,1,67.5,8|0,0:0|0:0,0:0:0:0:
128,80,27381,2,0,L|224:80,1,67.5
288,80,27558,2,0,L|176:80,1,67.5,8|0,0:0|0:0,0:0:0:0:
64,80,27733,6,0,L|160:80,1,67.5,8|0,0:0|0:0,0:0:0:0:
432,256,27911,2,0,L|416:144,1,67.5,4|0,0:0|0:0,0:0:0:0:
256,80,28086,2,0,L|160:80,1,67.5,8|0,0:0|0:0,0:0:0:0:
256,80,28263,6,0,L|176:80,1,67.5,8|0,0:0|0:0,0:0:0:0:
64,80,28439,2,0,L|80:176,1,67.5
256,160,28616,2,0,L|304:256,1,67.5,8|0,0:0|0:0,0:0:0:0:
384,112,28792,6,0,L|480:112,1,67.5,8|0,0:0|0:0,0:0:0:0:
128,272,28969,2,0,B|32:256|64:80,1,202.5,8|0,0:0|0:0,0:0:0:0:
272,192,29322,2,0,L|464:192,1,135,4|0,0:0|0:0,0:0:0:0:
240,192,29587,2,0,L|48:192,1,135,4|0,0:0|0:0,0:0:0:0:
320,192,29852,2,0,L|512:192,1,135,4|0,0:0|0:0,0:0:0:0:
192,192,30116,2,0,L|0:192,1,135,4|0,0:0|0:0,0:0:0:0:
368,192,30381,2,0,L|560:192,1,135,4|0,0:0|0:0,0:0:0:0:
464,192,30646,5,4,0:0:0:0:
208,80,30734,2,0,L|112:80,1,67.5,12|0,0:0|0:0,0:0:0:0:
112,80,30910,6,0,L|80:160,1,67.5,12|0,0:0|0:0,0:0:0:0:
192,192,31086,2,0,L|288:192,1,67.5,4|0,0:0|0:0,0:0:0:0:
368,192,31263,2,2,L|432:128,1,67.5,10|2,0:0|0:0,0:0:0:0:
256,80,31439,6,2,L|160:80,1,67.5,10|2,0:0|0:0,0:0:0:0:
288,80,31616,2,0,L|400:80,1,67.5
140,80,31792,2,0,L|44:80,1,67.5,8|0,0:0|0:0,0:0:0:0:
5,80,31969,6,0,L|101:80,1,67.5,8|0,0:0|0:0,0:0:0:0:
352,64,32145,2,0,L|448:64,1,67.5,4|0,0:0|0:0,0:0:0:0:
80,144,32322,2,0,L|128:224,1,67.5,8|0,0:0|0:0,0:0:0:0:
304,96,32499,6,0,L|288:176,1,67.5,8|0,0:0|0:0,0:0:0:0:
224,80,32675,2,0,L|128:80,1,67.5
32,80,32852,2,0,L|128:80,1,67.5,8|0,0:0|0:0,0:0:0:0:
224,80,33028,6,0,L|320:80,1,67.5,8|0,0:0|0:0,0:0:0:0:
112,128,33204,2,0,L|96:208,1,67.5
384,96,33381,2,0,L|480:96,1,67.5,8|0,0:0|0:0,0:0:0:0:
224,96,33558,6,0,L|160:128,1,67.5,12|0,0:0|0:0,0:0:0:0:
112,160,33734,2,0,L|128:256,1,67.5
208,256,33911,2,0,L|304:256,1,67.5,8|0,0:0|0:0,0:0:0:0:
64,112,34087,6,0,L|96:16,1,67.5,8|0,0:0|0:0,0:0:0:0:
272,112,34263,2,0,L|368:176,1,67.5
256,192,34440,2,0,L|144:208,1,67.5,8|0,0:0|0:0,0:0:0:0:
400,80,34616,6,0,L|496:80,1,67.5,8|0,0:0|0:0,0:0:0:0:
112,112,34792,2,0,L|16:112,1,67.5
448,64,34969,6,0,L|480:256,1,135,4|0,0:0|0:0,0:0:0:0:
128,80,35234,1,2,3:0:0:0:
64,80,35322,2,0,L|64:160,1,67.5
64,147,35499,1,2,3:0:0:0:
384,80,35587,1,0,0:0:0:0:
448,80,35675,6,0,L|352:240,1,135,4|0,0:0|0:0,0:0:0:0:
64,240,35940,2,0,L|48:128,1,67.5,2|0,0:0|0:0,0:0:0:0:
48,128,36116,1,0,0:0:0:0:
240,48,36204,1,2,3:0:0:0:
288,48,36292,1,0,0:0:0:0:
448,64,36380,6,0,L|288:160,1,135,4|0,0:0|0:0,0:0:0:0:
32,224,36646,2,0,L|208:224,1,135,2|0,3:0|3:0,3:0:0:0:
480,224,36910,2,0,L|304:224,1,135,4|2,0:0|3:0,0:0:0:0:
160,224,37175,1,0,0:0:0:0:
64,224,37264,6,0,B|48:144|128:64|368:80,1,337.5,4|0,0:0|0:0,0:0:0:0:
368,80,37761,1,0,0:0:0:0:
160,80,37844,5,4,0:0:0:0:
112,80,37926,6,0,L|96:160,1,67.5
160,192,38092,2,0,L|256:192,1,67.5
384,192,38258,2,0,L|464:192,1,67.5
480,64,38423,2,0,L|432:144,1,67.5,0|4,0:0|0:0,0:0:0:0:
288,48,38590,6,0,L|176:48,1,67.5
80,240,38755,2,0,L|144:160,1,67.5
304,144,38921,2,0,L|336:80,1,67.5,8|0,0:0|0:0,0:0:0:0:
64,64,39087,2,0,L|96:128,1,67.5,8|4,0:0|0:0,0:0:0:0:
256,144,39253,6,0,L|384:144,1,67.5,4|0,0:0|0:0,0:0:0:0:
416,144,39418,2,0,L|448:224,1,67.5,8|0,3:0|0:0,0:0:0:0:
96,176,39584,2,0,P|144:96|288:96,1,202.5,8|8,0:0|3:0,0:0:0:0:
448,160,39915,6,0,L|304:64,1,135,12|0,0:0|0:0,0:0:0:0:
256,32,40164,6,0,L|368:106,1,135,12|0,0:0|0:0,0:0:0:0:
128,64,40412,2,0,P|48:128|32:256,1,202.5,8|8,0:0|3:0,0:0:0:0:
368,176,40744,2,0,L|413:240,1,67.5,8|8,3:0|3:0,0:0:0:0:
256,224,40910,2,8,L|224:144,1,67.5,8|8,3:0|3:0,3:0:0:0:
160,112,41076,2,8,L|80:208,1,67.5,8|8,3:0|3:0,3:0:0:0:
240,176,41242,6,8,L|320:96,1,67.5,8|8,3:0|3:0,3:0:0:0:
192,96,41407,2,8,L|96:96,1,67.5,8|8,3:0|3:0,3:0:0:0:
352,80,41573,2,0,L|448:80,1,67.5,8|0,0:0|0:0,0:0:0:0:
176,96,41738,2,0,L|112:176,1,67.5,8|0,0:0|0:0,0:0:0:0:
112,240,41904,6,0,L|224:304,1,67.5
272,256,42070,2,0,L|320:160,1,67.5,8|0,3:0|0:0,0:0:0:0:
272,144,42236,2,0,L|160:96,1,67.5,0|8,0:0|3:0,0:0:0:0:
336,48,42401,6,0,L|496:48,1,135,8|8,0:0|3:0,0:0:0:0:
176,48,42650,2,8,L|16:48,1,135
336,48,42898,2,0,L|416:48,1,67.5,8|8,0:0|3:0,0:0:0:0:
176,48,43064,2,4,L|64:48,1,67.5
80,96,43230,5,0,0:0:0:0:
160,128,43313,2,0,L|288:128,1,67.5
288,144,43479,2,0,L|304:224,1,67.5
176,304,43644,2,0,L|80:336,1,67.5,0|4,0:0|0:0,0:0:0:0:
224,208,43810,6,0,L|304:128,1,67.5,4|0,0:0|0:0,0:0:0:0:
160,96,43976,2,0,L|64:96,1,67.5
80,160,44142,1,8,0:0:0:0:
384,96,44225,6,0,L|464:32,1,67.5,0|8,0:0|0:0,0:0:0:0:
256,96,44390,6,4,L|144:96,1,67.5
96,208,44556,2,0,L|48:96,1,67.5,0|4,0:0|0:0,0:0:0:0:
92,96,44722,2,0,L|156:16,1,67.5
320,192,44888,2,0,P|432:110|416:48,1,202.5,8|0,3:0|3:0,3:0:0:0:
112,48,45219,6,8,L|80:208,1,135
400,48,45468,2,0,L|432:192,1,135,8|0,0:0|0:0,0:0:0:0:
256,112,45716,2,0,L|128:112,1,67.5,8|4,0:0|0:0,0:0:0:0:
112,112,45882,1,0,0:0:0:0:
224,112,45965,2,0,L|336:112,1,67.5,8|8,3:0|3:0,0:0:0:0:
384,128,46131,2,8,L|464:192,1,67.5,8|8,3:0|3:0,3:0:0:0:
304,128,46296,2,8,L|224:192,1,67.5,8|8,3:0|3:0,3:0:0:0:
94,99,46462,6,8,L|62:211,1,67.5,8|8,3:0|3:0,3:0:0:0:
128,256,46628,2,8,L|240:256,1,67.5,8|8,3:0|3:0,3:0:0:0:
128,256,46794,1,8,0:0:0:0:
464,80,46877,6,0,L|416:224,1,135,12|8,0:0|3:0,0:0:0:0:
256,80,47125,6,0,L|144:192,1,135,12|0,0:0|0:0,0:0:0:0:
256,80,47374,6,0,L|432:80,1,135,12|0,3:0|3:0,3:0:0:0:
112,80,47622,6,0,L|272:80,1,135,12|8,0:0|3:0,0:0:0:0:
400,80,47871,6,8,L|224:80,1,135,12|8,0:0|0:0,0:0:0:0:
48,64,48120,6,8,P|16:144|64:224,1,135,12|8,0:0|0:0,0:0:0:0:
256,80,48369,6,0,L|384:80,1,67.5,4|0,0:0|0:0,0:0:0:0:
416,80,48534,2,0,L|496:144,1,67.5
384,176,48700,2,0,L|304:176,1,67.5
192,160,48865,2,0,L|144:240,1,67.5,0|4,0:0|0:0,0:0:0:0:
240,256,49031,6,0,L|368:256,1,67.5,4|0,0:0|0:0,0:0:0:0:
400,224,49197,2,0,L|432:320,1,67.5
256,256,49363,2,0,L|176:304,1,67.5,8|0,0:0|0:0,0:0:0:0:
112,240,49528,2,0,L|192:240,1,67.5,8|4,0:0|0:0,0:0:0:0:
288,176,49694,6,0,L|416:176,1,67.5,4|0,0:0|0:0,0:0:0:0:
464,112,49860,2,0,L|384:112,1,67.5,8|0,3:0|0:0,0:0:0:0:
288,112,50026,2,0,L|192:112,1,67.5,8|8,0:0|3:0,0:0:0:0:
304,128,50191,2,0,L|384:128,1,67.5,0|12,0:0|3:0,0:0:0:0:
256,208,50357,6,0,L|160:272,1,67.5,12|0,0:0|0:0,0:0:0:0:
352,192,50523,2,0,L|416:128,1,67.5,8|8,3:0|0:0,0:0:0:0:
288,80,50689,2,0,L|208:80,1,67.5
128,128,50854,2,0,L|144:208,1,67.5,8|2,0:0|0:0,0:0:0:0:
240,240,51020,6,0,L|368:240,1,67.5,4|0,0:0|0:0,0:0:0:0:
432,176,51186,2,0,L|448:96,1,67.5,8|8,3:0|3:0,0:0:0:0:
320,96,51352,2,8,L|240:96,1,67.5,8|8,3:0|3:0,3:0:0:0:
160,96,51517,2,8,L|144:192,1,67.5,8|8,3:0|3:0,3:0:0:0:
224,176,51683,6,8,L|352:176,1,67.5,8|8,3:0|3:0,3:0:0:0:
192,240,51849,2,8,L|96:288,1,67.5,8|8,3:0|3:0,3:0:0:0:
176,144,52015,2,0,L|272:144,1,67.5,8|0,0:0|0:0,0:0:0:0:
176,112,52180,2,0,L|224:32,1,67.5,8|0,0:0|0:0,0:0:0:0:
288,48,52346,6,0,L|416:48,1,67.5
256,64,52512,2,0,L|176:64,1,67.5,8|0,3:0|0:0,0:0:0:0:
96,112,52678,2,0,L|176:112,1,67.5,0|8,0:0|3:0,0:0:0:0:
272,112,52843,2,0,L|352:112,1,67.5,8|8,0:0|3:0,0:0:0:0:
240,112,53009,6,0,L|112:112,1,67.5,0|8,0:0|0:0,0:0:0:0:
64,96,53175,2,0,L|96:176,1,67.5,8|0,3:0|0:0,0:0:0:0:
480,96,53341,2,0,L|416:192,1,67.5,8|8,0:0|3:0,0:0:0:0:
384,208,53506,5,0,0:0:0:0:
80,192,53589,6,0,L|-48:192,1,67.5,4|0,0:0|0:0,0:0:0:0:
208,176,53755,2,0,L|304:176,1,67.5
352,144,53921,2,0,L|400:96,1,67.5
272,64,54086,2,0,L|192:64,1,67.5
304,112,54252,6,0,L|352:224,1,67.5,4|0,0:0|0:0,0:0:0:0:
416,208,54418,2,0,L|496:208,1,67.5
352,208,54584,2,0,L|272:208,1,67.5,8|0,0:0|0:0,0:0:0:0:
208,208,54749,2,0,L|176:128,1,67.5,8|0,0:0|0:0,0:0:0:0:
288,96,54915,6,0,L|416:96,1,67.5,4|0,0:0|0:0,0:0:0:0:
448,96,55081,2,0,L|464:176,1,67.5,8|0,3:0|0:0,0:0:0:0:
48,144,55247,2,0,L|96:64,1,67.5,8|8,0:0|3:0,0:0:0:0:
368,208,55412,2,0,L|448:208,1,67.5,0|8,0:0|3:0,0:0:0:0:
464,144,55578,6,8,L|432:80,1,67.5,8|12,0:0|0:0,0:0:0:0:
208,160,55744,2,8,L|192:240,1,67.5,8|8,3:0|0:0,0:0:0:0:
384,160,55910,2,8,L|464:112,1,67.5,8|8,0:0|3:0,0:0:0:0:
288,160,56076,2,8,L|208:160,1,67.5,8|8,0:0|3:0,0:0:0:0:
128,144,56241,6,8,L|160:80,1,67.5,8|8,0:0|3:0,0:0:0:0:
272,48,56407,2,8,L|352:48,1,67.5,12|8,0:0|0:0,0:0:0:0:
240,48,56573,2,8,L|160:48,1,67.5,8|8,0:0|3:0,0:0:0:0:
336,48,56739,2,8,L|416:48,1,67.5
176,48,56904,6,8,L|96:48,1,67.5
403,48,57070,2,8,L|483:48,1,67.5,8|8,0:0|3:0,0:0:0:0:
144,272,57236,2,8,L|160:160,1,67.5
224,112,57402,2,8,L|304:112,1,67.5,12|8,0:0|0:0,0:0:0:0:
384,112,57567,6,8,L|464:160,1,67.5,8|8,0:0|3:0,0:0:0:0:
288,240,57733,2,8,L|176:272,1,67.5
64,176,57899,2,8,L|112:96,1,67.5,8|8,0:0|3:0,0:0:0:0:
448,176,58064,2,8,L|368:176,1,67.5
112,176,58230,6,8,L|192:176,1,67.5
416,176,58396,2,8,L|496:176,1,67.5,8|8,3:0|3:0,0:0:0:0:
256,176,58562,1,0,3:0:0:0:
179,176,58644,6,0,L|-32:64,1,202.5
256,192,59005,2,0,L|512:48,1,270,4|2,0:0|3:0,0:0:0:0:
256,64,59384,5,2,0:0:0:0:
160,64,59511,1,0,3:0:0:0:
96,64,59637,1,2,0:0:0:0:
64,64,59764,1,8,3:0:0:0:
256,64,59891,1,2,0:0:0:0:
352,64,60017,1,2,3:0:0:0:
416,64,60144,1,2,0:0:0:0:
448,64,60270,5,2,0:0:0:0:
160,64,60397,1,8,0:0:0:0:
256,176,60523,1,2,0:0:0:0:
304,176,60587,5,2,0:0:0:0:
336,176,60650,1,2,0:0:0:0:
352,176,60713,1,0,0:0:0:0:
80,64,60777,1,6,0:0:0:0:
400,64,61789,5,2,0:0:0:0:
112,64,62232,6,8,L|80:192,1,67.5
288,208,62359,2,8,L|336:160,1,67.5
368,160,62486,2,8,L|352:32,1,67.5
320,48,62612,2,8,L|208:48,1,67.5
112,192,62802,5,0,0:0:0:0:
128,128,62886,1,8,0:0:0:0:
240,96,62971,1,0,0:0:0:0:
288,64,63056,1,0,0:0:0:0:
400,192,63140,1,8,0:0:0:0:
384,128,63225,1,0,0:0:0:0:
128,128,63310,1,4,0:0:0:0:
80,96,63395,5,0,0:0:0:0:
176,128,63479,1,8,0:0:0:0:
224,96,63564,1,0,0:0:0:0:
432,160,63649,1,0,0:0:0:0:
400,96,63734,1,8,0:0:0:0:
320,64,63818,1,0,0:0:0:0:
256,64,63903,1,4,0:0:0:0:
176,96,63988,1,0,0:0:0:0:
144,160,64073,5,0,0:0:0:0:
432,160,64157,1,0,0:0:0:0:
400,96,64242,1,0,0:0:0:0:
320,64,64327,1,4,0:0:0:0:
256,64,64412,1,0,0:0:0:0:
48,304,64496,1,0,0:0:0:0:
64,240,64581,1,0,0:0:0:0:
112,192,64666,5,0,0:0:0:0:
176,160,64751,1,8,0:0:0:0:
256,160,64835,1,0,0:0:0:0:
176,160,64920,1,0,0:0:0:0:
112,112,65005,1,8,0:0:0:0:
80,64,65090,1,0,0:0:0:0:
368,96,65174,1,8,0:0:0:0:
416,96,65259,5,0,0:0:0:0:
256,96,65344,1,12,0:0:0:0:
208,96,65429,1,0,0:0:0:0:
416,96,65513,1,0,0:0:0:0:
448,144,65598,1,8,0:0:0:0:
448,192,65683,1,0,0:0:0:0:
400,240,65768,1,8,0:0:0:0:
320,256,65852,5,4,0:0:0:0:
192,256,65937,1,0,0:0:0:0:
112,240,66022,1,0,0:0:0:0:
64,192,66107,1,0,0:0:0:0:
64,128,66191,1,0,0:0:0:0:
176,64,66276,1,0,0:0:0:0:
208,32,66361,1,4,0:0:0:0:
368,64,66446,5,0,0:0:0:0:
416,96,66530,1,0,0:0:0:0:
256,96,66615,1,0,0:0:0:0:
208,96,66700,1,0,0:0:0:0:
96,96,66785,1,0,0:0:0:0:
80,144,66869,1,4,0:0:0:0:
416,96,66954,1,2,0:0:0:0:
448,128,67039,1,0,0:0:0:0:
144,96,67251,5,2,3:0:0:0:
128,96,67314,1,2,3:0:0:0:
144,96,67378,1,4,0:0:0:0:
368,160,67505,5,0,0:0:0:0:
256,160,67632,1,2,0:0:0:0:
144,160,67759,1,0,0:0:0:0:
368,160,67886,1,2,0:0:0:0:
400,160,68013,1,0,0:0:0:0:
144,160,68140,1,0,0:0:0:0:
112,160,68268,1,2,0:0:0:0:
400,160,68395,5,4,0:0:0:0:
192,160,68649,1,2,0:0:0:0:
32,160,68903,5,2,0:0:0:0:
384,64,68988,1,2,0:0:0:0:
416,112,69073,1,2,0:0:0:0:
416,176,69157,5,2,0:0:0:0:
368,224,69242,1,2,0:0:0:0:
304,240,69327,1,2,0:0:0:0:
208,240,69412,1,2,0:0:0:0:
368,224,69496,1,2,0:0:0:0:
416,176,69581,1,2,0:0:0:0:
416,112,69666,1,2,0:0:0:0:
352,112,69751,5,2,0:0:0:0:
240,112,69835,1,2,0:0:0:0:
304,112,69920,1,6,0:0:0:0:
416,112,70005,1,2,0:0:0:0:
352,112,70090,1,2,0:0:0:0:
80,80,70174,1,2,0:0:0:0:
48,128,70259,1,2,0:0:0:0:
192,160,70344,5,2,0:0:0:0:
208,208,70429,1,6,0:0:0:0:
192,160,70513,1,2,0:0:0:0:
160,112,70598,1,2,0:0:0:0:
112,80,70683,1,2,0:0:0:0:
272,64,70768,1,2,0:0:0:0:
320,64,70852,5,2,0:0:0:0:
112,64,70937,1,4,0:0:0:0:
240,64,71191,5,0,0:0:0:0:
160,64,71318,1,2,3:0:0:0:
384,64,71573,5,8,0:0:0:0:
304,64,71700,1,12,0:0:0:0:
464,64,71954,1,14,0:0:0:0:
48,64,72208,5,0,0:0:0:0:
384,64,72463,1,4,0:0:0:0:
240,64,72717,1,4,0:0:0:0:
464,64,72971,5,4,0:0:0:0:
48,176,73056,1,0,0:0:0:0:
64,128,73140,1,0,0:0:0:0:
112,80,73225,1,2,3:0:0:0:
176,48,73310,1,0,0:0:0:0:
256,48,73395,1,0,0:0:0:0:
336,48,73479,1,12,0:0:0:0:
400,80,73564,5,0,0:0:0:0:
448,128,73648,1,0,0:0:0:0:
464,176,73733,1,2,3:0:0:0:
256,128,73817,1,0,0:0:0:0:
192,128,73903,5,0,0:0:0:0:
464,176,73988,1,4,0:0:0:0:
448,128,74073,5,0,0:0:0:0:
400,80,74157,1,0,0:0:0:0:
336,48,74242,1,4,0:0:0:0:
256,48,74323,1,0,0:0:0:0:
176,48,74412,1,0,0:0:0:0:
112,80,74496,1,12,0:0:0:0:
64,128,74576,1,0,0:0:0:0:
48,176,74666,5,0,0:0:0:0:
336,128,74751,1,6,3:0:0:0:
176,128,75005,1,4,0:0:0:0:
112,192,75259,5,0,0:0:0:0:
400,192,75386,1,2,3:0:0:0:
464,256,75640,5,8,0:0:0:0:
48,256,75768,1,12,0:0:0:0:
256,112,76022,1,14,0:0:0:0:
128,112,76276,5,0,0:0:0:0:
384,112,76530,1,4,0:0:0:0:
128,112,76785,1,4,0:0:0:0:
448,112,77039,1,4,0:0:0:0:
256,112,77166,5,2,0:0:0:0:
224,160,77293,1,8,0:0:0:0:
448,112,77420,1,6,0:0:0:0:
176,112,77547,1,2,0:0:0:0:
144,160,77674,1,8,0:0:0:0:
448,112,77802,1,6,0:0:0:0:
96,112,77929,1,2,0:0:0:0:
64,160,78056,5,8,0:0:0:0:
352,112,78183,1,6,0:0:0:0:
448,112,78310,1,2,0:0:0:0:
480,160,78437,1,0,0:0:0:0:
144,160,78564,1,6,0:0:0:0:
368,160,78818,5,4,0:0:0:0:
144,160,79073,5,8,0:0:0:0:
368,160,79200,1,2,0:0:0:0:
144,160,79327,5,0,0:0:0:0:
256,160,79454,1,2,0:0:0:0:
368,160,79581,1,0,0:0:0:0:
144,160,79708,1,2,0:0:0:0:
80,160,79835,1,0,0:0:0:0:
368,160,79963,1,2,0:0:0:0:
432,160,80090,5,2,0:0:0:0:
144,80,80174,1,2,0:0:0:0:
96,112,80259,1,2,0:0:0:0:
80,160,80344,1,2,0:0:0:0:
96,112,80429,1,2,0:0:0:0:
144,80,80513,1,2,0:0:0:0:
208,48,80598,1,2,0:0:0:0:
288,48,80683,5,2,0:0:0:0:
448,48,80768,1,2,0:0:0:0:
368,48,80852,1,2,0:0:0:0:
224,256,80937,2,0,L|32:112,1,202.5
320,96,81202,5,2,3:0:0:0:
384,128,81277,1,2,3:0:0:0:
432,176,81352,1,2,3:0:0:0:
416,240,81427,1,2,3:0:0:0:
352,272,81502,1,2,3:0:0:0:
272,288,81577,1,2,3:0:0:0:
128,288,81652,1,2,3:0:0:0:
64,288,81727,1,2,3:0:0:0:
368,272,81802,1,2,3:0:0:0:
432,240,81877,5,8,3:0:0:0:
464,176,81952,1,0,0:0:0:0:
432,128,82027,5,0,0:0:0:0:
352,80,82102,1,2,0:0:0:0:
256,80,82177,1,0,0:0:0:0:
192,80,82252,1,2,0:0:0:0:
160,80,82327,1,0,0:0:0:0:
128,80,82402,1,2,0:0:0:0:
352,80,82477,1,0,0:0:0:0:
400,80,82552,5,2,0:0:0:0:
256,80,82627,1,0,0:0:0:0:
208,80,82702,1,2,0:0:0:0:
448,256,82777,6,0,P|432:128|320:96,1,202.5,4|0,0:0|0:0,0:0:0:0:
160,80,83077,5,12,0:0:0:0:
64,80,83227,1,0,0:0:0:0:
352,80,83377,1,2,0:0:0:0:
448,80,83527,1,4,0:0:0:0:
144,80,83677,5,0,0:0:0:0:
96,128,83752,1,2,0:0:0:0:
96,192,83827,1,4,0:0:0:0:
144,240,83902,1,2,0:0:0:0:
368,80,83977,1,0,0:0:0:0:
416,128,84052,1,2,0:0:0:0:
416,192,84127,1,4,0:0:0:0:
368,240,84202,1,2,0:0:0:0:
144,240,84277,5,8,0:0:0:0:
368,240,84427,1,8,0:0:0:0:
160,240,84577,1,8,0:0:0:0:
80,240,84727,1,8,0:0:0:0:
400,192,84877,1,8,0:0:0:0:
304,192,85027,1,8,0:0:0:0:
80,192,85177,1,8,0:0:0:0:
224,192,85327,5,8,0:0:0:0:
80,192,85477,1,14,0:0:0:0:
432,192,85627,1,8,0:0:0:0:
400,96,85777,1,14,0:0:0:0:
80,192,85927,1,8,0:0:0:0:
112,96,86077,5,2,0:0:0:0:
320,64,86152,1,0,0:0:0:0:
352,64,86227,1,6,0:0:0:0:
208,64,86302,1,0,0:0:0:0:
176,64,86377,1,2,0:0:0:0:
352,64,86452,1,0,0:0:0:0:
400,112,86527,1,6,0:0:0:0:
400,176,86602,5,0,0:0:0:0:
352,64,86677,1,2,0:0:0:0:
48,192,86827,1,0,0:0:0:0:
256,192,86977,1,2,0:0:0:0:
112,192,87127,1,0,0:0:0:0:
320,192,87277,1,2,0:0:0:0:
176,192,87427,1,0,0:0:0:0:
384,192,87577,5,2,0:0:0:0:
240,192,87727,1,0,0:0:0:0:
448,192,87877,1,2,0:0:0:0:
112,192,88027,6,0,L|48:16,1,135,4|0,0:0|0:0,0:0:0:0:
400,192,88327,2,0,L|464:16,1,135,4|0,0:0|0:0,0:0:0:0:
112,192,88627,2,0,L|128:16,1,135,4|0,0:0|0:0,0:0:0:0:
400,192,88927,6,0,L|384:16,1,135,4|0,0:0|0:0,0:0:0:0:
48,192,89227,2,0,L|224:96,1,135,4|0,0:0|0:0,0:0:0:0:
464,192,89527,2,0,L|288:96,1,135,4|0,0:0|0:0,0:0:0:0:
48,192,89827,6,0,L|0:32,1,135,4|0,0:0|0:0,0:0:0:0:
464,192,90127,2,0,L|512:32,1,135,4|0,0:0|0:0,0:0:0:0:
256,192,90427,2,0,L|80:192,1,135,4|0,0:0|0:0,0:0:0:0:
256,192,90727,6,0,L|432:192,1,135,4|0,0:0|0:0,0:0:0:0:
96,192,91027,2,0,L|48:32,1,135,4|0,0:0|0:0,0:0:0:0:
416,192,91327,2,0,L|464:32,1,135,4|0,0:0|0:0,0:0:0:0:
160,208,91627,6,0,L|32:80,1,135,4|0,0:0|0:0,0:0:0:0:
320,208,91927,1,4,0:0:0:0:
416,208,92077,6,0,B|528:208|544:64|480:32|272:32,1,405,14|0,0:0|0:0,0:0:0:0:
32,240,92653,6,0,L|16:80,1,135,2|0,0:0|0:0,0:0:0:0:
480,240,92995,2,0,L|496:80,1,135,2|0,0:0|0:0,0:0:0:0:
144,240,93338,2,0,L|128:80,1,135,2|0,0:0|0:0,0:0:0:0:
368,240,93681,2,0,L|384:80,1,135,2|0,0:0|0:0,0:0:0:0:
192,240,94024,6,0,L|176:80,1,135,2|0,0:0|0:0,0:0:0:0:
480,240,94367,2,0,L|464:80,1,135,2|8,0:0|0:0,0:0:0:0:
112,32,94710,5,8,0:0:0:0:
256,32,94881,1,8,0:0:0:0:
400,32,95053,6,0,L|480:176,1,135,8|0,0:0|0:0,0:0:0:0:
96,48,95395,2,0,L|160:176,1,135,2|0,0:0|0:0,0:0:0:0:
400,32,95738,2,0,L|464:160,1,135,2|0,0:0|0:0,0:0:0:0:
96,48,96081,2,0,L|160:176,1,135,2|0,0:0|0:0,0:0:0:0:
400,32,96424,6,0,L|464:176,1,135,2|0,0:0|0:0,0:0:0:0:
176,48,96767,5,10,0:0:0:0:
320,48,96938,1,10,0:0:0:0:
176,48,97110,1,10,0:0:0:0:
320,48,97281,1,10,0:0:0:0:
160,48,97453,1,10,0:0:0:0:
336,48,97624,1,10,0:0:0:0:
160,48,97795,1,10,0:0:0:0:
432,240,97967,6,8,L|448:128,1,67.5,12|8,0:0|0:0,0:0:0:0:
464,112,98138,2,8,L|416:16,1,67.5
320,64,98310,2,8,L|208:32,1,67.5
48,144,98481,2,8,L|112:64,1,67.5
240,176,98653,6,8,L|352:176,1,67.5
464,208,98824,2,8,L|448:96,1,67.5
112,208,98996,2,8,L|80:112,1,67.5
96,96,99167,2,8,L|160:16,1,67.5
416,208,99338,6,8,L|448:112,1,67.5,12|8,0:0|0:0,0:0:0:0:
416,96,99509,2,8,L|352:16,1,67.5
255,45,99681,2,8,L|175:45,1,67.5
288,112,99852,2,8,L|352:32,1,67.5
384,48,100024,6,8,L|496:80,1,67.5
352,112,100195,2,8,L|320:208,1,67.5
256,240,100367,2,8,L|160:240,1,67.5
112,208,100538,2,8,L|80:112,1,67.5
400,224,100710,6,8,L|432:128,1,67.5,12|8,0:0|0:0,0:0:0:0:
352,128,100881,2,8,L|288:48,1,67.5
400,112,101053,2,8,L|496:80,1,67.5
352,128,101224,2,8,L|272:48,1,67.5
48,240,101396,6,8,L|64:144,1,67.5,12|8,0:0|0:0,0:0:0:0:
96,112,101567,2,8,L|160:32,1,67.5
224,48,101739,2,8,L|352:48,1,67.5
416,112,101910,2,8,L|352:32,1,67.5
96,192,102081,6,8,L|64:112,1,67.5,12|8,0:0|0:0,0:0:0:0:
128,80,102253,2,8,L|192:48,1,67.5
416,192,102425,2,8,L|446:131,1,67.5,12|8,0:0|0:0,0:0:0:0:
384,80,102596,2,8,L|323:49,1,67.5
112,256,102767,6,8,L|96:144,1,67.5,12|8,0:0|0:0,0:0:0:0:
112,256,102938,2,8,L|96:160,1,67.5
400,256,103110,2,8,L|464:176,1,67.5,12|8,0:0|0:0,0:0:0:0:
432,144,103281,2,8,L|336:112,1,67.5
160,256,103453,6,0,B|-16:192|16:48|80:32|320:32,1,486,4|0,0:0|0:0,0:0:0:0:
464,32,104316,5,4,0:0:0:0:
256,32,104649,1,4,0:0:0:0:
48,32,104982,5,4,0:0:0:0:
256,32,105315,1,4,0:0:0:0:
464,32,105649,5,2,0:0:0:0:
128,64,105732,1,0,0:0:0:0:
112,112,105816,1,2,0:0:0:0:
128,160,105899,1,0,0:0:0:0:
176,208,105982,5,2,0:0:0:0:
96,272,106149,1,0,0:0:0:0:
416,272,106316,1,2,0:0:0:0:
304,272,106482,1,0,0:0:0:0:
416,272,106649,1,2,0:0:0:0:
48,176,106816,1,0,0:0:0:0:
96,96,106982,5,2,0:0:0:0:
384,64,107066,1,0,0:0:0:0:
400,112,107149,1,2,0:0:0:0:
384,160,107232,1,0,0:0:0:0:
336,208,107316,5,2,0:0:0:0:
432,32,107482,1,0,0:0:0:0:
80,32,107649,1,2,0:0:0:0:
336,32,107816,1,0,0:0:0:0:
176,32,107982,1,2,0:0:0:0:
432,32,108149,1,0,0:0:0:0:
80,192,108316,5,2,0:0:0:0:
96,144,108399,1,0,0:0:0:0:
144,96,108482,1,2,0:0:0:0:
208,80,108566,1,0,0:0:0:0:
288,80,108649,5,2,0:0:0:0:
416,80,108816,1,0,0:0:0:0:
96,80,108982,1,2,0:0:0:0:
416,80,109149,1,0,0:0:0:0:
256,80,109316,1,2,0:0:0:0:
96,80,109482,1,0,0:0:0:0:
224,80,109649,5,2,0:0:0:0:
416,80,109732,1,0,0:0:0:0:
464,80,109816,1,2,0:0:0:0:
288,80,109899,1,0,0:0:0:0:
224,80,109982,1,2,0:0:0:0:
96,80,110066,1,0,0:0:0:0:
48,80,110149,5,2,0:0:0:0:
144,80,110316,1,0,0:0:0:0:
416,80,110482,5,2,0:0:0:0:
400,128,110566,1,0,0:0:0:0:
384,176,110649,1,2,0:0:0:0:
96,176,110732,1,0,0:0:0:0:
80,128,110816,5,2,0:0:0:0:
160,64,110982,1,0,0:0:0:0:
416,80,111149,5,10,0:0:0:0:
464,80,111232,1,8,0:0:0:0:
416,80,111316,5,10,0:0:0:0:
192,80,111482,1,0,0:0:0:0:
176,128,111649,1,2,0:0:0:0:
416,80,111815,5,10,0:0:0:0:
464,80,111899,1,8,0:0:0:0:
416,80,111982,1,10,0:0:0:0:
96,80,112149,5,10,0:0:0:0:
48,80,112232,1,8,0:0:0:0:
96,80,112315,1,10,0:0:0:0:
336,80,112482,5,10,0:0:0:0:
352,128,112565,1,10,0:0:0:0:
368,176,112649,5,10,0:0:0:0:
256,176,112815,1,0,0:0:0:0:
368,176,112982,1,2,0:0:0:0:
80,240,113149,5,2,0:0:0:0:
96,176,113232,1,0,0:0:0:0:
432,240,113315,1,2,0:0:0:0:
384,176,113399,1,0,0:0:0:0:
176,80,113482,1,2,0:0:0:0:
128,80,113565,1,0,0:0:0:0:
96,80,113649,1,2,0:0:0:0:
336,80,113815,5,10,0:0:0:0:
384,80,113899,1,8,0:0:0:0:
416,80,113982,1,10,0:0:0:0:
176,80,114149,5,0,0:0:0:0:
288,80,114315,1,2,0:0:0:0:
128,80,114482,5,10,0:0:0:0:
112,128,114565,1,8,0:0:0:0:
96,176,114649,1,10,0:0:0:0:
384,80,114815,5,10,0:0:0:0:
400,128,114899,1,8,0:0:0:0:
416,176,114982,1,10,0:0:0:0:
128,80,115149,5,10,0:0:0:0:
112,128,115232,1,8,0:0:0:0:
96,176,115315,1,10,0:0:0:0:
352,224,115482,5,2,0:0:0:0:
448,224,115565,2,0,P|416:112|288:64,1,202.5
272,64,115899,1,2,0:0:0:0:
32,224,115982,2,2,L|128:64,1,135
384,80,116253,5,8,0:0:0:0:
256,80,116402,1,8,0:0:0:0:
128,80,116551,5,12,0:0:0:0:
80,80,116626,1,8,0:0:0:0:
128,80,116700,1,8,0:0:0:0:
256,80,116850,5,8,0:0:0:0:
384,80,116999,1,8,0:0:0:0:
128,80,117148,5,12,0:0:0:0:
112,144,117223,1,8,0:0:0:0:
96,192,117297,1,8,0:0:0:0:
416,192,117447,5,8,0:0:0:0:
128,192,117596,1,8,0:0:0:0:
256,192,117745,5,12,0:0:0:0:
304,192,117820,1,8,0:0:0:0:
256,192,117894,1,8,0:0:0:0:
128,192,118044,5,8,0:0:0:0:
416,192,118193,1,8,0:0:0:0:
304,192,118342,5,12,0:0:0:0:
256,192,118417,1,8,0:0:0:0:
304,192,118491,1,8,0:0:0:0:
416,192,118641,1,8,0:0:0:0:
96,64,118790,5,8,0:0:0:0:
64,112,118864,1,8,0:0:0:0:
256,64,118939,1,8,0:0:0:0:
320,80,119014,1,8,0:0:0:0:
336,144,119088,1,8,0:0:0:0:
320,80,119163,1,8,0:0:0:0:
256,64,119238,5,12,0:0:0:0:
128,64,119387,1,4,0:0:0:0:
352,48,119536,1,0,0:0:0:0:
432,48,119685,5,8,0:0:0:0:
416,96,119760,1,8,0:0:0:0:
400,144,119835,1,12,0:0:0:0:
112,144,119984,1,4,0:0:0:0:
400,144,120133,5,8,3:0:0:0:
400,192,120208,1,8,3:0:0:0:
368,240,120282,1,8,3:0:0:0:
304,256,120357,1,8,3:0:0:0:
224,256,120432,1,8,3:0:0:0:
80,256,120506,1,8,3:0:0:0:
32,256,120581,1,8,3:0:0:0:
224,256,120655,1,8,3:0:0:0:
304,256,120730,1,8,3:0:0:0:
368,240,120805,1,8,3:0:0:0:
400,192,120879,5,8,0:0:0:0:
256,96,121029,1,8,0:0:0:0:
112,96,121177,5,12,0:0:0:0:
64,96,121252,1,8,0:0:0:0:
112,96,121326,1,8,0:0:0:0:
400,96,121476,5,8,0:0:0:0:
112,96,121625,1,8,0:0:0:0:
208,96,121774,5,12,0:0:0:0:
256,96,121849,1,8,0:0:0:0:
208,96,121923,1,8,0:0:0:0:
64,96,122073,5,8,0:0:0:0:
432,96,122222,1,8,0:0:0:0:
320,160,122371,5,12,0:0:0:0:
256,160,122446,1,8,0:0:0:0:
192,160,122520,1,8,0:0:0:0:
80,96,122670,5,8,0:0:0:0:
400,96,122819,1,8,0:0:0:0:
320,96,122968,5,12,0:0:0:0:
256,96,123043,1,8,0:0:0:0:
192,96,123117,1,8,0:0:0:0:
320,96,123267,5,8,0:0:0:0:
400,96,123416,1,8,0:0:0:0:
128,96,123566,5,12,0:0:0:0:
192,96,123641,1,8,0:0:0:0:
256,96,123715,1,8,0:0:0:0:
384,96,123865,5,12,0:0:0:0:
320,96,123940,1,8,0:0:0:0:
256,96,124014,1,8,0:0:0:0:
128,96,124163,5,12,0:0:0:0:
112,144,124238,1,8,0:0:0:0:
320,176,124312,1,8,0:0:0:0:
432,192,124462,5,12,0:0:0:0:
416,240,124537,1,8,0:0:0:0:
144,192,124611,1,8,0:0:0:0:
48,240,124760,5,12,0:0:0:0:
64,288,124835,1,8,0:0:0:0:
416,240,124909,2,0,P|416:304|336:352,1,135,8|8,0:0|0:0,0:0:0:0:
96,192,125208,1,2,0:0:0:0:
48,192,125282,1,0,0:0:0:0:
256,112,125357,1,2,0:0:0:0:
304,112,125432,1,0,0:0:0:0:
160,112,125507,1,2,0:0:0:0:
112,112,125581,5,0,0:0:0:0:
352,112,125655,1,2,0:0:0:0:
400,112,125730,1,0,0:0:0:0:
224,208,125805,2,0,P|144:144|128:0,1,202.5,4|0,0:0|0:0,0:0:0:0:
384,64,126103,5,2,0:0:0:0:
432,112,126178,1,0,0:0:0:0:
448,176,126253,1,2,0:0:0:0:
416,224,126327,1,0,0:0:0:0:
368,256,126402,1,2,0:0:0:0:
256,256,126476,1,0,0:0:0:0:
192,240,126551,1,2,0:0:0:0:
160,176,126626,5,0,0:0:0:0:
160,112,126700,1,2,0:0:0:0:
208,80,126775,1,0,0:0:0:0:
288,64,126850,1,2,0:0:0:0:
352,64,126924,1,0,0:0:0:0:
144,64,126999,1,2,0:0:0:0:
80,64,127073,1,0,0:0:0:0:
352,64,127148,5,2,0:0:0:0:
416,64,127223,1,0,0:0:0:0:
352,64,127297,1,2,0:0:0:0:
288,64,127372,1,0,0:0:0:0:
112,176,127447,1,2,0:0:0:0:
80,176,127521,1,0,0:0:0:0:
112,176,127596,1,2,0:0:0:0:
176,176,127670,5,0,0:0:0:0:
464,192,127745,1,2,0:0:0:0:
496,160,127820,1,0,0:0:0:0:
336,128,127894,1,2,0:0:0:0:
256,128,127969,1,0,0:0:0:0:
192,128,128044,1,2,0:0:0:0:
144,128,128118,1,0,0:0:0:0:
112,128,128193,5,2,0:0:0:0:
96,128,128267,1,0,0:0:0:0:
384,128,128327,5,14,0:0:0:0:
272,192,129050,5,8,0:0:0:0:
240,192,129116,1,8,0:0:0:0:
272,192,129182,1,8,0:0:0:0:
240,192,129248,1,8,0:0:0:0:
272,192,129313,1,8,0:0:0:0:
240,192,129379,1,8,0:0:0:0:
272,192,129445,1,8,0:0:0:0:
