osu file format v14

[General]
AudioFilename: what is maps.mp3
AudioLeadIn: 0
PreviewTime: 587886
Countdown: 0
SampleSet: Soft
StackLeniency: 0.7
Mode: 0
LetterboxInBreaks: 0
WidescreenStoryboard: 0

[Editor]
Bookmarks: 23989,47989,85242,138609,156609,228609,264609,317730,341045,373794,407877,454303,487145,535612,566719,588052,658376,694832,714919,771085,803211,826169,857095,911952,945844,982618,1022265,1039719
DistanceSpacing: 2
BeatDivisor: 4
GridSize: 4
TimelineZoom: 2.7

[Metadata]
Title:The Songs That I Want To Mapped
TitleUnicode:The Songs That I Want To Mapped
Artist:Various Artists
ArtistUnicode:Various Artists
Creator:- N a n a k a -
Version:Jump Like a Cookiezi
Source:
Tags:Nanaka KantoKun
BeatmapID:653868
BeatmapSetID:290205

[Difficulty]
HPDrainRate:4
CircleSize:4
OverallDifficulty:5
ApproachRate:9.3
SliderMultiplier:1.7
SliderTickRate:1

[Events]
//Background and Video events
0,0,"BG.jpg",0,0
//Break Periods
2,73689,75820
2,130619,138009
2,211184,228009
2,247934,264055
2,296309,300055
2,309434,314434
2,328559,340445
2,364559,441749
2,517463,560832
2,566919,575832
2,634919,637621
2,678173,687978
2,741519,761515
2,800246,802657
2,854660,856541
2,878437,904826
2,914865,945290
2,974044,982064
2,1018175,1021847
//Storyboard Layer 0 (Background)
//Storyboard Layer 1 (Fail)
//Storyboard Layer 2 (Pass)
//Storyboard Layer 3 (Foreground)
//Storyboard Sound Samples

[TimingPoints]
-11,375,4,2,1,60,1,0
11989,-133.333333333333,4,2,1,40,0,0
34489,-100,4,2,1,40,0,0
35989,-100,4,2,2,50,0,0
46489,-200,4,2,2,50,0,0
47239,-100,4,2,2,30,0,0
47614,-100,4,2,2,40,0,0
47989,-83.3333333333333,4,2,2,60,0,0
48364,-58.8235294117647,4,2,2,60,0,1
48739,-83.3333333333333,4,2,2,60,0,1
56989,-100,4,2,2,60,0,1
59801,-83.3333333333333,4,2,2,60,0,0
59989,-83.3333333333333,4,2,2,60,0,1
68989,-100,4,2,2,60,0,1
71989,-83.3333333333333,4,2,2,60,0,0
76420,352.941176470588,4,2,1,80,1,0
76772,352.941176470588,4,2,2,60,1,0
76772,-200,4,2,2,50,0,0
81183,-133.333333333333,4,2,2,50,0,0
85242,-200,4,2,2,40,0,0
85507,-200,4,2,2,5,0,0
85595,-133.333333333333,4,2,1,50,0,0
85860,-133.333333333333,4,2,1,5,0,0
85948,-100,4,2,1,60,0,0
86213,-100,4,2,2,5,0,0
86301,-80,4,2,1,80,0,0
86654,-100,4,2,2,70,0,0
88066,-84.7457627118644,4,2,2,60,0,1
96536,-84.7457627118644,4,2,3,60,0,1
97948,-84.7457627118644,4,2,2,60,0,1
99271,-84.7457627118644,4,2,2,60,0,0
99360,-84.7457627118644,4,2,2,60,0,1
110566,-84.7457627118644,4,2,2,60,0,0
110654,-84.7457627118644,4,2,3,60,0,1
114889,-84.7457627118644,4,2,2,60,0,0
116301,-84.7457627118644,4,2,2,60,0,1
119036,-84.7457627118644,4,2,2,60,0,0
119124,-84.7457627118644,4,2,2,60,0,1
126095,-84.7457627118644,4,2,2,60,0,0
126183,-133.333333333333,4,2,2,60,0,1
126271,-133.333333333333,4,2,2,60,0,0
126889,-84.7457627118644,4,2,2,60,0,1
126977,-84.7457627118644,4,2,2,60,0,0
127595,-84.7457627118644,4,2,2,60,0,1
127683,-84.7457627118644,4,2,2,60,0,0
138609,375,4,1,4,80,1,0
138609,-200,4,1,4,30,0,0
156609,-106.382978723404,4,2,4,50,0,0
162984,-106.382978723404,4,2,4,5,0,0
163359,-106.382978723404,4,2,4,50,0,0
171984,-106.382978723404,4,2,4,5,0,0
172359,-106.382978723404,4,2,4,50,0,0
194484,-106.382978723404,4,2,4,5,0,0
194859,-106.382978723404,4,2,4,50,0,0
209859,-106.382978723404,4,2,4,30,0,0
210046,-106.382978723404,4,2,4,40,0,0
210234,-106.382978723404,4,2,4,50,0,0
210421,-106.382978723404,4,2,4,60,0,0
210609,-96.1538461538461,4,2,4,70,0,0
228609,-87.719298245614,4,2,5,80,0,1
228796,-87.719298245614,4,2,5,80,0,0
246984,-87.719298245614,4,2,5,80,0,1
247171,-87.719298245614,4,2,5,80,0,0
264609,-80.6451612903226,4,2,5,80,0,1
268921,-80.6451612903226,4,2,5,80,0,0
269109,-80.6451612903226,4,2,5,80,0,1
273421,-80.6451612903226,4,2,5,80,0,0
273609,-80.6451612903226,4,2,5,80,0,1
278109,-80.6451612903226,4,2,5,80,0,0
278484,-80.6451612903226,4,2,5,80,0,1
280359,-80.6451612903226,4,2,5,80,0,0
282609,-80.6451612903226,4,2,5,80,0,1
286921,-80.6451612903226,4,2,5,80,0,0
287109,-80.6451612903226,4,2,5,80,0,1
291609,-80.6451612903226,4,2,5,80,0,0
291984,-80.6451612903226,4,2,5,80,0,1
295359,-80.6451612903226,4,2,5,80,0,0
296109,-80.6451612903226,4,2,5,80,0,1
300609,-80.6451612903226,4,2,5,80,0,0
314988,342.857142857143,4,2,6,20,1,0
315330,-100,4,2,6,20,0,0
315673,-100,4,2,6,26,0,0
316016,-100,4,2,6,32,0,0
316359,-100,4,2,6,40,0,0
316702,-100,4,2,6,46,0,0
317045,-100,4,2,6,52,0,0
317388,-100,4,2,6,60,0,0
317730,-100,4,2,6,70,0,0
319959,-66.6666666666667,4,2,6,70,0,0
320473,-100,4,2,6,80,0,1
331102,-100,4,2,6,80,0,0
331445,-100,4,2,6,80,0,1
341045,-100,4,2,6,80,0,0
342416,-100,4,2,6,80,0,1
353045,-100,4,2,6,80,0,0
353388,-100,4,2,6,80,0,1
358873,-100,4,1,7,80,0,1
359216,-100,4,2,6,80,0,1
359388,-100,4,1,7,80,0,1
359902,-100,4,1,6,80,0,1
360073,-100,4,1,7,80,0,1
360588,-100,4,1,6,80,0,1
360759,-100,4,1,7,80,0,1
361273,-100,4,1,6,80,0,1
361445,-100,4,1,7,80,0,1
361702,-100,4,1,7,60,0,1
361959,-100,4,1,6,80,0,1
362045,-100,4,1,7,60,0,1
362645,-100,4,1,6,80,0,1
362730,-100,4,1,7,60,0,1
363330,-100,4,1,6,80,0,1
363416,-100,4,1,7,60,0,1
364016,-100,4,2,6,80,0,0
364359,-100,4,2,6,80,0,1
364530,-100,4,2,6,80,0,0
368469,355.029585798817,4,2,0,80,1,0
442303,315.789473684211,4,2,0,80,1,0
444829,-133.333333333333,4,2,0,50,0,0
447039,-133.333333333333,4,2,0,5,0,0
447197,-133.333333333333,4,2,0,50,0,0
452408,-100,4,2,0,50,0,0
454618,-200,4,2,0,80,0,0
454934,-100,4,2,0,80,0,1
455092,-100,4,2,0,80,0,0
467566,-79.3650793650794,4,2,0,80,0,1
477592,-79.3650793650794,4,2,0,80,0,0
477671,-79.3650793650794,4,2,0,80,0,1
487145,-79.3650793650794,4,2,0,80,0,0
487776,-79.3650793650794,4,2,0,80,0,1
487934,-79.3650793650794,4,2,0,80,0,0
497881,-79.3650793650794,4,2,0,80,0,1
507671,-200,4,2,0,80,0,0
507987,-79.3650793650794,4,2,0,80,0,1
510197,-79.3650793650794,4,2,0,80,0,0
510513,-79.3650793650794,4,2,0,80,0,1
510592,-79.3650793650794,4,2,0,5,0,0
523054,348.837209302326,4,2,1,60,1,0
561386,333.333333333333,4,2,0,80,1,0
576386,-200,4,2,0,20,0,0
576636,-200,4,2,0,5,0,0
576719,-133.333333333333,4,2,0,30,0,0
576969,-133.333333333333,4,2,0,5,0,0
577052,-100,4,2,0,40,0,0
577302,-100,4,2,0,5,0,0
577386,-133.333333333333,4,2,1,40,0,0
582719,-133.333333333333,4,2,0,20,0,0
583052,-133.333333333333,4,2,0,24,0,0
583386,-133.333333333333,4,2,0,28,0,0
583719,-133.333333333333,4,2,0,32,0,0
584052,-133.333333333333,4,2,0,36,0,0
584386,-133.333333333333,4,2,0,40,0,0
584719,-133.333333333333,4,2,0,44,0,0
585052,-133.333333333333,4,2,0,48,0,0
585386,-133.333333333333,4,2,0,60,0,0
587719,-133.333333333333,4,2,0,70,0,0
588052,-84.7457627118644,4,2,0,80,0,1
593302,-84.7457627118644,4,2,0,80,0,0
593386,-84.7457627118644,4,2,0,80,0,1
598719,-84.7457627118644,4,2,0,80,0,0
600719,-66.6666666666667,4,2,0,80,0,0
601386,-84.7457627118644,4,2,0,80,0,0
601719,-84.7457627118644,4,2,0,80,0,1
602052,-84.7457627118644,4,2,0,80,0,0
604052,-84.7457627118644,4,2,0,80,0,1
609302,-84.7457627118644,4,2,0,80,0,0
609386,-84.7457627118644,4,2,0,80,0,1
617386,-84.7457627118644,4,2,0,80,0,0
620052,-84.7457627118644,4,2,0,80,0,1
624719,-450,4,2,0,20,0,0
624802,-450,4,2,0,5,0,0
626219,-84.7457627118644,4,2,0,80,0,0
626719,-100,4,2,0,80,0,1
627052,-100,4,2,0,60,0,0
629719,-100,4,2,0,55,0,0
630052,-100,4,2,0,50,0,0
630385,-100,4,2,0,45,0,0
630719,-100,4,2,0,40,0,0
631052,-100,4,2,0,35,0,0
631385,-100,4,2,0,30,0,0
631719,-100,4,2,0,25,0,0
632052,-100,4,2,0,40,0,0
632135,-100,4,2,0,5,0,0
638175,301.507537688442,4,2,0,80,1,0
638175,-133.333333333333,4,2,0,80,0,0
639381,-92.5925925925926,4,2,0,80,0,0
649029,-90.0900900900901,4,2,0,80,0,0
658677,-81.9672131147541,4,2,0,80,0,1
667119,-81.9672131147541,4,2,0,80,0,0
668325,-81.9672131147541,4,2,0,80,0,1
676767,-100,4,2,0,80,0,0
677370,-100,4,2,0,80,0,0
677597,-100,4,2,0,5,0,0
677672,-90.0900900900901,4,2,0,80,0,0
677898,-100,4,2,0,5,0,0
677973,-100,4,2,0,80,0,0
688532,300,4,2,0,80,1,0
693032,-66.6666666666667,4,2,0,80,0,0
693332,-100,4,2,0,80,0,0
695132,-50,4,2,0,80,0,0
695432,-100,4,2,0,80,0,0
695719,300,4,2,0,80,1,0
695719,-71.4285714285714,4,2,0,80,0,1
703969,-71.4285714285714,4,2,0,80,0,0
705319,-71.4285714285714,4,2,0,80,0,1
709969,-71.4285714285714,4,2,0,80,0,0
710119,-71.4285714285714,4,2,0,80,0,1
713719,-71.4285714285714,4,2,0,80,0,0
714919,-71.4285714285714,4,2,0,80,0,1
723319,-71.4285714285714,4,2,0,80,0,0
724519,-71.4285714285714,4,2,0,80,0,1
729019,-71.4285714285714,4,2,0,80,0,0
729319,-71.4285714285714,4,2,0,80,0,1
733669,-71.4285714285714,4,2,0,80,0,0
734119,-71.4285714285714,4,2,0,80,0,1
736519,-83.3333333333333,4,2,0,80,0,0
738919,-100,4,2,0,80,0,0
741319,-71.4285714285714,4,2,0,80,0,1
741469,-71.4285714285714,4,2,0,80,0,0
762069,300.540973752755,4,2,0,80,1,0
762069,-200,4,2,0,20,0,0
770484,-133.333333333333,4,2,0,50,0,0
771674,292.682926829268,4,2,0,80,1,0
771674,-83.3333333333333,4,2,0,80,0,1
779868,293.398533007335,4,2,0,80,1,0
781041,-100,4,2,0,80,0,1
784561,296.73590504451,4,2,0,80,1,1
785747,-100,4,2,0,80,0,0
788121,-100,4,2,0,70,0,1
790419,-100,4,2,0,70,0,0
790494,298.507462686567,4,2,0,80,1,1
790568,-100,4,2,0,80,0,0
795344,-100,4,2,0,5,0,0
803211,296.237780191567,4,2,0,80,1,0
805432,-100,4,2,0,80,0,1
805580,-100,4,2,0,80,0,0
815060,-200,4,2,0,80,0,0
815134,-100,4,2,0,5,0,0
816689,-100,4,2,1,40,0,0
817430,-100,4,2,0,50,0,0
826910,-79.3650793650794,4,2,0,50,0,1
831575,-79.3650793650794,4,2,0,50,0,0
831649,-79.3650793650794,4,2,0,50,0,1
834019,-79.3650793650794,4,2,0,50,0,0
836389,-79.3650793650794,4,2,0,50,0,1
838611,-79.3650793650794,4,2,0,50,0,0
838759,-79.3650793650794,4,2,0,50,0,1
841055,-79.3650793650794,4,2,0,50,0,0
841129,-79.3650793650794,4,2,0,50,0,1
845276,-79.3650793650794,4,2,0,50,0,0
845869,-100,4,2,0,50,0,1
848091,-100,4,2,0,50,0,0
848239,-100,4,2,0,50,0,1
850460,-100,4,2,0,50,0,0
850609,-100,4,2,0,50,0,1
854460,-100,4,2,0,50,0,0
857095,285.714285714286,4,2,1,60,1,0
866237,-75.7575757575758,4,2,1,60,0,1
866380,-75.7575757575758,4,2,1,60,0,0
911952,-75.7575757575758,4,2,1,60,0,1
920952,-75.7575757575758,4,2,1,60,0,0
921095,-75.7575757575758,4,2,1,60,0,1
930095,-75.7575757575758,4,2,1,60,0,0
930237,-75.7575757575758,4,2,1,60,0,1
930380,-75.7575757575758,4,2,1,60,0,0
945559,285.714285714286,4,2,0,20,1,0
946416,-133.333333333333,4,2,0,20,0,0
946701,-76.9230769230769,4,1,0,50,0,1
955487,-76.9230769230769,4,1,0,50,0,0
955559,-76.9230769230769,4,1,0,50,0,1
960059,-76.9230769230769,4,1,0,50,0,0
960130,-100,4,1,0,50,0,1
960201,-100,4,1,0,50,0,0
962416,-100,4,1,0,50,0,1
963559,-100,4,1,0,50,0,0
963844,-133.333333333333,4,2,0,20,0,0
964701,-90.9090909090909,4,1,0,50,0,1
964773,-90.9090909090909,4,1,0,50,0,0
969273,-90.9090909090909,4,1,0,50,0,1
969344,-90.9090909090909,4,1,0,50,0,0
973844,-90.9090909090909,4,1,0,50,0,1
973916,-90.9090909090909,4,1,0,50,0,0
982618,285.714285714286,4,2,0,50,1,0
982618,-200,4,2,0,50,0,0
982903,-100,4,2,0,50,0,0
985046,-100,4,2,0,30,0,0
987189,-133.333333333333,4,2,0,30,0,0
988332,-100,4,2,0,30,0,0
989475,-133.333333333333,4,2,0,30,0,0
989689,-133.333333333333,4,2,0,5,0,0
989760,-83.3333333333333,4,2,0,30,0,0
989975,-83.3333333333333,4,2,0,5,0,0
990046,-133.333333333333,4,2,0,30,0,0
990260,-133.333333333333,4,2,0,5,0,0
990332,-100,4,2,0,30,0,0
990546,-100,4,2,0,5,0,0
990618,-66.6666666666667,4,2,0,30,0,0
990832,-66.6666666666667,4,2,0,5,0,0
990903,-133.333333333333,4,2,0,30,0,0
991118,-133.333333333333,4,2,0,5,0,0
991189,-100,4,2,0,30,0,0
991760,-133.333333333333,4,2,0,30,0,0
992189,-100,4,2,0,30,0,0
992903,-200,4,2,0,30,0,0
993332,-133.333333333333,4,2,0,30,0,0
993760,-100,4,2,0,30,0,0
994046,-66.6666666666667,4,2,0,50,0,1
998618,-50,4,2,0,50,0,1
998903,-42,4,2,0,50,0,1
999189,-46,4,2,0,50,0,1
999475,-50,4,2,0,50,0,1
999760,-39.7,4,2,0,50,0,1
1000046,-46,4,2,0,50,0,1
1000332,-50,4,2,0,50,0,1
1000618,-66.6666666666667,4,2,0,50,0,1
1002046,-133.333333333333,4,2,0,50,0,0
1002475,-100,4,2,0,50,0,0
1002903,-80,4,2,0,50,0,0
1003189,-66.6666666666667,4,2,0,50,0,1
1007760,-50,4,2,0,50,0,1
1008046,-42,4,2,0,50,0,1
1008332,-46,4,2,0,50,0,1
1008618,-50,4,2,0,50,0,1
1008903,-39,4,2,0,50,0,1
1009189,-46,4,2,0,50,0,1
1009475,-50,4,2,0,50,0,1
1009760,-66.6666666666667,4,2,0,50,0,1
1011189,-133.333333333333,4,2,0,50,0,0
1011618,-100,4,2,0,50,0,0
1012046,-80,4,2,0,50,0,0
1013475,-90.9090909090909,4,2,0,50,0,1
1013618,-90.9090909090909,4,2,0,50,0,0
1022129,272.727272727273,4,2,1,60,1,0
1023492,-100,4,2,1,5,0,0
1023629,-100,4,2,1,60,0,0
1024038,-100,4,2,1,5,0,0
1024174,-100,4,2,1,60,0,0
1027856,-100,4,2,1,5,0,0
1027992,-100,4,2,1,60,0,0
1028401,-100,4,2,1,5,0,0
1028538,-100,4,2,1,60,0,0
1031947,-83.3333333333333,4,2,1,60,0,0
1040674,-76.9230769230769,4,2,1,60,0,1
1048310,-166.666666666667,4,2,1,60,0,0
1048583,-76.9230769230769,4,2,1,60,0,1
1049129,-76.9230769230769,4,2,1,60,0,0
1049401,-76.9230769230769,4,2,1,60,0,1
1059219,-133.333333333333,4,2,1,60,0,0
1059492,-100,4,2,1,60,0,0
1059765,-83.3333333333333,4,2,1,60,0,0
1060038,-100,4,2,1,60,0,0
1060310,-100,4,2,1,60,0,1
1060447,-100,4,2,1,60,0,0

[Colours]
Combo1 : 121,208,91
Combo2 : 128,255,255
Combo3 : 182,184,250
Combo4 : 152,245,112

[HitObjects]
212,76,11989,6,0,P|172:80|136:104,1,85.0000032424928,4|0,0:0|0:0,0:0:0:0:
128,176,12364,2,0,P|136:228|124:256,1,85.0000032424928,8|0,0:0|0:0,0:0:0:0:
88,320,12739,2,0,L|224:328,2,127.500004863739,4|8|4,0:0|0:0|0:0,0:0:0:0:
36,120,13739,5,0,0:0:0:0:
48,192,13864,2,0,P|92:168|108:124,1,85.0000032424928,8|0,0:0|0:0,0:0:0:0:
136,72,14239,2,0,B|168:40|168:40|184:32|216:40,1,85.0000032424928
264,80,14614,2,0,P|312:80|384:36,1,127.500004863739,4|0,0:0|0:0,0:0:0:0:
392,28,15239,5,0,0:0:0:0:
400,16,15364,2,0,L|424:120,1,85.0000032424928,8|0,0:0|0:0,0:0:0:0:
292,228,15739,2,0,L|328:152,1,85.0000032424928,4|0,0:0|0:0,0:0:0:0:
168,84,16114,2,0,L|192:188,1,85.0000032424928,8|0,0:0|0:0,0:0:0:0:
60,296,16489,6,0,L|96:220,1,85.0000032424928,4|0,0:0|0:0,0:0:0:0:
112,356,16864,2,0,P|64:376|8:356,1,85.0000032424928,8|0,0:0|0:0,0:0:0:0:
36,152,17239,2,0,L|120:148,1,85.0000032424928
256,140,17614,2,0,P|324:136|384:136,2,127.500004863739,10|0|8,0:0|0:0|0:0,0:0:0:0:
244,152,18614,5,0,0:0:0:0:
232,164,18739,2,0,P|196:124|208:68,1,85.0000032424928,4|0,0:0|0:0,0:0:0:0:
264,232,19114,2,0,P|247:283|192:300,1,85.0000032424928,8|0,0:0|0:0,0:0:0:0:
308,168,19489,2,0,P|360:156|403:195,1,85.0000032424928,4|0,0:0|0:0,0:0:0:0:
420,240,19864,6,0,L|408:328,1,85.0000032424928,8|0,0:0|0:0,0:0:0:0:
308,168,20239,2,0,L|320:80,1,85.0000032424928,4|2,0:0|0:0,0:0:0:0:
332,8,20614,1,8,0:0:0:0:
152,252,20864,1,2,0:0:0:0:
116,320,20989,6,0,P|80:284|88:208,1,127.500004863739,4|8,0:0|0:0,0:0:0:0:
188,124,21614,1,0,0:0:0:0:
188,124,21739,2,0,L|140:4,2,127.500004863739,4|8|4,0:0|0:0|0:0,0:0:0:0:
272,308,22864,6,0,P|320:312|364:292,1,85.0000032424928,8|0,0:0|0:0,0:0:0:0:
412,264,23239,2,0,P|442:226|451:179,1,85.0000032424928,4|0,0:0|0:0,0:0:0:0:
464,124,23614,2,0,P|451:77|417:43,1,85.0000032424928,4|0,0:0|0:0,0:0:0:0:
364,24,23989,6,0,L|228:32,1,127.500004863739,0|8,1:0|0:0,0:0:0:0:
52,168,24614,1,0,0:0:0:0:
52,168,24739,2,0,L|188:160,1,127.500004863739,8|8,0:1|0:0,0:0:0:0:
388,260,25364,1,0,1:0:0:0:
388,260,25489,6,0,P|324:276|284:328,1,127.500004863739,0|0,1:0|1:0,0:0:0:0:
280,348,26114,1,0,0:0:0:0:
280,348,26239,2,0,L|248:212,1,127.500004863739,8|4,0:1|0:0,0:0:0:0:
72,56,26989,6,0,P|120:80|192:60,1,127.500004863739,0|8,1:0|0:0,0:0:0:0:
296,8,27614,1,0,0:0:0:0:
296,8,27739,2,0,L|340:140,1,127.500004863739,8|8,0:1|0:0,0:0:0:0:
408,224,28364,1,0,1:0:0:0:
408,224,28489,6,0,B|384:248|352:248|352:248|356:280,1,85.0000032424928,0|0,1:0|1:0,0:0:0:0:
364,340,28864,2,0,P|312:352|276:344,1,85.0000032424928,0|0,1:0|0:0,0:0:0:0:
220,312,29239,2,0,L|120:312,1,85.0000032424928,8|0,0:1|0:0,0:0:0:0:
64,312,29614,2,0,P|72:256|60:224,1,85.0000032424928,10|0,0:0|0:0,0:0:0:0:
28,168,29989,5,0,1:0:0:0:
28,168,30364,1,0,0:0:0:0:
104,76,30614,1,0,0:0:0:0:
148,132,30739,2,0,B|192:104|232:120|232:120|264:72,1,127.500004863739,8|0,0:1|0:0,0:0:0:0:
264,76,31364,1,0,1:0:0:0:
268,92,31489,6,0,L|287:197,1,85.0000032424928,0|0,1:0|1:0,0:0:0:0:
372,260,31864,2,0,L|353:155,1,85.0000032424928,0|0,1:0|0:0,0:0:0:0:
208,176,32239,2,0,L|227:281,1,85.0000032424928,8|2,0:1|0:0,0:0:0:0:
312,344,32614,2,0,L|293:239,1,85.0000032424928,0|2,0:0|0:0,0:0:0:0:
288,188,32989,5,6,1:2:0:0:
388,40,33364,1,8,1:2:0:0:
440,212,33739,1,8,0:1:0:0:
304,96,34114,2,0,L|280:72,1,31.8750012159348
288,188,34301,2,0,L|312:212,1,31.8750012159348
196,204,34489,5,2,0:1:0:0:
116,268,34676,1,2,0:3:0:0:
100,168,34864,1,8,0:3:0:0:
212,308,35051,1,0,0:0:0:0:
212,320,35145,1,2,0:3:0:0:
212,332,35239,1,0,0:0:0:0:
68,352,35426,1,2,0:3:0:0:
196,104,35614,1,2,0:1:0:0:
456,344,35989,5,6,0:0:0:0:
456,40,37489,1,6,0:0:0:0:
56,40,38989,1,6,0:0:0:0:
56,344,40489,1,6,0:0:0:0:
152,272,40676,5,2,3:2:0:0:
248,344,40864,1,8,0:0:0:0:
360,300,41051,1,0,3:0:0:0:
360,300,41145,1,0,3:0:0:0:
360,300,41239,1,2,0:0:0:0:
376,96,41426,1,8,0:0:0:0:
328,196,41614,2,0,P|384:208|456:172,1,127.5,8|8,0:0|0:0,0:0:0:0:
472,116,41989,5,6,0:0:0:0:
256,320,43489,1,6,0:0:0:0:
40,116,44895,1,8,0:0:0:0:
40,116,44989,6,0,P|96:100|144:188,1,170,14|8,0:0|0:0,0:0:0:0:
108,296,45551,2,0,P|152:336|200:348,1,85,0|2,3:0|0:0,0:0:0:0:
344,324,45926,1,0,3:0:0:0:
376,292,46020,1,2,0:0:0:0:
404,260,46114,1,8,0:0:0:0:
360,96,46301,2,0,L|320:112,1,42.5,0|8,3:0|3:2,0:0:0:0:
240,144,46489,6,0,P|188:128|204:32,1,170,6|0,0:0|0:0,0:0:0:0:
168,32,47332,1,8,0:0:0:0:
132,32,47426,1,8,0:0:0:0:
96,32,47520,1,8,0:0:0:0:
60,32,47614,5,8,0:0:0:0:
28,60,47707,1,8,0:0:0:0:
16,100,47801,1,8,0:0:0:0:
28,140,47895,1,8,0:0:0:0:
60,168,47989,6,0,B|88:204|132:200|132:200|168:272,1,152.999995330811,2|0,0:0|0:0,0:0:0:0:
196,336,48364,6,0,P|268:360|328:328,1,144.500002756119,14|0,0:1|3:0,0:0:0:0:
400,176,48739,1,2,0:0:0:0:
256,248,48926,1,2,3:2:0:0:
436,276,49114,1,8,0:0:0:0:
108,104,49301,1,0,3:0:0:0:
60,168,49489,6,0,P|112:188|168:152,1,101.999996887207,2|0,0:2|3:0,0:0:0:0:
256,72,49864,2,0,L|280:176,1,101.999996887207,8|0,0:0|3:0,0:0:0:0:
232,308,50239,1,2,0:0:0:0:
88,316,50426,1,2,3:2:0:0:
228,288,50614,1,8,0:0:0:0:
92,336,50801,1,2,3:2:0:0:
76,348,50895,1,8,0:0:0:0:
60,360,50989,6,0,P|28:328|36:228,1,152.999995330811,6|0,0:0|0:0,0:0:0:0:
80,188,51364,2,0,L|76:76,1,101.999996887207,8|0,0:0|3:0,0:0:0:0:
192,40,51739,2,0,B|196:116|196:116|220:124,1,101.999996887207,2|2,0:0|3:2,0:0:0:0:
400,76,52114,1,8,0:0:0:0:
464,248,52301,2,0,P|444:296|400:312,1,101.999996887207,0|2,3:0|0:0,0:0:0:0:
276,304,52676,5,2,3:2:0:0:
200,208,52864,2,0,P|180:156|196:116,1,101.999996887207,8|2,0:0|3:2,0:0:0:0:
276,304,53239,2,0,P|240:347|198:353,1,101.999996887207,0|2,0:0|3:2,0:0:0:0:
320,188,53614,2,0,P|375:196|401:230,1,101.999996887207,8|2,0:0|3:2,0:0:0:0:
408,272,53895,1,8,0:0:0:0:
416,312,53989,5,6,0:0:0:0:
240,356,54176,1,0,3:0:0:0:
320,188,54364,2,0,P|360:152|424:156,1,101.999996887207,8|0,0:0|3:0,0:0:0:0:
424,352,54739,1,2,0:0:0:0:
244,256,54926,1,2,3:2:0:0:
443,210,55114,1,8,0:0:0:0:
332,328,55301,1,0,3:0:0:0:
168,304,55489,6,0,L|141:204,1,101.999996887207,2|0,0:0|3:0,0:0:0:0:
64,108,55864,2,0,B|88:132|88:132|116:108|160:116,1,101.999996887207,8|0,0:0|3:0,0:0:0:0:
260,172,56239,1,2,0:0:0:0:
104,36,56426,1,12,3:2:0:0:
76,312,56614,1,12,0:0:0:0:
144,332,56801,1,0,3:0:0:0:
212,352,56989,6,0,L|336:320,1,127.5,2|0,0:0|0:0,0:0:0:0:
376,308,57364,1,2,0:0:0:0:
424,180,57551,1,8,3:2:0:0:
488,300,57739,1,2,0:0:0:0:
368,232,57926,1,8,3:2:0:0:
436,348,58114,1,2,0:0:0:0:
488,224,58301,1,2,0:0:0:0:
416,108,58489,5,0,1:0:0:0:
416,108,58582,1,8,0:0:0:0:
416,108,58676,1,2,0:0:0:0:
432,260,58864,1,8,0:0:0:0:
288,204,59051,1,2,0:0:0:0:
288,204,59145,1,8,0:0:0:0:
288,204,59239,1,0,1:0:0:0:
416,108,59426,5,2,0:0:0:0:
96,108,59614,1,8,0:0:0:0:
256,32,59801,1,2,0:0:0:0:
96,276,59989,6,0,P|124:324|216:332,1,152.999995330811,6|0,0:0|0:0,0:0:0:0:
260,308,60364,2,0,L|376:312,1,101.999996887207,8|0,0:0|3:0,0:0:0:0:
416,108,60739,1,2,0:0:0:0:
468,240,60926,1,2,3:2:0:0:
456,32,61114,1,8,0:0:0:0:
396,192,61301,1,0,3:0:0:0:
256,84,61489,6,0,B|220:84|192:112|192:112|160:108,1,101.999996887207,2|0,0:0|3:0,0:0:0:0:
80,44,61864,2,0,P|60:112|64:144,1,101.999996887207,8|0,0:0|3:0,0:0:0:0:
196,240,62239,1,2,0:0:0:0:
72,344,62426,1,2,3:2:0:0:
44,184,62614,1,8,0:0:0:0:
196,240,62801,1,2,3:2:0:0:
204,268,62895,1,8,0:0:0:0:
212,296,62989,6,0,P|252:320|308:328,1,101.999996887207,6|0,0:0|3:0,0:0:0:0:
428,308,63364,1,8,0:0:0:0:
272,80,63551,2,0,P|208:100|176:124,1,101.999996887207,0|2,3:0|0:0,0:0:0:0:
136,236,63926,1,2,3:2:0:0:
28,180,64114,1,8,0:0:0:0:
312,160,64301,2,0,P|356:116|360:68,1,101.999996887207,0|2,3:0|0:0,0:0:0:0:
272,80,64676,5,2,3:2:0:0:
348,236,64864,1,8,0:0:0:0:
472,116,65051,1,2,3:2:0:0:
312,160,65239,1,0,0:0:0:0:
384,12,65426,1,2,3:2:0:0:
424,192,65614,1,8,0:0:0:0:
496,44,65801,1,2,3:2:0:0:
348,236,65989,6,0,P|288:268|208:248,1,152.999995330811,6|0,0:0|0:0,0:0:0:0:
164,220,66364,2,2,B|160:252|160:252|116:316,1,101.999996887207,10|0,0:1|3:1,0:1:0:0:
52,108,66739,1,2,0:0:0:0:
272,176,66926,1,2,3:2:0:0:
48,224,67114,1,8,0:0:0:0:
276,60,67301,1,0,3:0:0:0:
164,220,67489,6,0,P|188:260|240:288,1,101.999996887207,2|0,0:0|3:0,0:0:0:0:
388,260,67864,1,8,0:0:0:0:
268,356,68051,1,2,3:2:0:0:
304,208,68239,1,2,0:0:0:0:
372,344,68426,1,12,3:2:0:0:
412,172,68614,1,12,0:0:0:0:
312,288,68801,1,0,3:0:0:0:
340,136,68989,6,0,P|356:72|320:28,1,127.5,6|0,0:0|0:0,0:0:0:0:
268,20,69364,1,2,0:0:0:0:
420,28,69551,1,8,3:2:0:0:
336,156,69739,1,2,0:0:0:0:
247,54,69926,1,8,3:2:0:0:
399,35,70114,1,6,0:0:0:0:
332,176,70301,1,6,0:0:0:0:
192,108,70489,5,0,1:0:0:0:
176,88,70582,1,8,0:0:0:0:
160,68,70676,1,2,0:0:0:0:
92,240,70864,1,0,1:0:0:0:
232,176,71051,1,8,0:0:0:0:
256,164,71145,1,8,0:0:0:0:
280,152,71239,1,0,1:0:0:0:
272,320,71426,5,2,0:0:0:0:
340,48,71614,1,8,0:0:0:0:
168,328,71801,1,2,0:0:0:0:
440,80,71989,1,6,0:0:0:0:
256,192,72082,12,2,73489,0:0:0:0:
256,88,76420,5,0,1:0:0:0:
256,88,76772,6,0,P|204:104|140:76,1,127.5,6|0,0:0|0:0,0:0:0:0:
92,28,77477,2,0,L|64:60,1,42.5,0|2,0:0|0:0,0:0:0:0:
204,24,77830,1,8,0:0:0:0:
164,160,78007,1,8,0:3:0:0:
164,160,78095,1,4,0:3:0:0:
164,160,78183,6,0,P|192:200|232:212,1,85,6|8,0:0|0:0,0:0:0:0:
340,220,78713,1,8,0:3:0:0:
312,200,78801,1,8,0:3:0:0:
300,168,78889,1,4,0:3:0:0:
304,136,78977,1,4,0:3:0:0:
324,108,79066,2,0,L|352:72,1,42.5,2|2,0:0|0:0,0:0:0:0:
392,156,79419,2,0,L|440:152,1,42.5,2|6,0:0|0:0,0:0:0:0:
488,200,79713,5,8,0:0:0:0:
476,240,79830,2,0,L|468:268,1,28.3333333333333,8|2,0:0|0:0,0:0:0:0:
368,272,80066,2,0,L|400:248,1,28.3333333333333,8|2,0:0|0:0,0:0:0:0:
488,200,80301,1,8,0:0:0:0:
496,156,80419,1,0,1:0:0:0:
484,112,80536,1,0,1:0:0:0:
456,76,80654,2,0,L|432:60,1,28.3333333333333,0|4,1:0|0:3,0:0:0:0:
348,72,80889,2,0,L|320:64,1,28.3333333333333,4|12,0:3|0:0,0:0:0:0:
244,104,81183,5,2,0:0:0:0:
124,200,81360,1,2,0:0:0:0:
160,88,81536,2,0,P|172:60|196:36,1,63.7500024318696,12|2,0:0|0:0,0:0:0:0:
208,216,81889,1,2,0:0:0:0:
208,228,81977,1,8,0:0:0:0:
208,240,82066,1,0,1:0:0:0:
40,344,82242,1,0,1:0:0:0:
40,328,82330,1,8,0:0:0:0:
40,312,82419,6,0,P|40:248|48:184,1,127.500004863739,6|2,0:0|3:2,0:0:0:0:
160,88,82948,1,2,0:0:0:0:
160,88,83124,1,8,3:2:0:0:
284,160,83301,2,0,L|296:200,2,31.8750012159348,0|0|2,0:0|1:0|3:2,0:0:0:0:
372,60,83654,1,0,1:0:0:0:
372,60,83742,1,8,0:0:0:0:
372,60,83830,6,0,P|400:88|428:100,2,63.7500024318696,6|0|2,3:2|1:0|3:2,0:0:0:0:
166,175,84360,1,0,0:0:0:0:
166,175,84448,1,0,1:0:0:0:
166,175,84536,1,8,3:2:0:0:
260,96,84713,1,2,0:0:0:0:
364,160,84889,1,2,3:2:0:0:
335,278,85066,1,0,1:0:0:0:
213,288,85242,6,0,B|192:272|180:280|180:280|156:296,1,63.75,2|0,3:2|0:0,0:0:0:0:
104,352,85595,6,0,B|79:341|76:320|76:320|84:292|72:264,1,95.6250036478044
32,176,85948,6,0,B|32:192|40:204|40:204|88:180|136:224,1,127.5
213,288,86301,6,0,P|252:304|320:296,1,106.25,0|0,1:0|1:0,0:0:0:0:
444,152,86654,5,8,0:0:0:0:
356,364,86830,1,2,0:0:0:0:
304,204,87007,1,2,0:0:0:0:
496,312,87183,1,8,0:0:0:0:
492,328,88066,6,0,B|476:300|476:300|376:312|352:212,1,200.5999929599,6|8,0:0|0:0,0:0:0:0:
448,208,88595,1,0,3:0:0:0:
276,308,88772,1,2,0:0:0:0:
448,208,88948,1,0,3:0:0:0:
352,336,89124,1,8,0:0:0:0:
332,108,89301,1,0,3:0:0:0:
236,236,89477,6,0,P|184:216|104:264,1,150.449994719925,2|0,0:0|0:0,0:0:0:0:
84,304,89830,2,0,L|44:208,1,100.29999647995,8|0,0:0|3:0,0:0:0:0:
32,184,90095,1,8,0:0:0:0:
20,156,90183,1,2,0:0:0:0:
184,320,90360,1,0,3:0:0:0:
192,128,90536,1,12,0:0:0:0:
84,304,90713,1,0,3:0:0:0:
292,144,90889,6,0,P|348:120|368:80,1,100.29999647995,6|0,0:0|3:0,0:0:0:0:
396,204,91242,2,0,L|412:312,1,100.29999647995,8|0,0:0|3:0,0:0:0:0:
292,332,91595,1,2,0:0:0:0:
320,216,91771,1,0,3:0:0:0:
216,316,91948,1,12,0:0:0:0:
368,276,92124,1,0,3:0:0:0:
216,156,92301,5,12,0:0:0:0:
296,32,92477,1,2,0:0:0:0:
320,216,92654,1,2,0:0:0:0:
112,252,92830,5,12,0:0:0:0:
216,156,93007,1,2,0:0:0:0:
152,356,93183,1,2,0:0:0:0:
44,176,93360,1,8,0:0:0:0:
48,136,93448,1,0,1:0:0:0:
64,100,93536,1,8,0:0:0:0:
92,72,93624,1,8,0:0:0:0:
128,56,93713,6,0,L|284:56,1,150.449994719925,6|0,0:0|0:0,0:0:0:0:
336,20,94066,2,0,P|320:80|364:152,1,150.449994719925,8|0,0:0|0:0,0:0:0:0:
420,192,94419,1,2,0:0:0:0:
320,260,94595,1,0,3:0:0:0:
416,72,94771,1,8,0:0:0:0:
488,292,94948,1,0,3:0:0:0:
420,192,95124,6,0,P|368:176|320:180,1,100.29999647995,2|0,0:0|3:0,0:0:0:0:
204,284,95477,1,8,0:0:0:0:
320,260,95654,1,0,3:0:0:0:
116,360,95830,1,6,0:0:0:0:
204,284,96007,1,0,1:0:0:0:
204,260,96095,1,8,0:0:0:0:
204,236,96183,1,2,0:0:0:0:
200,40,96360,1,2,0:0:0:0:
44,168,96536,6,0,L|120:232,1,100.29999647995,12|2,1:2|0:0,0:0:0:0:
468,216,96889,2,0,L|392:152,1,100.29999647995,12|2,1:2|0:0,0:0:0:0:
28,196,97242,2,0,L|128:236,1,100.29999647995,12|2,1:2|0:0,0:0:0:0:
484,188,97595,2,0,L|384:148,1,100.29999647995,12|8,1:2|0:0,0:0:0:0:
252,96,97948,5,12,0:0:0:0:
252,96,98036,1,8,0:0:0:0:
252,96,98124,1,2,0:0:0:0:
356,268,98301,1,2,0:0:0:0:
156,268,98477,1,12,0:0:0:0:
252,96,98654,5,2,0:0:0:0:
288,108,98742,1,2,0:0:0:0:
316,136,98830,1,0,1:0:0:0:
328,176,98919,1,0,1:0:0:0:
316,216,99007,1,8,0:0:0:0:
292,248,99095,1,8,0:0:0:0:
256,264,99183,1,8,0:0:0:0:
216,264,99271,1,8,0:0:0:0:
180,244,99360,5,6,0:0:0:0:
172,84,99536,1,0,3:0:0:0:
240,180,99713,1,8,0:0:0:0:
96,112,99889,1,0,3:0:0:0:
84,272,100066,1,2,0:0:0:0:
160,168,100242,1,0,3:0:0:0:
180,328,100419,1,8,0:0:0:0:
240,180,100595,1,0,3:0:0:0:
84,272,100771,6,0,P|44:236|36:184,1,100.29999647995,2|0,0:0|3:0,0:0:0:0:
88,40,101124,2,0,B|108:64|108:64|144:40|192:40,1,100.29999647995,8|0,0:0|3:0,0:0:0:0:
200,40,101389,1,8,0:0:0:0:
224,44,101477,1,2,0:0:0:0:
421,128,101654,1,0,3:0:0:0:
210,177,101830,1,8,0:0:0:0:
353,12,102007,1,0,3:0:0:0:
333,230,102183,6,0,B|316:272|336:308|336:308|312:320,1,100.29999647995,6|0,0:0|3:0,0:0:0:0:
210,177,102536,2,0,P|242:121|283:108,1,100.29999647995,8|0,0:0|3:0,0:0:0:0:
196,360,102889,2,0,P|144:356|100:328,1,100.29999647995,2|0,0:0|3:0,0:0:0:0:
100,160,103242,1,8,0:0:0:0:
180,244,103419,1,0,3:0:0:0:
48,272,103595,5,6,0:0:0:0:
108,80,103771,1,2,0:0:0:0:
240,232,103948,1,8,0:0:0:0:
52,300,104124,5,6,0:0:0:0:
76,100,104301,1,2,0:0:0:0:
108,80,104389,1,2,0:0:0:0:
144,68,104477,1,2,0:0:0:0:
184,64,104566,1,2,0:0:0:0:
224,68,104654,1,12,0:0:0:0:
240,232,104830,1,2,0:0:0:0:
372,40,105007,5,6,0:0:0:0:
432,172,105183,1,0,3:0:0:0:
440,88,105360,1,8,0:0:0:0:
352,196,105536,1,0,3:0:0:0:
292,64,105713,1,2,0:0:0:0:
440,88,105889,1,0,3:0:0:0:
284,148,106066,1,8,0:0:0:0:
372,40,106242,1,0,3:0:0:0:
352,196,106419,6,0,P|312:232|264:228,1,100.29999647995,2|0,0:0|3:0,0:0:0:0:
212,92,106771,2,0,P|263:108|283:152,1,100.29999647995,8|0,0:0|3:0,0:0:0:0:
192,264,107124,2,0,P|180:211|208:171,1,100.29999647995,2|0,0:0|3:0,0:0:0:0:
352,196,107477,1,8,0:0:0:0:
212,92,107654,1,0,3:0:0:0:
192,264,107830,6,0,P|204:316|268:360,1,100.29999647995,6|0,0:0|3:0,0:0:0:0:
212,92,108183,2,0,P|160:76|90:109,1,100.29999647995,8|0,0:0|3:0,0:0:0:0:
352,196,108536,2,0,P|391:159|397:82,1,100.29999647995,2|0,0:0|3:0,0:0:0:0:
404,76,108801,1,0,1:0:0:0:
396,36,108889,1,0,3:0:0:0:
124,148,109066,5,0,1:0:0:0:
104,184,109154,1,8,0:0:0:0:
84,220,109242,1,2,0:0:0:0:
256,92,109419,5,0,0:0:0:0:
256,92,109507,1,0,1:0:0:0:
256,92,109595,1,8,0:0:0:0:
388,148,109771,5,0,0:0:0:0:
408,184,109860,1,8,0:0:0:0:
428,220,109948,1,2,0:0:0:0:
256,192,110124,5,0,1:0:0:0:
180,276,110301,1,8,0:0:0:0:
216,296,110389,1,0,1:0:0:0:
256,304,110477,1,8,0:0:0:0:
296,296,110566,1,8,0:0:0:0:
332,276,110654,1,6,0:0:0:0:
256,192,110830,5,0,0:0:0:0:
180,276,111007,1,8,1:2:0:0:
256,92,111183,1,0,0:0:0:0:
352,208,111360,1,8,1:2:0:0:
204,192,111536,1,2,0:0:0:0:
344,136,111713,1,8,1:2:0:0:
196,124,111889,1,2,0:0:0:0:
288,240,112066,6,0,L|336:344,1,100.29999647995,8|0,1:2|0:0,0:0:0:0:
480,176,112419,2,0,L|432:72,1,100.29999647995,8|2,1:2|0:0,0:0:0:0:
424,60,112683,1,2,0:0:0:0:
412,32,112771,1,8,1:2:0:0:
396,184,112948,1,2,0:0:0:0:
488,24,113124,1,8,1:2:0:0:
480,176,113301,1,2,0:0:0:0:
344,92,113477,6,0,P|288:76|244:84,1,100.29999647995,6|0,0:2|0:0,0:0:0:0:
236,232,113830,2,0,P|292:248|336:240,1,100.29999647995,8|0,1:2|0:0,0:0:0:0:
432,128,114183,1,8,1:2:0:0:
424,276,114360,1,2,0:0:0:0:
488,64,114536,1,12,1:2:0:0:
468,204,114713,1,2,0:0:0:0:
344,64,114889,5,8,0:0:0:0:
176,136,115066,1,2,0:0:0:0:
372,180,115242,1,2,0:0:0:0:
176,260,115419,5,12,0:0:0:0:
176,136,115595,1,2,0:0:0:0:
276,332,115771,1,2,0:0:0:0:
484,256,115948,1,8,0:0:0:0:
492,216,116036,1,0,1:0:0:0:
492,176,116124,1,8,0:0:0:0:
484,136,116213,1,8,0:0:0:0:
472,100,116301,6,0,L|372:56,1,100.29999647995,6|0,0:0|3:0,0:0:0:0:
276,208,116654,2,0,L|372:180,1,100.29999647995,8|0,0:0|3:0,0:0:0:0:
436,348,117007,1,2,0:0:0:0:
308,112,117183,1,0,3:0:0:0:
276,332,117360,1,8,0:0:0:0:
428,256,117536,1,0,3:0:0:0:
276,208,117713,6,0,P|224:216|184:252,1,100.29999647995,2|0,0:0|3:0,0:0:0:0:
104,360,118066,2,0,L|72:264,1,100.29999647995,8|0,0:0|3:0,0:0:0:0:
60,228,118330,1,2,0:0:0:0:
48,188,118419,1,0,1:0:0:0:
172,40,118595,1,0,1:0:0:0:
172,40,118683,1,0,1:0:0:0:
172,40,118771,1,8,0:0:0:0:
44,64,118948,1,2,0:0:0:0:
176,164,119124,6,0,L|292:164,1,100.29999647995,12|0,0:0|0:0,0:0:0:0:
456,296,119477,2,0,L|340:296,1,100.29999647995,8|0,0:0|0:0,0:0:0:0:
168,148,119830,2,0,L|284:148,1,100.29999647995,8|2,0:0|0:0,0:0:0:0:
464,312,120183,2,0,L|348:312,1,100.29999647995,8|2,0:0|0:0,0:0:0:0:
144,368,120536,6,0,P|148:312|136:260,1,100.29999647995,8|0,0:0|0:0,0:0:0:0:
368,16,120889,2,0,P|364:72|376:124,1,100.29999647995,8|0,0:0|0:0,0:0:0:0:
464,312,121242,1,8,0:0:0:0:
464,312,121330,1,8,0:0:0:0:
464,312,121419,1,2,0:0:0:0:
276,216,121595,1,8,0:0:0:0:
328,348,121771,1,2,0:0:0:0:
368,212,121948,6,0,P|352:160|312:132,1,100.29999647995,6|0,0:0|0:0,0:0:0:0:
164,232,122301,2,0,P|217:244|261:223,1,100.29999647995,8|0,0:0|0:0,0:0:0:0:
248,44,122654,2,0,P|210:83|206:132,1,100.29999647995,8|2,0:0|0:0,0:0:0:0:
320,268,123007,1,8,0:0:0:0:
304,128,123183,1,0,1:0:0:0:
188,304,123360,6,0,L|88:280,1,100.29999647995,6|0,0:0|0:0,0:0:0:0:
324,80,123713,2,0,L|424:104,1,100.29999647995,8|2,0:0|0:0,0:0:0:0:
160,332,124066,2,0,L|60:308,1,100.29999647995,8|2,0:0|0:0,0:0:0:0:
352,52,124419,2,0,L|452:76,1,100.29999647995,8|2,0:0|0:0,0:0:0:0:
392,136,124683,1,0,1:0:0:0:
392,136,124771,6,0,P|372:180|376:232,1,100.29999647995,12|2,0:0|0:0,0:0:0:0:
448,352,125124,1,8,0:0:0:0:
468,152,125301,1,8,0:0:0:0:
384,264,125477,1,2,0:0:0:0:
264,80,125654,1,8,0:0:0:0:
224,76,125742,1,8,0:0:0:0:
184,84,125830,1,0,1:0:0:0:
156,112,125919,1,0,1:0:0:0:
144,152,126007,1,0,1:0:0:0:
152,192,126095,1,0,1:0:0:0:
176,224,126183,6,0,P|156:300|56:292,1,191.250007295609,6|8,0:0|0:0,0:0:0:0:
156,112,126889,6,0,L|356:132,1,200.5999929599,6|8,0:0|0:3,0:0:0:0:
188,344,127419,1,4,0:3:0:0:
76,100,127595,1,6,0:0:0:0:
256,192,127683,12,2,129889,0:0:0:0:
256,192,130066,5,8,0:0:0:0:
256,192,130419,1,6,0:0:0:0:
172,72,138609,5,0,0:0:0:0:
104,124,138984,1,0,0:0:0:0:
168,236,139546,2,0,L|164:256,2,14.1666666666667
172,224,139734,2,0,L|260:216,1,85
400,48,140859,5,0,0:0:0:0:
456,112,141234,1,0,0:0:0:0:
420,236,141796,2,0,L|428:220,2,14.1666666666667
412,248,141984,2,0,L|324:260,1,85
136,128,142734,1,0,0:0:0:0:
152,208,142921,1,0,0:0:0:0:
212,156,143109,6,0,L|216:72,1,85
300,168,144046,2,0,L|308:192,3,14.1666666666667
300,168,144609,1,0,0:0:0:0:
292,336,145359,5,0,0:0:0:0:
220,292,145734,1,0,0:0:0:0:
96,328,146296,2,0,L|104:352,2,14.1666666666667
88,316,146484,2,0,L|92:228,1,85
192,56,147234,1,0,0:0:0:0:
156,120,147421,1,0,0:0:0:0:
184,192,147609,6,0,P|208:212|264:224,1,85
380,180,148546,2,0,L|396:188,3,14.1666666666667
380,180,149109,1,0,0:0:0:0:
380,180,149859,5,0,0:0:0:0:
368,264,150234,1,0,0:0:0:0:
256,324,150796,2,0,L|260:348,3,14.1666666666667
256,324,151359,2,0,L|280:288,1,42.5,0|0,0:0|2:0,0:0:0:0:
92,340,151734,1,0,0:0:0:0:
144,244,151921,1,0,0:0:0:0:
76,160,152109,6,0,L|72:72,1,85
184,132,153046,2,0,L|168:152,3,14.1666666666667
184,132,153609,1,0,0:0:0:0:
296,260,154359,5,0,0:0:0:0:
272,180,154734,1,0,0:0:0:0:
352,80,155296,2,0,L|352:96,3,14.1666666666667
424,48,155859,2,0,L|428:32,2,14.1666666666667
476,136,156234,1,0,0:0:0:0:
472,236,156421,1,10,0:0:0:0:
464,256,156515,1,10,0:0:0:0:
456,276,156609,6,0,P|416:296|380:300,1,79.8999987808228,14|0,1:0|2:0,0:0:0:0:
288,272,156984,2,0,P|236:272|204:280,1,79.8999987808228,2|0,1:2|0:0,0:0:0:0:
120,320,157359,2,0,P|84:276|112:172,1,159.799997561646,2|2,0:0|1:2,0:0:0:0:
102,181,158109,6,0,L|64:104,1,79.8999987808228,2|2,1:0|0:0,0:0:0:0:
192,32,158484,2,0,L|148:108,1,79.8999987808228,2|0,0:2|0:0,0:0:0:0:
56,268,158859,6,0,P|136:240|196:288,1,159.799997561646,0|0,1:0|1:0,0:0:0:0:
191,280,159609,2,0,L|288:284,1,79.8999987808228,2|0,0:0|0:0,0:0:0:0:
308,160,159984,2,0,P|268:176|248:208,1,79.8999987808228,2|0,1:0|0:0,0:0:0:0:
216,84,160359,2,0,B|220:52|204:24|204:24|248:44|300:28,1,159.799997561646,2|0,1:2|1:0,0:0:0:0:
376,68,160921,1,0,1:0:0:0:
216,84,161109,6,0,L|112:96,1,79.8999987808228,2|0,1:0|0:0,0:0:0:0:
44,196,161484,2,0,L|148:184,1,79.8999987808228,2|0,1:2|0:0,0:0:0:0:
256,188,161859,2,0,P|240:236|244:268,1,79.8999987808228,2|0,0:0|0:0,0:0:0:0:
376,292,162234,2,0,P|392:244|388:212,1,79.8999987808228,2|0,1:0|0:0,0:0:0:0:
344,88,162609,6,0,B|276:84|236:20|236:20|252:44|252:76|252:76|228:144|156:152,1,319.599995123291,0|2,1:0|1:2,0:0:0:0:
24,56,163734,6,0,L|36:136,1,79.8999987808228,2|2,1:2|0:1,0:0:0:0:
72,264,164109,2,0,P|108:276|156:272,1,79.8999987808228,2|0,0:0|0:0,0:0:0:0:
260,196,164484,2,0,L|352:200,1,79.8999987808228,2|0,1:2|0:0,0:0:0:0:
463,252,164859,2,0,P|473:173|424:100,1,159.799997561646,0|2,1:0|1:2,0:0:0:0:
324,136,165421,1,0,1:0:0:0:
244,56,165609,6,0,L|144:52,1,79.8999987808228,2|0,1:0|0:0,0:0:0:0:
64,136,165984,2,0,L|164:140,1,79.8999987808228,2|0,1:2|0:0,0:0:0:0:
320,212,166359,2,0,P|316:260|304:292,1,79.8999987808228,2|0,0:0|0:0,0:0:0:0:
176,292,166734,2,0,P|168:240|240:168,1,159.799997561646,2|0,1:0|1:0,0:0:0:0:
320,212,167296,5,2,0:0:0:0:
412,200,167484,2,0,P|436:152|396:60,1,159.799997561646,0|0,0:0|1:0,0:0:0:0:
172,48,168234,1,2,1:0:0:0:
276,84,168421,1,2,0:0:0:0:
192,156,168609,2,0,L|100:148,1,79.8999987808228,0|2,0:0|0:0,0:0:0:0:
88,148,168890,1,2,0:0:0:0:
64,148,168984,6,0,P|76:180|76:228,1,79.8999987808228,2|0,1:2|0:0,0:0:0:0:
56,320,169359,2,0,P|108:304|212:332,1,159.799997561646,2|0,1:2|1:0,0:0:0:0:
312,372,169921,1,0,1:0:0:0:
388,288,170109,6,0,L|400:208,1,79.8999987808228,2|2,1:0|0:0,0:0:0:0:
404,96,170484,2,0,P|376:128|340:144,1,79.8999987808228,0|0,1:0|0:0,0:0:0:0:
232,148,170859,2,0,P|184:164|160:276,1,159.799997561646,2|2,0:0|1:0,0:0:0:0:
232,148,171609,6,0,B|152:104|60:144|60:144|104:68|168:60,1,319.599995123291,0|0,1:0|1:0,0:0:0:0:
166,60,172734,6,0,L|280:56,1,79.8999987808228,2|0,1:0|0:0,0:0:0:0:
60,144,173109,2,0,L|28:60,1,79.8999987808228,0|2,0:0|0:0,0:0:0:0:
172,180,173484,1,0,1:0:0:0:
172,180,173859,2,0,L|184:208,2,26.6333329269409,0|0|0,1:0|1:0|1:0,0:0:0:0:
60,144,174234,1,0,1:0:0:0:
64,264,174421,1,10,1:0:0:0:
68,296,174515,1,10,1:0:0:0:
72,328,174609,6,0,P|116:316|152:320,1,79.8999987808228,14|0,1:0|0:0,0:0:0:0:
244,344,174984,2,0,P|308:340|324:332,1,79.8999987808228,2|2,0:0|0:0,0:0:0:0:
388,268,175359,2,0,L|380:184,1,79.8999987808228,0|2,0:0|0:0,0:0:0:0:
364,92,175734,2,0,P|320:128|224:112,1,159.799997561646,0|2,1:0|1:2,0:0:0:0:
152,48,176296,1,0,0:0:0:0:
108,132,176484,1,2,0:1:0:0:
60,48,176671,1,2,0:0:0:0:
56,68,176765,1,2,0:0:0:0:
52,88,176859,6,0,L|88:256,1,159.799997561646,0|0,1:0|1:0,0:0:0:0:
180,304,177421,1,0,0:0:0:0:
276,244,177609,2,0,P|332:244|360:256,1,79.8999987808228,2|2,0:0|0:0,0:0:0:0:
180,304,177984,2,0,P|164:236|208:156,1,159.799997561646,2|0,1:0|1:0,0:0:0:0:
404,56,178734,1,2,1:2:0:0:
320,128,178921,1,0,1:0:0:0:
212,156,179109,6,0,L|120:124,1,79.8999987808228,2|0,1:0|0:0,0:0:0:0:
180,232,179484,2,0,P|180:292|164:312,1,79.8999987808228,2|0,1:2|0:0,0:0:0:0:
72,360,179859,1,2,0:0:0:0:
180,232,180046,1,2,0:0:0:0:
300,348,180234,6,0,P|397:315|460:288,1,159.799997561646,2|2,1:0|1:2,0:0:0:0:
352,240,180796,1,2,0:0:0:0:
444,172,180984,1,2,0:0:0:0:
336,140,181171,1,0,0:0:0:0:
388,40,181359,6,0,P|312:56|228:40,1,159.799997561646,2|0,1:2|1:0,0:0:0:0:
124,24,181921,1,2,0:0:0:0:
68,120,182109,1,2,0:1:0:0:
68,120,182484,6,0,L|124:280,1,159.799997561646,2|0,1:2|1:0,0:0:0:0:
360,256,183234,1,0,1:0:0:0:
316,368,183421,1,0,1:0:0:0:
360,256,183609,6,0,P|360:212|348:168,1,79.8999987808228,2|0,1:0|0:0,0:0:0:0:
316,368,183984,2,0,P|404:364|464:316,1,159.799997561646,2|0,1:2|0:0,0:0:0:0:
360,256,184546,1,0,0:0:0:0:
240,276,184734,2,0,L|148:260,1,79.8999987808228,2|0,1:0|0:0,0:0:0:0:
108,156,185109,6,0,P|152:168|256:128,1,159.799997561646,2|0,1:2|0:0,0:0:0:0:
164,52,185671,1,0,0:0:0:0:
108,156,185859,2,0,L|144:332,1,159.799997561646,2|2,1:2|1:0,0:0:0:0:
256,280,186421,1,2,0:0:0:0:
371,312,186609,2,0,L|404:156,1,159.799997561646,2|2,0:0|1:2,0:0:0:0:
404,156,187359,6,0,L|380:168,2,26.6333329269409,2|0|0,1:0|1:0|1:0,0:0:0:0:
428,144,187734,1,2,1:2:0:0:
308,136,187921,1,0,1:0:0:0:
224,48,188109,1,2,1:0:0:0:
184,284,188484,6,0,P|196:233|196:200,1,79.8999987808228,2|0,1:2|0:0,0:0:0:0:
300,268,188859,2,0,P|287:319|288:352,2,79.8999987808228,2|2|0,0:0|0:0|1:0,0:0:0:0:
396,212,189421,1,2,0:0:0:0:
420,104,189609,6,0,L|328:88,1,79.8999987808228,2|0,1:0|0:0,0:0:0:0:
140,92,189984,2,0,L|232:108,1,79.8999987808228,2|0,0:2|0:0,0:0:0:0:
332,268,190359,2,0,P|300:268|172:248,1,159.799997561646,2|2,1:2|1:0,0:0:0:0:
308,384,190921,5,0,0:0:0:0:
424,344,191109,2,0,P|456:280|428:200,1,159.799997561646,2|2,0:0|1:0,0:0:0:0:
212,308,191859,2,0,L|184:328,2,26.6333329269409,2|0|0,1:0|1:0|1:0,0:0:0:0:
232,296,192234,1,2,1:2:0:0:
124,204,192421,1,2,1:0:0:0:
108,224,192515,1,2,1:0:0:0:
92,244,192609,6,0,L|76:164,2,79.8999987808228,14|0|2,1:0|0:0|0:0,0:0:0:0:
56,332,193171,1,2,0:0:0:0:
92,244,193359,2,0,P|160:212|240:232,1,159.799997561646,2|0,0:0|1:0,0:0:0:0:
239,231,194109,6,0,B|288:224|328:168|320:88|272:72|272:72|236:56|180:76|176:124,1,319.599995123291,2|0,1:0|1:0,0:0:0:0:
240,232,195234,6,0,L|320:232,1,79.8999987808228,0|0,1:0|0:0,0:0:0:0:
396,364,195609,2,0,P|380:332|384:288,1,79.8999987808228,2|2,0:0|0:0,0:0:0:0:
448,232,195984,2,0,P|452:192|435:157,1,79.8999987808228,2|0,1:0|0:0,0:0:0:0:
336,104,196359,2,0,L|308:96,2,26.6333329269409,2|0|0,1:2|1:0|1:0,0:0:0:0:
336,104,196734,1,2,1:2:0:0:
288,188,196921,1,0,1:0:0:0:
200,228,197109,6,0,P|136:236|116:232,1,79.8999987808228,0|0,1:0|0:0,0:0:0:0:
288,188,197484,2,0,P|326:239|333:258,1,79.8999987808228,2|2,1:0|0:0,0:0:0:0:
212,136,197859,2,0,P|237:76|250:61,1,79.8999987808228,0|2,0:0|0:0,0:0:0:0:
128,172,198234,6,0,P|100:220|148:304,1,159.799997561646,0|0,1:0|1:0,0:0:0:0:
240,324,198796,1,2,0:0:0:0:
336,320,198984,2,0,L|440:296,1,79.8999987808228,0|2,0:0|0:0,0:0:0:0:
356,144,199359,6,0,P|340:188|356:220,1,79.8999987808228,2|0,1:0|0:0,0:0:0:0:
444,76,199734,2,0,P|416:44|372:36,1,79.8999987808228,0|0,1:0|0:0,0:0:0:0:
276,80,200109,2,0,L|196:76,1,79.8999987808228,2|2,0:0|0:0,0:0:0:0:
24,160,200484,6,0,L|184:168,1,159.799997561646,2|0,1:0|1:0,0:0:0:0:
372,180,201234,1,2,1:2:0:0:
272,280,201422,1,0,1:0:0:0:
183,167,201609,6,0,P|192:116|212:92,1,79.8999987808228,2|0,1:2|0:0,0:0:0:0:
372,180,201984,2,0,P|336:180|296:164,1,79.8999987808228,2|2,1:0|0:0,0:0:0:0:
195,263,202359,2,0,P|231:263|271:279,1,79.8999987808228,2|0,0:0|0:0,0:0:0:0:
428,368,202734,2,0,P|349:371|256:368,1,159.799997561646,2|2,1:2|1:2,0:0:0:0:
116,320,203296,6,0,P|100:280|100:240,1,79.8999987808228,2|0,0:0|0:0,0:0:0:0:
96,84,203671,2,0,P|124:104|168:112,1,79.8999987808228,2|2,0:0|1:0,0:0:0:0:
444,64,204234,6,0,P|408:124|440:204,1,159.799997561646,0|2,1:0|0:0,0:0:0:0:
472,312,204796,1,0,0:0:0:0:
360,332,204984,2,0,P|316:328|280:320,1,79.8999987808228,2|0,1:2|0:0,0:0:0:0:
288,208,205359,2,0,P|248:189|216:169,1,79.8999987808228,2|0,1:2|0:0,0:0:0:0:
180,64,205734,2,0,P|140:64|92:72,1,79.8999987808228,2|0,1:0|1:0,0:0:0:0:
32,240,206109,6,0,P|64:212|88:184,1,79.8999987808228,2|0,1:0|0:0,0:0:0:0:
217,170,206484,2,0,P|251:191|288:208,1,79.8999987808228,2|0,1:2|0:0,0:0:0:0:
456,272,206859,2,0,P|420:272|380:296,1,79.8999987808228,2|0,0:0|0:0,0:0:0:0:
280,372,207234,6,0,P|296:328|304:288,1,79.8999987808228,2|0,1:0|0:0,0:0:0:0:
324,72,207609,2,0,P|352:116|392:140,1,79.8999987808228,2|0,1:2|0:0,0:0:0:0:
456,272,207984,2,0,L|376:248,1,79.8999987808228,2|0,0:0|0:0,0:0:0:0:
140,176,208359,5,8,0:3:0:0:
140,176,208546,2,0,P|184:144|192:112,1,79.8999987808228,4|0,0:3|0:0,0:0:0:0:
48,164,208921,1,4,0:3:0:0:
84,244,209109,1,2,0:0:0:0:
104,96,209296,2,0,P|54:73|22:82,1,79.8999987808228,4|2,0:3|1:0,0:0:0:0:
80,263,209859,6,0,L|84:243,7,19.9749996952057,0|0|0|0|0|0|0|0,0:0|1:0|1:0|1:0|0:0|1:0|1:0|1:0,0:0:0:0:
100,303,210234,6,0,L|96:323,7,19.9749996952057,0|0|0|0|0|0|0|0,0:0|1:0|1:0|1:0|1:0|1:0|1:0|1:0,0:0:0:0:
136,271,210609,6,0,P|196:247|300:287,1,176.799998920898,8|0,1:0|0:0,0:0:0:0:
260,196,228609,5,12,1:2:0:0:
260,196,228984,1,0,1:0:0:0:
260,196,229171,1,8,0:0:0:0:
260,196,229359,1,2,1:0:0:0:
260,196,229546,1,0,2:0:0:0:
260,196,229734,1,8,1:0:0:0:
260,196,230109,1,2,1:0:0:0:
260,196,230296,1,0,2:0:0:0:
260,196,230484,1,2,1:0:0:0:
260,196,230671,1,0,2:0:0:0:
260,196,230859,1,10,1:2:0:0:
260,196,231234,1,0,1:0:0:0:
264,200,231421,1,8,0:0:0:0:
264,200,231609,1,2,1:0:0:0:
264,200,231796,1,0,0:0:0:0:
260,196,231984,1,8,1:0:0:0:
260,196,232359,1,2,1:0:0:0:
260,196,232734,1,2,1:0:0:0:
264,200,233109,1,10,1:2:0:0:
260,196,233484,1,0,1:0:0:0:
260,196,233671,1,8,0:0:0:0:
260,196,233859,1,2,1:0:0:0:
260,196,234234,1,8,1:0:0:0:
256,196,234609,1,2,1:0:0:0:
260,196,234984,1,2,1:0:0:0:
264,200,235359,1,10,1:2:0:0:
260,196,235546,1,2,0:0:0:0:
260,196,235734,1,2,1:0:0:0:
260,196,235921,1,8,0:0:0:0:
260,196,236109,1,2,1:0:0:0:
260,196,236484,1,12,1:0:0:0:
256,196,236859,1,2,1:0:0:0:
256,196,237234,1,2,1:0:0:0:
256,184,237609,1,12,1:2:0:0:
256,184,237984,1,0,1:0:0:0:
256,176,238171,1,8,0:0:0:0:
256,184,238359,1,2,1:0:0:0:
256,184,238734,1,8,1:0:0:0:
256,184,239109,1,2,1:0:0:0:
256,184,239296,1,8,0:0:0:0:
256,184,239484,1,0,1:0:0:0:
256,184,239671,1,8,0:0:0:0:
256,184,239859,1,6,1:0:0:0:
256,184,240234,1,0,1:0:0:0:
256,184,240421,1,8,0:0:0:0:
256,184,240609,1,2,1:0:0:0:
256,184,240984,1,8,1:0:0:0:
256,184,241359,1,2,1:0:0:0:
256,184,241734,1,2,1:0:0:0:
256,184,242109,1,10,1:2:0:0:
248,180,242484,1,4,1:0:0:0:
256,184,242671,1,8,0:0:0:0:
248,184,242859,1,2,1:0:0:0:
256,184,243234,1,8,1:0:0:0:
256,184,243609,1,6,1:0:0:0:
256,184,243984,1,2,1:0:0:0:
256,184,244359,1,10,1:2:0:0:
256,184,244546,1,2,0:0:0:0:
256,184,244734,1,0,1:0:0:0:
256,184,244921,1,10,0:0:0:0:
256,184,245109,1,2,1:0:0:0:
256,184,245484,1,12,1:0:0:0:
256,184,245859,1,2,1:0:0:0:
256,184,246046,1,2,0:0:0:0:
256,184,246234,2,0,L|276:172,8,24.2249997042847,0|0|0|0|0|0|0|0|12,0:0|0:0|0:0|0:0|1:0|1:0|1:0|1:0|1:2,0:0:0:0:
256,184,246984,1,4,1:0:0:0:
256,184,247171,1,8,0:0:0:0:
256,184,247359,1,2,1:0:0:0:
256,184,247734,1,8,1:0:0:0:
256,188,264609,5,14,0:2:0:0:
256,188,264984,1,8,2:1:0:0:
256,188,265171,1,8,0:0:0:0:
256,188,265359,1,8,2:1:0:0:
256,188,265734,1,10,0:2:0:0:
256,188,266109,1,8,0:1:0:0:
256,188,266296,1,2,0:1:0:0:
256,188,266484,1,8,3:1:0:0:
256,188,266671,1,2,0:1:0:0:
256,188,266859,1,2,3:1:0:0:
256,188,267234,1,8,0:1:0:0:
256,188,267421,1,8,0:0:0:0:
256,188,267609,1,2,0:0:0:0:
256,188,267796,1,8,0:0:0:0:
256,188,267984,1,8,3:1:0:0:
256,188,268359,1,8,0:0:0:0:
256,188,268546,1,8,0:0:0:0:
256,188,268734,1,12,0:1:0:0:
256,188,268921,1,8,0:0:0:0:
256,188,269109,1,12,3:2:0:0:
256,188,269484,1,8,0:1:0:0:
256,188,269671,1,8,0:0:0:0:
256,188,269859,1,8,0:1:0:0:
256,188,270234,1,2,3:1:0:0:
256,188,270421,1,8,0:0:0:0:
256,188,270609,1,8,3:1:0:0:
256,188,270984,1,8,3:1:0:0:
256,188,271359,1,8,3:2:0:0:
256,188,271546,1,8,0:0:0:0:
256,188,271734,1,8,0:1:0:0:
256,188,271921,1,10,0:0:0:0:
256,188,272109,1,8,0:1:0:0:
256,188,272296,1,8,0:0:0:0:
256,188,272484,1,6,3:1:0:0:
256,188,272859,1,8,0:1:0:0:
256,188,272952,1,2,0:1:0:0:
256,188,273234,1,8,0:1:0:0:
256,188,273421,1,8,0:0:0:0:
256,188,273609,1,12,3:2:0:0:
256,188,277359,1,12,0:1:0:0:
256,188,277546,1,8,0:0:0:0:
256,188,277734,1,8,0:1:0:0:
256,188,277827,1,8,0:1:0:0:
256,188,277921,1,8,0:0:0:0:
256,188,278015,1,8,0:2:0:0:
256,188,278109,1,12,3:2:0:0:
256,188,278484,1,4,0:1:0:0:
256,188,278671,1,8,0:0:0:0:
256,188,278859,1,8,0:1:0:0:
256,188,279046,1,8,0:0:0:0:
256,188,279234,1,8,3:1:0:0:
256,188,279609,1,8,3:2:0:0:
256,188,279796,1,8,0:0:0:0:
256,188,279984,1,8,3:1:0:0:
256,188,280359,1,8,3:2:0:0:
256,188,280734,1,0,0:0:0:0:
256,188,280921,1,0,0:0:0:0:
256,188,281109,1,0,0:0:0:0:
256,188,281296,1,8,0:0:0:0:
256,188,281484,1,12,3:1:0:0:
256,188,281671,1,8,0:1:0:0:
256,188,281765,1,8,0:1:0:0:
256,188,281859,1,8,0:0:0:0:
256,188,282046,1,8,0:1:0:0:
256,188,282140,1,8,0:1:0:0:
256,188,282234,1,8,0:0:0:0:
256,188,282421,1,8,0:0:0:0:
256,188,282609,5,12,3:2:0:0:
256,188,282984,1,8,1:0:0:0:
256,188,283171,1,8,0:0:0:0:
256,188,283359,1,8,1:0:0:0:
256,188,283546,1,0,0:0:0:0:
256,188,283734,1,8,3:2:0:0:
256,188,283921,1,0,0:0:0:0:
256,188,284109,1,8,3:1:0:0:
256,188,284296,1,8,0:0:0:0:
256,188,284484,1,8,3:1:0:0:
256,188,284859,1,6,3:1:0:0:
256,188,285234,1,8,1:0:0:0:
256,188,285421,1,10,0:0:0:0:
256,188,285609,1,8,1:0:0:0:
256,188,285796,1,8,0:0:0:0:
256,188,285984,1,8,3:2:0:0:
256,188,286359,1,8,1:0:0:0:
256,188,286546,1,8,0:0:0:0:
256,188,286640,1,8,0:0:0:0:
256,188,286734,1,8,0:1:0:0:
256,188,286921,1,8,0:0:0:0:
256,188,287109,1,12,3:2:0:0:
256,188,287484,1,8,1:0:0:0:
256,188,287671,1,8,0:0:0:0:
256,188,287859,1,8,1:0:0:0:
256,188,288046,1,8,0:0:0:0:
256,188,288234,1,0,3:0:0:0:
256,188,288421,1,8,0:1:0:0:
256,188,288609,1,8,3:2:0:0:
256,188,288796,1,8,0:0:0:0:
256,188,288984,1,8,3:1:0:0:
256,188,289359,1,8,3:2:0:0:
256,188,289734,1,12,1:0:0:0:
256,188,289921,1,10,0:0:0:0:
256,188,290109,1,8,1:0:0:0:
256,188,290296,1,8,0:0:0:0:
256,188,290484,1,8,3:2:0:0:
256,188,290859,1,12,1:0:0:0:
256,188,291046,1,8,0:1:0:0:
256,188,291140,1,8,0:1:0:0:
256,188,291234,1,8,1:2:0:0:
256,188,291327,1,8,0:0:0:0:
256,188,291421,1,8,0:1:0:0:
256,188,291515,1,8,0:1:0:0:
256,188,291609,1,12,3:2:0:0:
256,188,291984,1,12,1:0:0:0:
256,188,292171,1,10,0:0:0:0:
256,188,292359,1,8,1:2:0:0:
256,188,292546,1,10,0:0:0:0:
256,188,292734,1,8,3:1:0:0:
256,188,293109,1,8,3:1:0:0:
256,188,293484,1,8,3:1:0:0:
256,188,293859,1,6,3:1:0:0:
256,188,294046,1,8,0:0:0:0:
256,188,294234,1,8,1:0:0:0:
256,188,294421,1,10,0:0:0:0:
256,188,294609,1,8,1:0:0:0:
256,188,294702,1,8,0:0:0:0:
256,188,294796,1,8,0:0:0:0:
256,188,294984,1,8,3:2:0:0:
256,188,295171,1,2,0:0:0:0:
256,188,295359,1,8,1:2:0:0:
256,188,295546,1,0,0:0:0:0:
256,188,295734,1,8,0:0:0:0:
256,188,295921,1,0,0:0:0:0:
256,188,296109,1,12,3:2:0:0:
256,192,300609,12,0,304734,0:0:0:0:
256,192,305109,12,0,309234,0:0:0:0:
176,124,314988,5,0,1:0:0:0:
324,112,315159,1,0,1:0:0:0:
336,260,315330,1,0,1:0:0:0:
188,272,315502,1,0,1:0:0:0:
248,84,315673,5,0,1:0:0:0:
364,184,315845,1,0,1:0:0:0:
264,300,316016,1,0,1:0:0:0:
148,200,316188,1,0,1:0:0:0:
152,104,316359,5,0,1:0:0:0:
360,280,316530,1,0,1:0:0:0:
344,88,316702,1,0,1:0:0:0:
168,296,316873,1,0,1:0:0:0:
244,52,317045,5,0,1:0:0:0:
116,204,317216,1,0,1:0:0:0:
268,332,317388,1,0,1:0:0:0:
396,180,317559,1,0,1:0:0:0:
176,40,317730,5,0,1:0:0:0:
152,48,317816,1,0,1:0:0:0:
132,64,317902,1,0,1:0:0:0:
120,88,317988,1,0,1:0:0:0:
120,112,318073,1,0,1:0:0:0:
132,136,318159,1,0,1:0:0:0:
152,152,318245,1,0,1:0:0:0:
176,160,318330,1,0,1:0:0:0:
200,172,318416,1,0,1:0:0:0:
216,192,318502,1,0,1:0:0:0:
224,216,318588,1,0,1:0:0:0:
224,240,318673,1,0,1:0:0:0:
216,264,318759,6,0,L|168:304,1,42.5,0|0,1:0|1:0,0:0:0:0:
296,264,318930,2,0,L|344:224,1,42.5,0|0,1:0|1:0,0:0:0:0:
388,152,319102,6,0,L|424:176,3,42.5,0|2|2|2,1:0|0:0|0:0|0:0,0:0:0:0:
460,60,319445,2,0,L|416:52,3,42.5,2|0|0|0,0:0|0:0|0:0|0:0,0:0:0:0:
300,96,319788,6,0,L|252:96,1,42.5,0|2,0:0|0:0,0:0:0:0:
136,96,319959,2,0,B|168:92|184:112|184:112|196:132|176:184,1,127.500004863739,0|0,0:0|1:0,0:0:0:0:
12,284,320473,6,0,P|60:280|148:368,1,170,6|2,1:0|1:0,0:0:0:0:
244,324,320988,1,0,0:0:0:0:
340,356,321159,2,0,L|412:312,1,85,2|0,1:0|0:0,0:0:0:0:
432,152,321502,2,0,L|408:208,1,42.5,2|0,1:0|0:0,0:0:0:0:
340,248,321673,2,0,P|324:204|332:160,1,85,2|0,0:0|1:0,0:0:0:0:
420,48,322016,6,0,L|328:60,1,85,2|0,0:0|1:0,0:0:0:0:
136,144,322359,2,0,L|228:156,1,85,2|0,0:0|1:0,0:0:0:0:
452,216,322702,2,0,L|360:228,1,85,2|0,0:0|1:0,0:0:0:0:
168,312,323045,1,2,0:0:0:0:
280,352,323216,6,0,P|288:300|272:256,1,85,2|0,1:0|0:0,0:0:0:0:
232,32,323559,2,0,P|224:84|240:128,1,85,2|0,1:0|0:0,0:0:0:0:
320,208,323902,2,0,P|268:200|224:216,1,85,2|0,1:0|0:0,0:0:0:0:
220,228,324159,1,0,0:0:0:0:
208,252,324245,1,2,1:0:0:0:
384,300,324416,2,0,L|480:264,1,85,2|0,0:0|1:0,0:0:0:0:
396,72,324759,6,0,L|300:108,1,85,2|0,0:0|1:0,0:0:0:0:
252,348,325102,2,0,P|272:304|276:268,1,85,2|0,0:0|1:0,0:0:0:0:
112,72,325445,2,0,L|68:160,1,85,2|0,0:0|1:0,0:0:0:0:
40,336,325788,1,2,0:0:0:0:
40,336,325959,6,0,P|92:336|124:352,1,85,2|0,1:0|0:0,0:0:0:0:
256,208,326302,2,0,L|256:292,1,85,2|0,1:0|0:0,0:0:0:0:
472,336,326645,2,0,P|420:336|388:352,1,85,2|0,1:0|0:0,0:0:0:0:
256,293,326988,1,2,1:0:0:0:
256,293,327159,6,0,L|256:200,1,85,2|0,0:0|1:0,0:0:0:0:
80,60,327502,2,0,P|100:100|136:120,1,85,2|0,0:0|1:0,0:0:0:0:
378,119,327845,2,0,P|414:97|432:60,1,85,2|0,0:0|1:0,0:0:0:0:
256,123,328188,2,0,L|256:207,1,85,2|0,0:0|1:0,0:0:0:0:
140,136,341045,5,0,3:0:0:0:
140,136,341130,1,0,3:0:0:0:
140,136,341216,1,0,0:0:0:0:
140,136,341302,1,0,3:0:0:0:
140,136,341388,1,0,3:0:0:0:
248,128,341559,6,0,L|236:152,12,21.25,0|0|0|0|0|0|0|0|0|0|0|0|0,3:0|3:0|3:0|3:0|3:0|3:0|3:0|3:0|3:0|3:0|3:0|3:0|3:0,3:0:0:0:
280,48,342245,1,0,0:0:0:0:
256,192,342416,5,6,1:0:0:0:
256,192,342587,1,0,3:0:0:0:
256,192,342759,1,10,1:0:0:0:
256,192,342930,1,0,3:0:0:0:
256,192,343101,1,2,1:0:0:0:
256,192,343273,1,0,3:0:0:0:
256,192,343444,1,10,1:0:0:0:
256,192,343616,1,2,3:2:0:0:
256,192,343788,1,0,1:0:0:0:
256,192,343959,1,2,3:2:0:0:
256,192,344130,1,8,1:0:0:0:
256,192,344302,1,2,3:2:0:0:
256,192,344473,1,0,1:0:0:0:
256,192,344645,1,2,3:2:0:0:
256,192,344816,1,8,1:0:0:0:
256,192,344988,1,2,3:2:0:0:
256,192,345159,5,2,1:0:0:0:
256,192,345330,1,0,3:0:0:0:
256,192,345502,1,10,1:0:0:0:
256,192,345673,1,0,3:0:0:0:
256,192,345844,1,2,1:0:0:0:
256,192,346016,1,0,3:0:0:0:
256,192,346187,1,10,1:0:0:0:
256,192,346359,1,2,3:2:0:0:
256,192,346531,1,0,1:0:0:0:
256,192,346702,1,2,3:2:0:0:
256,192,346873,1,8,1:0:0:0:
256,192,347045,1,2,3:2:0:0:
256,192,347216,1,0,1:0:0:0:
256,192,347388,1,2,3:2:0:0:
256,192,347559,1,8,1:0:0:0:
256,192,347731,1,2,3:2:0:0:
256,192,347902,5,2,1:0:0:0:
256,192,348073,1,0,3:0:0:0:
256,192,348245,1,10,1:0:0:0:
256,192,348416,1,0,3:0:0:0:
256,192,348587,1,2,1:0:0:0:
256,192,348759,1,0,3:0:0:0:
256,192,348930,1,10,1:0:0:0:
256,192,349102,1,2,3:2:0:0:
256,192,349274,1,0,1:0:0:0:
256,192,349445,1,2,3:2:0:0:
256,192,349616,1,8,1:0:0:0:
256,192,349788,1,2,3:2:0:0:
256,192,349959,1,0,1:0:0:0:
256,192,350131,1,2,3:2:0:0:
256,192,350302,1,8,1:0:0:0:
256,192,350474,1,2,3:2:0:0:
256,192,350645,5,2,1:0:0:0:
256,192,350816,1,0,3:0:0:0:
256,192,350988,1,10,1:0:0:0:
256,192,351159,1,0,3:0:0:0:
256,192,351330,1,2,1:0:0:0:
256,192,351502,1,0,3:0:0:0:
256,192,351673,1,10,1:0:0:0:
256,192,351845,1,2,3:2:0:0:
256,192,352017,1,0,1:0:0:0:
256,192,352188,1,2,3:2:0:0:
256,192,352359,1,8,1:0:0:0:
256,192,352531,1,2,3:2:0:0:
256,192,352702,1,0,1:0:0:0:
256,192,352874,1,2,3:2:0:0:
256,192,353045,1,8,3:0:0:0:
256,192,353216,1,10,0:0:0:0:
256,192,353388,5,6,1:0:0:0:
256,192,353559,1,0,3:0:0:0:
256,192,353731,1,10,1:0:0:0:
256,192,353902,1,0,3:0:0:0:
256,192,354073,1,2,1:0:0:0:
256,192,354245,1,0,3:0:0:0:
256,192,354416,1,10,1:0:0:0:
256,192,354588,1,2,3:2:0:0:
256,192,354760,1,0,1:0:0:0:
256,192,354931,1,2,3:2:0:0:
256,192,355102,1,8,1:0:0:0:
256,192,355274,1,2,3:2:0:0:
256,192,355445,1,0,1:0:0:0:
256,192,355617,1,2,3:2:0:0:
256,192,355788,1,8,1:0:0:0:
256,192,355959,1,2,3:0:0:0:
256,192,356045,1,0,3:0:0:0:
256,192,356131,1,6,1:0:0:0:
256,192,356302,1,0,3:0:0:0:
256,192,356474,1,10,1:0:0:0:
256,192,356645,1,0,3:0:0:0:
256,192,356816,1,2,1:0:0:0:
256,192,356988,1,0,3:0:0:0:
256,192,357159,1,10,1:0:0:0:
256,192,357331,1,2,3:2:0:0:
256,192,357503,1,0,1:0:0:0:
256,192,357674,1,2,3:2:0:0:
256,192,357845,1,8,1:0:0:0:
256,192,358017,1,2,3:2:0:0:
256,192,358188,1,0,1:0:0:0:
256,192,358360,1,2,3:2:0:0:
256,192,358531,1,8,1:0:0:0:
256,192,358702,1,2,3:0:0:0:
256,192,358788,1,0,3:0:0:0:
256,192,358874,5,6,1:0:0:0:
256,192,359045,1,8,3:1:0:0:
256,192,359216,1,10,1:0:0:0:
256,192,359388,1,8,3:1:0:0:
256,192,359559,1,2,1:0:0:0:
256,192,359730,1,8,3:1:0:0:
256,192,359902,1,10,1:0:0:0:
256,192,360074,1,10,3:1:0:0:
256,192,360246,1,4,1:0:0:0:
256,192,360417,1,10,3:1:0:0:
256,192,360588,1,8,1:0:0:0:
256,192,360760,1,10,3:1:0:0:
256,192,360931,1,0,1:0:0:0:
256,192,361103,1,10,3:1:0:0:
256,192,361274,1,8,1:0:0:0:
256,192,361445,1,10,3:1:0:0:
256,192,361616,5,6,1:0:0:0:
256,192,361702,1,0,0:0:0:0:
256,192,361788,1,0,0:0:0:0:
256,192,361873,1,0,0:0:0:0:
256,192,361959,1,10,1:0:0:0:
256,192,362045,1,0,0:0:0:0:
256,192,362130,1,0,0:0:0:0:
256,192,362216,1,0,0:0:0:0:
256,192,362301,1,2,1:0:0:0:
256,192,362387,1,0,0:0:0:0:
256,192,362473,1,0,0:0:0:0:
256,192,362558,1,0,0:0:0:0:
256,192,362644,1,10,1:0:0:0:
256,192,362729,1,0,0:0:0:0:
256,192,362815,1,2,0:0:0:0:
256,192,362902,1,0,0:0:0:0:
256,192,362988,5,0,1:0:0:0:
256,192,363073,1,0,0:0:0:0:
256,192,363158,1,2,0:0:0:0:
256,192,363244,1,0,0:0:0:0:
256,192,363330,1,8,1:0:0:0:
256,192,363416,1,0,0:0:0:0:
256,192,363501,1,2,0:0:0:0:
256,192,363588,1,0,0:0:0:0:
256,192,363673,1,0,1:0:0:0:
256,192,363759,1,0,0:0:0:0:
256,192,363845,1,2,0:0:0:0:
256,192,363931,1,0,0:0:0:0:
256,192,364016,1,8,0:2:0:0:
256,192,364359,5,4,1:0:0:0:
132,112,442303,5,0,0:0:0:0:
128,120,442618,1,0,0:0:0:0:
240,56,442776,1,0,0:0:0:0:
288,176,442934,1,0,0:0:0:0:
320,60,443092,1,0,0:0:0:0:
216,140,443250,2,0,P|196:196|192:232,1,85
228,356,443566,5,0,0:0:0:0:
364,340,443724,1,0,0:0:0:0:
184,280,443881,2,0,L|104:252,1,85
84,244,444118,1,0,0:0:0:0:
60,236,444197,5,0,0:0:0:0:
259,96,444355,1,0,0:0:0:0:
180,326,444513,1,0,0:0:0:0:
108,92,444671,1,0,0:0:0:0:
303,240,444829,5,4,0:1:0:0:
320,312,445145,1,0,0:0:0:0:
384,352,445460,2,0,L|420:340,5,31.8750012159348
320,312,445934,2,0,L|288:304,1,31.8750012159348
216,276,446092,5,0,0:0:0:0:
176,156,446408,1,0,0:0:0:0:
56,196,446724,2,0,P|40:164|132:44,1,191.250007295609
176,156,447355,6,0,L|216:280,1,127.500004863739
340,288,447987,2,0,L|320:312,7,31.8750012159348
296,340,448618,6,0,L|304:208,1,127.500004863739
348,60,449250,1,0,0:0:0:0:
408,144,449408,1,0,0:0:0:0:
276,92,449566,1,0,0:0:0:0:
476,104,449724,1,0,0:0:0:0:
204,124,449881,6,0,L|64:132,1,127.500004863739
44,324,450513,1,0,0:0:0:0:
76,320,450592,1,0,0:0:0:0:
104,308,450671,1,0,0:0:0:0:
124,280,450750,1,0,0:0:0:0:
132,248,450829,1,0,0:0:0:0:
128,216,450908,1,0,0:0:0:0:
116,188,450987,2,0,P|100:168|92:160,1,31.8750012159348,0|0,0:0|0:0,0:0:0:0:
80,248,451145,6,0,L|208:228,1,127.500004863739
320,220,451618,1,0,0:0:0:0:
348,332,451776,2,0,B|360:248|360:248|392:216,1,127.500004863739
496,176,452250,1,0,0:0:0:0:
420,92,452408,6,0,L|336:80,1,85,4|0,0:1|0:0,0:0:0:0:
120,48,452724,1,0,0:0:0:0:
408,108,452881,6,0,L|323:104,1,85
105,95,453197,1,0,0:0:0:0:
396,128,453355,6,0,L|311:133,1,85
93,146,453671,1,0,0:0:0:0:
80,172,453750,1,0,0:0:0:0:
76,200,453829,1,0,0:0:0:0:
80,228,453908,1,0,0:0:0:0:
92,256,453987,1,0,0:0:0:0:
112,276,454066,1,0,0:0:0:0:
140,288,454145,6,0,L|184:276,1,42.5
328,252,454303,2,0,L|288:228,1,42.5
196,128,454460,2,0,L|200:184,1,42.5
272,344,454618,6,0,L|336:340,1,63.75
432,332,454934,6,0,P|416:304|420:252,1,85,4|0,0:1|0:0,0:0:0:0:
419,252,455250,1,0,0:0:0:0:
272,344,455408,1,0,0:0:0:0:
260,192,455566,1,0,0:0:0:0:
420,252,455724,1,0,0:0:0:0:
408,100,455881,2,0,L|308:72,1,85
184,32,456197,5,0,0:0:0:0:
260,136,456355,1,0,0:0:0:0:
176,232,456513,2,0,P|132:256|112:288,1,85
220,356,456829,5,0,0:0:0:0:
152,132,456987,1,0,0:0:0:0:
352,248,457145,2,0,L|456:252,1,85
460,252,457381,1,0,0:0:0:0:
480,252,457460,6,0,P|460:184|496:92,1,170
372,164,457934,1,0,0:0:0:0:
284,80,458092,1,0,0:0:0:0:
408,48,458250,1,0,0:0:0:0:
248,196,458408,2,0,P|192:200|160:192,1,85
40,60,458724,5,0,0:0:0:0:
152,188,458881,1,0,0:0:0:0:
148,16,459039,1,0,0:0:0:0:
44,232,459197,1,0,0:0:0:0:
44,232,459276,1,0,0:0:0:0:
44,232,459355,5,0,0:0:0:0:
132,116,459513,1,0,0:0:0:0:
192,248,459671,1,0,0:0:0:0:
44,232,459829,1,0,0:0:0:0:
192,248,459987,6,0,P|256:244|304:196,1,127.5,4|0,0:1|0:0,0:0:0:0:
308,132,460303,2,0,P|336:164|372:192,1,85
480,244,460618,1,0,0:0:0:0:
412,120,460776,1,0,0:0:0:0:
364,324,460934,1,0,0:0:0:0:
476,332,461092,5,0,0:0:0:0:
392,204,461250,1,0,0:0:0:0:
260,284,461408,1,0,0:0:0:0:
480,244,461566,1,0,0:0:0:0:
172,244,461724,1,0,0:0:0:0:
256,72,461881,6,0,P|296:60|340:60,1,85
436,92,462197,1,0,0:0:0:0:
184,148,462355,2,0,P|136:140|104:124,1,85,0|4,0:0|0:1,0:0:0:0:
176,32,462671,5,0,0:0:0:0:
336,112,462829,1,0,0:0:0:0:
168,252,462987,1,0,0:0:0:0:
256,72,463145,5,4,0:1:0:0:
432,212,463303,1,0,0:0:0:0:
184,148,463460,1,0,0:0:0:0:
424,108,463618,1,0,0:0:0:0:
328,20,463776,5,4,0:1:0:0:
272,208,463934,1,0,0:0:0:0:
424,108,464092,1,0,0:0:0:0:
456,301,464250,1,0,0:0:0:0:
264,152,464408,5,4,0:1:0:0:
88,308,464566,1,0,0:0:0:0:
292,244,464724,1,0,0:0:0:0:
32,228,464881,1,0,0:0:0:0:
164,96,465039,5,0,0:0:0:0:
196,80,465118,1,0,0:0:0:0:
228,76,465197,1,0,0:0:0:0:
260,80,465276,2,0,L|304:92,2,42.5
256,168,465513,5,8,0:3:0:0:
264,200,465592,1,0,0:0:0:0:
288,224,465671,1,0,0:0:0:0:
320,236,465750,2,0,L|364:248,2,42.5
272,320,465987,5,0,0:0:0:0:
240,328,466066,1,0,0:0:0:0:
204,328,466145,1,0,0:0:0:0:
172,316,466224,1,0,0:0:0:0:
144,296,466303,1,0,3:0:0:0:
80,56,466460,6,0,L|72:100,1,42.5
160,208,466618,2,0,L|168:164,1,42.5
56,188,466776,2,0,L|48:232,1,42.5
136,340,466934,2,0,L|144:296,1,42.5
168,168,467092,6,0,L|216:176,1,42.5,8|0,0:3|0:0,0:0:0:0:
272,72,467250,2,0,L|320:80,1,42.5,4|8,0:3|0:3,0:0:0:0:
336,184,467408,2,0,L|384:192,1,42.5,4|0,0:3|0:0,0:0:0:0:
452,124,467566,6,0,P|480:192|448:264,1,149.175000569057,4|0,0:1|0:0,0:0:0:0:
416,296,467881,2,0,L|316:296,1,99.4500003793716
60,284,468197,5,0,0:0:0:0:
200,364,468355,1,0,0:0:0:0:
168,168,468513,2,0,P|160:116|152:60,1,107.099996731567
152,260,468829,5,0,0:0:0:0:
292,340,468987,1,0,0:0:0:0:
260,144,469145,2,0,P|252:92|244:36,1,107.099996731567
244,236,469460,5,0,0:0:0:0:
384,316,469618,1,0,0:0:0:0:
352,120,469776,2,0,P|344:68|336:12,1,107.099996731567
472,192,470092,6,0,P|432:252|344:260,1,160.649995097351,4|0,0:1|0:0,0:0:0:0:
288,224,470408,2,0,L|176:232,1,107.099996731567
181,231,470724,5,0,0:0:0:0:
352,120,470881,1,0,0:0:0:0:
100,176,471039,2,0,P|76:232|92:272,1,107.099996731567
308,360,471355,5,0,0:0:0:0:
230,160,471513,1,0,0:0:0:0:
144,356,471671,2,0,P|92:368|32:352,1,107.099996731567
256,280,471987,6,0,P|308:268|368:284,1,107.099996731567
472,332,472303,1,0,0:0:0:0:
144,356,472460,1,0,0:0:0:0:
230,160,472618,6,0,P|236:82|156:48,1,160.649995097351,4|0,0:1|0:0,0:0:0:0:
176,116,472934,2,0,P|240:112|280:92,1,107.099996731567
340,32,473250,5,0,0:0:0:0:
484,220,473408,1,0,0:0:0:0:
456,48,473566,2,0,L|396:136,1,107.099996731567
256,308,473881,5,0,0:0:0:0:
176,116,474039,2,0,P|100:88|76:92,1,107.099996731567
184,236,474355,2,0,L|284:200,1,107.099996731567
404,152,474671,1,0,0:0:0:0:
456,48,474829,1,0,0:0:0:0:
480,240,474987,1,0,0:0:0:0:
404,152,475145,6,0,P|356:128|304:112,1,107.099996731567,4|0,0:1|0:0,0:0:0:0:
80,192,475460,1,0,0:0:0:0:
184,236,475618,1,0,0:0:0:0:
172,120,475776,5,0,0:0:0:0:
92,308,475934,1,0,0:0:0:0:
96,80,476092,2,0,P|132:40|192:36,1,107.099996731567
372,72,476408,5,0,0:0:0:0:
256,84,476566,1,0,0:0:0:0:
296,264,476724,1,0,0:0:0:0:
352,160,476881,1,0,0:0:0:0:
172,120,477039,6,0,L|120:136,1,53.5499983657837
152,280,477197,2,0,L|184:236,1,53.5499983657837
256,84,477355,2,0,L|256:12,1,53.5499983657837
352,160,477513,2,0,L|364:212,1,53.5499983657837
408,356,477671,6,0,P|332:336|248:348,1,160.649995097351,4|0,0:1|0:0,0:0:0:0:
184,360,477987,2,0,P|124:364|68:360,1,107.099996731567
172,244,478303,2,0,P|172:184|136:144,1,107.099996731567
16,72,478618,2,0,L|128:40,1,107.099996731567
268,44,478934,5,0,0:0:0:0:
88,216,479092,1,0,0:0:0:0:
256,208,479250,2,0,P|312:216|360:236,1,107.099996731567
460,316,479566,5,0,0:0:0:0:
432,104,479724,1,0,0:0:0:0:
240,284,479881,2,0,P|180:312|120:320,1,107.099996731567
256,208,480197,6,0,B|264:104|280:68|280:68|260:104|240:128,1,214.199993463135,4|0,0:1|0:0,0:0:0:0:
240,127,480671,1,0,0:0:0:0:
416,180,480829,1,0,0:0:0:0:
180,184,480987,1,0,0:0:0:0:
476,124,481145,2,0,P|472:64|440:32,1,107.099996731567
180,184,481460,1,0,0:0:0:0:
180,184,481618,6,0,L|188:300,1,107.099996731567
100,172,481934,2,0,P|116:120|164:104,1,107.099996731567
352,204,482250,1,0,0:0:0:0:
248,16,482408,1,0,0:0:0:0:
216,228,482566,1,0,0:0:0:0:
364,76,482724,6,0,P|424:80|472:164,1,160.649995097351,4|0,0:1|0:0,0:0:0:0:
468,232,483039,2,0,B|464:280|448:312|448:312|472:300,1,107.099996731567
352,204,483355,1,0,0:0:0:0:
468,232,483513,1,0,0:0:0:0:
292,308,483671,2,0,L|176:308,1,107.099996731567
56,140,483987,6,0,L|172:140,1,107.099996731567
356,140,484303,1,0,0:0:0:0:
128,232,484460,1,0,0:0:0:0:
128,232,484539,1,0,0:0:0:0:
128,232,484618,1,0,0:0:0:0:
272,44,484776,1,0,0:0:0:0:
356,140,484934,1,0,0:0:0:0:
60,340,485092,1,0,0:0:0:0:
128,232,485250,6,0,P|144:168|140:120,1,107.099996731567,4|0,0:1|0:0,0:0:0:0:
224,320,485566,1,0,0:0:0:0:
224,320,485724,1,0,0:0:0:0:
292,212,485881,6,0,P|285:146|264:102,1,107.099996731567
424,204,486197,2,0,P|430:269|451:313,1,107.099996731567
356,140,486513,5,0,0:0:0:0:
360,284,486671,1,0,0:0:0:0:
224,244,486829,1,0,0:0:0:0:
356,140,486987,1,0,0:0:0:0:
380,120,487066,1,0,0:0:0:0:
408,100,487145,5,4,0:3:0:0:
140,224,487303,1,0,0:0:0:0:
324,80,487460,1,0,0:0:0:0:
56,204,487618,1,0,0:0:0:0:
240,60,487776,6,0,L|132:52,1,107.099996731567,4|0,0:0|0:0,0:0:0:0:
140,224,488092,1,0,0:0:0:0:
140,224,488250,2,0,P|168:176|160:128,1,107.099996731567,4|0,0:0|0:0,0:0:0:0:
48,292,488566,1,0,0:0:0:0:
48,292,488724,2,0,P|88:328|140:340,1,107.099996731567,4|0,0:0|0:0,0:0:0:0:
216,328,488960,1,0,0:0:0:0:
216,328,489039,6,0,L|336:332,1,107.099996731567,0|4,0:0|0:0,0:0:0:0:
452,216,489355,1,0,0:0:0:0:
440,316,489513,1,0,0:0:0:0:
348,172,489671,6,0,P|336:124|344:56,1,107.099996731567,4|0,0:0|0:0,0:0:0:0:
244,156,489987,2,0,P|192:168|140:160,1,107.099996731567,4|0,0:0|0:0,0:0:0:0:
16,196,490303,6,0,P|56:152|72:96,1,107.099996731567,4|0,0:0|0:0,0:0:0:0:
70,107,490618,1,0,0:0:0:0:
104,252,490776,6,0,P|144:288|196:296,1,107.099996731567,4|0,0:0|0:0,0:0:0:0:
440,264,491092,1,0,0:0:0:0:
364,328,491250,6,0,P|340:272|352:216,1,107.099996731567,4|0,0:0|0:0,0:0:0:0:
368,196,491487,1,0,0:0:0:0:
400,176,491566,1,0,0:0:0:0:
256,304,491724,1,4,0:0:0:0:
316,132,491881,1,0,0:0:0:0:
440,264,492039,1,0,0:0:0:0:
216,144,492197,6,0,P|176:88|176:48,1,107.099996731567,4|0,0:0|0:0,0:0:0:0:
224,228,492513,2,0,L|180:328,1,107.099996731567,4|0,0:0|0:0,0:0:0:0:
32,228,492829,6,0,P|89:228|148:224,1,107.099996731567,4|0,0:0|0:0,0:0:0:0:
300,76,493145,1,0,0:0:0:0:
216,144,493303,6,0,P|204:180|224:248,1,107.099996731567,4|0,0:0|0:0,0:0:0:0:
436,288,493618,1,0,0:0:0:0:
384,196,493776,6,0,P|332:180|280:192,1,107.099996731567,4|0,0:0|0:0,0:0:0:0:
276,332,494092,1,0,0:0:0:0:
464,212,494250,6,0,P|472:160|440:112,1,107.099996731567,4|0,0:0|0:0,0:0:0:0:
232,36,494566,1,0,0:0:0:0:
232,36,494724,6,0,P|180:40|116:44,1,107.099996731567,4|0,0:0|0:0,0:0:0:0:
88,256,495039,1,8,0:3:0:0:
160,160,495197,1,4,0:3:0:0:
196,372,495355,6,0,P|240:344|296:328,1,107.099996731567,4|0,0:0|0:0,0:0:0:0:
400,316,495671,1,0,0:0:0:0:
160,160,495829,2,0,P|156:88|176:48,1,107.099996731567,4|0,0:0|0:0,0:0:0:0:
276,32,496145,1,0,0:0:0:0:
228,240,496303,2,4,P|176:264|120:256,1,107.099996731567
36,204,496618,5,0,0:0:0:0:
36,204,496776,1,0,0:0:0:0:
296,116,496934,2,0,L|412:104,1,107.099996731567,4|0,0:0|0:0,0:0:0:0:
184,264,497250,2,0,L|68:276,1,107.099996731567,4|0,0:0|0:0,0:0:0:0:
148,56,497566,1,0,1:0:0:0:
144,68,497881,6,0,P|168:132|240:188,1,160.649995097351,4|0,0:1|0:0,0:0:0:0:
308,204,498197,2,0,P|360:216|400:256,1,107.099996731567
460,144,498513,2,0,L|472:32,1,107.099996731567
260,256,498829,2,0,L|248:368,1,107.099996731567
56,232,499145,6,0,P|104:208|132:160,1,107.099996731567
52,36,499460,2,0,B|136:40|204:28|204:28|172:40|148:56,1,214.199993463135
148,55,499934,1,0,0:0:0:0:
188,244,500092,1,0,0:0:0:0:
212,140,500250,1,0,0:0:0:0:
100,296,500408,6,0,P|144:340|244:332,1,160.649995097351,4|0,0:1|0:0,0:0:0:0:
237,336,500724,2,0,L|356:344,1,107.099996731567
476,176,501039,5,0,0:0:0:0:
380,236,501197,1,0,0:0:0:0:
404,88,501355,2,0,P|448:48|496:72,1,107.099996731567
380,236,501671,5,0,0:0:0:0:
308,148,501829,1,0,0:0:0:0:
476,176,501987,2,0,P|492:228|480:288,1,107.099996731567
281,307,502303,5,0,0:0:0:0:
219,119,502460,1,0,0:0:0:0:
380,236,502618,1,0,0:0:0:0:
185,235,502776,1,0,0:0:0:0:
342,119,502934,6,0,P|322:68|312:16,1,107.099996731567,4|0,0:1|0:0,0:0:0:0:
185,235,503250,2,0,P|172:284|148:340,1,107.099996731567
219,119,503566,5,0,0:0:0:0:
380,236,503724,1,0,0:0:0:0:
144,160,503881,2,0,P|132:104|160:56,1,107.099996731567
342,119,504197,5,0,0:0:0:0:
380,236,504355,1,0,0:0:0:0:
281,307,504513,2,0,L|160:296,1,107.099996731567
44,256,504829,5,0,0:0:0:0:
156,88,504987,1,0,0:0:0:0:
136,244,505145,1,0,0:0:0:0:
52,108,505303,1,0,0:0:0:0:
224,216,505460,5,4,0:1:0:0:
312,100,505618,1,0,0:0:0:0:
336,240,505776,5,0,0:0:0:0:
256,44,505934,1,0,0:0:0:0:
200,328,506092,5,4,0:1:0:0:
372,152,506250,1,0,0:0:0:0:
156,88,506408,5,0,0:0:0:0:
312,352,506566,1,0,0:0:0:0:
344,356,506645,1,0,0:0:0:0:
376,360,506724,6,0,L|420:328,1,53.5499983657837,4|0,0:1|0:0,0:0:0:0:
428,176,506881,2,0,L|404:224,1,53.5499983657837
304,268,507039,6,0,L|252:248,1,53.5499983657837
288,94,507197,2,0,L|296:148,1,53.5499983657837
200,328,507355,6,0,L|152:352,1,53.5499983657837,4|0,0:1|0:0,0:0:0:0:
56,252,507513,2,0,L|76:192,1,53.5499983657837
156,88,507671,6,0,P|184:72|196:44,1,63.75
148,104,507987,5,4,0:1:0:0:
428,176,508145,1,0,0:0:0:0:
372,292,508303,1,0,0:0:0:0:
368,56,508460,5,4,0:0:0:0:
56,252,508618,1,0,0:0:0:0:
184,228,508776,1,0,0:0:0:0:
64,52,508934,5,4,0:0:0:0:
128,344,509092,1,0,0:0:0:0:
184,228,509250,1,0,0:0:0:0:
56,252,509408,5,4,0:0:0:0:
236,112,509566,1,0,0:0:0:0:
320,208,509723,1,0,0:0:0:0:
128,344,509881,5,4,0:0:0:0:
236,112,510039,1,0,0:0:0:0:
408,304,510197,1,4,0:3:0:0:
272,352,510355,5,0,0:0:0:0:
100,132,510513,1,4,0:1:0:0:
256,192,510592,12,4,517263,0:3:0:0:
252,64,561386,5,0,0:0:0:0:
252,64,561719,1,0,0:0:0:0:
252,64,562052,1,0,0:0:0:0:
232,164,562219,1,0,0:0:0:0:
252,64,562386,1,0,0:0:0:0:
232,164,562552,6,0,P|264:236|352:240,1,170
252,64,563052,2,0,P|200:68|160:92,1,85
160,92,563302,1,0,0:0:0:0:
148,104,563386,1,0,0:0:0:0:
324,152,563552,5,0,0:0:0:0:
184,224,563719,1,0,0:0:0:0:
252,64,563886,1,0,0:0:0:0:
256,312,564052,6,0,L|128:320,1,127.5,0|8,1:0|0:3,0:0:0:0:
68,324,564386,1,8,0:3:0:0:
296,220,564552,6,0,L|424:228,1,127.5,0|8,1:0|0:3,0:0:0:0:
484,232,564886,1,8,0:3:0:0:
212,156,565052,6,0,L|84:164,1,127.5,0|8,1:0|0:3,0:0:0:0:
24,168,565386,1,8,0:3:0:0:
252,64,565608,6,0,L|308:76,1,56.6666666666667,0|0,1:0|1:0,0:0:0:0:
336,184,565830,2,0,L|400:152,1,56.6666666666667,0|0,1:0|1:0,0:0:0:0:
236,232,566052,2,0,L|232:296,1,56.6666666666667,8|8,0:3|0:3,0:0:0:0:
120,192,566274,2,0,L|148:248,2,56.6666666666667,8|4|4,0:3|0:3|0:3,0:0:0:0:
56,96,566608,1,0,0:0:0:0:
56,96,566719,5,4,0:0:0:0:
156,124,576386,6,0,P|184:100|212:120,1,63.75
200,180,576719,6,0,P|224:224|268:224,1,95.6250036478044
312,176,577052,6,0,L|368:292,1,127.5
400,352,577386,5,0,0:0:0:0:
304,356,577552,1,0,0:0:0:0:
212,324,577719,1,0,0:0:0:0:
144,256,577886,1,0,0:0:0:0:
100,172,578052,6,0,P|76:144|48:136,1,63.7500024318696
144,256,578386,2,0,P|176:252|204:236,1,63.7500024318696
256,108,578719,5,0,0:0:0:0:
384,116,578886,1,0,0:0:0:0:
276,184,579052,1,0,0:0:0:0:
324,64,579219,1,0,0:0:0:0:
352,188,579386,5,0,0:0:0:0:
350,340,579552,1,0,0:0:0:0:
440,216,579719,1,0,0:0:0:0:
295,262,579886,1,0,0:0:0:0:
441,307,580052,6,0,B|456:272|484:256|484:256|484:132,1,191.250007295609,4|0,0:0|0:0,0:0:0:0:
412,28,580719,2,0,B|412:96|412:96|344:112|352:188,1,191.250007295609
320,312,581386,6,0,P|292:320|256:332,1,63.7500024318696
120,220,581719,2,0,P|153:210|184:200,1,63.7500024318696
286,228,582052,2,0,P|276:198|268:167,1,63.7500024318696
176,368,582385,2,0,P|164:336|157:307,1,63.7500024318696
136,60,582719,5,0,1:0:0:0:
140,72,582802,1,0,1:0:0:0:
144,84,582886,1,0,1:0:0:0:
148,96,582969,1,0,1:0:0:0:
152,108,583052,1,0,1:0:0:0:
156,120,583136,1,0,1:0:0:0:
160,132,583219,1,0,1:0:0:0:
164,144,583302,1,0,1:0:0:0:
176,152,583386,1,0,1:0:0:0:
188,156,583469,1,0,1:0:0:0:
200,156,583552,1,0,1:0:0:0:
212,156,583636,1,0,1:0:0:0:
224,156,583719,2,0,L|260:156,3,31.8750012159348,0|0|0|0,1:0|1:0|1:0|1:0,0:0:0:0:
312,160,584052,5,0,1:0:0:0:
304,184,584136,1,0,1:0:0:0:
308,208,584219,1,0,1:0:0:0:
320,232,584302,1,0,1:0:0:0:
340,248,584386,1,0,1:0:0:0:
364,256,584469,1,0,1:0:0:0:
388,256,584552,1,0,1:0:0:0:
412,248,584636,1,0,1:0:0:0:
428,232,584719,1,0,1:0:0:0:
440,208,584802,1,0,1:0:0:0:
444,184,584886,1,0,1:0:0:0:
440,160,584969,1,0,1:0:0:0:
432,136,585052,1,0,1:0:0:0:
416,116,585136,1,0,1:0:0:0:
396,100,585219,1,0,1:0:0:0:
372,88,585302,1,0,1:0:0:0:
348,80,585386,6,0,L|204:80,1,127.500004863739,4|0,1:0|1:0,0:0:0:0:
236,208,585886,1,0,0:0:0:0:
124,148,586052,1,0,0:0:0:0:
152,272,586219,5,8,0:3:0:0:
36,324,586386,1,4,0:3:0:0:
124,148,586552,1,4,0:3:0:0:
152,272,586719,5,0,1:0:0:0:
16,144,586886,1,2,1:2:0:0:
164,24,587052,6,0,L|212:0,2,42.5000016212464,2|2|2,1:2|1:2|1:2,0:0:0:0:
152,272,587386,2,0,L|104:296,2,42.5000016212464,8|8|4,0:3|0:3|0:3,0:0:0:0:
200,132,587719,5,0,1:0:0:0:
200,132,588052,5,4,0:0:0:0:
232,270,588219,1,0,3:0:0:0:
335,173,588386,1,0,1:0:0:0:
176,172,588552,5,0,3:0:0:0:
278,271,588719,1,0,0:0:0:0:
313,132,588886,1,0,3:0:0:0:
152,212,589052,5,0,1:0:0:0:
325,272,589219,1,0,3:0:0:0:
290,91,589386,1,0,0:0:0:0:
128,252,589552,5,0,3:0:0:0:
371,272,589719,1,0,1:0:0:0:
268,51,589886,1,0,3:0:0:0:
104,292,590052,5,0,0:0:0:0:
408,92,590219,1,0,3:0:0:0:
356,344,590386,1,0,1:0:0:0:
156,40,590552,1,0,3:0:0:0:
344,208,590719,6,0,P|328:264|296:292,1,100.29999647995,4|0,0:1|3:0,0:0:0:0:
168,176,591052,2,0,P|184:120|216:92,1,100.29999647995,0|0,1:0|3:0,0:0:0:0:
424,92,591386,5,0,0:0:0:0:
320,20,591552,1,0,3:0:0:0:
344,208,591719,2,0,L|356:308,1,100.29999647995,0|0,1:0|3:0,0:0:0:0:
256,172,592052,5,0,0:0:0:0:
432,244,592219,1,0,3:0:0:0:
176,264,592386,2,0,L|68:268,1,100.29999647995,0|0,1:0|3:0,0:0:0:0:
268,312,592719,5,0,0:0:0:0:
244,72,592886,1,0,3:0:0:0:
376,180,593052,1,0,1:0:0:0:
136,204,593219,1,0,3:0:0:0:
128,200,593302,1,0,3:0:0:0:
120,196,593386,6,0,P|84:152|96:96,1,100.29999647995,4|0,0:1|3:0,0:0:0:0:
392,188,593719,2,0,P|424:236|416:288,1,100.29999647995,0|0,1:0|3:0,0:0:0:0:
108,264,594052,2,0,P|64:268|8:296,1,100.29999647995,0|0,0:0|3:0,0:0:0:0:
404,120,594386,2,0,P|448:116|504:88,1,100.29999647995,0|0,1:0|3:0,0:0:0:0:
104,76,594719,2,0,L|0:68,1,100.29999647995,0|0,0:0|3:0,0:0:0:0:
408,308,595052,2,0,L|512:316,1,100.29999647995,0|0,1:0|3:0,0:0:0:0:
323,102,595386,5,0,0:0:0:0:
148,224,595552,1,0,3:0:0:0:
361,228,595719,1,0,1:0:0:0:
192,100,595886,1,0,3:0:0:0:
253,304,596052,2,0,P|304:348|432:340,1,200.5999929599,4|0,0:1|1:0,0:0:0:0:
361,228,596552,5,0,3:0:0:0:
148,224,596719,1,0,0:0:0:0:
253,304,596886,1,0,3:0:0:0:
323,102,597052,1,0,1:0:0:0:
323,102,597219,5,0,3:0:0:0:
148,224,597386,1,0,0:0:0:0:
361,228,597552,1,0,3:0:0:0:
192,100,597719,2,0,L|80:88,1,100.29999647995,0|0,1:0|0:0,0:0:0:0:
92,89,597969,1,0,0:0:0:0:
92,89,598052,5,0,0:0:0:0:
44,284,598219,1,0,3:0:0:0:
256,192,598386,2,0,L|316:112,1,100.29999647995,0|0,1:0|3:0,0:0:0:0:
352,304,598719,6,0,P|296:336|164:308,1,200.5999929599,4|0,0:0|0:0,0:0:0:0:
92,88,599219,2,0,P|148:56|280:84,1,200.5999929599,4|0,0:0|3:0,0:0:0:0:
44,284,599719,1,0,1:0:0:0:
136,204,599886,2,0,P|256:192|340:184,1,200.5999929599,4|0,0:0|0:0,0:0:0:0:
335,184,600386,1,0,1:0:0:0:
408,48,600552,5,0,0:0:0:0:
404,56,600636,1,0,0:0:0:0:
400,64,600719,2,0,P|348:96|280:100,1,127.500004863739,0|0,1:0|0:0,0:0:0:0:
336,184,600969,6,0,P|392:208|432:264,1,127.500004863739,0|0,1:0|0:0,0:0:0:0:
340,320,601219,6,0,L|272:320,1,63.7500024318696,0|0,1:0|0:0,0:0:0:0:
88,320,601386,5,0,0:0:0:0:
80,324,601552,1,0,0:0:0:0:
88,332,601719,2,0,P|116:284|108:168,1,150.449994719925,4|0,1:0|0:0,0:0:0:0:
56,116,602052,2,0,L|168:92,1,100.29999647995
332,60,602386,1,0,1:0:0:0:
436,204,602552,5,0,0:0:0:0:
428,224,602636,1,0,0:0:0:0:
420,244,602719,1,0,0:0:0:0:
344,364,602886,1,0,0:0:0:0:
268,248,603052,2,0,P|216:224|172:224,1,100.29999647995,0|0,1:0|0:0,0:0:0:0:
20,276,603386,6,0,L|32:228,1,50.149998239975,0|0,1:0|0:0,0:0:0:0:
108,52,603552,1,0,1:0:0:0:
132,72,603636,1,0,1:0:0:0:
160,80,603719,1,4,0:3:0:0:
188,80,603802,1,8,0:3:0:0:
216,72,603886,1,0,1:0:0:0:
240,56,603969,1,0,1:0:0:0:
256,36,604052,5,4,0:1:0:0:
384,266,604219,1,0,3:0:0:0:
127,266,604386,1,0,1:0:0:0:
384,118,604552,1,0,3:0:0:0:
176,328,604719,5,0,0:0:0:0:
176,56,604886,1,0,3:0:0:0:
336,328,605052,1,0,1:0:0:0:
100,192,605219,1,0,3:0:0:0:
412,192,605386,5,0,0:0:0:0:
127,118,605552,1,0,3:0:0:0:
256,348,605719,1,0,1:0:0:0:
336,56,605886,1,0,3:0:0:0:
100,192,606052,5,0,0:0:0:0:
256,36,606219,1,0,3:0:0:0:
412,192,606386,1,0,1:0:0:0:
256,348,606552,1,0,3:0:0:0:
28,240,606719,6,0,P|16:192|28:144,1,100.29999647995,4|0,0:1|3:0,0:0:0:0:
484,144,607052,2,0,P|496:192|484:240,1,100.29999647995,0|0,1:0|3:0,0:0:0:0:
192,224,607386,5,0,0:0:0:0:
256,120,607552,1,0,3:0:0:0:
344,280,607719,2,0,L|264:356,1,100.29999647995,0|0,1:0|3:0,0:0:0:0:
312,192,608052,5,0,0:0:0:0:
192,224,608219,1,0,3:0:0:0:
424,328,608386,2,0,L|468:220,1,100.29999647995,0|0,1:0|3:0,0:0:0:0:
312,48,608719,5,0,0:0:0:0:
200,336,608886,1,0,3:0:0:0:
400,247,609052,1,0,1:0:0:0:
112,136,609219,1,0,3:0:0:0:
92,128,609302,1,0,3:0:0:0:
72,120,609386,5,4,0:1:0:0:
180,52,609552,1,0,3:0:0:0:
140,228,609719,1,0,1:0:0:0:
248,160,609886,5,0,3:0:0:0:
44,212,610052,1,0,0:0:0:0:
188,364,610219,1,0,3:0:0:0:
156,136,610386,5,0,1:0:0:0:
96,340,610552,1,0,3:0:0:0:
44,212,610719,1,0,0:0:0:0:
248,160,610886,5,0,3:0:0:0:
96,340,611052,1,0,1:0:0:0:
300,288,611219,1,0,3:0:0:0:
304,76,611386,5,0,0:0:0:0:
172,252,611552,1,0,3:0:0:0:
176,40,611719,1,0,1:0:0:0:
300,288,611886,1,0,3:0:0:0:
396,192,612052,6,0,P|248:160|212:184,1,200.5999929599,4|0,0:1|1:0,0:0:0:0:
408,300,612552,2,0,P|460:280|492:240,1,100.29999647995,0|0,3:0|0:0,0:0:0:0:
480,124,612886,1,0,3:0:0:0:
472,356,613052,1,0,1:0:0:0:
396,192,613219,1,0,3:0:0:0:
268,316,613386,6,0,P|216:316|144:304,1,100.29999647995,0|0,0:0|3:0,0:0:0:0:
20,208,613719,1,0,1:0:0:0:
200,184,613886,1,0,3:0:0:0:
100,332,614052,2,0,P|116:288|116:232,1,100.29999647995,0|0,0:0|3:0,0:0:0:0:
52,64,614386,1,0,1:0:0:0:
228,100,614552,1,0,3:0:0:0:
236,116,614636,1,0,3:0:0:0:
244,132,614719,5,4,0:1:0:0:
380,168,614886,1,0,3:0:0:0:
280,268,615052,1,0,1:0:0:0:
316,132,615219,2,0,P|352:100|408:100,1,100.29999647995,0|0,3:0|0:0,0:0:0:0:
280,268,615552,2,0,L|172:276,1,100.29999647995,0|0,3:0|1:0,0:0:0:0:
40,284,615886,1,0,3:0:0:0:
320,352,616052,6,0,P|360:312|372:268,1,100.29999647995,4|0,0:1|3:0,0:0:0:0:
288,84,616386,1,0,1:0:0:0:
252,176,616552,2,0,P|256:228|280:268,1,100.29999647995,0|0,3:0|0:0,0:0:0:0:
468,156,616886,1,0,3:0:0:0:
388,100,617052,2,0,L|288:84,1,100.29999647995,0|0,1:0|3:0,0:0:0:0:
64,184,617386,6,0,L|116:176,3,50.149998239975,4|0|0|0,0:0|0:0|0:0|0:0,0:0:0:0:
64,184,617719,1,0,1:0:0:0:
104,324,617886,6,0,L|252:348,1,150.449994719925,4|0,0:0|0:0,0:0:0:0:
404,208,618219,2,0,L|304:224,1,100.29999647995,4|0,0:0|1:0,0:0:0:0:
64,184,618552,6,0,P|156:172|176:64,1,200.5999929599,4|0,0:0|0:0,0:0:0:0:
92,96,619052,1,0,1:0:0:0:
92,96,619219,1,0,0:0:0:0:
112,264,619385,5,0,1:0:0:0:
300,192,619552,1,0,1:0:0:0:
272,180,619635,1,0,1:0:0:0:
244,168,619719,1,0,0:0:0:0:
384,312,619885,1,0,1:0:0:0:
412,304,619969,1,0,1:0:0:0:
440,296,620052,6,0,P|456:232|432:100,1,200.5999929599,4|0,0:1|1:0,0:0:0:0:
276,224,620552,1,0,3:0:0:0:
316,100,620719,1,0,0:0:0:0:
360,224,620885,1,0,3:0:0:0:
252,148,621052,1,0,1:0:0:0:
384,148,621219,1,0,3:0:0:0:
384,148,621385,5,0,0:0:0:0:
232,52,621552,1,0,3:0:0:0:
168,220,621719,1,0,1:0:0:0:
252,148,621885,5,0,3:0:0:0:
200,320,622052,1,0,0:0:0:0:
76,188,622219,1,0,3:0:0:0:
252,148,622385,5,0,1:0:0:0:
120,272,622552,1,0,3:0:0:0:
144,92,622719,1,0,0:0:0:0:
40,260,622885,5,0,3:0:0:0:
252,148,623052,1,0,1:0:0:0:
148,316,623218,1,0,3:0:0:0:
36,84,623385,5,0,0:0:0:0:
48,296,623552,1,0,3:0:0:0:
260,284,623718,1,0,1:0:0:0:
248,72,623885,1,0,3:0:0:0:
60,188,624052,5,0,0:0:0:0:
344,92,624219,1,0,1:0:0:0:
376,116,624302,1,0,1:0:0:0:
400,148,624385,1,0,1:0:0:0:
408,188,624469,1,0,1:0:0:0:
400,228,624552,1,0,1:0:0:0:
380,264,624635,1,0,1:0:0:0:
344,284,624719,6,0,P|256:292|176:284,1,170
164,280,626302,1,0,0:0:0:0:
156,276,626385,6,0,P|131:260|112:256,1,50.149998239975,0|0,1:0|0:0,0:0:0:0:
240,216,626552,2,0,P|260:200|272:176,1,50.149998239975
260,76,626719,6,0,P|188:56|96:88,1,170,4|0,0:0|1:0,0:0:0:0:
336,152,627219,2,0,P|364:116|364:72,1,85,0|0,3:0|0:0,0:0:0:0:
240,216,627552,2,0,P|212:252|212:296,1,85,0|0,3:0|1:0,0:0:0:0:
400,296,627885,2,0,L|316:288,1,85,0|0,3:0|0:0,0:0:0:0:
108,328,628219,6,0,P|56:296|48:260,1,85,0|0,3:0|1:0,0:0:0:0:
240,216,628552,2,0,P|238:277|211:301,1,85,0|0,3:0|0:0,0:0:0:0:
76,160,628885,2,0,P|129:130|164:142,1,85,0|0,3:0|1:0,0:0:0:0:
144,236,629219,1,0,3:0:0:0:
144,236,629302,1,0,3:0:0:0:
144,236,629385,6,0,P|192:304|276:308,1,170,4|0,0:1|1:0,0:0:0:0:
252,136,629885,2,0,P|236:176|240:216,1,85,0|0,3:0|0:0,0:0:0:0:
356,128,630219,1,0,3:0:0:0:
356,128,630302,1,0,3:0:0:0:
356,128,630385,1,0,1:0:0:0:
264,16,630552,6,0,L|360:28,1,85,0|0,3:0|0:0,0:0:0:0:
428,200,630885,2,0,L|332:188,1,85,0|0,3:0|1:0,0:0:0:0:
464,268,631219,2,0,P|496:232|504:188,1,85,0|0,3:0|0:0,0:0:0:0:
460,68,631552,5,0,3:0:0:0:
428,200,631719,1,0,1:0:0:0:
344,92,631885,1,0,3:0:0:0:
312,224,632052,1,4,0:1:0:0:
256,192,632135,12,0,634719,0:0:0:0:
256,80,638175,6,0,L|256:208,1,127.500004863739
256,300,638702,1,0,0:0:0:0:
256,328,638778,1,0,0:0:0:0:
344,268,638928,1,0,0:0:0:0:
168,268,639079,1,0,0:0:0:0:
400,184,639230,1,0,0:0:0:0:
112,184,639381,5,0,0:0:0:0:
256,80,639531,1,0,0:0:0:0:
128,56,639682,1,0,0:0:0:0:
112,184,639833,1,0,0:0:0:0:
240,208,639984,2,0,L|332:200,1,91.800002241211
256,80,640285,1,0,0:0:0:0:
168,268,640436,1,0,0:0:0:0:
331,200,640587,5,0,0:0:0:0:
256,80,640737,1,0,0:0:0:0:
252,296,640888,1,0,0:0:0:0:
404,144,641039,1,0,0:0:0:0:
256,80,641190,2,0,L|164:88,1,91.800002241211
56,144,641491,1,0,0:0:0:0:
256,80,641642,1,0,0:0:0:0:
72,264,641793,5,0,0:0:0:0:
56,144,641943,1,0,0:0:0:0:
176,124,642094,1,0,0:0:0:0:
192,244,642245,1,0,0:0:0:0:
56,144,642396,2,0,P|56:88|80:56,1,91.800002241211
264,40,642697,1,0,0:0:0:0:
176,124,642848,1,0,0:0:0:0:
264,40,642999,5,0,0:0:0:0:
192,244,643149,1,0,0:0:0:0:
412,208,643300,2,0,P|444:164|404:100,1,137.700003361816
356,76,643602,2,0,B|320:108|320:108|260:116,1,91.800002241211
176,124,643903,1,0,0:0:0:0:
264,40,644054,1,0,0:0:0:0:
296,240,644205,6,0,P|268:324|164:344,1,183.600004482422
176,124,644657,1,0,0:0:0:0:
412,204,644808,1,0,0:0:0:0:
192,244,644958,1,0,0:0:0:0:
396,84,645109,1,0,0:0:0:0:
396,84,645260,1,0,0:0:0:0:
296,240,645411,5,0,0:0:0:0:
264,40,645561,1,0,0:0:0:0:
460,112,645712,1,0,0:0:0:0:
296,240,645863,1,0,0:0:0:0:
264,40,646014,2,0,P|216:28|172:40,1,91.800002241211
119,286,646315,2,0,P|187:254|195:218,1,91.800002241211
84,144,646617,6,0,P|104:144|180:140,1,91.800002241211
428,240,646918,2,0,P|408:240|332:244,1,91.800002241211
220,360,647220,1,0,0:0:0:0:
428,240,647370,1,0,0:0:0:0:
368,88,647521,2,0,P|296:68|248:68,1,91.800002241211
52,52,647823,5,0,0:0:0:0:
288,248,647973,1,0,0:0:0:0:
48,136,648124,1,0,0:0:0:0:
348,196,648275,1,0,0:0:0:0:
44,220,648426,1,0,0:0:0:0:
52,252,648501,1,0,0:0:0:0:
72,276,648577,1,0,0:0:0:0:
104,284,648652,1,0,0:0:0:0:
136,280,648727,1,0,0:0:0:0:
208,144,648878,1,0,0:0:0:0:
304,320,649029,5,0,0:0:0:0:
408,184,649180,1,0,0:0:0:0:
448,324,649330,1,0,0:0:0:0:
264,180,649481,1,0,0:0:0:0:
456,56,649632,2,0,P|392:40|360:40,1,94.3500023034669
232,48,649933,1,0,0:0:0:0:
408,184,650084,1,0,0:0:0:0:
160,344,650235,5,0,0:0:0:0:
96,80,650386,1,0,0:0:0:0:
264,180,650536,1,0,0:0:0:0:
128,212,650687,1,0,0:0:0:0:
232,48,650838,2,0,P|280:56|312:88,1,94.3500023034669
316,284,651139,1,0,0:0:0:0:
228,152,651290,1,0,0:0:0:0:
456,156,651441,5,0,0:0:0:0:
316,284,651592,1,0,0:0:0:0:
348,100,651742,1,0,0:0:0:0:
432,268,651893,1,0,0:0:0:0:
264,180,652044,2,0,B|220:164|216:112|216:112|184:108,1,94.3500023034669
32,200,652345,1,0,0:0:0:0:
88,64,652496,1,0,0:0:0:0:
156,248,652647,5,0,0:0:0:0:
348,100,652798,1,0,0:0:0:0:
32,200,652948,2,0,P|24:256|36:304,1,94.3500023034669
240,276,653250,2,0,P|224:260|156:247,1,94.3500023034669
128,360,653551,1,0,0:0:0:0:
352,324,653702,1,0,0:0:0:0:
348,100,653853,6,0,B|324:116|324:148|324:148|240:116|192:136,1,188.700004606934
240,276,654305,1,0,0:0:0:0:
64,204,654456,1,0,0:0:0:0:
280,48,654607,1,0,0:0:0:0:
40,68,654757,1,0,0:0:0:0:
304,184,654908,1,0,0:0:0:0:
52,360,655059,6,0,P|104:304|108:264,1,94.3500023034669
144,56,655360,2,0,P|152:96|180:140,1,94.3500023034669
412,168,655662,1,0,0:0:0:0:
288,328,655813,1,0,0:0:0:0:
280,48,655963,1,0,0:0:0:0:
280,48,656265,6,0,P|276:96|280:144,1,94.3500023034669
52,360,656566,2,0,P|56:316|52:264,1,94.3500023034669
320,332,656868,2,0,L|224:332,2,94.3500023034669
464,160,657320,2,0,P|416:108|332:164,1,188.700004606934
400,232,657772,5,0,0:0:0:0:
248,72,657923,1,0,0:0:0:0:
212,76,657999,1,0,0:0:0:0:
176,80,658074,1,0,0:0:0:0:
464,160,658225,5,0,0:0:0:0:
140,84,658376,1,0,0:0:0:0:
424,72,658526,1,0,0:0:0:0:
180,172,658677,6,0,P|116:176|44:68,1,207.399991455384,4|0,0:0|0:0,0:0:0:0:
256,32,659129,1,0,0:0:0:0:
332,172,659280,2,0,P|372:112|364:72,1,103.699995727692
260,88,659582,1,0,0:0:0:0:
264,256,659732,1,0,0:0:0:0:
368,272,659883,5,0,0:0:0:0:
304,52,660034,1,0,0:0:0:0:
168,268,660185,1,0,0:0:0:0:
464,160,660335,1,0,0:0:0:0:
168,84,660486,2,0,P|104:96|44:128,1,103.699995727692
332,172,660788,1,0,0:0:0:0:
36,212,660938,1,0,0:0:0:0:
368,272,661089,6,0,B|440:292|428:228|428:228|396:144|464:160,1,207.399991455384
424,352,661541,1,0,0:0:0:0:
216,224,661692,1,0,0:0:0:0:
424,216,661843,1,0,0:0:0:0:
216,360,661994,1,0,0:0:0:0:
220,88,662144,1,0,0:0:0:0:
480,296,662295,5,0,0:0:0:0:
64,124,662446,1,0,0:0:0:0:
448,124,662597,1,0,0:0:0:0:
32,296,662747,1,0,0:0:0:0:
256,28,662898,2,0,L|256:136,1,103.699995727692
256,356,663200,1,0,0:0:0:0:
104,220,663350,1,0,0:0:0:0:
408,220,663501,6,0,P|456:188|440:56,1,207.399991455384,4|0,0:0|0:0,0:0:0:0:
228,104,663953,1,0,0:0:0:0:
344,124,664104,1,0,2:3:0:0:
168,164,664255,1,0,2:3:0:0:
344,124,664406,1,0,2:3:0:0:
104,220,664556,1,0,2:3:0:0:
344,124,664707,5,0,0:0:0:0:
80,142,664858,1,0,0:0:0:0:
303,275,665009,1,0,0:0:0:0:
201,38,665159,1,0,0:0:0:0:
144,289,665310,2,0,B|144:324|172:336|172:336|200:328|216:335,1,103.699995727692
344,124,665612,1,0,0:0:0:0:
108,52,665762,1,0,0:0:0:0:
196,300,665913,6,0,B|256:304|304:272|304:272|396:308,1,207.399991455384
232,204,666365,1,0,0:0:0:0:
416,224,666516,1,0,0:0:0:0:
308,352,666667,1,0,0:0:0:0:
340,76,666818,2,0,B|360:44|300:28|256:40,1,103.699995727692
339,296,667119,5,0,0:0:0:0:
369,122,667270,1,0,0:0:0:0:
172,87,667421,1,0,0:0:0:0:
142,261,667571,1,0,0:0:0:0:
300,236,667722,5,0,0:0:0:0:
300,148,667873,1,0,0:0:0:0:
212,148,668024,1,0,0:0:0:0:
212,236,668175,1,0,0:0:0:0:
448,192,668325,6,0,P|473:116|400:20,1,207.399991455384
212,236,668778,1,0,0:0:0:0:
380,152,668928,2,0,P|396:112|344:96,1,103.699995727692
120,320,669230,1,0,0:0:0:0:
308,316,669381,1,0,0:0:0:0:
212,148,669531,5,0,0:0:0:0:
220,336,669682,1,0,0:0:0:0:
212,148,669833,1,0,0:0:0:0:
308,316,669984,1,0,0:0:0:0:
124,144,670134,2,0,B|100:116|60:108|48:112|68:64,1,103.699995727692
256,40,670436,1,0,0:0:0:0:
448,75,670587,1,0,0:0:0:0:
256,292,670737,6,0,P|208:200|256:116,1,207.399991455384
448,75,671190,1,0,0:0:0:0:
428,198,671340,2,0,P|380:212|328:204,1,103.699995727692
117,82,671642,5,0,0:0:0:0:
427,230,671793,1,0,0:0:0:0:
179,351,671944,1,0,0:0:0:0:
255,15,672094,1,0,0:0:0:0:
332,350,672244,1,0,0:0:0:0:
84,231,672396,1,0,0:0:0:0:
393,81,672546,2,0,P|448:76|492:56,1,103.699995727692
117,82,672848,5,0,0:0:0:0:
332,350,672999,1,0,0:0:0:0:
336,176,673149,2,0,P|260:192|176:288,1,207.399991455384
332,350,673602,5,0,0:0:0:0:
336,176,673752,2,0,P|296:132|256:112,1,103.699995727692
117,82,674054,5,0,0:0:0:0:
172,248,674205,1,0,0:0:0:0:
336,176,674355,2,0,P|380:132|396:84,1,103.699995727692
272,64,674657,5,0,0:0:0:0:
428,216,674807,1,0,0:0:0:0:
172,248,674958,2,0,P|104:224|64:176,1,103.699995727692
208,112,675260,5,0,0:0:0:0:
336,176,675411,1,0,0:0:0:0:
352,320,675561,2,0,B|276:336|224:344|224:344|224:308|268:284,1,207.399991455384
428,216,676014,5,0,0:0:0:0:
356,112,676164,1,0,0:0:0:0:
352,320,676315,1,0,0:0:0:0:
472,104,676466,1,0,0:0:0:0:
224,136,676617,1,0,0:0:0:0:
419,289,676767,1,0,0:0:0:0:
296,120,676918,5,0,0:0:0:0:
236,208,677069,1,0,0:0:0:0:
296,120,677220,1,0,0:0:0:0:
144,156,677370,6,0,P|112:112|168:84,1,127.5
236,208,677672,6,0,P|200:248|112:256,1,141.5250034552,4|0,0:0|0:0,0:0:0:0:
296,120,677973,1,4,0:1:0:0:
184,48,688532,5,4,0:1:0:0:
96,152,688682,1,0,0:0:0:0:
248,128,688832,2,0,L|328:96,1,85
472,52,689132,1,0,0:0:0:0:
452,204,689282,2,0,L|376:240,1,85
154,310,689582,2,0,P|194:297|236:304,1,85
404,352,689882,5,0,0:0:0:0:
452,204,690032,2,0,L|416:120,1,85
472,52,690332,1,0,0:0:0:0:
348,188,690482,2,0,L|264:188,1,85
112,192,690782,1,0,0:0:0:0:
200,72,690932,5,4,0:1:0:0:
304,276,691082,1,0,0:0:0:0:
112,192,691232,2,0,L|84:96,1,85
243,207,691532,2,0,L|216:288,1,85
64,24,691832,1,0,0:0:0:0:
280,120,691982,1,0,0:0:0:0:
280,120,692057,1,0,0:0:0:0:
280,120,692132,5,4,0:2:0:0:
436,52,692282,1,0,0:0:0:0:
412,220,692432,1,0,0:0:0:0:
188,156,692582,5,4,0:0:0:0:
388,112,692732,1,0,0:0:0:0:
296,296,692882,1,0,0:0:0:0:
96,328,693032,6,0,B|96:312|96:312|80:320|80:320|92:304|92:304|76:312|76:312|72:304|72:304|88:296|88:296|56:256|92:208,1,191.250007295609,4|0,0:0|0:0,0:0:0:0:
112,136,693332,5,4,0:0:0:0:
356,256,693482,1,0,0:0:0:0:
144,28,693632,1,0,0:0:0:0:
324,364,693782,1,4,0:0:0:0:
468,264,694082,5,0,0:0:0:0:
468,264,694157,1,0,0:0:0:0:
468,264,694232,1,4,0:0:0:0:
156,276,694382,1,0,0:0:0:0:
380,52,694532,1,4,0:0:0:0:
68,64,694682,1,0,0:0:0:0:
68,64,694832,6,0,P|104:108|172:100,1,127.5
204,56,695132,6,0,L|224:228,1,170
96,296,695432,6,0,L|72:304,7,21.25
156,276,695719,5,4,0:1:0:0:
284,136,695869,1,0,0:0:0:0:
344,316,696019,2,0,L|436:236,1,118.999996368408
124,220,696319,5,0,0:0:0:0:
336,204,696469,1,0,0:0:0:0:
140,104,696619,2,0,L|36:48,1,118.999996368408
404,28,696919,5,0,0:0:0:0:
124,220,697069,1,0,0:0:0:0:
448,320,697219,2,0,L|476:188,1,118.999996368408
480,172,697444,1,0,0:0:0:0:
488,136,697519,5,0,0:0:0:0:
264,96,697669,1,0,0:0:0:0:
236,320,697819,2,0,P|308:316|348:288,1,118.999996368408
416,104,698119,5,4,0:1:0:0:
272,232,698269,1,0,0:0:0:0:
176,64,698419,2,0,P|208:24|288:4,1,118.999996368408
416,104,698719,5,0,0:0:0:0:
472,284,698869,1,0,0:0:0:0:
288,332,699019,2,0,P|236:320|184:280,1,118.999996368408
72,48,699319,5,0,0:0:0:0:
264,84,699469,1,0,0:0:0:0:
292,104,699544,1,0,0:0:0:0:
316,132,699619,1,0,0:0:0:0:
332,164,699694,1,0,0:0:0:0:
344,200,699769,1,0,0:0:0:0:
344,236,699844,1,0,0:0:0:0:
340,272,699919,5,0,0:0:0:0:
300,256,699994,1,0,0:0:0:0:
260,248,700069,1,0,0:0:0:0:
220,256,700144,1,0,0:0:0:0:
184,276,700219,1,4,0:1:0:0:
452,212,700369,1,0,0:0:0:0:
104,168,700519,5,4,0:1:0:0:
192,56,700669,1,0,0:0:0:0:
244,188,700819,1,0,0:0:0:0:
256,108,700969,1,0,0:0:0:0:
168,220,701119,5,0,0:0:0:0:
112,12,701269,1,0,0:0:0:0:
320,60,701419,1,0,0:0:0:0:
116,88,701569,1,0,0:0:0:0:
88,92,701644,1,0,0:0:0:0:
60,96,701719,5,0,0:0:0:0:
380,112,701869,1,0,0:0:0:0:
88,248,702019,1,0,0:0:0:0:
248,164,702169,1,0,0:0:0:0:
252,136,702244,1,0,0:0:0:0:
256,108,702319,5,0,0:0:0:0:
152,304,702469,1,0,0:0:0:0:
376,292,702619,1,0,0:0:0:0:
336,184,702769,1,0,0:0:0:0:
280,360,702919,6,0,P|246:288|224:256,1,118.999996368408,4|0,0:1|0:0,0:0:0:0:
60,96,703219,1,0,0:0:0:0:
248,164,703369,5,0,0:0:0:0:
48,80,703519,1,0,0:0:0:0:
152,304,703669,5,0,0:0:0:0:
36,64,703819,1,0,0:0:0:0:
372,48,703969,5,0,0:0:0:0:
388,56,704044,1,0,0:0:0:0:
404,64,704119,1,0,0:0:0:0:
248,164,704269,1,0,0:0:0:0:
244,148,704344,1,0,0:0:0:0:
240,132,704419,1,0,0:0:0:0:
400,204,704569,5,0,0:0:0:0:
408,220,704644,1,0,0:0:0:0:
416,236,704719,1,0,0:0:0:0:
424,252,704794,1,0,0:0:0:0:
432,268,704869,1,0,0:0:0:0:
440,284,704944,1,0,0:0:0:0:
448,300,705019,5,0,0:0:0:0:
412,296,705094,1,0,0:0:0:0:
376,300,705169,1,0,0:0:0:0:
344,316,705244,1,0,0:0:0:0:
316,340,705319,5,4,0:1:0:0:
392,188,705469,1,0,0:0:0:0:
240,304,705619,2,0,P|184:320|124:320,1,118.999996368408
192,88,705919,5,0,0:0:0:0:
72,200,706069,1,0,0:0:0:0:
312,144,706219,2,0,L|432:116,1,118.999996368408
96,104,706519,5,0,0:0:0:0:
284,48,706669,1,0,0:0:0:0:
60,296,706819,2,0,L|184:328,1,118.999996368408
464,280,707119,5,0,0:0:0:0:
328,352,707269,1,0,0:0:0:0:
440,128,707419,2,0,P|416:72|380:28,1,118.999996368408
96,104,707719,5,0,0:0:0:0:
256,112,707869,1,0,0:0:0:0:
136,184,708019,1,0,0:0:0:0:
248,24,708169,2,0,P|304:36|340:84,1,118.999996368408
224,244,708469,1,0,0:0:0:0:
176,76,708619,1,0,0:0:0:0:
388,252,708769,1,0,0:0:0:0:
388,252,708844,1,0,0:0:0:0:
388,252,708919,5,0,0:0:0:0:
212,340,709069,1,0,0:0:0:0:
400,156,709219,2,0,P|436:92|440:48,1,118.999996368408
136,184,709519,1,0,0:0:0:0:
124,280,709669,1,0,0:0:0:0:
228,152,709819,1,0,0:0:0:0:
68,112,709969,1,0,0:0:0:0:
48,108,710044,1,0,0:0:0:0:
28,104,710119,5,4,0:1:0:0:
228,28,710269,1,0,0:0:0:0:
308,228,710419,2,0,P|288:284|256:336,1,118.999996368408
228,152,710719,5,0,0:0:0:0:
436,76,710869,1,0,0:0:0:0:
208,164,711019,1,0,0:0:0:0:
352,40,711169,5,0,0:0:0:0:
188,176,711319,1,0,0:0:0:0:
484,208,711469,1,0,0:0:0:0:
264,84,711619,5,0,0:0:0:0:
104,224,711769,1,0,0:0:0:0:
104,224,711844,1,0,0:0:0:0:
104,224,711919,1,0,0:0:0:0:
112,48,712069,1,0,0:0:0:0:
260,264,712219,5,0,0:0:0:0:
184,352,712369,1,0,0:0:0:0:
372,296,712519,5,0,0:0:0:0:
428,192,712669,1,0,0:0:0:0:
316,160,712819,2,0,L|200:128,1,118.999996368408
396,104,713119,1,0,0:0:0:0:
300,336,713269,1,0,0:0:0:0:
312,72,713419,1,0,0:0:0:0:
452,272,713569,1,0,0:0:0:0:
196,272,713719,5,0,0:0:0:0:
180,256,713794,1,0,0:0:0:0:
140,264,713869,1,0,0:0:0:0:
124,248,713944,1,0,0:0:0:0:
80,252,714019,1,0,0:0:0:0:
64,236,714094,1,0,0:0:0:0:
36,192,714169,5,0,0:0:0:0:
32,156,714244,1,0,0:0:0:0:
44,124,714319,1,0,0:0:0:0:
64,96,714394,1,0,0:0:0:0:
92,76,714469,1,0,0:0:0:0:
128,72,714544,1,0,0:0:0:0:
180,84,714619,6,0,L|236:112,1,59.4999981842042
412,136,714769,2,0,L|465:164,1,59.4999981842042
128,168,714919,5,4,0:1:0:0:
272,172,715069,1,0,0:0:0:0:
200,296,715219,2,0,B|111:334|111:334|96:340|88:332,1,118.999996368408
252,84,715519,5,0,0:0:0:0:
440,264,715669,2,0,L|368:360,1,118.999996368408
136,48,715969,5,0,0:0:0:0:
480,172,716119,2,0,L|456:288,1,118.999996368408
48,120,716419,5,0,0:0:0:0:
200,296,716569,2,0,B|291:260|291:260|312:264,1,118.999996368408
52,244,716869,5,0,0:0:0:0:
336,296,717019,2,0,L|376:172,1,118.999996368408
412,32,717319,5,4,0:1:0:0:
212,52,717469,1,0,0:0:0:0:
456,108,717619,2,0,P|492:168|492:216,1,118.999996368408
268,340,717919,1,0,0:0:0:0:
320,104,718069,1,0,0:0:0:0:
188,256,718219,1,0,0:0:0:0:
400,188,718369,1,0,0:0:0:0:
96,60,718519,5,0,0:0:0:0:
44,208,718669,1,0,0:0:0:0:
52,232,718744,1,0,0:0:0:0:
60,252,718819,1,0,0:0:0:0:
256,108,718969,5,0,0:0:0:0:
232,108,719044,1,0,0:0:0:0:
208,116,719119,1,0,0:0:0:0:
192,132,719194,1,0,0:0:0:0:
184,152,719269,1,0,0:0:0:0:
184,176,719344,1,0,0:0:0:0:
196,196,719419,5,4,0:1:0:0:
244,192,719494,1,0,0:0:0:0:
288,208,719569,1,0,0:0:0:0:
324,240,719644,1,0,0:0:0:0:
340,284,719719,5,4,0:1:0:0:
220,320,719869,1,0,0:0:0:0:
348,136,720019,1,0,0:0:0:0:
464,216,720169,1,0,0:0:0:0:
464,24,720319,1,0,0:0:0:0:
444,120,720469,1,0,0:0:0:0:
292,52,720619,1,0,0:0:0:0:
368,232,720769,1,0,0:0:0:0:
136,280,720919,6,0,P|80:251|28:228,1,118.999996368408
144,88,721219,2,0,P|154:119|164:144,1,59.4999981842042
192,220,721369,1,0,0:0:0:0:
192,220,721519,2,0,P|268:212|324:228,1,118.999996368408
460,296,721819,1,0,0:0:0:0:
332,360,721969,1,0,0:0:0:0:
444,120,722119,5,4,0:1:0:0:
264,152,722269,1,0,0:0:0:0:
376,56,722419,1,0,0:0:0:0:
336,216,722569,2,0,P|312:272|312:336,1,118.999996368408
488,204,722869,1,0,0:0:0:0:
280,72,723019,2,0,P|224:84|184:140,1,118.999996368408
108,356,723319,5,0,0:0:0:0:
96,316,723394,1,0,0:0:0:0:
88,276,723469,1,0,0:0:0:0:
76,236,723544,1,0,0:0:0:0:
60,228,723619,1,0,0:0:0:0:
44,220,723694,1,0,0:0:0:0:
28,180,723769,5,0,0:0:0:0:
36,140,723844,1,0,0:0:0:0:
44,100,723919,1,0,0:0:0:0:
48,84,723994,1,0,0:0:0:0:
52,68,724069,1,0,0:0:0:0:
56,52,724144,1,0,0:0:0:0:
88,28,724219,5,0,0:0:0:0:
124,48,724294,1,0,0:0:0:0:
164,56,724369,1,0,0:0:0:0:
204,48,724444,1,0,0:0:0:0:
240,32,724519,5,4,0:1:0:0:
432,88,724669,1,0,0:0:0:0:
136,204,724819,1,0,0:0:0:0:
264,128,724969,5,0,0:0:0:0:
376,272,725119,1,0,0:0:0:0:
336,56,725269,5,0,0:0:0:0:
252,280,725419,1,0,0:0:0:0:
476,204,725569,5,0,0:0:0:0:
176,124,725719,2,0,P|116:120|64:152,1,118.999996368408
320,344,726019,5,0,0:0:0:0:
240,52,726169,2,0,P|184:32|120:44,1,118.999996368408
184,344,726469,5,0,0:0:0:0:
420,132,726619,2,0,P|388:80|336:56,1,118.999996368408
56,288,726919,6,0,P|128:280|196:192,1,178.499994552612,4|0,0:1|0:0,0:0:0:0:
176,124,727219,2,0,P|236:132|312:140,1,118.999996368408
464,156,727519,1,0,0:0:0:0:
80,172,727669,1,0,0:0:0:0:
360,268,727819,1,0,0:0:0:0:
184,344,727969,1,0,0:0:0:0:
244,240,728119,5,0,0:0:0:0:
92,76,728269,1,0,0:0:0:0:
92,76,728344,1,0,0:0:0:0:
92,76,728419,1,0,0:0:0:0:
40,296,728569,5,0,0:0:0:0:
56,276,728644,1,0,0:0:0:0:
72,260,728719,1,0,0:0:0:0:
88,244,728794,1,0,0:0:0:0:
104,228,728869,1,0,0:0:0:0:
124,212,728944,1,0,0:0:0:0:
144,196,729019,5,0,0:0:0:0:
184,180,729094,1,0,0:0:0:0:
216,156,729169,1,0,0:0:0:0:
236,120,729244,1,0,0:0:0:0:
240,80,729319,6,0,P|292:48|348:44,1,118.999996368408,4|0,0:1|0:0,0:0:0:0:
216,240,729619,1,0,0:0:0:0:
56,184,729769,2,0,P|60:128|92:76,1,118.999996368408
460,100,730069,5,0,0:0:0:0:
364,236,730219,1,0,0:0:0:0:
288,160,730369,1,0,0:0:0:0:
456,208,730519,6,0,P|452:272|404:324,1,118.999996368408
348,56,730819,1,0,0:0:0:0:
428,344,730969,2,0,L|308:364,1,118.999996368408
92,128,731269,5,0,0:0:0:0:
32,284,731419,1,0,0:0:0:0:
28,68,731569,1,0,0:0:0:0:
92,220,731719,6,0,L|220:232,1,118.999996368408,4|0,0:1|0:0,0:0:0:0:
210,231,731944,1,0,0:0:0:0:
210,231,732019,1,0,0:0:0:0:
460,128,732169,6,0,L|332:116,1,118.999996368408,4|0,0:1|0:0,0:0:0:0:
341,116,732394,1,0,0:0:0:0:
341,116,732469,1,0,0:0:0:0:
148,320,732619,5,4,0:1:0:0:
140,96,732769,1,0,0:0:0:0:
140,96,732844,2,0,L|164:40,1,59.4999981842042
92,220,733069,5,0,0:0:0:0:
120,228,733144,1,0,0:0:0:0:
148,232,733219,1,0,0:0:0:0:
176,232,733294,1,0,0:0:0:0:
204,228,733369,1,0,0:0:0:0:
232,220,733444,1,0,0:0:0:0:
260,208,733519,1,0,0:0:0:0:
280,188,733594,1,0,0:0:0:0:
292,160,733669,6,0,L|300:96,1,59.4999981842042
372,248,733819,2,0,L|384:308,1,59.4999981842042
496,176,733969,2,0,L|440:156,1,59.4999981842042
220,72,734119,5,4,0:1:0:0:
56,152,734269,1,0,0:0:0:0:
232,40,734419,5,0,0:0:0:0:
64,188,734569,1,0,0:0:0:0:
292,288,734719,5,0,0:0:0:0:
72,220,734869,1,0,0:0:0:0:
300,252,735019,5,0,0:0:0:0:
100,352,735169,1,0,0:0:0:0:
192,168,735319,5,0,0:0:0:0:
140,352,735469,1,0,0:0:0:0:
160,136,735619,5,0,0:0:0:0:
180,352,735769,1,0,0:0:0:0:
128,104,735919,6,0,L|64:112,1,59.4999981842042
352,168,736069,1,0,0:0:0:0:
208,264,736219,5,0,0:0:0:0:
388,136,736369,2,0,L|448:148,1,59.4999981842042
452,312,736519,5,4,0:0:0:0:
272,48,736669,2,0,L|172:28,1,101.999996887207
460,236,736969,5,4,0:0:0:0:
128,104,737119,2,0,L|24:124,1,101.999996887207
468,160,737419,5,4,0:0:0:0:
108,208,737569,1,0,0:0:0:0:
108,208,737644,2,0,L|60:228,1,50.9999984436036
472,84,737869,6,0,L|428:116,1,50.9999984436036,4|0,0:0|0:0,0:0:0:0:
156,292,738019,1,0,0:0:0:0:
156,292,738919,5,4,0:0:0:0:
360,240,739069,2,0,L|448:228,1,85
108,304,739369,5,4,0:0:0:0:
320,260,739519,2,0,L|400:224,1,85
60,316,739819,5,4,0:0:0:0:
272,260,739969,2,0,L|360:260,1,85
12,328,740269,5,4,0:0:0:0:
216,172,740419,1,0,0:0:0:0:
72,40,740569,5,0,0:0:0:0:
72,40,740644,1,0,0:0:0:0:
72,40,740719,2,0,L|52:136,1,85,4|0,0:0|0:0,0:0:0:0:
244,252,741019,2,0,L|216:172,1,85,4|0,0:0|0:0,0:0:0:0:
96,348,741319,5,4,0:1:0:0:
260,196,762069,5,4,0:1:0:0:
260,196,762369,2,0,P|304:204|408:144,1,170
448,248,763271,2,0,B|392:280|392:280|384:304,1,85
292,360,763872,2,0,L|200:344,2,85
292,360,764773,6,0,L|264:192,1,170
128,60,765675,2,0,L|148:196,1,127.5
64,268,766276,2,0,L|44:132,1,127.5
128,60,766877,6,0,B|140:132|140:132|164:136,2,85
312,92,767854,2,0,L|416:252,1,191.25
300,304,768680,6,0,L|312:260,2,42.5
220,208,769131,2,0,L|184:180,1,42.5
88,68,770484,5,0,0:0:0:0:
104,96,770559,1,0,0:0:0:0:
128,116,770634,1,0,0:0:0:0:
156,132,770709,1,0,0:0:0:0:
188,140,770784,1,0,0:0:0:0:
220,144,770859,1,0,0:0:0:0:
252,144,770934,1,0,0:0:0:0:
284,136,771010,1,0,0:0:0:0:
312,120,771085,6,0,P|336:108|352:108,3,31.8750012159348
328,232,771385,6,0,P|304:224|288:212,1,31.8750012159348
436,224,771536,2,0,P|445:247|447:267,1,31.8750012159348
376,360,771674,5,4,0:1:0:0:
200,260,771820,1,2,0:0:0:0:
376,160,771966,1,8,0:2:0:0:
272,336,772113,1,2,0:0:0:0:
272,336,772186,1,2,0:0:0:0:
272,336,772259,1,0,0:0:0:0:
444,224,772405,1,2,0:0:0:0:
252,156,772552,1,10,0:0:0:0:
456,156,772698,1,0,0:0:0:0:
264,224,772844,5,0,0:0:0:0:
288,76,772991,1,2,0:0:0:0:
264,224,773137,1,10,0:0:0:0:
156,72,773283,1,2,0:0:0:0:
152,68,773356,1,2,0:0:0:0:
148,64,773430,1,0,0:0:0:0:
288,76,773576,1,2,0:0:0:0:
104,196,773722,1,8,0:0:0:0:
272,336,773869,2,0,L|300:292,1,50.9999984436036,0|0,1:0|1:0,0:0:0:0:
288,144,774015,6,0,L|232:232,1,101.999996887207,0|2,0:0|0:0,0:0:0:0:
160,340,774308,1,8,0:0:0:0:
104,196,774454,1,0,0:0:0:0:
408,196,774600,1,2,0:0:0:0:
352,340,774747,1,2,0:0:0:0:
256,92,774893,2,0,P|212:52|172:52,1,101.999996887207,8|0,0:0|0:0,0:0:0:0:
228,188,775186,6,0,P|292:188|328:156,1,101.999996887207,2|2,0:0|0:0,0:0:0:0:
404,40,775478,1,8,0:0:0:0:
408,196,775625,1,2,0:0:0:0:
408,224,775698,1,2,0:0:0:0:
408,252,775771,1,0,0:0:0:0:
480,124,775917,5,2,0:0:0:0:
256,92,776064,1,8,0:0:0:0:
224,308,776210,1,2,0:0:0:0:
448,340,776356,1,4,0:1:0:0:
448,340,776503,5,0,0:0:0:0:
200,192,776649,2,0,P|140:196|104:216,1,101.999996887207,10|0,0:0|0:0,0:0:0:0:
256,92,776942,1,0,0:0:0:0:
336,180,777088,1,2,0:0:0:0:
136,104,777234,2,0,P|88:76|68:24,1,101.999996887207,8|2,0:0|0:0,0:0:0:0:
200,192,777527,6,0,L|188:296,1,101.999996887207,2|0,0:0|0:0,0:0:0:0:
188,293,777820,1,10,0:0:0:0:
336,180,777966,1,2,0:0:0:0:
256,92,778113,1,2,0:0:0:0:
444,136,778259,1,2,0:0:0:0:
436,160,778332,1,2,0:0:0:0:
428,184,778405,1,8,0:0:0:0:
316,324,778552,1,0,1:0:0:0:
308,296,778625,1,0,1:0:0:0:
300,268,778698,6,0,P|304:212|328:168,1,101.999996887207,0|2,0:0|0:0,0:0:0:0:
164,300,778991,2,0,P|210:331|236:374,1,101.999996887207,8|2,0:0|0:0,0:0:0:0:
204,168,779283,2,0,P|151:188|101:184,1,101.999996887207,0|2,0:0|0:0,0:0:0:0:
256,48,779576,2,0,L|384:56,1,101.999996887207,8|0,0:0|0:0,0:0:0:0:
164,300,779868,5,0,0:0:0:0:
156,268,779941,1,0,0:0:0:0:
148,236,780014,1,0,0:0:0:0:
140,204,780088,1,0,0:0:0:0:
132,172,780161,1,8,0:0:0:0:
124,140,780234,1,0,0:0:0:0:
116,108,780308,1,2,0:0:0:0:
108,76,780381,1,0,0:0:0:0:
100,44,780454,5,12,0:3:0:0:
72,60,780528,1,0,0:0:0:0:
56,88,780601,1,2,0:0:0:0:
44,120,780674,1,0,0:0:0:0:
40,156,780748,1,8,0:0:0:0:
40,188,780821,1,0,0:0:0:0:
44,220,780894,1,0,0:0:0:0:
56,252,780968,1,0,0:0:0:0:
72,280,781041,5,4,0:1:0:0:
220,200,781188,1,0,0:0:0:0:
164,300,781334,1,8,0:0:0:0:
220,104,781481,1,0,0:0:0:0:
396,208,781628,2,0,P|384:208|292:200,1,85,2|0,0:0|0:0,0:0:0:0:
140,152,781921,1,8,0:0:0:0:
424,280,782068,2,0,P|412:277|322:254,1,85,2|0,0:0|0:0,0:0:0:0:
140,152,782361,5,2,0:0:0:0:
356,68,782508,1,8,0:0:0:0:
220,200,782655,1,0,0:0:0:0:
220,104,782801,5,2,0:0:0:0:
356,236,782948,1,2,0:0:0:0:
356,68,783095,1,8,0:0:0:0:
220,200,783242,1,0,1:0:0:0:
216,204,783315,1,0,1:0:0:0:
212,208,783388,5,0,0:0:0:0:
120,48,783535,1,2,0:0:0:0:
272,28,783682,1,8,0:0:0:0:
120,48,783828,1,2,0:0:0:0:
272,28,783975,1,0,0:0:0:0:
356,236,784122,5,2,0:0:0:0:
216,328,784268,2,0,P|257:333|296:316,1,85,8|0,0:0|0:0,0:0:0:0:
160,228,784561,6,0,P|120:264|108:292,1,85,0|2,0:0|0:0,0:0:0:0:
356,236,784857,1,8,0:0:0:0:
264,144,785006,1,2,0:0:0:0:
216,328,785154,6,0,P|244:288|256:248,1,85,0|2,0:0|0:0,0:0:0:0:
200,56,785451,1,8,0:0:0:0:
264,144,785599,2,0,P|312:148|348:140,1,85,2|4,0:0|0:3,0:0:0:0:
160,228,785896,6,0,P|112:224|76:232,1,85,4|0,0:3|0:0,0:0:0:0:
140,96,786193,1,12,0:3:0:0:
284,276,786341,6,0,P|280:324|288:360,1,85,4|0,0:3|0:0,0:0:0:0:
160,228,786638,1,4,0:3:0:0:
264,144,786786,6,0,P|312:148|348:140,1,85,4|0,0:3|0:0,0:0:0:0:
284,276,787083,1,8,0:3:0:0:
140,96,787231,6,0,P|144:48|136:12,1,85,4|0,0:3|0:0,0:0:0:0:
264,144,787528,1,8,0:0:0:0:
188,328,787676,1,4,0:3:0:0:
368,188,787825,1,0,0:0:0:0:
84,284,787973,1,8,0:3:0:0:
268,192,788121,5,2,0:0:0:0:
268,192,788196,1,2,0:0:0:0:
268,192,788270,1,2,0:0:0:0:
268,192,788344,1,0,0:0:0:0:
268,192,788418,1,0,0:0:0:0:
268,192,788492,1,2,0:0:0:0:
268,192,788566,1,0,0:0:0:0:
268,192,788641,1,0,0:0:0:0:
268,192,788715,1,0,0:0:0:0:
268,192,788789,1,0,0:0:0:0:
268,192,788863,1,2,0:0:0:0:
268,192,788937,1,2,0:0:0:0:
268,192,789012,5,0,0:0:0:0:
260,176,789086,1,0,0:0:0:0:
244,168,789160,1,0,0:0:0:0:
224,172,789234,1,2,0:0:0:0:
208,188,789308,1,0,0:0:0:0:
200,212,789382,1,0,0:0:0:0:
200,236,789457,1,0,0:0:0:0:
212,264,789531,1,0,0:0:0:0:
236,284,789605,1,2,0:0:0:0:
268,292,789679,1,0,0:0:0:0:
300,288,789753,1,0,0:0:0:0:
336,272,789828,1,0,0:0:0:0:
364,248,789902,5,0,1:0:0:0:
384,212,789976,1,0,1:0:0:0:
388,168,790050,1,2,1:2:0:0:
380,120,790124,1,0,1:0:0:0:
352,84,790198,1,0,1:0:0:0:
308,60,790273,1,0,1:0:0:0:
260,52,790347,1,0,1:0:0:0:
204,56,790421,1,0,1:0:0:0:
156,80,790494,1,4,1:0:0:0:
256,192,790568,12,0,792882,0:0:0:0:
304,200,793180,5,8,0:0:0:0:
108,232,793479,1,0,0:0:0:0:
108,232,793628,1,0,0:0:0:0:
188,168,793777,1,8,0:0:0:0:
224,264,793926,2,0,P|204:312|96:352,1,170
304,200,794374,2,0,L|400:212,1,85,8|0,0:0|0:0,0:0:0:0:
264,100,794673,5,0,0:0:0:0:
188,168,794822,1,0,0:0:0:0:
304,200,794971,2,0,L|388:224,1,85,8|0,0:0|0:0,0:0:0:0:
172,44,795270,1,4,0:1:0:0:
256,192,795344,12,4,800046,0:1:0:0:
136,104,803211,6,0,B|160:64|220:92|248:48,2,127.5
132,204,803803,2,0,P|192:212|252:296,1,170
152,304,804247,1,0,0:0:0:0:
296,172,804395,5,0,0:0:0:0:
320,176,804470,1,0,0:0:0:0:
344,180,804544,1,0,0:0:0:0:
132,204,804692,1,0,0:0:0:0:
124,180,804766,1,0,0:0:0:0:
116,156,804840,1,0,0:0:0:0:
252,296,804988,5,0,0:0:0:0:
380,188,805136,1,0,0:0:0:0:
344,356,805284,1,0,0:0:0:0:
276,200,805432,2,0,P|256:148|268:96,1,85,4|0,0:1|0:0,0:0:0:0:
420,288,805729,5,0,0:0:0:0:
252,296,805877,1,0,0:0:0:0:
380,188,806025,1,0,0:0:0:0:
212,192,806173,2,0,L|120:200,1,85
420,288,806469,2,0,L|504:280,1,85
372,104,806765,2,0,L|380:188,1,85
252,296,807062,5,0,0:0:0:0:
288,208,807210,1,0,0:0:0:0:
344,284,807358,1,0,0:0:0:0:
156,308,807506,1,0,0:0:0:0:
236,132,807654,1,0,0:0:0:0:
344,284,807802,2,0,P|352:340|344:372,1,85
192,220,808098,5,0,0:0:0:0:
372,104,808247,1,0,0:0:0:0:
120,56,808395,1,0,0:0:0:0:
156,308,808543,2,0,L|252:296,1,85
372,104,808839,2,0,L|276:116,1,85
16,240,809135,2,0,P|60:240|100:236,1,85
180,152,809431,5,0,0:0:0:0:
180,152,809580,1,0,0:0:0:0:
416,232,809728,1,0,0:0:0:0:
352,312,809876,1,0,0:0:0:0:
312,36,810024,1,0,0:0:0:0:
288,136,810172,2,0,P|277:177|264:220,1,85,4|0,0:1|0:0,0:0:0:0:
116,348,810468,5,0,0:0:0:0:
416,232,810616,1,0,0:0:0:0:
64,132,810765,1,0,0:0:0:0:
352,312,810913,2,0,P|392:332|444:332,1,85
260,272,811209,2,0,P|222:296|196:341,1,85
324,192,811505,2,0,P|321:147|295:102,1,85
176,52,811801,5,0,0:0:0:0:
192,60,811950,1,0,0:0:0:0:
156,228,812098,1,0,0:0:0:0:
324,192,812246,1,0,0:0:0:0:
272,352,812394,1,0,0:0:0:0:
208,68,812542,2,0,B|168:48|168:48|144:72|104:64,1,85
364,36,812838,5,0,0:0:0:0:
324,192,812986,1,0,0:0:0:0:
208,68,813134,1,0,0:0:0:0:
432,140,813283,2,0,P|444:188|440:224,1,85
272,352,813579,2,0,P|260:304|264:268,1,85
300,120,813875,2,0,B|260:140|260:140|220:140,1,85
48,124,814171,5,0,0:0:0:0:
48,124,814319,1,0,0:0:0:0:
256,48,814468,1,0,0:0:0:0:
104,316,814616,1,0,0:0:0:0:
104,316,814690,1,0,0:0:0:0:
104,316,814764,1,0,0:0:0:0:
408,316,814912,1,0,0:0:0:0:
256,48,815060,6,0,B|244:72|244:72|268:72|268:72|244:96|244:96|276:92|276:92|244:120|244:120|284:112|284:112|244:144|244:144|292:132|292:132|244:168|244:168|300:152|300:152|296:176|280:200,1,467.5
248,260,816763,1,0,0:0:0:0:
248,260,816837,5,0,0:0:0:0:
68,196,816986,1,0,0:0:0:0:
160,308,817134,1,0,0:0:0:0:
160,128,817282,1,0,0:0:0:0:
60,324,817430,5,0,0:0:0:0:
60,324,817578,1,0,0:0:0:0:
68,196,817726,2,0,P|72:152|80:112,1,85
140,236,818022,5,0,0:0:0:0:
268,148,818171,1,0,0:0:0:0:
160,128,818319,1,0,0:0:0:0:
320,244,818467,1,0,0:0:0:0:
268,148,818615,5,0,0:0:0:0:
268,148,818763,1,0,0:0:0:0:
420,200,818911,2,0,P|424:244|420:288,1,85
240,356,819207,5,0,0:0:0:0:
200,244,819355,1,0,0:0:0:0:
300,312,819504,1,0,0:0:0:0:
180,316,819652,1,0,0:0:0:0:
272,244,819800,6,0,P|320:200|324:176,2,85
232,92,820244,2,0,P|232:148|248:172,1,85
292,36,820540,2,0,P|256:12|204:16,1,85
108,36,820837,1,0,0:0:0:0:
336,104,820985,5,0,0:0:0:0:
128,184,821281,1,0,0:0:0:0:
212,216,821429,5,0,0:0:0:0:
236,216,821503,1,0,0:0:0:0:
260,216,821577,1,0,0:0:0:0:
184,332,821725,1,0,0:0:0:0:
184,120,821873,1,0,0:0:0:0:
268,320,822022,1,0,0:0:0:0:
428,280,822170,5,0,1:0:0:0:
36,100,822318,1,0,1:0:0:0:
448,184,822466,2,0,P|480:192|448:200,1,85,0|0,1:0|0:0,0:0:0:0:
256,120,822762,5,0,0:0:0:0:
184,192,822910,1,0,0:0:0:0:
256,264,823058,1,0,0:0:0:0:
328,192,823207,1,0,0:0:0:0:
84,280,823355,5,0,1:0:0:0:
476,100,823503,1,0,1:0:0:0:
64,184,823651,2,0,P|32:192|64:200,1,85,0|0,1:0|0:0,0:0:0:0:
256,52,823947,5,0,0:0:0:0:
396,192,824095,1,0,0:0:0:0:
256,332,824243,1,0,0:0:0:0:
116,192,824392,1,0,0:0:0:0:
116,192,824466,1,0,0:0:0:0:
116,192,824540,5,4,1:2:0:0:
324,88,824688,1,0,0:0:0:0:
324,296,824836,1,0,0:0:0:0:
396,192,824984,5,4,1:2:0:0:
184,120,825132,1,0,0:0:0:0:
184,264,825280,1,0,0:0:0:0:
404,108,825428,5,4,1:2:0:0:
256,332,825576,1,0,0:0:0:0:
256,52,825725,1,0,0:0:0:0:
404,276,825873,1,4,1:2:0:0:
404,276,825947,1,0,1:0:0:0:
404,276,826021,1,0,1:0:0:0:
276,192,826169,5,0,0:0:0:0:
168,352,826317,1,0,0:0:0:0:
52,200,826465,1,0,1:0:0:0:
48,168,826539,1,0,1:0:0:0:
44,136,826613,1,0,1:0:0:0:
40,108,826687,1,0,1:0:0:0:
36,76,826761,1,0,1:0:0:0:
32,44,826835,1,0,1:0:0:0:
28,12,826910,5,4,0:2:0:0:
392,192,827058,1,0,0:0:0:0:
28,372,827206,1,4,0:0:0:0:
392,192,827354,1,0,0:0:0:0:
256,52,827502,5,2,0:0:0:0:
340,312,827650,1,2,0:0:0:0:
119,151,827798,1,2,0:0:0:0:
392,151,827946,1,2,0:0:0:0:
171,312,828094,6,0,L|63:299,1,107.099996731567,4|0,0:0|0:0,0:0:0:0:
256,52,828391,2,0,L|363:64,1,107.099996731567,4|0,0:0|0:0,0:0:0:0:
472,100,828687,5,2,0:0:0:0:
40,152,828835,1,2,0:0:0:0:
472,248,828983,1,2,0:0:0:0:
40,300,829131,1,2,0:0:0:0:
364,52,829279,5,4,0:0:0:0:
256,328,829428,1,4,0:0:0:0:
148,52,829576,2,0,L|260:52,1,107.099996731567,4|0,0:0|0:0,0:0:0:0:
432,164,829872,5,2,0:0:0:0:
256,328,830020,1,2,0:0:0:0:
300,92,830168,1,2,0:0:0:0:
404,308,830316,1,2,0:0:0:0:
192,196,830464,5,4,0:0:0:0:
436,84,830612,1,4,0:0:0:0:
256,328,830761,2,0,L|144:324,1,107.099996731567,4|0,0:0|0:0,0:0:0:0:
24,320,831057,5,2,0:0:0:0:
216,112,831205,1,0,1:0:0:0:
164,116,831279,1,0,1:0:0:0:
120,148,831353,1,0,1:0:0:0:
108,200,831427,1,0,1:0:0:0:
128,252,831501,1,0,1:0:0:0:
172,280,831575,1,0,1:0:0:0:
224,276,831649,6,0,L|336:252,1,107.099996731567,4|0,0:0|0:0,0:0:0:0:
216,112,831946,2,0,L|116:76,1,107.099996731567,4|0,0:0|0:0,0:0:0:0:
376,40,832242,5,2,0:0:0:0:
136,344,832390,1,0,0:0:0:0:
104,72,832538,1,2,0:0:0:0:
408,312,832686,1,2,0:0:0:0:
136,344,832834,6,0,L|28:328,1,107.099996731567,4|0,0:0|0:0,0:0:0:0:
376,40,833131,2,0,L|484:56,1,107.099996731567,4|0,0:0|0:0,0:0:0:0:
456,232,833427,5,2,0:0:0:0:
56,152,833575,1,2,0:0:0:0:
416,136,833723,1,2,0:0:0:0:
96,248,833871,1,2,0:0:0:0:
256,56,834019,5,4,0:0:0:0:
172,124,834167,1,0,0:0:0:0:
312,284,834315,1,4,0:0:0:0:
324,176,834464,1,0,0:0:0:0:
196,320,834612,5,4,0:0:0:0:
256,56,834760,1,4,0:0:0:0:
372,344,834908,1,4,0:0:0:0:
256,56,835056,1,2,0:0:0:0:
20,296,835204,5,4,1:2:0:0:
424,192,835352,1,2,0:0:0:0:
20,88,835500,2,0,P|32:144|72:168,1,107.099996731567,4|0,1:2|0:0,0:0:0:0:
256,56,835797,5,0,1:0:0:0:
300,60,835871,1,0,1:0:0:0:
340,72,835945,1,0,1:0:0:0:
376,92,836019,1,0,1:0:0:0:
408,120,836093,1,0,1:0:0:0:
428,160,836167,1,0,1:0:0:0:
432,204,836241,1,0,1:0:0:0:
420,244,836315,1,0,1:0:0:0:
396,280,836389,6,0,B|344:308|272:288|272:288|196:336,1,214.199993463135,4|0,0:0|1:0,0:0:0:0:
156,192,836833,1,0,0:0:0:0:
198,49,836982,2,0,B|272:96|272:96|344:76|396:104,1,214.199993463135,4|0,0:0|1:0,0:0:0:0:
484,188,837426,1,0,0:0:0:0:
328,192,837574,6,0,L|112:192,1,214.199993463135,4|0,0:0|1:0,0:0:0:0:
113,192,838018,1,0,0:0:0:0:
144,288,838167,1,0,0:0:0:0:
88,96,838315,2,0,P|156:120|260:40,1,214.199993463135,2|2,0:0|0:0,0:0:0:0:
164,40,838759,6,0,P|234:114|335:95,1,214.199993463135,4|0,0:0|1:0,0:0:0:0:
404,44,839203,1,0,0:0:0:0:
408,132,839352,2,0,L|384:344,1,214.199993463135,4|0,0:0|1:0,0:0:0:0:
256,256,839796,1,0,0:0:0:0:
128,344,839944,6,0,L|104:132,1,214.199993463135,4|0,0:0|1:0,0:0:0:0:
256,256,840388,1,2,0:0:0:0:
280,76,840536,1,0,0:0:0:0:
104,132,840685,1,0,1:0:0:0:
80,152,840759,1,0,1:0:0:0:
56,172,840833,1,0,0:0:0:0:
240,320,840981,1,0,1:0:0:0:
248,288,841055,1,0,1:0:0:0:
256,256,841129,6,0,P|316:192|392:264,1,214.199993463135,4|0,0:0|1:0,0:0:0:0:
320,364,841573,1,0,0:0:0:0:
136,288,841721,2,0,P|108:232|188:116,1,214.199993463135,4|0,0:0|1:0,0:0:0:0:
256,256,842166,1,0,0:0:0:0:
272,80,842314,6,0,P|228:40|92:88,1,214.199993463135,4|0,0:0|1:0,0:0:0:0:
184,152,842758,1,2,0:0:0:0:
272,80,842906,1,2,0:0:0:0:
368,144,843054,1,2,0:0:0:0:
332,256,843203,1,0,0:0:0:0:
220,260,843351,1,2,0:0:0:0:
272,80,843499,6,0,P|360:40|464:80,1,214.199993463135
464,80,843943,1,0,0:0:0:0:
184,152,844091,2,0,P|140:152|76:140,1,107.099996731567,2|2,0:0|0:0,0:0:0:0:
332,256,844388,2,0,P|376:256|440:268,1,107.099996731567,0|2,0:0|0:0,0:0:0:0:
156,344,844684,5,4,0:0:0:0:
52,192,844832,1,4,0:0:0:0:
156,40,844980,2,0,P|208:28|264:32,1,107.099996731567,4|0,0:0|0:0,0:0:0:0:
424,188,845276,5,0,1:0:0:0:
300,364,845424,1,2,0:0:0:0:
304,148,845573,1,8,0:3:0:0:
428,324,845721,1,2,0:0:0:0:
224,256,845869,6,0,L|136:252,1,85,4|0,0:0|0:0,0:0:0:0:
64,340,846165,1,0,0:0:0:0:
64,340,846313,1,0,0:0:0:0:
88,148,846461,2,0,L|176:152,1,85,4|0,0:0|0:0,0:0:0:0:
224,48,846757,1,0,0:0:0:0:
224,48,846906,1,0,0:0:0:0:
304,272,847054,6,0,P|276:276|224:256,1,85,4|0,0:0|0:0,0:0:0:0:
388,244,847350,2,0,P|405:266|414:321,1,85
320,184,847646,2,0,P|330:157|373:122,2,85,0|2|0,0:0|0:0|0:0,0:0:0:0:
328,356,848091,1,2,0:0:0:0:
160,336,848239,6,0,P|124:320|96:284,1,85,4|0,0:0|0:0,0:0:0:0:
200,152,848535,2,0,P|174:118|136:100,1,85
32,172,848831,1,4,0:0:0:0:
200,152,848979,1,0,0:0:0:0:
48,280,849127,1,0,0:0:0:0:
232,48,849275,1,0,0:0:0:0:
388,300,849424,6,0,P|440:300|468:284,1,85,4|0,0:0|0:0,0:0:0:0:
316,204,849720,2,0,P|264:204|236:220,1,85
408,208,850016,1,0,0:0:0:0:
296,296,850164,2,0,P|248:320|152:264,1,170,2|2,0:0|0:0,0:0:0:0:
252,140,850609,6,0,P|256:192|232:220,1,85,4|0,0:0|0:0,0:0:0:0:
48,280,850905,1,0,0:0:0:0:
48,280,851053,1,0,0:0:0:0:
200,80,851201,2,0,P|240:60|288:68,2,85,4|0|0,0:0|0:0|0:0,0:0:0:0:
152,268,851645,1,0,0:0:0:0:
152,268,851793,6,0,L|128:164,1,85,4|0,0:0|0:0,0:0:0:0:
284,288,852090,2,0,L|264:370,1,85,4|0,0:0|0:0,0:0:0:0:
420,224,852386,5,4,0:0:0:0:
152,268,852534,1,2,0:0:0:0:
424,132,852682,1,4,0:0:0:0:
208,332,852830,1,2,0:0:0:0:
280,192,852978,6,0,P|280:132|256:104,1,85,4|0,0:0|0:0,0:0:0:0:
164,40,853275,1,4,0:0:0:0:
348,56,853423,1,0,0:0:0:0:
184,168,853571,5,0,1:0:0:0:
416,64,853719,1,0,1:0:0:0:
392,316,853867,1,0,1:0:0:0:
184,168,854015,1,0,0:0:0:0:
80,312,854163,5,4,0:0:0:0:
280,44,854312,1,0,0:0:0:0:
472,368,854460,1,0,1:0:0:0:
152,236,857095,5,0,0:0:0:0:
152,236,859380,5,0,0:0:0:0:
152,236,861666,5,0,0:0:0:0:
152,236,863952,5,0,0:0:0:0:
152,236,865095,5,0,0:0:0:0:
152,236,865666,5,0,0:0:0:0:
152,236,866237,6,0,P|180:192|324:224,1,224.399999315186
244,328,866666,1,0,0:0:0:0:
304,112,866809,1,0,0:0:0:0:
476,256,866952,1,0,0:0:0:0:
328,232,867095,5,0,0:0:0:0:
236,28,867237,1,0,0:0:0:0:
152,236,867380,1,0,0:0:0:0:
332,104,867523,1,0,0:0:0:0:
108,104,867666,5,0,0:0:0:0:
236,28,867809,1,0,0:0:0:0:
152,236,867952,1,0,0:0:0:0:
24,52,868095,2,0,B|16:104|24:120|24:120|8:172,1,112.199999657593
64,360,868380,2,0,B|72:308|64:292|64:292|80:240,1,112.199999657593
332,104,868666,6,0,P|284:128|216:120,1,112.199999657593
384,28,868952,1,0,0:0:0:0:
308,288,869095,1,0,0:0:0:0:
108,104,869237,1,0,0:0:0:0:
332,104,869380,1,0,0:0:0:0:
152,236,869523,1,0,0:0:0:0:
424,112,869666,1,0,0:0:0:0:
60,228,869809,5,0,0:0:0:0:
284,200,869952,1,0,0:0:0:0:
148,20,870095,1,0,0:0:0:0:
152,236,870237,2,0,L|156:352,2,112.199999657593
148,20,870666,1,0,0:0:0:0:
424,112,870809,6,0,P|456:204|404:316,1,224.399999315186
280,328,871237,1,0,0:0:0:0:
284,200,871380,1,0,0:0:0:0:
120,124,871523,1,0,0:0:0:0:
208,280,871666,1,0,0:0:0:0:
232,100,871809,1,0,0:0:0:0:
108,232,871952,1,0,0:0:0:0:
284,200,872095,5,0,0:0:0:0:
120,124,872237,1,0,0:0:0:0:
208,280,872380,1,0,0:0:0:0:
232,100,872523,1,0,0:0:0:0:
108,232,872666,6,0,B|84:264|108:288|60:332,1,112.199999657593
284,200,872952,2,0,B|308:168|284:144|332:100,1,112.199999657593
432,336,873237,5,0,0:0:0:0:
464,216,873380,1,0,0:0:0:0:
432,336,873523,1,0,0:0:0:0:
464,216,873666,6,0,L|352:236,1,112.199999657593
136,272,873952,1,0,0:0:0:0:
136,272,874023,1,0,0:0:0:0:
136,272,874095,1,0,0:0:0:0:
52,347,874237,6,0,L|135:271,1,112.199999657593
448,72,874523,1,0,0:0:0:0:
64,72,874666,1,0,0:0:0:0:
460,348,874809,1,0,0:0:0:0:
256,108,874952,5,0,0:0:0:0:
240,116,875095,1,0,0:0:0:0:
248,128,875237,1,0,0:0:0:0:
264,120,875380,6,0,B|256:108|256:108|240:116|240:116|248:128|248:128|264:172|296:192|296:192|264:212|248:244|256:272,1,224.399999315186
264,120,875809,2,0,P|264:56|232:24,1,112.199999657593
64,72,876095,5,0,0:0:0:0:
184,192,876237,1,0,0:0:0:0:
216,28,876380,1,0,0:0:0:0:
64,196,876523,1,0,0:0:0:0:
288,192,876666,5,0,0:0:0:0:
64,72,876809,1,0,0:0:0:0:
128,288,876952,1,0,0:0:0:0:
264,120,877095,1,0,0:0:0:0:
64,196,877237,5,0,0:0:0:0:
252,316,877380,1,0,0:0:0:0:
156,112,877523,1,0,0:0:0:0:
24,292,877666,1,0,0:0:0:0:
252,316,877809,6,0,L|376:312,1,112.199999657593
216,56,878095,2,0,L|92:60,1,112.199999657593
256,88,905380,5,0,0:0:0:0:
344,244,905523,1,0,0:0:0:0:
168,244,905666,1,0,0:0:0:0:
344,140,905809,1,0,0:0:0:0:
256,296,905952,1,0,0:0:0:0:
168,140,906095,1,0,0:0:0:0:
320,81,906237,5,0,0:0:0:0:
320,303,906380,1,0,0:0:0:0:
127,191,906523,1,0,0:0:0:0:
384,192,906666,1,0,0:0:0:0:
192,302,906809,1,0,0:0:0:0:
191,80,906952,1,0,0:0:0:0:
288,192,907095,1,0,0:0:0:0:
88,192,907237,1,0,0:0:0:0:
256,48,907380,1,0,0:0:0:0:
256,336,907523,5,0,0:0:0:0:
340,75,907666,1,0,0:0:0:0:
119,236,907809,1,0,0:0:0:0:
392,236,907952,1,0,0:0:0:0:
171,75,908095,1,0,0:0:0:0:
274,350,908237,5,0,0:0:0:0:
333,51,908380,1,0,0:0:0:0:
110,259,908523,1,0,0:0:0:0:
412,221,908666,1,0,0:0:0:0:
146,74,908809,1,0,0:0:0:0:
297,362,908952,5,0,0:0:0:0:
381,68,909095,1,0,0:0:0:0:
86,142,909237,1,0,0:0:0:0:
84,240,911952,5,0,0:0:0:0:
167,135,912095,1,0,0:0:0:0:
216,260,912237,1,0,0:0:0:0:
56,192,912380,5,0,0:0:0:0:
223,135,912523,1,0,0:0:0:0:
188,308,912665,1,0,0:0:0:0:
28,144,912809,5,0,0:0:0:0:
278,135,912952,1,0,0:0:0:0:
161,356,913094,1,0,0:0:0:0:
167,135,913237,5,0,0:0:0:0:
216,260,913380,1,0,0:0:0:0:
212,64,913523,1,0,0:0:0:0:
148,220,913666,1,0,0:0:0:0:
120,60,913809,1,0,0:0:0:0:
228,188,913952,1,0,0:0:0:0:
344,68,914095,1,0,0:0:0:0:
120,60,914237,6,0,P|64:132|60:216,1,168.299999486389
76,280,914523,2,0,P|124:316|180:320,1,112.199999657593
152,47,945844,5,0,0:0:0:0:
218,100,945987,1,0,0:0:0:0:
103,175,946130,1,0,0:0:0:0:
81,93,946273,1,0,0:0:0:0:
188,180,946416,2,0,P|200:228|184:272,1,95.6250036478044
128,348,946701,6,0,L|296:344,1,165.749992412568,4|0,0:0|0:0,0:0:0:0:
360,344,946987,1,0,0:0:0:0:
344,136,947130,1,0,0:0:0:0:
464,232,947273,1,0,0:0:0:0:
240,248,947416,1,0,0:0:0:0:
240,248,947487,1,0,0:0:0:0:
240,248,947559,6,0,P|192:228|160:152,1,110.499994941712
172,56,947844,1,0,0:0:0:0:
56,244,947987,1,0,0:0:0:0:
256,152,948130,1,0,0:0:0:0:
40,104,948273,1,0,0:0:0:0:
148,296,948416,1,0,0:0:0:0:
256,152,948559,6,0,P|344:136|408:180,1,165.749992412568
440,236,948844,1,0,0:0:0:0:
364,316,948987,1,0,0:0:0:0:
300,52,949130,1,0,0:0:0:0:
256,152,949273,1,0,0:0:0:0:
40,104,949416,1,0,0:0:0:0:
40,104,949487,1,0,0:0:0:0:
40,104,949559,1,0,0:0:0:0:
120,180,949701,1,0,0:0:0:0:
168,80,949844,6,0,P|88:52|40:104,1,165.749992412568
120,180,950130,2,0,P|148:240|132:280,1,110.499994941712
40,352,950416,1,0,0:0:0:0:
232,280,950559,2,0,L|344:240,1,110.499994941712
420,36,950844,2,0,L|364:40,1,55.2499974708558
208,56,950987,6,0,P|256:84|268:136,1,110.499994941712
232,280,951273,1,0,0:0:0:0:
104,200,951416,2,0,P|136:152|184:136,1,110.499994941712
384,200,951701,2,0,P|412:248|420:304,1,110.499994941712
420,36,951987,2,0,P|364:36|299:44,1,110.499994941712
100,120,952273,5,0,0:0:0:0:
192,44,952416,1,0,0:0:0:0:
212,164,952559,1,0,0:0:0:0:
212,164,952630,1,0,0:0:0:0:
212,164,952701,2,0,P|196:216|156:256,1,110.499994941712
56,324,952987,2,0,P|104:324|176:348,1,110.499994941712
464,364,953273,6,0,L|408:260,1,110.499994941712
344,116,953559,1,0,0:0:0:0:
276,296,953701,1,0,0:0:0:0:
268,312,953773,1,0,0:0:0:0:
260,328,953844,1,0,0:0:0:0:
440,216,953987,1,0,0:0:0:0:
180,196,954130,2,0,P|144:148|196:68,1,165.749992412568
252,140,954416,6,0,P|276:204|212:280,1,165.749992412568,4|0,0:2|0:0,0:0:0:0:
156,304,954701,2,0,L|328:304,1,165.749992412568
396,304,954987,5,0,0:0:0:0:
200,380,955130,1,0,0:0:0:0:
104,188,955273,1,4,0:2:0:0:
100,144,955344,1,0,0:0:0:0:
108,100,955416,1,0,0:0:0:0:
132,60,955487,1,0,0:0:0:0:
168,36,955559,6,0,P|236:28|328:72,1,165.749992412568,4|0,0:0|0:0,0:0:0:0:
364,132,955844,1,0,0:0:0:0:
232,304,955987,1,0,0:0:0:0:
216,160,956130,1,0,0:0:0:0:
380,276,956273,1,0,0:0:0:0:
232,304,956416,2,0,P|176:304|120:288,1,110.499994941712
96,280,956630,1,0,0:0:0:0:
68,268,956701,6,0,P|96:216|80:116,1,110.499994941712
56,40,956987,2,0,P|108:64|160:64,1,110.499994941712
296,64,957273,1,0,0:0:0:0:
212,232,957416,1,0,0:0:0:0:
200,120,957559,1,0,0:0:0:0:
388,132,957701,1,0,0:0:0:0:
388,132,957773,1,0,0:0:0:0:
388,132,957844,6,0,P|408:192|388:232,1,110.499994941712
256,356,958130,1,0,0:0:0:0:
108,104,958273,1,0,0:0:0:0:
404,104,958416,1,0,0:0:0:0:
108,280,958559,1,0,0:0:0:0:
108,280,958630,1,0,0:0:0:0:
108,280,958701,1,0,0:0:0:0:
256,28,958844,1,0,0:0:0:0:
404,280,958987,6,0,P|464:264|464:168,1,165.749992412568,4|0,0:2|0:0,0:0:0:0:
404,104,959273,2,0,P|369:103|300:68,1,110.499994941712
216,276,959559,1,4,0:2:0:0:
24,172,959701,1,0,0:0:0:0:
376,16,959844,1,0,0:0:0:0:
420,16,959916,1,0,0:0:0:0:
460,32,959987,1,0,0:0:0:0:
488,68,960059,1,0,0:0:0:0:
500,112,960130,6,0,L|488:200,1,85,4|0,0:2|0:0,0:0:0:0:
388,336,960416,2,0,L|372:252,1,85
280,108,960701,2,0,L|268:196,1,85
168,332,960987,2,0,L|152:248,1,85
60,104,961273,6,0,P|104:132|144:132,1,85
340,64,961559,2,0,P|296:36|256:36,1,85
232,272,961844,2,0,L|288:356,1,85
492,296,962130,2,0,L|436:212,1,85,4|0,0:2|0:0,0:0:0:0:
48,180,962416,6,0,P|108:200|212:184,1,170,4|0,0:2|0:0,0:0:0:0:
340,64,962844,1,0,0:0:0:0:
31,69,962987,1,0,0:0:0:0:
190,334,963130,1,0,0:0:0:0:
299,17,963273,1,0,0:0:0:0:
10,127,963416,1,0,0:0:0:0:
250,322,963559,1,0,0:0:0:0:
492,160,963844,6,0,L|432:180,1,63.7500024318696
336,312,964130,2,0,L|348:250,1,63.7500024318696
284,100,964416,2,0,L|331:141,1,63.7500024318696
404,328,964701,6,0,P|380:368|320:380,1,93.5000028533936,4|0,0:2|0:0,0:0:0:0:
124,376,964987,1,0,0:0:0:0:
268,280,965130,1,0,0:0:0:0:
296,256,965201,1,0,0:0:0:0:
328,232,965273,1,0,0:0:0:0:
128,252,965416,1,0,0:0:0:0:
404,328,965559,2,0,L|476:268,1,93.5000028533936
268,280,965844,6,0,P|220:308|184:312,1,93.5000028533936
28,248,966130,1,0,0:0:0:0:
156,136,966273,1,0,0:0:0:0:
192,140,966344,1,0,0:0:0:0:
228,144,966416,1,0,0:0:0:0:
32,24,966559,1,0,0:0:0:0:
128,252,966701,2,0,L|168:336,1,93.5000028533936
284,128,966987,6,0,L|244:44,1,93.5000028533936
420,164,967273,2,0,L|388:252,1,93.5000028533936
344,336,967559,1,0,0:0:0:0:
376,56,967701,1,0,0:0:0:0:
504,308,967844,2,0,P|456:332|412:340,1,93.5000028533936
380,340,968059,1,0,0:0:0:0:
344,336,968130,6,0,P|276:320|244:320,1,93.5000028533936
108,348,968416,1,0,0:0:0:0:
68,156,968559,1,0,0:0:0:0:
136,240,968701,1,0,0:0:0:0:
172,48,968844,1,0,0:0:0:0:
28,252,968987,1,0,0:0:0:0:
64,248,969059,1,0,0:0:0:0:
100,244,969130,1,0,0:0:0:0:
136,240,969201,1,0,0:0:0:0:
172,236,969273,5,4,0:2:0:0:
472,128,969416,1,0,0:0:0:0:
356,36,969559,1,0,0:0:0:0:
372,240,969701,1,0,0:0:0:0:
376,268,969773,1,0,0:0:0:0:
380,296,969844,1,0,0:0:0:0:
256,148,969987,1,0,0:0:0:0:
356,36,970130,1,0,0:0:0:0:
356,36,970273,1,0,0:0:0:0:
172,236,970416,5,0,0:0:0:0:
472,128,970559,1,0,0:0:0:0:
356,36,970702,1,0,0:0:0:0:
372,240,970844,1,0,0:0:0:0:
376,268,970916,1,0,0:0:0:0:
380,296,970987,1,0,0:0:0:0:
472,128,971130,1,0,0:0:0:0:
256,148,971273,1,0,0:0:0:0:
256,148,971416,1,0,0:0:0:0:
380,296,971559,6,0,P|440:300|480:288,1,93.5000028533936
172,236,971844,2,0,P|112:232|72:244,1,93.5000028533936
208,324,972130,1,0,0:0:0:0:
344,208,972273,1,0,0:0:0:0:
300,344,972416,1,0,0:0:0:0:
252,188,972559,1,0,0:0:0:0:
256,148,972630,1,0,0:0:0:0:
260,104,972701,6,0,P|300:64|416:100,1,187.000005706787
344,208,973130,1,0,0:0:0:0:
344,208,973201,1,0,0:0:0:0:
344,208,973273,1,4,0:2:0:0:
476,200,973416,1,0,0:0:0:0:
260,104,973559,1,0,0:0:0:0:
224,100,973630,1,0,0:0:0:0:
188,96,973701,1,0,0:0:0:0:
152,92,973773,1,0,0:0:0:0:
116,88,973844,5,4,0:2:0:0:
256,276,982618,6,0,L|256:192,1,85
152,112,983046,1,0,0:0:0:0:
256,68,983189,1,0,0:0:0:0:
152,224,983332,1,0,0:0:0:0:
360,112,983475,1,0,0:0:0:0:
256,276,983618,1,0,0:0:0:0:
360,224,983761,5,0,0:0:0:0:
192,104,983903,1,0,0:0:0:0:
256,300,984046,1,0,0:0:0:0:
320,104,984189,1,0,0:0:0:0:
152,224,984332,1,0,0:0:0:0:
384,336,984475,5,0,0:0:0:0:
128,48,984618,1,0,0:0:0:0:
128,336,984760,1,0,0:0:0:0:
384,48,984903,6,0,P|436:68|452:92,1,85
396,168,985189,2,0,P|344:148|328:124,1,85
472,164,985475,2,0,B|476:216|424:240|424:240|436:316,1,170
435,312,985903,1,0,0:0:0:0:
304,324,986046,6,0,L|196:308,1,85
204,156,986332,2,0,P|224:200|212:240,1,85
120,136,986618,2,0,P|216:68|288:160,1,255
224,216,987189,6,0,P|208:184|204:155,2,63.7500024318696
316,240,987618,2,0,P|372:196|376:144,2,127.500004863739
168,288,988332,6,0,P|108:260|160:116,1,255
284,168,988903,6,0,P|260:208|224:216,1,85
248,88,989189,2,0,L|336:84,1,85
472,128,989475,6,0,B|440:136|440:136|424:212,1,95.6250036478044
436,280,989760,6,0,P|392:328|304:316,1,152.999995330811
244,272,990046,6,0,B|200:264|200:264|152:280,1,95.6250036478044
36,308,990332,6,0,B|72:320|72:320|88:292|80:192,1,127.5
40,128,990618,6,0,B|91:134|128:156|128:156|164:132|228:128,1,191.250007295609
348,196,990903,6,0,P|272:204|248:192,1,95.6250036478044
300,80,991189,6,0,B|364:96|408:56|408:56|456:188,1,255
496,276,991760,6,0,P|464:288|380:248,1,127.500004863739
340,148,992189,1,0,0:0:0:0:
408,60,992332,1,0,0:0:0:0:
456,188,992475,5,0,0:0:0:0:
456,196,992546,1,0,0:0:0:0:
456,204,992618,1,0,0:0:0:0:
272,44,992760,1,0,0:0:0:0:
408,60,992903,5,0,0:0:0:0:
408,80,992974,1,0,0:0:0:0:
408,100,993046,2,0,L|408:124,1,21.25
492,148,993189,2,0,L|480:128,1,21.25
340,148,993332,5,0,0:0:0:0:
328,176,993403,1,0,0:0:0:0:
324,208,993475,2,0,P|328:228|340:244,1,31.8750012159348
436,244,993618,2,0,P|428:232|416:220,1,31.8750012159348
248,256,993760,5,0,0:0:0:0:
240,300,993832,1,0,0:0:0:0:
216,336,993903,2,0,P|204:348|180:352,1,42.5
72,204,994046,6,0,P|120:208|164:270,1,127.500004863739
429,303,994332,2,0,P|380:298|336:240,1,127.500004863739
188,116,994618,1,0,0:0:0:0:
376,128,994760,1,0,0:0:0:0:
216,232,994903,1,0,0:0:0:0:
292,56,995046,1,0,0:0:0:0:
100,40,995189,6,0,P|60:92|72:152,1,127.500004863739
216,232,995475,1,0,0:0:0:0:
188,116,995618,1,0,0:0:0:0:
116,296,995760,2,0,P|192:348|288:324,1,191.250007295609
336,276,996046,2,0,L|476:280,1,127.500004863739
292,56,996332,5,0,0:0:0:0:
216,232,996475,1,0,0:0:0:0:
376,128,996618,1,0,0:0:0:0:
132,160,996760,2,0,B|104:192|104:232|104:232|56:264,1,127.500004863739
300,160,997046,2,0,B|328:192|328:232|328:232|376:264,1,127.500004863739
216,88,997332,1,0,0:0:0:0:
216,232,997475,6,0,L|216:360,1,127.500004863739
216,88,997760,2,0,L|216:220,1,127.500004863739
76,68,998046,1,0,0:0:0:0:
216,232,998189,1,0,0:0:0:0:
356,64,998332,1,0,0:0:0:0:
132,160,998475,1,0,0:0:0:0:
440,136,998618,6,0,P|496:212|468:280,1,170
29,249,998903,6,0,B|81:165|17:149|21:165|41:181|53:157|53:157|66:142|131:159,1,202.380952380952
412,348,999189,6,0,B|410:314|410:314|384:340|384:340|396:292|368:308|368:308|360:276|332:256,1,184.782608695652
138,36,999475,6,0,B|98:104|154:84|154:84|174:120|130:160,1,170
412,348,999760,6,0,B|400:276|444:244|444:244|436:192|384:144,1,214.105789336278
64,332,1000046,6,0,B|128:300|172:356|172:356|204:300,1,184.782608695652
480,48,1000332,6,0,P|412:112|340:112,1,170
64,28,1000618,5,0,0:0:0:0:
224,128,1000760,1,0,0:0:0:0:
56,220,1000903,6,0,P|48:164|144:188,1,191.250007295609
176,248,1001189,2,0,P|240:268|308:248,1,127.500004863739
480,48,1001475,1,0,0:0:0:0:
248,72,1001618,5,0,0:0:0:0:
236,100,1001689,1,0,0:0:0:0:
224,128,1001760,1,0,0:0:0:0:
396,212,1001903,1,0,0:0:0:0:
144,112,1002046,5,0,0:0:0:0:
112,120,1002118,1,0,0:0:0:0:
88,140,1002189,2,0,P|76:152|52:152,1,31.8750012159348
36,36,1002332,2,0,P|52:48|60:64,1,31.8750012159348
108,236,1002475,5,0,0:0:0:0:
116,276,1002546,1,0,0:0:0:0:
144,308,1002618,2,0,P|188:324|204:320,1,42.5
296,248,1002760,2,0,P|256:260|240:260,1,42.5
208,176,1002903,5,0,0:0:0:0:
224,128,1002975,1,0,0:0:0:0:
264,92,1003046,2,0,P|288:80|336:80,1,53.125
432,200,1003189,6,0,P|396:212|316:176,1,127.500004863739
396,76,1003475,1,0,0:0:0:0:
248,216,1003618,1,0,0:0:0:0:
200,20,1003760,1,0,0:0:0:0:
396,76,1003903,1,0,0:0:0:0:
200,128,1004046,1,0,0:0:0:0:
388,184,1004189,1,0,0:0:0:0:
88,296,1004332,5,0,0:0:0:0:
100,124,1004475,1,0,0:0:0:0:
188,296,1004618,1,0,0:0:0:0:
200,128,1004760,1,0,0:0:0:0:
88,296,1004903,1,0,0:0:0:0:
344,272,1005046,1,0,0:0:0:0:
200,128,1005189,1,0,0:0:0:0:
276,344,1005332,1,0,0:0:0:0:
424,168,1005475,5,0,0:0:0:0:
472,288,1005618,1,0,0:0:0:0:
344,272,1005760,1,0,0:0:0:0:
236,44,1005903,1,0,0:0:0:0:
168,152,1006046,1,0,0:0:0:0:
296,152,1006189,1,0,0:0:0:0:
108,44,1006332,1,0,0:0:0:0:
100,260,1006475,1,0,0:0:0:0:
168,152,1006618,5,0,0:0:0:0:
424,168,1006760,1,0,0:0:0:0:
200,248,1006903,1,0,0:0:0:0:
392,72,1007046,1,0,0:0:0:0:
200,248,1007189,1,0,0:0:0:0:
456,264,1007331,1,0,0:0:0:0:
232,344,1007474,1,0,0:0:0:0:
424,168,1007617,1,0,0:0:0:0:
55,76,1007760,6,0,P|79:143|167:151,1,170
452,360,1008046,6,0,B|400:356|380:320|384:324|424:324|424:324|408:280|348:268,1,202.380952380952
48,352,1008332,6,0,B|32:308|72:292|72:292|80:280|64:256|72:244|72:244|92:216|136:216,1,184.782608695652
460,32,1008618,6,0,B|432:44|464:60|464:60|444:88|416:64|416:64|432:108|376:92|392:120,1,170
180,360,1008903,6,0,B|220:308|304:324|304:324|328:248|256:264,1,217.948717948718
36,32,1009189,6,0,L|232:32,1,184.782608695652
444,308,1009475,6,0,P|384:272|392:176,1,170
460,32,1009760,5,0,0:0:0:0:
464,224,1009903,1,0,0:0:0:0:
276,260,1010046,6,0,P|220:212|288:144,1,191.250007295609
216,132,1010332,2,0,L|88:132,1,127.500004863739
88,272,1010618,1,0,0:0:0:0:
340,208,1010760,1,0,0:0:0:0:
88,272,1010903,1,0,0:0:0:0:
340,208,1011046,1,0,0:0:0:0:
156,28,1011189,5,0,0:0:0:0:
136,52,1011260,1,0,0:0:0:0:
116,76,1011332,2,0,P|88:88|76:88,1,31.8750012159348
24,160,1011475,2,0,P|44:168|60:168,1,31.8750012159348
148,152,1011618,5,0,0:0:0:0:
132,192,1011689,1,0,0:0:0:0:
132,236,1011760,2,0,P|136:268|144:292,1,42.5
228,352,1011903,2,0,P|216:324|216:300,1,42.5
284,212,1012046,5,0,0:0:0:0:
316,256,1012118,1,0,0:0:0:0:
364,276,1012189,1,0,0:0:0:0:
416,276,1012260,1,0,0:0:0:0:
464,256,1012332,1,0,0:0:0:0:
492,212,1012403,1,0,0:0:0:0:
500,160,1012475,1,0,0:0:0:0:
456,128,1012546,1,0,0:0:0:0:
404,140,1012618,1,0,0:0:0:0:
360,112,1012689,1,0,0:0:0:0:
324,72,1012760,1,0,0:0:0:0:
272,84,1012832,1,0,0:0:0:0:
244,128,1012903,5,0,0:0:0:0:
212,140,1013046,5,0,0:0:0:0:
212,172,1013189,5,0,0:0:0:0:
244,180,1013332,5,0,0:0:0:0:
260,156,1013475,6,0,P|224:140|168:128,1,93.5000028533936
84,296,1013760,2,0,P|120:312|176:324,1,93.5000028533936
120,52,1014046,2,0,P|84:100|80:140,1,93.5000028533936
288,300,1014332,2,0,P|324:252|328:212,1,93.5000028533936
368,24,1014618,6,0,P|386:71|400:120,1,93.5000028533936
424,312,1014903,2,0,P|437:267|454:223,1,93.5000028533936
288,300,1015189,2,0,P|240:320|200:320,1,93.5000028533936
72,200,1015475,2,0,P|120:220|160:220,1,93.5000028533936
252,36,1015760,6,0,P|212:56|188:96,1,93.5000028533936
328,180,1016046,2,0,P|308:140|268:116,1,93.5000028533936
184,256,1016332,2,0,P|224:236|248:196,1,93.5000028533936
108,112,1016618,2,0,P|128:152|168:176,1,93.5000028533936
252,36,1016903,5,0,0:0:0:0:
432,84,1017046,1,0,0:0:0:0:
400,120,1017118,1,0,0:0:0:0:
396,168,1017189,1,0,0:0:0:0:
408,212,1017260,1,0,0:0:0:0:
436,248,1017332,2,0,P|464:256|488:256,1,46.7500014266968
312,344,1017475,5,0,0:0:0:0:
320,300,1017546,1,0,0:0:0:0:
316,252,1017618,1,0,0:0:0:0:
296,212,1017689,1,0,0:0:0:0:
264,180,1017760,1,0,0:0:0:0:
220,160,1017832,1,0,0:0:0:0:
172,156,1017903,1,0,0:0:0:0:
124,164,1017975,1,0,0:0:0:0:
248,88,1022401,6,0,B|252:108|236:104|236:104|240:124|240:124|224:140|224:140|228:160|228:160|212:176|212:176|216:196|216:196|200:208|200:228,2,170
284,312,1023219,6,0,P|356:312|352:168,1,255
200,228,1023765,2,0,P|159:121|267:83,1,255
284,312,1024310,2,0,L|112:332,1,170
332,224,1024719,1,0,0:0:0:0:
372,132,1024856,6,0,P|428:208|408:292,1,170
332,224,1025265,1,0,0:0:0:0:
280,140,1025401,2,0,P|288:92|400:44,1,170
167,254,1025947,5,0,0:0:0:0:
280,140,1026083,1,0,0:0:0:0:
254,297,1026219,1,0,0:0:0:0:
182,155,1026356,2,0,P|184:104|204:76,1,85
324,228,1026629,1,0,0:0:0:0:
167,254,1026765,2,0,P|104:232|88:132,1,170
368,36,1027310,5,0,0:0:0:0:
280,140,1027447,1,0,0:0:0:0:
480,112,1027583,2,0,P|496:188|388:316,1,255
121,315,1028129,2,0,P|27:235|32:112,1,255
256,28,1028674,6,0,L|256:200,1,170
188,144,1029219,2,0,P|256:100|324:144,1,170
256,288,1029629,1,0,0:0:0:0:
104,160,1029765,1,0,0:0:0:0:
256,100,1029901,1,0,0:0:0:0:
104,348,1030038,6,0,B|56:224|56:224|52:260|36:264,1,170
44,258,1030447,1,0,0:0:0:0:
256,288,1030583,2,0,P|336:288|356:280,1,85
464,124,1030856,5,0,0:0:0:0:
440,192,1030992,1,0,0:0:0:0:
288,164,1031129,5,0,0:0:0:0:
241,218,1031265,1,0,0:0:0:0:
124,120,1031401,5,0,0:0:0:0:
61,154,1031537,1,0,0:0:0:0:
208,36,1031674,5,0,0:0:0:0:
241,218,1031947,6,0,P|216:292|100:320,1,203.999993774414
168,168,1032356,2,0,P|212:128|324:188,1,203.999993774414
368,344,1032765,2,0,L|384:236,1,101.999996887207
400,32,1033038,6,0,B|364:52|312:36|312:36|264:28|192:52,1,203.999993774414
140,196,1033447,2,0,P|208:164|200:48,1,203.999993774414
32,144,1033856,2,0,L|48:244,1,101.999996887207
160,344,1034129,6,0,B|220:344|256:304|256:304|352:320,1,203.999993774414
484,224,1034538,2,0,L|280:192,1,203.999993774414
140,108,1034947,2,0,P|164:52|220:40,1,101.999996887207
172,220,1035219,6,0,B|128:272|108:344|108:344|103:307|88:284,1,203.999993774414
140,108,1035629,2,0,B|200:92|256:140|256:140|336:112,1,203.999993774414
236,300,1036038,2,0,L|172:220,1,101.999996887207
444,40,1036310,6,0,P|464:136|412:224,1,203.999993774414
144,164,1036719,2,0,P|229:116|329:140,1,203.999993774414
136,340,1037129,2,0,L|76:252,2,101.999996887207
408,300,1037538,6,0,P|320:248|224:272,1,203.999993774414
136,340,1037947,1,0,0:0:0:0:
144,164,1038083,1,0,0:0:0:0:
308,344,1038219,1,0,0:0:0:0:
304,352,1038492,6,0,B|280:268|328:208|328:208|300:164,1,203.999993774414
124,104,1038901,2,0,P|128:196|228:216,1,203.999993774414
304,52,1039310,2,0,L|224:116,1,101.999996887207
48,272,1039583,5,0,0:0:0:0:
56,292,1039856,5,0,0:0:0:0:
64,312,1040129,5,0,0:0:0:0:
72,332,1040401,5,0,0:0:0:0:
76,352,1040674,6,0,B|100:284|60:208|60:208|88:228|128:232,1,220.999989883423
280,140,1041083,1,0,0:0:0:0:
352,300,1041219,2,0,P|296:284|248:304,1,110.499994941712
448,352,1041492,1,0,0:0:0:0:
388,180,1041629,1,0,0:0:0:0:
196,368,1041765,6,0,P|164:312|176:264,1,110.499994941712
392,64,1042038,1,0,0:0:0:0:
324,364,1042174,1,0,0:0:0:0:
136,124,1042310,2,0,L|144:12,1,110.499994941712
268,196,1042583,6,0,L|248:252,1,55.2499974708558
80,280,1042719,2,0,L|100:224,1,55.2499974708558
260,76,1042856,6,0,B|212:124|212:124|256:132|268:196,1,165.749992412568
340,260,1043129,2,0,P|372:192|320:116,1,165.749992412568
176,44,1043401,5,0,0:0:0:0:
376,28,1043538,1,0,0:0:0:0:
268,196,1043674,5,0,0:0:0:0:
92,104,1043810,1,0,0:0:0:0:
260,76,1043947,5,0,0:0:0:0:
196,264,1044083,1,0,0:0:0:0:
48,40,1044219,6,0,L|160:40,1,110.499994941712
464,40,1044492,2,0,L|352:40,1,110.499994941712
196,264,1044765,6,0,L|216:212,1,55.2499974708558
332,172,1044901,2,0,L|316:112,1,55.2499974708558
304,288,1045038,6,0,P|356:352|476:308,1,220.999989883423
264,120,1045447,1,0,0:0:0:0:
76,328,1045583,2,0,P|116:300|136:244,1,110.499994941712
140,56,1045856,1,0,0:0:0:0:
328,52,1045992,1,0,0:0:0:0:
52,248,1046129,6,0,B|60:176|31:128|31:128|68:148,1,165.749992412568
136,212,1046401,2,0,B|168:240|192:248|192:248|236:228|288:228,1,165.749992412568
368,288,1046674,2,0,P|324:280|288:228,1,110.499994941712
328,52,1046947,5,0,0:0:0:0:
476,148,1047083,1,0,0:0:0:0:
368,288,1047219,2,0,B|340:296|292:280|292:280|268:304|260:332|260:332|244:334|232:332,1,165.749992412568
152,312,1047492,5,0,0:0:0:0:
200,96,1047629,1,0,0:0:0:0:
324,356,1047765,5,0,0:0:0:0:
100,136,1047901,1,0,0:0:0:0:
412,84,1048038,5,0,0:0:0:0:
368,288,1048174,1,0,0:0:0:0:
244,24,1048310,6,0,P|208:16|168:20,1,76.4999976654053
56,76,1048583,6,0,P|116:76|224:116,1,165.749992412568
332,216,1048856,6,0,P|244:212|164:248,1,165.749992412568
64,348,1049129,6,0,L|76:292,1,55.2499974708558
224,340,1049265,2,0,L|236:284,1,55.2499974708558
384,328,1049401,6,0,B|412:172|412:172|432:200|432:232,1,220.999989883423
304,320,1049810,1,0,0:0:0:0:
176,232,1049947,2,0,L|136:120,1,110.499994941712
132,320,1050219,1,0,0:0:0:0:
328,152,1050356,1,0,0:0:0:0:
88,240,1050492,6,0,P|56:272|44:344,1,110.499994941712
236,164,1050765,2,0,L|236:44,1,110.499994941712
304,320,1051038,2,0,P|368:320|416:296,1,110.499994941712
464,128,1051310,5,0,0:0:0:0:
476,348,1051447,1,0,0:0:0:0:
284,240,1051583,2,0,P|224:240|144:308,1,165.749992412568
108,372,1051856,5,0,0:0:0:0:
368,260,1051992,1,0,0:0:0:0:
180,48,1052129,2,0,P|120:88|92:176,1,165.749992412568
88,252,1052401,5,0,0:0:0:0:
208,120,1052538,1,0,0:0:0:0:
36,92,1052674,1,0,0:0:0:0:
332,52,1052810,1,0,0:0:0:0:
236,336,1052947,2,0,P|292:348|348:336,1,110.499994941712
364,140,1053219,5,0,0:0:0:0:
324,240,1053356,1,0,0:0:0:0:
180,48,1053492,2,0,L|200:100,1,55.2499974708558
104,200,1053629,2,0,L|88:252,1,55.2499974708558
248,240,1053765,6,0,B|292:224|324:240|324:240|408:256|456:200,1,220.999989883423
180,48,1054174,5,0,0:0:0:0:
104,200,1054310,1,0,0:0:0:0:
364,140,1054447,1,0,0:0:0:0:
196,152,1054583,1,0,0:0:0:0:
280,312,1054719,1,0,0:0:0:0:
284,88,1054856,5,0,0:0:0:0:
448,192,1054992,1,0,0:0:0:0:
148,296,1055129,5,0,0:0:0:0:
396,40,1055265,1,0,0:0:0:0:
412,324,1055401,6,0,B|380:360|332:364|332:364|280:336|204:344,1,220.999989883423
40,368,1055810,1,0,0:0:0:0:
36,140,1055947,6,0,P|60:88|112:56,1,110.499994941712
280,56,1056219,1,0,0:0:0:0:
192,212,1056356,1,0,0:0:0:0:
368,216,1056492,6,0,L|424:220,1,55.2499974708558
292,304,1056629,1,4,0:3:0:0:
308,312,1056697,1,0,0:0:0:0:
324,320,1056765,2,0,L|380:324,1,55.2499974708558
192,212,1056901,2,0,L|248:216,1,55.2499974708558
148,316,1057038,6,0,P|80:236|92:164,1,165.749992412568
128,104,1057310,2,0,B|156:80|156:80|228:120|308:76,1,165.749992412568
352,36,1057583,2,0,P|336:96|392:184,1,165.749992412568
460,232,1057856,6,0,L|408:256,1,55.2499974708558
324,320,1057992,2,0,L|272:296,1,55.2499974708558
140,240,1058129,6,0,P|116:160|152:72,1,165.749992412568
216,40,1058401,1,0,0:0:0:0:
420,124,1058538,1,0,0:0:0:0:
204,164,1058674,1,0,0:0:0:0:
380,32,1058810,1,0,0:0:0:0:
380,32,1058879,1,0,0:0:0:0:
380,32,1058947,1,0,0:0:0:0:
424,328,1059083,1,0,0:0:0:0:
124,336,1059219,6,0,P|72:316|48:268,1,95.6250036478044
72,208,1059492,6,0,P|104:160|72:88,1,127.5
148,236,1059765,6,0,B|184:248|216:232|216:232|264:248,1,101.999996887207
424,328,1060038,6,0,L|444:192,1,127.5
456,116,1060310,5,0,0:0:0:0:
