osu file format v13

[General]
AudioFilename: tanoccomp.mp3
AudioLeadIn: 0
PreviewTime: 272329
Countdown: 0
SampleSet: Normal
StackLeniency: 0.7
Mode: 0
LetterboxInBreaks: 0
WidescreenStoryboard: 1

[Editor]
Bookmarks: 0,45332,110664,174663,230330,315663,390163,476995,540995,615582,668995,743662,807662,914328
DistanceSpacing: 0.7
BeatDivisor: 4
GridSize: 4
TimelineZoom: 4.799998

[Metadata]
Title:TANO*C Hardcore Syndrome Compilation
TitleUnicode:TANO*C Hardcore Syndrome Compilation
Artist:Various Artists
ArtistUnicode:Various Artists
Creator:regenz
Version:Marathon
Source:
Tags:Nanaka mercury2004 p_a_n Joshka Cascading Emotions Minamotoya Motoko Stasis No reason kors k Instead of The Pills Ryu One by One P Light airi Prismatic DJ Genki Love me U Cycle REDALICE Ayumi Nomiya Rebirth mow 2 Reflection Minamotoya 3L Lift Up Butterfly Annihilation Allstars TOUR 2013 the Anthem Original Mix
BeatmapID:406220
BeatmapSetID:167209

[Difficulty]
HPDrainRate:4
CircleSize:4
OverallDifficulty:7
ApproachRate:9
SliderMultiplier:1.8
SliderTickRate:1

[Events]
//Background and Video events
0,0,"gothicgirl.jpg",0,0
//Break Periods
2,45552,55585
2,230550,240419
2,315886,323086
2,411833,421733
2,541199,551066
2,669198,679064
2,797197,807071
2,829204,839071
2,935872,945739
//Storyboard Layer 0 (Background)
//Storyboard Layer 1 (Fail)
//Storyboard Layer 2 (Pass)
//Storyboard Layer 3 (Foreground)
//Storyboard Sound Samples
//Background Colour Transformations
3,100,163,162,255

[TimingPoints]
2686,333.333333333333,4,1,1,65,1,0
56185,333.333333333333,4,1,1,55,1,0
86851,-100,4,1,1,40,0,0
88184,-100,4,1,1,70,0,0
110684,333.333333333333,4,1,2,60,1,0
121350,-100,4,1,1,60,0,0
130683,-100,4,1,1,30,0,0
132017,-100,4,1,1,60,0,0
177517,333.333333333333,4,1,1,60,1,0
186850,-133.333333333333,4,1,1,60,0,0
187517,-66.6666666666667,4,1,1,60,0,0
188183,-100,4,1,1,60,0,0
230353,333.333333333333,4,2,1,75,1,0
251686,-100,4,1,1,60,0,0
293686,-100,4,2,1,70,0,0
294019,-100,4,2,1,80,0,0
294352,-100,4,1,1,60,0,0
315019,-100,4,1,1,40,0,0
315519,-100,4,1,1,60,0,0
325018,333.333333333333,4,1,1,60,1,0
325184,-100,4,2,1,85,0,0
326350,-100,4,1,1,65,0,0
327601,-100,4,2,1,65,0,0
329017,-100,4,1,1,65,0,0
330017,-100,4,2,1,65,0,0
331684,-100,4,1,1,65,0,0
332768,-100,4,2,1,65,0,0
334350,-100,4,1,1,65,0,0
346350,-100,4,2,1,75,0,0
346684,-100,4,2,1,70,0,0
347017,-100,4,2,1,65,0,0
347350,-100,4,1,1,70,0,0
390180,335.195530726257,4,2,1,90,1,0
411633,334.261838440111,4,2,1,90,1,0
422333,333.333333333333,4,1,1,65,1,0
431666,-100,4,2,1,60,0,0
432999,-100,4,1,1,65,0,0
454332,-100,4,1,1,75,0,0
474332,-100,4,1,3,60,0,0
489166,-100,4,1,3,65,0,0
490499,-100,4,1,3,70,0,0
492999,-100,4,1,3,75,0,0
497166,-100,4,1,1,40,0,0
498332,-100,4,1,1,65,0,0
540999,-200,4,2,1,60,0,0
559666,-200,4,2,1,70,0,0
560332,-200,4,2,1,80,0,0
562332,-142.857142857143,4,1,1,60,0,0
567666,-142.857142857143,4,1,1,70,0,0
571499,-100,4,1,1,80,0,0
571666,-76.9230769230769,4,1,1,80,0,0
571832,-66.6666666666667,4,1,1,85,0,0
571999,-62.5,4,1,1,90,0,0
572166,-50,4,1,1,90,0,0
572332,-142.857142857143,4,1,1,80,0,0
572999,-76.9230769230769,4,1,1,85,0,0
583332,-76.9230769230769,4,1,1,65,0,0
583666,-76.9230769230769,4,1,1,85,0,0
593666,-76.9230769230769,4,1,1,45,0,0
594332,-111.111111111111,4,1,1,40,0,0
613999,-200,4,1,1,60,0,0
614999,-111.111111111111,4,1,1,60,0,0
615663,333.333333333333,4,1,1,65,1,0
620913,-100,4,1,1,20,0,0
620996,-100,4,1,1,70,0,0
668998,333.333333333333,4,1,1,75,1,0
721164,-100,4,2,1,90,0,0
722664,-100,4,1,1,80,0,0
770331,-100,4,1,1,50,0,0
771665,-100,4,1,1,55,0,0
772998,-100,4,1,1,60,0,0
775665,-100,4,1,1,70,0,0
791665,-100,4,1,1,50,0,0
792998,-100,4,1,1,55,0,0
794331,-100,4,1,1,60,0,0
807671,333.333333333333,4,1,1,60,1,0
839671,-100,4,2,1,60,0,0
850337,-100,4,1,1,55,0,0
861004,-100,4,1,1,60,0,0
871670,-83.3333333333333,4,1,1,65,0,0
914339,333.333333333333,4,1,1,50,1,0
946339,-100,4,2,1,80,0,0
955672,-100,4,1,1,60,0,0
958339,-100,4,2,1,60,0,0
959672,-100,4,1,1,60,0,0
961005,-100,4,2,1,60,0,0
962339,-100,4,1,1,60,0,0
963672,-100,4,2,1,60,0,0
965005,-100,4,1,1,60,0,0
966339,-100,4,2,1,60,0,0
967005,-100,4,1,1,60,0,0
978338,-80,4,1,1,65,0,0
999672,-80,4,1,1,75,0,0
1015672,-80,4,1,1,65,0,0

[Colours]
Combo1 : 0,255,255
Combo2 : 0,255,0
Combo3 : 255,255,0

[HitObjects]
64,112,2685,6,0,P|100:88|164:96,1,90,0|0,0:0|0:0,0:0:0:0:
308,152,3019,2,0,P|272:176|208:168,1,90
92,256,3352,1,0,0:0:0:0:
92,256,3685,1,0,0:0:0:0:
156,320,3852,1,0,0:0:0:0:
156,320,4019,6,0,L|252:320,1,90
392,232,4352,2,0,L|272:232,1,90
148,152,4685,1,0,0:0:0:0:
336,56,4852,1,0,0:0:0:0:
228,248,5019,1,0,0:0:0:0:
228,56,5185,1,0,0:0:0:0:
260,148,5352,5,2,0:0:0:0:
260,148,5435,1,0,0:0:0:0:
260,148,5519,2,0,L|392:128,1,90
424,232,5852,1,2,0:0:0:0:
424,232,5935,1,0,0:0:0:0:
424,232,6019,2,0,L|304:252,1,90
184,344,6352,1,2,0:0:0:0:
184,344,6435,1,0,0:0:0:0:
184,344,6519,1,0,0:0:0:0:
84,184,6685,5,2,0:0:0:0:
84,184,6769,1,0,0:0:0:0:
84,184,6852,2,0,L|168:244,1,90
256,96,7185,2,0,L|208:120,2,45,2|0|0,0:0|0:0|0:0,0:0:0:0:
420,148,7519,1,0,0:0:0:0:
324,176,7685,1,0,0:0:0:0:
352,76,7852,1,0,0:0:0:0:
324,176,8019,6,0,P|264:248|156:240,1,180,2|0,0:0|0:0,0:0:0:0:
228,176,8519,2,0,P|188:112|84:104,1,180,2|0,0:0|0:0,0:0:0:0:
57,239,9019,2,0,L|128:184,1,90,2|0,0:0|0:0,0:0:0:0:
280,248,9352,6,0,L|192:328,1,90,2|0,0:0|0:0,0:0:0:0:
352,188,9685,1,0,0:0:0:0:
187,199,9852,2,0,P|216:165|260:156,2,90,2|0|0,0:0|0:0|0:0,0:0:0:0:
334,91,10352,2,0,P|251:63|170:97,1,180,2|2,0:0|0:0,0:0:0:0:
256,144,10852,5,0,0:0:0:0:
256,144,10935,1,0,0:0:0:0:
256,144,11019,2,0,P|228:196|176:224,1,90,0|2,0:0|0:0,0:0:0:0:
108,248,11352,1,0,0:0:0:0:
108,248,11435,1,0,0:0:0:0:
108,248,11519,2,0,P|132:296|200:304,1,90,0|2,0:0|0:0,0:0:0:0:
396,264,11852,1,0,0:0:0:0:
396,264,12019,6,0,L|384:144,1,90,2|0,0:0|0:0,0:0:0:0:
292,88,12352,1,0,0:0:0:0:
292,88,12435,1,0,0:0:0:0:
292,88,12519,1,2,0:0:0:0:
264,224,12685,2,0,P|212:216|160:252,1,90
40,184,13019,1,2,0:0:0:0:
60,312,13185,1,0,0:0:0:0:
156,96,13352,6,0,L|96:76,2,45,6|0|0,0:0|0:0|0:0,0:0:0:0:
408,84,13685,1,2,0:0:0:0:
408,300,13852,2,0,L|472:328,2,45,2|0|0,0:0|0:0|0:0,0:0:0:0:
156,288,14185,1,2,0:0:0:0:
284,192,14352,1,0,0:0:0:0:
284,192,14435,1,0,0:0:0:0:
284,192,14519,1,0,0:0:0:0:
288,72,14685,6,0,L|180:40,1,90,2|0,0:0|0:0,0:0:0:0:
376,224,15019,1,2,0:0:0:0:
224,312,15185,2,0,L|332:344,1,90,2|0,0:0|0:0,0:0:0:0:
136,160,15519,1,2,0:0:0:0:
288,72,15685,1,0,0:0:0:0:
288,72,15769,1,0,0:0:0:0:
288,72,15852,1,0,0:0:0:0:
288,72,15935,1,0,0:0:0:0:
288,72,16019,6,0,B|217:57|217:57|205:93|205:93|111:70,1,180,2|0,0:0|0:0,0:0:0:0:
316,168,16519,2,0,B|386:153|386:153|398:189|398:189|492:166,1,180,2|0,0:0|0:0,0:0:0:0:
224,312,17019,1,2,0:0:0:0:
224,312,17102,1,0,0:0:0:0:
224,312,17185,1,0,0:0:0:0:
224,312,17269,1,0,0:0:0:0:
224,312,17352,6,0,B|294:326|294:326|306:290|306:290|400:313,1,180,2|0,0:0|0:0,0:0:0:0:
196,216,17852,2,0,B|125:230|125:230|113:194|113:194|19:217,1,180,2|0,0:0|0:0,0:0:0:0:
164,348,18352,1,0,0:0:0:0:
340,320,18519,1,0,0:0:0:0:
396,176,18685,5,2,0:0:0:0:
396,176,18769,1,0,0:0:0:0:
396,176,18852,2,0,L|384:68,1,90
64,128,19185,2,0,P|108:60|208:52,1,180,2|0,0:0|0:0,0:0:0:0:
180,231,19685,2,0,P|183:187|172:144,1,90,2|0,0:0|0:0,0:0:0:0:
280,232,20019,6,0,P|288:288|332:336,1,90,2|0,0:0|0:0,0:0:0:0:
456,232,20352,1,0,0:0:0:0:
456,232,20435,1,0,0:0:0:0:
456,232,20519,2,0,P|456:184|428:128,1,90,2|0,0:0|0:0,0:0:0:0:
272,56,20852,1,0,0:0:0:0:
272,56,20935,1,0,0:0:0:0:
272,56,21019,2,0,P|296:108|292:156,1,90,2|0,0:0|0:0,0:0:0:0:
88,156,21352,6,0,L|140:236,1,90,2|0,0:0|0:0,0:0:0:0:
168,80,21685,1,0,0:0:0:0:
268,232,21852,2,0,L|216:148,1,90,2|0,0:0|0:0,0:0:0:0:
392,104,22185,1,0,0:0:0:0:
392,104,22269,1,0,0:0:0:0:
392,104,22352,2,0,L|308:136,1,90,2|0,0:0|0:0,0:0:0:0:
256,64,22685,5,2,0:0:0:0:
108,112,22852,2,0,L|64:140,2,45
192,192,23185,1,2,0:0:0:0:
108,272,23352,2,0,L|64:244,2,45
256,328,23685,1,2,0:0:0:0:
256,328,24019,6,0,P|296:284|348:272,1,90,6|0,0:0|0:0,0:0:0:0:
456,248,24352,1,2,0:0:0:0:
336,168,24519,2,0,P|260:144|244:112,1,90,2|0,0:0|0:0,0:0:0:0:
176,56,24852,1,2,0:0:0:0:
188,212,25019,2,0,L|248:132,1,90
408,48,25352,6,0,L|344:132,2,90,2|0|2,0:0|0:0|0:0,0:0:0:0:
372,280,25852,2,0,L|440:188,2,90,2|0|2,0:0|0:0|0:0,0:0:0:0:
228,332,26352,1,0,0:0:0:0:
228,332,26435,1,0,0:0:0:0:
228,332,26519,1,0,0:0:0:0:
228,332,26602,1,0,0:0:0:0:
228,332,26685,6,0,L|160:272,1,90,2|0,0:0|0:0,0:0:0:0:
64,248,27019,1,0,0:0:0:0:
134,80,27185,2,0,L|80:152,2,90,2|0|0,0:0|0:0|0:0,0:0:0:0:
232,212,27685,2,0,L|200:180,2,45,2|0|0,0:0|0:0|0:0,0:0:0:0:
280,108,28019,6,0,L|236:72,2,45,2|0|0,0:0|0:0|0:0,0:0:0:0:
452,252,28352,1,0,0:0:0:0:
420,108,28519,1,2,0:0:0:0:
420,108,28602,1,0,0:0:0:0:
420,108,28685,2,0,P|352:172|344:288,1,180,0|0,0:0|0:0,0:0:0:0:
180,344,29185,1,0,0:0:0:0:
260,308,29352,5,2,0:0:0:0:
260,308,29435,1,0,0:0:0:0:
260,308,29519,1,0,0:0:0:0:
136,120,29685,2,0,L|144:232,2,90,0|2|0,0:0|0:0|0:0,0:0:0:0:
268,136,30185,1,0,0:0:0:0:
268,136,30269,1,0,0:0:0:0:
268,136,30352,2,0,L|268:24,1,90,2|0,0:0|0:0,0:0:0:0:
380,200,30685,6,0,L|412:104,1,90,2|0,0:0|0:0,0:0:0:0:
416,336,31019,1,0,0:0:0:0:
416,336,31102,1,0,0:0:0:0:
416,336,31185,2,0,L|488:256,1,90,2|0,0:0|0:0,0:0:0:0:
272,328,31519,1,0,0:0:0:0:
380,200,31685,2,0,L|272:220,1,90,2|0,0:0|0:0,0:0:0:0:
120,244,32019,5,2,0:0:0:0:
204,280,32185,1,0,0:0:0:0:
187,98,32352,2,0,L|196:188,2,90,0|2|0,0:0|0:0|0:0,0:0:0:0:
316,52,32852,1,0,0:0:0:0:
316,52,32935,1,0,0:0:0:0:
316,52,33019,2,0,L|304:160,1,90,2|0,0:0|0:0,0:0:0:0:
464,100,33352,6,0,L|392:176,1,90,2|0,0:0|0:0,0:0:0:0:
480,252,33685,1,0,0:0:0:0:
480,252,33769,1,0,0:0:0:0:
480,252,33852,2,0,L|376:332,1,90,2|0,0:0|0:0,0:0:0:0:
356,180,34185,1,0,0:0:0:0:
356,180,34269,1,0,0:0:0:0:
356,180,34352,2,0,L|248:244,1,90,2|0,0:0|0:0,0:0:0:0:
260,316,34685,6,0,L|136:308,1,90,6|0,0:0|0:0,0:0:0:0:
44,208,35019,1,2,0:0:0:0:
268,136,35185,2,0,L|148:140,1,90,2|0,0:0|0:0,0:0:0:0:
376,48,35519,1,2,0:0:0:0:
415,264,35685,2,0,L|448:180,1,90
156,300,36019,6,0,L|260:244,2,90,2|0|2,0:0|0:0|0:0,0:0:0:0:
96,96,36519,2,0,L|172:168,2,90,2|0|2,0:0|0:0|0:0,0:0:0:0:
248,88,37019,2,0,L|300:64,1,45
316,148,37185,2,0,L|388:148,1,45
360,224,37352,6,0,L|472:252,2,90,6|0|0,0:0|0:0|0:0,0:0:0:0:
220,300,37852,2,0,L|116:344,2,90,2|0|0,0:0|0:0|0:0,0:0:0:0:
100,224,38352,1,2,0:0:0:0:
100,224,38435,1,0,0:0:0:0:
100,224,38519,1,0,0:0:0:0:
212,74,38685,6,0,P|170:88|132:112,2,90,2|0|0,0:0|0:0|0:0,0:0:0:0:
376,220,39185,2,0,P|368:164|316:112,2,90,2|0|0,0:0|0:0|0:0,0:0:0:0:
212,312,39685,1,2,0:0:0:0:
248,184,39852,1,2,0:0:0:0:
332,340,40019,5,6,0:0:0:0:
332,340,40102,1,0,0:0:0:0:
332,340,40185,1,0,0:0:0:0:
376,220,40352,1,0,0:0:0:0:
376,220,40519,2,0,P|432:168|452:120,1,90,2|0,0:0|0:0,0:0:0:0:
336,72,40852,1,0,0:0:0:0:
208,104,41019,2,0,P|168:132|96:144,1,90,2|0,0:0|0:0,0:0:0:0:
168,224,41352,6,0,P|132:268|60:280,2,90,6|0|0,0:0|0:0|0:0,0:0:0:0:
228,312,41852,2,0,P|276:284|324:296,1,90,2|0,0:0|0:0,0:0:0:0:
408,348,42185,1,0,0:0:0:0:
444,264,42352,2,0,P|448:204|436:160,1,90,2|0,0:0|0:0,0:0:0:0:
344,175,42685,6,0,P|338:131|318:91,2,90,6|0|0,0:0|0:0|0:0,0:0:0:0:
156,117,43185,2,0,P|200:118|240:140,1,90,2|0,0:0|0:0,0:0:0:0:
72,204,43519,1,0,0:0:0:0:
72,204,43602,1,0,0:0:0:0:
72,204,43685,1,2,0:0:0:0:
122,312,44019,6,0,B|188:320|216:228|216:228|296:272|339:232,2,270,2|2|2,0:0|0:0|0:0,0:0:0:0:
96,132,45352,1,4,0:0:0:0:
124,48,56185,6,0,P|56:104|88:220,1,180,4|2,0:0|0:0,0:0:0:0:
136,136,56685,1,2,0:0:0:0:
140,224,56851,2,0,P|196:212|292:256,2,135,2|2|2,0:0|0:0|0:0,0:0:0:0:
316,312,57518,5,0,0:0:0:0:
404,198,57685,2,0,L|404:288,1,90,2|2,0:0|0:0,0:0:0:0:
328,160,58018,1,0,0:0:0:0:
400,108,58185,2,0,P|352:52|280:48,2,135,2|2|2,0:0|0:0|0:0,0:0:0:0:
224,144,58851,5,0,0:0:0:0:
328,160,59018,1,2,0:0:0:0:
176,224,59185,1,2,0:0:0:0:
56,88,59351,1,0,0:0:0:0:
96,167,59518,2,0,P|65:227|64:294,2,135,2|2|2,0:0|0:0|0:0,0:0:0:0:
144,344,60184,5,0,0:0:0:0:
314,303,60351,2,0,P|269:304|232:328,1,90,0|2,0:0|0:0,0:0:0:0:
348,224,60684,1,0,0:0:0:0:
436,200,60851,2,0,P|440:112|392:40,2,135,2|2|2,0:0|0:0|0:0,0:0:0:0:
344,100,61518,5,0,0:0:0:0:
264,56,61684,1,0,0:0:0:0:
228,140,61851,1,2,0:0:0:0:
152,96,62018,1,0,0:0:0:0:
128,180,62184,2,0,L|40:224,2,90,2|0|0,0:0|0:0|0:0,0:0:0:0:
128,272,62684,1,2,0:0:0:0:
216,248,62851,6,0,L|276:344,2,90,0|0|2,0:0|0:0|0:0,0:0:0:0:
308,248,63351,2,0,L|408:260,1,90,0|2,0:0|0:0,0:0:0:0:
452,188,63684,1,0,0:0:0:0:
364,164,63851,1,0,0:0:0:0:
428,100,64018,1,2,0:0:0:0:
348,56,64184,5,0,0:0:0:0:
324,44,64268,1,0,0:0:0:0:
296,44,64351,1,0,0:0:0:0:
272,56,64434,1,0,0:0:0:0:
252,76,64518,1,2,0:0:0:0:
236,100,64601,1,0,0:0:0:0:
216,120,64684,1,0,0:0:0:0:
196,136,64768,1,0,0:0:0:0:
172,144,64851,2,0,L|104:120,3,45,2|0|0|2,0:0|0:0|0:0|0:0,0:0:0:0:
104,188,65184,2,0,L|56:180,3,45,0|0|2|0,0:0|0:0|0:0|0:0,0:0:0:0:
48,248,65518,1,0,0:0:0:0:
256,192,65684,12,4,66851,0:0:0:0:
80,48,67018,5,0,0:0:0:0:
53,223,67184,2,0,P|66:180|64:136,1,90,10|0,0:0|0:0,0:0:0:0:
228,203,67518,2,0,P|164:220|128:276,2,135,2|2|2,0:0|0:0|0:0,0:0:0:0:
216,292,68184,5,0,0:0:0:0:
404,320,68351,1,0,0:0:0:0:
304,340,68518,1,10,0:0:0:0:
304,340,68601,1,0,0:0:0:0:
304,340,68684,1,0,0:0:0:0:
324,252,68851,2,0,P|360:180|428:152,2,135,2|2|2,0:0|0:0|0:0,0:0:0:0:
216,292,69518,5,0,0:0:0:0:
144,344,69684,1,0,0:0:0:0:
216,292,69851,1,10,0:0:0:0:
144,344,70018,1,0,0:0:0:0:
80,280,70184,2,0,P|56:208|80:124,2,135,2|2|2,0:0|0:0|0:0,0:0:0:0:
156,228,70851,5,0,0:0:0:0:
164,140,71018,2,0,P|200:72|220:60,1,90,0|10,0:0|0:0,0:0:0:0:
440,72,71351,1,0,0:0:0:0:
328,180,71518,1,2,0:0:0:0:
332,40,71684,1,0,0:0:0:0:
332,40,71768,1,2,0:0:0:0:
332,40,71851,1,8,0:0:0:0:
328,180,72018,1,2,0:0:0:0:
464,336,72184,6,0,P|416:292|392:288,1,90
220,336,72518,2,0,P|268:292|292:288,2,90,10|0|2,0:0|0:0|0:0,0:0:0:0:
328,180,73018,2,0,L|312:132,2,45,0|2|8,0:0|0:0|0:0,0:0:0:0:
220,336,73351,1,2,0:0:0:0:
140,292,73518,5,0,0:0:0:0:
92,216,73684,1,0,0:0:0:0:
128,132,73851,2,0,P|172:88|224:84,2,90,10|0|2,0:0|0:0|0:0,0:0:0:0:
208,176,74351,1,0,0:0:0:0:
208,176,74434,1,2,0:0:0:0:
208,176,74518,2,0,P|236:212|304:200,1,90,8|2,0:0|0:0,0:0:0:0:
345,68,74851,6,0,P|305:89|284:128,2,90,0|0|10,0:0|0:0|0:0,0:0:0:0:
432,52,75351,1,0,0:0:0:0:
448,221,75518,2,0,P|465:180|464:136,1,90,2|0,0:0|0:0,0:0:0:0:
463,135,75768,1,2,0:0:0:0:
463,135,75851,1,8,0:0:0:0:
432,52,76018,1,2,0:0:0:0:
272,168,76184,5,0,0:0:0:0:
372,144,76351,1,0,0:0:0:0:
184,112,76518,2,0,P|112:68|32:120,1,180,10|2,0:0|0:0,0:0:0:0:
112,160,77018,1,0,0:0:0:0:
112,160,77101,1,2,0:0:0:0:
112,160,77184,1,8,0:0:0:0:
80,244,77351,1,2,0:0:0:0:
80,244,77434,1,0,0:0:0:0:
80,244,77518,6,0,P|72:304|96:344,1,90,4|0,0:0|0:0,0:0:0:0:
164,284,77851,2,0,P|200:240|264:228,1,90,10|0,0:0|0:0,0:0:0:0:
252,316,78184,2,0,P|316:352|392:344,2,135,2|2|2,0:0|0:0|0:0,0:0:0:0:
332,272,78851,5,0,0:0:0:0:
464,184,79018,1,0,0:0:0:0:
336,64,79184,2,0,P|316:120|280:148,1,90,10|0,0:0|0:0,0:0:0:0:
136,264,79518,1,2,0:0:0:0:
228,208,79684,1,0,0:0:0:0:
228,208,79768,1,2,0:0:0:0:
228,208,79851,2,0,P|192:172|120:164,1,90,8|2,0:0|0:0,0:0:0:0:
136,264,80184,6,0,P|104:312|60:336,1,90
48,204,80518,2,0,P|68:160|124:132,1,90,10|0,0:0|0:0,0:0:0:0:
252,84,80851,1,2,0:0:0:0:
228,208,81018,2,0,L|164:208,2,45,0|2|8,0:0|0:0|0:0,0:0:0:0:
312,312,81351,1,2,0:0:0:0:
432,240,81518,6,0,L|424:140,2,90,0|0|10,0:0|0:0|0:0,0:0:0:0:
336,200,82018,1,0,0:0:0:0:
328,112,82184,2,0,L|264:44,1,90,2|0,0:0|0:0,0:0:0:0:
266,46,82434,1,2,0:0:0:0:
266,46,82518,1,8,0:0:0:0:
180,76,82684,1,2,0:0:0:0:
108,132,82851,6,0,P|112:184|152:232,1,90
208,168,83184,2,0,P|228:228|216:296,2,90,10|0|2,0:0|0:0|0:0,0:0:0:0:
112,328,83684,1,0,0:0:0:0:
112,328,83768,1,2,0:0:0:0:
112,328,83851,2,0,L|236:336,1,90,8|2,0:0|0:0,0:0:0:0:
276,284,84184,6,0,P|284:232|336:208,1,90
442,332,84518,2,0,P|396:320|364:288,1,90,10|0,0:0|0:0,0:0:0:0:
332,96,84851,2,0,P|388:140|401:205,2,135,2|2|2,0:0|0:0|0:0,0:0:0:0:
292,176,85518,6,0,P|252:144|180:132,2,90,0|0|10,0:0|0:0|0:0,0:0:0:0:
212,220,86018,1,0,0:0:0:0:
80,204,86184,1,2,0:0:0:0:
128,328,86351,2,0,L|80:344,2,45,0|2|8,0:0|0:0|0:0,0:0:0:0:
80,204,86684,1,2,0:0:0:0:
160,48,86851,6,0,L|188:144,1,90
212,220,87184,1,2,0:0:0:0:
216,248,87268,1,0,0:0:0:0:
232,268,87351,1,0,0:0:0:0:
256,280,87434,1,0,0:0:0:0:
284,276,87518,1,2,0:0:0:0:
308,264,87601,1,0,0:0:0:0:
328,248,87684,1,0,0:0:0:0:
344,224,87768,1,2,0:0:0:0:
352,200,87851,1,0,0:0:0:0:
372,184,87934,1,0,0:0:0:0:
400,176,88018,1,2,0:0:0:0:
428,180,88101,1,0,0:0:0:0:
444,200,88184,6,0,P|452:264|436:316,1,90,6|0,0:0|0:0,0:0:0:0:
288,352,88518,1,10,0:0:0:0:
164,188,88684,2,0,P|188:252|240:276,1,90,0|2,0:0|0:0,0:0:0:0:
300,132,89018,2,0,P|260:56|232:40,1,90,0|8,0:0|0:0,0:0:0:0:
72,32,89351,1,0,0:0:0:0:
64,196,89518,6,0,P|80:152|140:112,1,90,2|0,0:0|0:0,0:0:0:0:
205,178,89851,2,0,P|244:158|288:168,1,90,10|0,0:0|0:0,0:0:0:0:
436,216,90184,1,2,0:0:0:0:
228,312,90351,1,0,0:0:0:0:
376,356,90518,1,8,0:0:0:0:
288,168,90684,1,2,0:0:0:0:
288,168,90851,6,0,P|276:108|220:88,1,90,2|0,0:0|0:0,0:0:0:0:
132,52,91184,2,0,P|140:112|192:144,1,90,10|2,0:0|0:0,0:0:0:0:
439,154,91518,2,0,P|383:131|329:160,1,90,0|2,0:0|0:0,0:0:0:0:
196,369,91851,2,0,P|244:332|246:271,1,90,8|2,0:0|0:0,0:0:0:0:
264,88,92184,5,0,0:0:0:0:
144,224,92351,1,0,0:0:0:0:
356,232,92518,1,8,0:0:0:0:
256,192,92684,1,2,0:0:0:0:
160,124,92851,2,0,P|128:72|80:56,2,90,0|2|8,0:0|0:0|0:0,0:0:0:0:
68,148,93351,1,2,0:0:0:0:
90,318,93518,6,0,P|75:276|80:232,1,90,2|0,0:0|0:0,0:0:0:0:
235,343,93851,2,0,P|198:318|176:280,1,90,10|0,0:0|0:0,0:0:0:0:
357,308,94184,2,0,P|313:301|280:272,1,90,2|0,0:0|0:0,0:0:0:0:
488,160,94518,1,10,0:0:0:0:
372,200,94684,1,2,0:0:0:0:
472,288,94851,5,2,0:0:0:0:
472,288,95018,2,0,P|436:344|380:360,1,90,0|10,0:0|0:0,0:0:0:0:
391,268,95351,2,0,P|370:228|368:184,2,90,2|0|2,0:0|0:0|0:0,0:0:0:0:
372,96,95851,1,8,0:0:0:0:
300,44,96018,1,2,0:0:0:0:
212,60,96184,5,2,0:0:0:0:
144,120,96351,2,0,P|92:156|36:168,2,90,0|10|0,0:0|0:0|0:0,0:0:0:0:
328,216,96851,2,0,P|356:264|388:296,2,90,2|0|10,0:0|0:0|0:0,0:0:0:0:
136,300,97351,1,2,0:0:0:0:
204,200,97518,6,0,P|220:144|264:112,1,90,2|0,0:0|0:0,0:0:0:0:
360,64,97851,2,0,P|340:128|296:168,1,90,10|0,0:0|0:0,0:0:0:0:
284,224,98184,1,2,0:0:0:0:
308,312,98351,1,0,0:0:0:0:
396,320,98518,1,10,0:0:0:0:
468,264,98684,1,0,0:0:0:0:
468,264,98768,1,0,0:0:0:0:
468,264,98851,6,0,P|472:200|464:156,1,90,6|0,0:0|0:0,0:0:0:0:
304,56,99184,1,10,0:0:0:0:
396,112,99351,1,0,0:0:0:0:
208,56,99518,2,0,P|160:80|136:120,2,90,2|0|8,0:0|0:0|0:0,0:0:0:0:
272,148,100018,1,2,0:0:0:0:
340,208,100184,6,0,L|448:212,1,90,2|0,0:0|0:0,0:0:0:0:
132,284,100518,2,0,L|36:288,1,90,10|0,0:0|0:0,0:0:0:0:
380,284,100851,2,0,L|476:288,1,90,2|0,0:0|0:0,0:0:0:0:
172,208,101184,2,0,L|64:212,1,90,8|2,0:0|0:0,0:0:0:0:
256,104,101518,5,2,0:0:0:0:
256,192,101684,1,0,0:0:0:0:
212,268,101851,2,0,P|148:304|100:308,1,90,10|2,0:0|0:0,0:0:0:0:
300,268,102184,2,0,P|364:304|412:308,1,90,0|2,0:0|0:0,0:0:0:0:
132,200,102518,2,0,P|60:188|32:160,1,90,8|2,0:0|0:0,0:0:0:0:
380,200,102851,6,0,P|452:188|480:160,1,90
168,104,103184,2,0,P|120:60|104:36,1,90,10|2,0:0|0:0,0:0:0:0:
344,104,103518,2,0,P|392:60|408:36,1,90,0|2,0:0|0:0,0:0:0:0:
256,36,103851,1,8,0:0:0:0:
256,220,104018,1,0,0:0:0:0:
256,124,104184,5,2,0:0:0:0:
156,272,104351,1,0,0:0:0:0:
356,272,104518,1,0,0:0:0:0:
256,220,104684,1,0,0:0:0:0:
256,328,104851,1,2,0:0:0:0:
256,328,104934,1,0,0:0:0:0:
256,328,105018,1,0,0:0:0:0:
156,272,105184,2,0,P|112:236|60:232,1,90,2|2,0:0|0:0,0:0:0:0:
28,304,105518,5,2,0:0:0:0:
56,144,105684,1,0,0:0:0:0:
108,68,105851,2,0,P|168:132|280:132,1,180,2|2,0:0|0:0,0:0:0:0:
296,60,106351,1,2,0:0:0:0:
388,64,106518,1,2,0:0:0:0:
348,144,106684,1,2,0:0:0:0:
424,188,106851,5,2,0:0:0:0:
436,212,106934,1,0,0:0:0:0:
432,240,107018,1,0,0:0:0:0:
416,264,107101,1,0,0:0:0:0:
396,280,107184,2,0,L|312:268,3,45,2|0|0|0,0:0|0:0|0:0|0:0,0:0:0:0:
328,288,107518,5,2,0:0:0:0:
312,308,107601,1,0,0:0:0:0:
288,316,107684,1,0,0:0:0:0:
260,316,107768,1,0,0:0:0:0:
236,308,107851,1,2,0:0:0:0:
212,292,107934,1,0,0:0:0:0:
204,268,108018,1,2,0:0:0:0:
208,240,108101,1,0,0:0:0:0:
220,216,108184,1,2,0:0:0:0:
256,192,108351,12,0,109351,0:0:0:0:
208,60,110684,6,0,P|152:72|120:128,2,90,4|0|2,0:0|0:0|0:0,0:0:0:0:
204,152,111184,1,0,0:0:0:0:
204,152,111350,2,0,L|260:236,1,90,0|2,0:0|0:0,0:0:0:0:
164,228,111684,1,0,0:0:0:0:
134,324,111850,2,0,L|220:296,1,90,2|0,0:0|0:0,0:0:0:0:
312,296,112184,5,0,0:0:0:0:
312,296,112350,2,0,P|384:312|440:224,1,180,2|0,0:0|0:0,0:0:0:0:
428,144,112850,2,0,L|420:36,1,90,2|0,0:0|0:0,0:0:0:0:
336,136,113184,2,0,L|256:64,1,90,2|0,0:0|0:0,0:0:0:0:
80,48,113517,5,0,0:0:0:0:
168,92,113684,2,0,L|152:192,2,90,2|0|0,0:0|0:0|0:0,0:0:0:0:
136,264,114184,2,0,L|44:296,1,90,2|0,0:0|0:0,0:0:0:0:
304,72,114517,2,0,L|268:168,1,90,2|0,0:0|0:0,0:0:0:0:
416,352,114850,6,0,L|316:280,1,90,2|0,0:0|0:0,0:0:0:0:
248,244,115184,1,2,0:0:0:0:
168,184,115350,1,2,0:0:0:0:
168,184,115684,2,0,P|136:132|96:108,1,90,2|0,0:0|0:0,0:0:0:0:
72,196,116017,6,0,P|48:240|48:284,1,90,4|0,0:0|0:0,0:0:0:0:
192,320,116350,2,0,P|216:272|220:236,2,90,2|0|0,0:0|0:0|0:0,0:0:0:0:
344,240,116850,2,0,P|352:192|348:144,1,90,2|0,0:0|0:0,0:0:0:0:
218,48,117184,2,0,P|207:91|212:136,1,90,2|0,0:0|0:0,0:0:0:0:
124,160,117517,5,0,0:0:0:0:
48,212,117684,2,0,P|40:276|52:320,1,90,2|0,0:0|0:0,0:0:0:0:
172,328,118017,1,0,0:0:0:0:
299,257,118183,2,0,P|255:259|212:248,1,90,2|0,0:0|0:0,0:0:0:0:
390,164,118517,2,0,P|347:176|304:168,1,90,2|0,0:0|0:0,0:0:0:0:
348,88,118850,5,0,0:0:0:0:
348,88,119017,2,0,P|296:56|240:52,1,90,2|0,0:0|0:0,0:0:0:0:
180,56,119350,1,0,0:0:0:0:
52,175,119517,2,0,P|71:135|104:104,2,90,2|2|0,0:0|0:0|0:0,0:0:0:0:
68,264,120017,5,0,0:0:0:0:
68,264,120183,2,0,P|100:340|140:352,1,90,2|0,0:0|0:0,0:0:0:0:
152,268,120517,1,2,0:0:0:0:
152,268,120683,2,0,P|200:232|324:240,1,180,2|2,0:0|0:0,0:0:0:0:
380,300,121183,1,0,0:0:0:0:
400,212,121350,6,0,L|404:100,1,90,4|0,0:0|0:0,0:0:0:0:
184,100,121683,1,0,0:0:0:0:
281,153,121850,2,0,L|288:64,1,90,2|0,0:0|0:0,0:0:0:0:
68,284,122183,1,0,0:0:0:0:
80,168,122350,1,0,0:0:0:0:
80,168,122517,2,0,L|32:72,1,90,2|0,0:0|0:0,0:0:0:0:
160,232,122850,5,0,0:0:0:0:
264,224,123017,1,0,0:0:0:0:
160,232,123183,2,0,P|184:292|224:320,1,90,2|0,0:0|0:0,0:0:0:0:
424,328,123517,1,0,0:0:0:0:
312,320,123683,2,0,P|328:280|396:224,1,90,0|2,0:0|0:0,0:0:0:0:
464,112,124017,5,4,0:0:0:0:
464,228,124183,1,0,0:0:0:0:
368,160,124350,1,0,0:0:0:0:
368,160,124517,2,0,P|348:112|312:84,1,90,2|0,0:0|0:0,0:0:0:0:
268,164,124850,1,0,0:0:0:0:
268,164,125017,2,0,P|212:120|172:116,1,90,0|2,0:0|0:0,0:0:0:0:
184,204,125350,6,0,P|132:256|48:272,2,135,2|2|2,0:0|0:0|0:0,0:0:0:0:
352,240,126017,2,0,P|404:292|420:376,2,135,2|2|2,0:0|0:0|0:0,0:0:0:0:
436,136,126683,5,4,0:0:0:0:
316,112,126850,1,0,0:0:0:0:
388,60,127017,1,0,0:0:0:0:
256,44,127183,2,0,P|192:56|140:88,1,90,2|4,0:0|0:0,0:0:0:0:
152,180,127517,1,0,0:0:0:0:
92,116,127683,1,0,0:0:0:0:
100,252,127850,2,0,P|108:300|136:336,1,90,2|4,0:0|0:0,0:0:0:0:
336,296,128183,6,0,P|280:280|228:296,2,90,0|0|2,0:0|0:0|0:0,0:0:0:0:
232,136,128683,1,4,0:0:0:0:
412,175,128850,2,0,P|402:132|376:95,2,90,0|0|2,0:0|0:0|0:0,0:0:0:0:
336,296,129350,5,4,0:0:0:0:
308,296,129433,1,0,0:0:0:0:
280,296,129517,1,0,0:0:0:0:
256,284,129600,1,0,0:0:0:0:
236,264,129683,1,4,0:0:0:0:
220,244,129767,1,0,0:0:0:0:
196,232,129850,1,0,0:0:0:0:
168,228,129933,1,0,0:0:0:0:
140,228,130017,5,4,0:0:0:0:
116,216,130100,1,0,0:0:0:0:
92,204,130183,1,0,0:0:0:0:
76,184,130267,1,0,0:0:0:0:
68,160,130350,1,4,0:0:0:0:
72,132,130433,1,0,0:0:0:0:
88,108,130517,1,0,0:0:0:0:
112,96,130600,1,0,0:0:0:0:
140,92,130683,6,0,L|164:96,25,22.5
396,124,132017,5,6,0:0:0:0:
280,56,132183,1,0,0:0:0:0:
280,56,132267,1,2,0:0:0:0:
280,56,132350,1,8,0:0:0:0:
176,128,132517,2,0,L|100:200,1,90,2|0,0:0|0:0,0:0:0:0:
288,208,132850,1,0,0:0:0:0:
288,208,132933,1,0,0:0:0:0:
288,208,133017,1,10,0:0:0:0:
184,288,133183,2,0,L|88:312,1,90,2|2,0:0|0:0,0:0:0:0:
324,336,133517,5,0,0:0:0:0:
424,248,133683,1,8,0:0:0:0:
424,248,133850,2,0,P|432:184|424:140,1,90,2|0,0:0|0:0,0:0:0:0:
376,88,134183,1,2,0:0:0:0:
208,168,134350,1,10,0:0:0:0:
276,80,134517,1,2,0:0:0:0:
144,48,134683,6,0,L|84:40,2,45,2|0|0,0:0|0:0|0:0,0:0:0:0:
80,136,135017,1,8,0:0:0:0:
80,136,135183,2,0,P|52:192|56:248,1,90,2|0,0:0|0:0,0:0:0:0:
50,218,135433,1,2,0:0:0:0:
50,218,135517,1,0,0:0:0:0:
96,296,135683,1,10,0:0:0:0:
96,296,135767,1,0,0:0:0:0:
96,296,135850,1,2,0:0:0:0:
202,256,136017,6,0,P|236:285|280:292,1,90,2|0,0:0|0:0,0:0:0:0:
301,262,136267,2,0,P|339:240|358:200,1,90,2|0,0:0|0:0,0:0:0:0:
337,171,136517,2,0,P|327:127|295:96,1,90,2|2,0:0|0:0,0:0:0:0:
261,108,136767,2,0,P|216:104|177:125,1,90,0|2,0:0|0:0,0:0:0:0:
178,161,137017,2,0,P|160:202|168:245,1,90,0|2,0:0|0:0,0:0:0:0:
372,352,137350,6,0,P|416:345|452:319,1,90,2|0,0:0|0:0,0:0:0:0:
452,319,137600,1,2,0:0:0:0:
452,320,137683,1,8,0:0:0:0:
456,148,137850,2,0,P|473:189|471:233,1,90,2|0,0:0|0:0,0:0:0:0:
396,80,138183,2,0,P|352:56|300:64,2,90,0|10|2,0:0|0:0|0:0,0:0:0:0:
140,144,138683,5,2,0:0:0:0:
208,68,138850,2,0,L|160:40,2,45,0|2|8,0:0|0:0|0:0,0:0:0:0:
68,220,139183,2,0,P|36:264|48:332,1,90,2|0,0:0|0:0,0:0:0:0:
200,344,139517,1,0,0:0:0:0:
112,344,139683,1,10,0:0:0:0:
284,312,139850,2,0,P|316:304|408:336,1,90,2|2,0:0|0:0,0:0:0:0:
444,260,140183,5,0,0:0:0:0:
456,172,140350,1,8,0:0:0:0:
456,172,140433,1,0,0:0:0:0:
456,172,140517,1,2,0:0:0:0:
460,84,140683,2,0,P|416:64|348:72,1,90
374,63,140933,1,0,0:0:0:0:
374,63,141017,1,10,0:0:0:0:
324,208,141183,1,2,0:0:0:0:
192,60,141350,6,0,L|288:64,1,90,2|0,0:0|0:0,0:0:0:0:
281,63,141600,1,2,0:0:0:0:
280,64,141683,1,8,0:0:0:0:
148,192,141850,1,2,0:0:0:0:
320,324,142017,6,0,L|224:320,1,90,2|0,0:0|0:0,0:0:0:0:
231,321,142267,1,2,0:0:0:0:
232,320,142350,1,8,0:0:0:0:
364,192,142517,1,2,0:0:0:0:
264,144,142683,6,0,P|220:134|176:142,2,90,6|0|8,0:0|0:0|0:0,0:0:0:0:
112,260,143183,2,0,P|92:196|100:136,1,90,2|0,0:0|0:0,0:0:0:0:
168,60,143517,1,0,0:0:0:0:
168,60,143600,1,0,0:0:0:0:
168,60,143683,1,10,0:0:0:0:
308,52,143850,1,2,0:0:0:0:
396,156,144017,5,2,0:0:0:0:
396,156,144100,1,0,0:0:0:0:
396,156,144183,1,0,0:0:0:0:
308,272,144350,1,8,0:0:0:0:
308,272,144517,2,0,P|264:328|208:344,1,90,2|0,0:0|0:0,0:0:0:0:
72,348,144850,1,0,0:0:0:0:
176,200,145017,1,10,0:0:0:0:
32,200,145183,2,0,P|24:144|32:104,1,90,2|2,0:0|0:0,0:0:0:0:
200,36,145517,5,0,0:0:0:0:
96,40,145683,1,8,0:0:0:0:
96,40,145850,2,0,P|100:96|128:140,1,90,2|0,0:0|0:0,0:0:0:0:
276,120,146183,1,0,0:0:0:0:
436,40,146350,1,10,0:0:0:0:
436,40,146433,1,0,0:0:0:0:
436,40,146517,1,2,0:0:0:0:
484,164,146683,5,2,0:0:0:0:
356,320,146933,1,2,0:0:0:0:
260,144,147183,1,2,0:0:0:0:
176,36,147350,5,2,0:0:0:0:
112,228,147600,1,2,0:0:0:0:
312,212,147850,1,2,0:0:0:0:
312,212,148017,6,0,P|336:168|344:116,1,90,2|0,0:0|0:0,0:0:0:0:
336,84,148267,1,2,0:0:0:0:
300,60,148350,2,0,P|244:36|184:40,1,90,8|2,0:0|0:0,0:0:0:0:
132,68,148683,2,0,P|108:112|100:164,1,90
108,196,148933,1,0,0:0:0:0:
144,220,149017,2,0,P|200:244|260:240,1,90,10|2,0:0|0:0,0:0:0:0:
180,324,149350,5,2,0:0:0:0:
292,348,149517,1,0,0:0:0:0:
292,348,149600,1,2,0:0:0:0:
292,348,149683,2,0,P|344:340|400:344,1,90,8|2,0:0|0:0,0:0:0:0:
457,196,150017,2,0,P|463:240|452:284,1,90
324,224,150350,2,0,P|312:172|328:128,1,90,10|2,0:0|0:0,0:0:0:0:
176,48,150683,5,2,0:0:0:0:
264,68,150850,1,0,0:0:0:0:
88,72,151017,1,8,0:0:0:0:
31,239,151183,2,0,P|34:194|48:152,1,90,2|0,0:0|0:0,0:0:0:0:
152,312,151517,2,0,P|128:272|112:220,2,90,0|10|2,0:0|0:0|0:0,0:0:0:0:
288,336,152017,5,6,0:0:0:0:
284,248,152183,1,0,0:0:0:0:
284,248,152267,1,6,0:0:0:0:
284,248,152350,1,8,0:0:0:0:
416,140,152517,1,2,0:0:0:0:
368,216,152683,1,6,0:0:0:0:
368,64,152850,1,0,0:0:0:0:
368,64,152933,1,6,0:0:0:0:
368,64,153017,1,8,0:0:0:0:
284,36,153183,1,6,0:0:0:0:
284,36,153350,6,0,P|224:36|176:52,1,90,6|0,0:0|0:0,0:0:0:0:
128,104,153683,1,8,0:0:0:0:
84,268,153850,2,0,P|76:224|80:180,1,90,2|0,0:0|0:0,0:0:0:0:
260,188,154183,1,0,0:0:0:0:
104,316,154350,1,10,0:0:0:0:
284,228,154517,1,2,0:0:0:0:
284,228,154683,6,0,P|316:268|364:272,1,90,2|0,0:0|0:0,0:0:0:0:
352,274,154933,1,2,0:0:0:0:
352,274,155017,1,8,0:0:0:0:
436,244,155183,2,0,P|464:208|472:160,1,90,2|0,0:0|0:0,0:0:0:0:
436,76,155517,2,0,L|444:28,2,45,0|0|10,0:0|0:0|0:0,0:0:0:0:
352,40,155850,1,2,0:0:0:0:
264,56,156017,5,2,0:0:0:0:
184,92,156183,1,0,0:0:0:0:
184,92,156267,1,2,0:0:0:0:
184,92,156350,1,8,0:0:0:0:
124,160,156517,2,0,L|24:128,2,90,2|0|0,0:0|0:0|0:0,0:0:0:0:
164,240,157017,1,10,0:0:0:0:
116,316,157183,2,0,L|68:328,2,45,2|0|2,0:0|0:0|0:0,0:0:0:0:
288,324,157517,6,0,L|304:368,2,45,0|2|8,0:0|0:0|0:0,0:0:0:0:
440,224,157850,1,2,0:0:0:0:
440,224,158017,1,0,0:0:0:0:
392,108,158183,2,0,L|420:64,2,45,0|0|10,0:0|0:0|0:0,0:0:0:0:
276,48,158517,1,2,0:0:0:0:
276,48,158683,6,0,L|160:64,1,90,2|0,0:0|0:0,0:0:0:0:
48,176,159017,1,8,0:0:0:0:
128,124,159183,2,0,L|144:236,1,90,2|0,0:0|0:0,0:0:0:0:
96,344,159517,1,0,0:0:0:0:
96,344,159600,1,0,0:0:0:0:
96,344,159683,2,0,P|160:296|192:300,1,90,10|2,0:0|0:0,0:0:0:0:
252,328,160017,5,2,0:0:0:0:
340,304,160183,1,0,0:0:0:0:
388,228,160350,1,8,0:0:0:0:
388,228,160433,1,0,0:0:0:0:
388,228,160517,2,0,L|416:140,1,90,2|0,0:0|0:0,0:0:0:0:
304,48,160850,1,0,0:0:0:0:
304,48,160933,1,0,0:0:0:0:
304,48,161017,2,0,L|272:144,1,90,10|2,0:0|0:0,0:0:0:0:
172,196,161350,6,0,L|172:104,2,90,2|0|8,0:0|0:0|0:0,0:0:0:0:
32,300,161850,1,2,0:0:0:0:
120,280,162017,1,0,0:0:0:0:
120,280,162100,1,2,0:0:0:0:
120,280,162183,2,0,P|164:308|224:316,1,90,0|10,0:0|0:0,0:0:0:0:
416,308,162517,1,2,0:0:0:0:
417,96,162683,6,0,P|448:155|436:220,2,135,2|2|2,0:0|0:0|0:0,0:0:0:0:
144,76,163350,2,0,P|207:93|244:148,2,135,2|2|2,0:0|0:0|0:0,0:0:0:0:
148,168,164017,5,6,0:0:0:0:
88,232,164183,1,0,0:0:0:0:
88,232,164267,1,2,0:0:0:0:
88,232,164350,2,0,P|76:296|84:332,1,90,8|2,0:0|0:0,0:0:0:0:
168,344,164683,1,0,0:0:0:0:
248,300,164850,1,0,0:0:0:0:
248,300,164933,1,0,0:0:0:0:
248,300,165017,2,0,P|288:268|348:264,1,90,10|2,0:0|0:0,0:0:0:0:
416,276,165350,6,0,P|448:232|456:168,2,90,2|0|8,0:0|0:0|0:0,0:0:0:0:
376,168,165850,2,0,P|380:116|368:60,1,90,2|0,0:0|0:0,0:0:0:0:
232,48,166183,1,0,0:0:0:0:
292,116,166350,1,10,0:0:0:0:
172,108,166517,2,0,P|124:104|84:124,1,90,2|2,0:0|0:0,0:0:0:0:
132,200,166850,5,0,0:0:0:0:
132,200,166933,1,2,0:0:0:0:
132,200,167017,2,0,P|120:252|128:304,1,90,8|2,0:0|0:0,0:0:0:0:
352,348,167350,2,0,L|312:304,2,45,0|2|0,0:0|0:0|0:0,0:0:0:0:
212,324,167683,1,10,0:0:0:0:
416,232,167850,1,2,0:0:0:0:
456,72,168017,6,0,L|364:32,1,90,2|0,0:0|0:0,0:0:0:0:
416,144,168267,2,0,L|328:172,1,90,2|0,0:0|0:0,0:0:0:0:
316,88,168517,2,0,L|236:36,1,90,2|2,0:0|0:0,0:0:0:0:
256,152,168767,2,0,L|172:212,1,90,0|2,0:0|0:0,0:0:0:0:
200,104,169017,2,0,L|88:60,1,90,0|2,0:0|0:0,0:0:0:0:
28,188,169350,5,6,0:0:0:0:
124,328,169517,1,0,0:0:0:0:
124,328,169600,1,2,0:0:0:0:
124,328,169683,1,8,0:0:0:0:
56,272,169850,1,2,0:0:0:0:
204,284,170017,1,0,0:0:0:0:
372,312,170183,1,0,0:0:0:0:
372,312,170267,1,0,0:0:0:0:
372,312,170350,1,10,0:0:0:0:
292,268,170517,1,2,0:0:0:0:
440,160,170683,5,6,0:0:0:0:
432,248,170850,2,0,L|476:228,2,45,0|2|8,0:0|0:0|0:0,0:0:0:0:
376,108,171183,2,0,P|336:64|280:52,1,90,2|0,0:0|0:0,0:0:0:0:
172,128,171517,1,0,0:0:0:0:
260,132,171683,1,10,0:0:0:0:
260,132,171767,1,0,0:0:0:0:
260,132,171850,1,2,0:0:0:0:
104,192,172017,6,0,P|76:240|64:292,1,90,6|0,0:0|0:0,0:0:0:0:
228,356,172350,1,8,0:0:0:0:
144,324,172517,1,2,0:0:0:0:
144,324,172600,1,0,0:0:0:0:
144,324,172683,1,4,0:0:0:0:
336,232,172850,1,0,0:0:0:0:
336,232,172933,1,0,0:0:0:0:
336,232,173017,1,2,0:0:0:0:
196,185,173183,2,0,L|232:268,1,90,2|6,0:0|0:0,0:0:0:0:
256,192,173517,12,4,174683,0:0:0:0:
256,127,177517,5,4,0:0:0:0:
299,253,177683,1,0,0:0:0:0:
299,253,177767,1,2,0:0:0:0:
188,176,177933,1,0,0:0:0:0:
188,176,178017,1,2,0:0:0:0:
326,173,178183,1,0,0:0:0:0:
326,173,178267,1,2,0:0:0:0:
215,253,178433,1,0,0:0:0:0:
215,253,178517,2,0,P|181:262|132:236,1,90,2|2,0:0|0:0,0:0:0:0:
106,159,178850,5,2,0:0:0:0:
168,49,179017,1,0,0:0:0:0:
168,49,179100,1,2,0:0:0:0:
188,176,179267,1,0,0:0:0:0:
188,176,179350,1,2,0:0:0:0:
95,82,179517,1,0,0:0:0:0:
95,82,179600,1,2,0:0:0:0:
227,105,179767,1,0,0:0:0:0:
227,105,179850,2,0,P|260:136|268:180,1,90,2|2,0:0|0:0,0:0:0:0:
256,260,180183,5,2,0:0:0:0:
328,340,180350,1,0,0:0:0:0:
360,332,180433,1,2,0:0:0:0:
372,220,180600,1,0,0:0:0:0:
398,239,180683,1,2,0:0:0:0:
490,172,180850,1,0,0:0:0:0:
492,204,180933,1,2,0:0:0:0:
464,316,181100,1,0,0:0:0:0:
464,316,181183,1,2,0:0:0:0:
372,220,181350,1,2,0:0:0:0:
296,324,181517,5,2,0:0:0:0:
266,333,181600,1,0,0:0:0:0:
236,343,181683,1,0,0:0:0:0:
195,346,181767,5,2,0:0:0:0:
164,336,181850,1,0,0:0:0:0:
134,325,181933,1,0,0:0:0:0:
104,297,182017,5,2,0:0:0:0:
115,267,182100,1,0,0:0:0:0:
119,235,182183,1,0,0:0:0:0:
111,194,182267,5,2,0:0:0:0:
95,166,182350,1,0,0:0:0:0:
91,134,182433,1,0,0:0:0:0:
80,94,182517,6,0,P|80:64|96:36,3,45,2|0|2|0,0:0|0:0|0:0|0:0,0:0:0:0:
112,20,182850,5,6,0:0:0:0:
256,184,183100,1,6,0:0:0:0:
400,20,183350,1,6,0:0:0:0:
256,20,183517,5,6,0:0:0:0:
256,240,183767,1,6,0:0:0:0:
460,156,184017,1,6,0:0:0:0:
400,20,184183,5,6,0:0:0:0:
256,184,184433,1,6,0:0:0:0:
440,308,184683,1,6,0:0:0:0:
460,156,184850,5,6,0:0:0:0:
256,240,185100,1,6,0:0:0:0:
52,156,185350,1,6,0:0:0:0:
180,40,185517,6,0,L|136:80,3,45,2|0|0|0,0:0|0:0|0:0|0:0,0:0:0:0:
332,40,185850,2,0,L|365:70,3,45,2|0|0|0,0:0|0:0|0:0|0:0,0:0:0:0:
176,164,186183,2,0,L|132:204,3,45,2|0|0|0,0:0|0:0|0:0|0:0,0:0:0:0:
336,164,186517,2,0,L|369:194,3,45,2|0|0|0,0:0|0:0|0:0|0:0,0:0:0:0:
256,40,186850,6,0,L|256:280,1,236.250009012223,4|0,0:0|2:0,0:0:0:0:
256,300,187517,2,0,L|256:336,15,33.7500012874604
256,276,188183,6,0,L|256:184,1,90,2|0,0:0|0:0,0:0:0:0:
256,156,188433,1,2,0:0:0:0:
256,124,188517,1,0,0:0:0:0:
188,40,188683,2,0,P|152:32|92:48,1,90,2|0,0:0|0:0,0:0:0:0:
80,68,188933,1,2,0:0:0:0:
72,100,189017,2,0,L|76:192,1,90,2|2,0:0|0:0,0:0:0:0:
172,124,189350,1,2,0:0:0:0:
8,224,189517,6,0,P|40:256|92:268,1,90,2|0,0:0|0:0,0:0:0:0:
113,259,189767,1,2,0:0:0:0:
135,238,189850,1,0,0:0:0:0:
172,124,190017,1,2,0:0:0:0:
248,216,190183,1,0,0:0:0:0:
248,216,190267,1,2,0:0:0:0:
248,216,190350,2,0,P|296:224|340:212,1,90,2|2,0:0|0:0,0:0:0:0:
288,108,190683,1,2,0:0:0:0:
264,296,190850,5,2,0:0:0:0:
172,124,191017,1,0,0:0:0:0:
172,124,191100,1,0,0:0:0:0:
172,124,191183,2,0,L|72:128,1,90,2|2,0:0|0:0,0:0:0:0:
58,147,191433,1,2,0:0:0:0:
39,169,191517,1,0,0:0:0:0:
18,190,191600,1,0,0:0:0:0:
0,213,191683,2,0,L|83:209,1,90,2|2,0:0|0:0,0:0:0:0:
206,272,192016,1,0,0:0:0:0:
236,285,192100,1,2,0:0:0:0:
264,296,192183,6,0,P|308:302|358:284,1,90,2|0,0:0|0:0,0:0:0:0:
375,268,192433,1,2,0:0:0:0:
392,242,192516,1,0,0:0:0:0:
477,175,192683,2,0,L|486:268,1,90,2|0,0:0|0:0,0:0:0:0:
490,296,192933,1,2,0:0:0:0:
396,160,193100,1,0,0:0:0:0:
400,130,193183,2,0,L|408:84,1,45,2|0,0:0|0:0,0:0:0:0:
306,164,193350,2,0,L|317:212,1,45,2|0,0:0|0:0,0:0:0:0:
219,117,193516,6,0,P|169:129|124:112,1,90,2|0,0:0|0:0,0:0:0:0:
107,100,193766,1,2,0:0:0:0:
94,71,193850,1,0,0:0:0:0:
33,160,194016,2,0,L|41:255,1,90,2|0,0:0|0:0,0:0:0:0:
57,276,194266,1,2,0:0:0:0:
83,293,194350,1,2,0:0:0:0:
113,301,194433,1,2,0:0:0:0:
144,298,194516,2,0,P|185:287|241:308,1,90,2|2,0:0|0:0,0:0:0:0:
317,364,194850,6,0,P|305:315|322:268,1,90,2|0,0:0|0:0,0:0:0:0:
332,252,195100,1,2,0:0:0:0:
360,237,195183,1,0,0:0:0:0:
420,326,195350,1,2,0:0:0:0:
266,201,195516,1,0,0:0:0:0:
235,205,195600,1,0,0:0:0:0:
204,212,195683,2,0,L|150:222,1,45,2|0,0:0|0:0,0:0:0:0:
131,140,195850,2,0,L|82:148,1,45,2|0,0:0|0:0,0:0:0:0:
219,109,196016,1,2,0:0:0:0:
254,282,196183,5,2,0:0:0:0:
340,154,196350,1,0,0:0:0:0:
340,154,196433,1,2,0:0:0:0:
340,154,196516,2,0,P|390:155|428:188,1,90,0|0,0:0|0:0,0:0:0:0:
441,204,196766,1,2,0:0:0:0:
447,235,196850,1,0,0:0:0:0:
440,265,196933,1,0,0:0:0:0:
425,293,197016,1,2,0:0:0:0:
340,154,197183,1,2,0:0:0:0:
333,326,197350,1,0,0:0:0:0:
333,326,197433,1,0,0:0:0:0:
333,326,197516,6,0,L|237:321,1,90,2|0,0:0|0:0,0:0:0:0:
212,319,197766,1,2,0:0:0:0:
180,318,197850,1,0,0:0:0:0:
101,244,198016,2,0,P|89:200|104:150,1,90,2|0,0:0|0:0,0:0:0:0:
117,132,198266,1,2,0:0:0:0:
264,198,198433,1,0,0:0:0:0:
234,208,198516,2,0,L|184:202,1,45,2|0,0:0|0:0,0:0:0:0:
340,154,198683,2,0,L|391:160,1,45,2|0,0:0|0:0,0:0:0:0:
449,213,198850,6,0,P|470:258|439:348,1,135,2|2,0:0|0:0,0:0:0:0:
425,358,199183,1,0,0:0:0:0:
344,276,199350,2,0,L|340:180,1,90,2|0,0:0|0:0,0:0:0:0:
340,154,199600,1,2,0:0:0:0:
331,123,199683,1,0,0:0:0:0:
312,97,199766,1,0,0:0:0:0:
284,81,199850,1,2,0:0:0:0:
256,232,200016,1,2,0:0:0:0:
383,66,200183,5,2,0:0:0:0:
205,83,200350,1,0,0:0:0:0:
214,112,200433,1,2,0:0:0:0:
223,143,200516,1,0,0:0:0:0:
383,66,200683,2,0,L|290:44,1,90,2|0,0:0|0:0,0:0:0:0:
265,35,200933,1,2,0:0:0:0:
234,28,201016,1,0,0:0:0:0:
168,208,201183,1,2,0:0:0:0:
234,28,201350,1,2,0:0:0:0:
84,76,201516,6,0,P|40:104|28:152,1,90,2|0,0:0|0:0,0:0:0:0:
23,169,201766,1,2,0:0:0:0:
28,200,201850,1,0,0:0:0:0:
95,284,202016,1,0,0:0:0:0:
121,302,202100,2,0,P|159:315|217:299,1,90,2|0,0:0|0:0,0:0:0:0:
234,289,202350,1,2,0:0:0:0:
298,202,202516,1,2,0:0:0:0:
168,208,202683,1,0,0:0:0:0:
168,208,202766,1,0,0:0:0:0:
168,208,202850,6,0,P|156:162|170:113,1,90,2|0,0:0|0:0,0:0:0:0:
181,94,203100,2,0,L|234:104,1,45,2|0,0:0|0:0,0:0:0:0:
332,123,203350,2,0,L|427:109,1,90,2|0,0:0|0:0,0:0:0:0:
418,141,203600,1,0,0:0:0:0:
415,172,203683,1,2,0:0:0:0:
412,203,203766,1,0,0:0:0:0:
409,234,203850,1,2,0:0:0:0:
406,265,203933,1,0,0:0:0:0:
403,296,204016,1,2,0:0:0:0:
400,327,204100,1,0,0:0:0:0:
397,358,204183,5,2,0:0:0:0:
307,309,204350,1,0,0:0:0:0:
307,309,204433,1,2,0:0:0:0:
307,309,204516,1,0,0:0:0:0:
488,270,204683,2,0,L|481:360,1,90,2|0,0:0|0:0,0:0:0:0:
332,123,205016,1,2,0:0:0:0:
328,154,205100,1,0,0:0:0:0:
324,185,205183,1,2,0:0:0:0:
320,216,205266,1,0,0:0:0:0:
316,247,205350,1,2,0:0:0:0:
312,278,205433,1,0,0:0:0:0:
307,309,205516,5,2,0:0:0:0:
219,256,205683,1,0,0:0:0:0:
219,256,205766,1,2,0:0:0:0:
219,256,205850,1,0,0:0:0:0:
412,197,206016,2,0,L|402:294,1,90,2|0,0:0|0:0,0:0:0:0:
249,68,206350,1,2,0:0:0:0:
244,100,206434,1,0,0:0:0:0:
239,131,206517,1,2,0:0:0:0:
234,162,206600,1,0,0:0:0:0:
229,194,206684,1,2,0:0:0:0:
224,225,206767,1,0,0:0:0:0:
219,256,206850,5,2,0:0:0:0:
127,207,207016,1,0,0:0:0:0:
127,207,207100,1,2,0:0:0:0:
127,207,207183,1,0,0:0:0:0:
301,250,207350,2,0,L|349:237,1,45,0|2,0:0|0:0,0:0:0:0:
159,312,207600,2,0,L|110:298,1,45,0|2,0:0|0:0,0:0:0:0:
261,333,207850,1,2,0:0:0:0:
127,207,208016,1,2,0:0:0:0:
132,175,208100,1,0,0:0:0:0:
137,144,208183,5,2,0:0:0:0:
301,251,208350,1,0,0:0:0:0:
301,251,208433,1,2,0:0:0:0:
301,251,208516,1,0,0:0:0:0:
159,312,208683,1,2,0:0:0:0:
316,220,208850,2,0,L|310:127,1,90,0|2,0:0|0:0,0:0:0:0:
308,112,209100,1,0,0:0:0:0:
306,94,209183,1,2,0:0:0:0:
304,76,209266,1,0,0:0:0:0:
303,57,209350,1,2,0:0:0:0:
302,39,209433,1,0,0:0:0:0:
300,21,209516,6,0,P|344:49|437:27,1,135,2|2,0:0|0:0,0:0:0:0:
449,20,209850,1,0,0:0:0:0:
308,112,210016,1,2,0:0:0:0:
458,129,210183,1,0,0:0:0:0:
469,158,210266,1,0,0:0:0:0:
475,189,210350,1,2,0:0:0:0:
473,220,210433,1,0,0:0:0:0:
467,250,210516,2,0,P|445:284|390:300,1,90,2|2,0:0|0:0,0:0:0:0:
376,173,210850,5,2,0:0:0:0:
315,304,211016,1,0,0:0:0:0:
315,304,211100,1,2,0:0:0:0:
315,304,211183,1,0,0:0:0:0:
308,112,211350,1,2,0:0:0:0:
400,301,211516,1,0,0:0:0:0:
391,270,211600,1,0,0:0:0:0:
372,244,211683,1,2,0:0:0:0:
345,227,211766,1,0,0:0:0:0:
314,220,211850,1,2,0:0:0:0:
241,341,212016,1,2,0:0:0:0:
230,151,212183,5,2,0:0:0:0:
159,313,212350,1,0,0:0:0:0:
159,313,212433,1,2,0:0:0:0:
159,313,212516,2,0,L|165:219,1,90,0|2,0:0|0:0,0:0:0:0:
155,192,212766,1,0,0:0:0:0:
135,166,212850,1,0,0:0:0:0:
109,148,212933,1,0,0:0:0:0:
79,138,213016,2,0,P|24:144|-12:168,1,90,2|2,0:0|0:0,0:0:0:0:
64,252,213350,1,2,0:0:0:0:
64,252,213433,1,0,0:0:0:0:
64,252,213516,5,2,0:0:0:0:
161,93,213683,1,0,0:0:0:0:
175,65,213766,1,2,0:0:0:0:
189,36,213850,1,0,0:0:0:0:
237,175,214016,2,0,P|285:184|332:166,1,90,2|0,0:0|0:0,0:0:0:0:
349,153,214266,1,2,0:0:0:0:
452,82,214433,1,0,0:0:0:0:
477,63,214516,2,0,L|468:11,1,45,2|0,0:0|0:0,0:0:0:0:
444,163,214683,2,0,L|437:217,1,45,2|0,0:0|0:0,0:0:0:0:
389,284,214850,6,0,P|342:299|298:288,1,90,2|0,0:0|0:0,0:0:0:0:
274,276,215100,1,2,0:0:0:0:
254,251,215183,1,0,0:0:0:0:
280,104,215350,1,2,0:0:0:0:
172,156,215516,1,0,0:0:0:0:
312,184,215683,1,2,0:0:0:0:
312,184,215766,1,0,0:0:0:0:
312,184,215850,1,2,0:0:0:0:
176,232,216016,1,2,0:0:0:0:
168,80,216183,6,0,P|120:92|96:136,1,90,2|0,0:0|0:0,0:0:0:0:
88,156,216433,1,2,0:0:0:0:
96,188,216516,1,0,0:0:0:0:
248,136,216683,1,2,0:0:0:0:
176,232,216850,1,0,0:0:0:0:
168,80,217016,1,2,0:0:0:0:
168,80,217100,1,0,0:0:0:0:
168,80,217183,2,0,P|124:48|88:48,1,90,2|2,0:0|0:0,0:0:0:0:
96,188,217516,5,2,0:0:0:0:
248,136,217683,1,0,0:0:0:0:
260,108,217766,1,2,0:0:0:0:
260,76,217850,1,0,0:0:0:0:
176,232,218016,1,2,0:0:0:0:
200,252,218100,2,0,P|244:268|296:248,1,90
312,240,218350,1,2,0:0:0:0:
420,160,218516,1,2,0:0:0:0:
448,288,218683,1,2,0:0:0:0:
448,288,218766,1,0,0:0:0:0:
448,288,218850,6,0,P|420:336|380:356,1,90,2|0,0:0|0:0,0:0:0:0:
360,356,219100,1,2,0:0:0:0:
328,348,219183,1,0,0:0:0:0:
200,252,219350,2,0,L|92:256,1,90,2|0,0:0|0:0,0:0:0:0:
36,180,219683,1,2,0:0:0:0:
20,152,219766,1,0,0:0:0:0:
12,120,219850,2,0,P|8:72|112:28,1,180,2|2,0:0|0:0,0:0:0:0:
180,116,220350,5,0,0:0:0:0:
196,144,220433,1,2,0:0:0:0:
212,172,220516,2,0,L|224:80,1,90,0|2,0:0|0:0,0:0:0:0:
296,172,220850,1,0,0:0:0:0:
328,36,221016,1,2,0:0:0:0:
360,40,221100,1,0,0:0:0:0:
388,56,221183,2,0,P|424:84|436:136,1,90,2|2,0:0|0:0,0:0:0:0:
324,248,221516,5,2,0:0:0:0:
360,128,221683,1,0,0:0:0:0:
360,128,221766,1,2,0:0:0:0:
360,128,221850,1,0,0:0:0:0:
404,244,222016,1,2,0:0:0:0:
296,172,222182,1,2,0:0:0:0:
424,172,222350,1,2,0:0:0:0:
424,172,222433,1,0,0:0:0:0:
424,172,222516,2,2,P|468:200|476:248,1,90,2|2,0:0|0:0,0:0:0:0:
364,316,222850,5,2,0:0:0:0:
296,172,223016,1,0,0:0:0:0:
296,172,223100,1,2,0:0:0:0:
296,172,223183,2,0,P|252:188|228:232,1,90,0|2,0:0|0:0,0:0:0:0:
224,256,223433,1,0,0:0:0:0:
232,288,223516,1,2,0:0:0:0:
364,316,223683,1,2,0:0:0:0:
388,296,223766,1,0,0:0:0:0:
420,288,223850,2,0,P|464:284|508:308,1,90,2|0,0:0|0:0,0:0:0:0:
356,224,224183,6,0,P|336:168|368:104,1,135,2|2,0:0|0:0,0:0:0:0:
224,256,224683,2,0,P|180:276|128:264,1,90,2|0,0:0|0:0,0:0:0:0:
111,255,224933,1,0,0:0:0:0:
87,234,225016,1,2,0:0:0:0:
70,206,225100,1,0,0:0:0:0:
60,176,225183,1,2,0:0:0:0:
57,144,225266,1,0,0:0:0:0:
61,112,225350,1,2,0:0:0:0:
73,83,225433,1,0,0:0:0:0:
93,59,225516,5,2,0:0:0:0:
188,112,225683,2,0,L|288:116,1,90,2|0,0:0|0:0,0:0:0:0:
188,112,226016,2,0,L|134:196,1,90,2|0,0:0|0:0,0:0:0:0:
188,112,226350,2,0,L|141:23,1,90,2|0,0:0|0:0,0:0:0:0:
272,72,226683,6,0,P|284:120|268:164,1,90,2|0,0:0|0:0,0:0:0:0:
200,240,227016,1,2,0:0:0:0:
200,240,227100,1,0,0:0:0:0:
200,240,227183,1,0,0:0:0:0:
188,112,227350,1,2,0:0:0:0:
120,216,227516,1,0,0:0:0:0:
276,208,227683,1,2,0:0:0:0:
276,208,227766,1,0,0:0:0:0:
276,208,227850,1,0,0:0:0:0:
188,112,228016,1,2,0:0:0:0:
200,240,228183,5,0,0:0:0:0:
264,128,228350,1,2,0:0:0:0:
264,128,228433,1,0,0:0:0:0:
264,128,228516,1,0,0:0:0:0:
264,288,228683,1,2,0:0:0:0:
140,176,228850,1,0,0:0:0:0:
276,208,229016,1,2,0:0:0:0:
276,208,229100,1,0,0:0:0:0:
276,208,229183,1,0,0:0:0:0:
192,316,229350,1,2,0:0:0:0:
140,176,229516,5,2,0:0:0:0:
148,145,229600,1,0,0:0:0:0:
163,117,229683,1,2,0:0:0:0:
187,96,229766,1,0,0:0:0:0:
215,82,229850,1,2,0:0:0:0:
245,74,229933,1,0,0:0:0:0:
276,73,230016,1,2,0:0:0:0:
307,77,230100,1,0,0:0:0:0:
337,85,230183,1,2,0:0:0:0:
404,172,230350,1,4,0:0:0:0:
360,64,241019,5,4,0:0:0:0:
420,128,241186,2,0,P|436:192|416:260,2,135,2|2|2,0:0|0:0|0:0,0:0:0:0:
300,192,241936,2,0,P|264:144|160:128,1,135,2|2,0:0|0:0,0:0:0:0:
136,52,242353,5,2,0:0:0:0:
112,140,242519,2,0,P|88:192|88:280,1,135,2|2,0:0|0:0,0:0:0:0:
208,324,243019,2,0,P|256:280|344:276,2,135,2|2|2,0:0|0:0|0:0,0:0:0:0:
124,288,243686,5,2,0:0:0:0:
132,192,243853,1,2,0:0:0:0:
217,74,244103,1,2,0:0:0:0:
356,119,244353,1,2,0:0:0:0:
356,264,244603,1,2,0:0:0:0:
217,309,244852,1,2,0:0:0:0:
304,340,245019,5,2,0:0:0:0:
356,264,245186,1,2,0:0:0:0:
356,119,245436,1,2,0:0:0:0:
217,74,245686,1,2,0:0:0:0:
132,192,245936,1,2,0:0:0:0:
217,309,246186,1,2,0:0:0:0:
136,344,246352,5,2,0:0:0:0:
72,280,246519,2,0,P|36:212|36:120,2,135,2|2|2,0:0|0:0|0:0,0:0:0:0:
144,164,247269,1,2,0:0:0:0:
256,88,247519,2,0,L|256:184,2,90,2|2|2,0:0|0:0|0:0,0:0:0:0:
368,164,248102,5,2,0:0:0:0:
440,280,248352,2,0,P|476:212|476:120,2,135,2|2|2,0:0|0:0|0:0,0:0:0:0:
364,332,249019,6,0,L|272:332,1,90,2|2,0:0|0:0,0:0:0:0:
140,348,249436,2,0,P|76:300|56:228,1,135,2|2,0:0|0:0,0:0:0:0:
152,156,249936,2,0,P|212:183|249:238,1,135,2|2,0:0|0:0,0:0:0:0:
256,192,250352,12,6,251686,0:0:0:0:
464,48,251936,6,0,P|448:128|392:176,1,135,2|0,0:0|0:0,0:0:0:0:
360,96,252352,1,0,0:0:0:0:
112,208,252519,1,0,0:0:0:0:
372,248,252686,1,0,0:0:0:0:
184,60,252852,1,0,0:0:0:0:
216,324,253019,6,0,P|224:276|288:208,2,135,2|2|0,0:0|0:0|0:0,0:0:0:0:
36,224,253686,1,0,0:0:0:0:
204,304,253852,1,0,0:0:0:0:
156,124,254019,1,0,0:0:0:0:
232,304,254186,1,0,0:0:0:0:
320,128,254352,6,0,P|364:84|424:120,1,135,2|2,0:0|0:0,0:0:0:0:
374,338,254852,2,0,L|464:332,1,90,0|0,0:0|0:0,0:0:0:0:
258,146,255186,2,0,L|336:192,1,90,0|0,0:0|0:0,0:0:0:0:
76,313,255519,2,0,L|156:272,1,90,0|2,0:0|0:0,0:0:0:0:
256,52,255936,5,2,0:0:0:0:
356,272,256186,1,0,0:0:0:0:
292,335,256352,1,0,0:0:0:0:
228,271,256519,1,0,0:0:0:0:
164,207,256686,1,0,0:0:0:0:
100,270,256852,1,0,0:0:0:0:
36,206,257019,6,0,P|24:136|56:64,2,135,2|2|0,0:0|0:0|0:0,0:0:0:0:
188,142,257686,1,0,0:0:0:0:
125,206,257852,1,0,0:0:0:0:
314,141,258019,1,0,0:0:0:0:
251,205,258186,1,0,0:0:0:0:
377,204,258352,6,0,P|392:280|432:320,2,135,2|2|0,0:0|0:0|0:0,0:0:0:0:
264,76,259019,1,0,0:0:0:0:
472,144,259186,1,0,0:0:0:0:
272,164,259352,1,0,0:0:0:0:
468,52,259519,1,0,0:0:0:0:
372,112,259686,1,2,0:0:0:0:
156,40,259936,5,2,0:0:0:0:
172,216,260186,1,0,0:0:0:0:
16,337,260352,2,0,L|96:296,1,90,0|0,0:0|0:0,0:0:0:0:
314,352,260686,2,0,L|244:296,1,90,0|0,0:0|0:0,0:0:0:0:
172,216,261019,6,0,P|176:152|112:80,2,135,2|2|0,0:0|0:0|0:0,0:0:0:0:
235,279,261686,1,0,0:0:0:0:
298,215,261852,1,0,0:0:0:0:
234,278,262019,1,0,0:0:0:0:
297,214,262186,1,0,0:0:0:0:
308,124,262352,5,2,0:0:0:0:
364,52,262519,1,0,0:0:0:0:
364,52,262602,1,0,0:0:0:0:
364,52,262686,2,0,P|392:96|396:152,1,90,2|0,0:0|0:0,0:0:0:0:
460,196,263019,1,0,0:0:0:0:
371,272,263186,2,0,P|415:269|456:288,1,90,0|0,0:0|0:0,0:0:0:0:
396,359,263519,2,0,P|351:364|311:345,1,90,0|2,0:0|0:0,0:0:0:0:
276,260,263852,6,0,L|260:204,2,45,0|2|0,0:0|0:0|0:0,0:0:0:0:
224,336,264186,1,0,0:0:0:0:
136,332,264352,1,0,0:0:0:0:
68,272,264519,1,0,0:0:0:0:
56,184,264686,1,0,0:0:0:0:
96,104,264852,1,0,0:0:0:0:
152,176,265019,5,2,0:0:0:0:
196,96,265186,1,0,0:0:0:0:
196,96,265269,1,2,0:0:0:0:
196,96,265352,2,0,P|248:72|308:72,1,90
416,120,265686,2,0,P|336:144|300:144,2,90,0|0|0,0:0|0:0|0:0,0:0:0:0:
298,264,266186,2,0,P|266:232|248:192,1,90,0|2,0:0|0:0,0:0:0:0:
152,176,266519,6,0,L|100:152,2,45,0|2|0,0:0|0:0|0:0,0:0:0:0:
104,252,266852,1,0,0:0:0:0:
104,252,267019,1,0,0:0:0:0:
188,288,267186,2,0,P|156:328|108:340,2,90,0|0|0,0:0|0:0|0:0,0:0:0:0:
272,324,267686,5,2,0:0:0:0:
300,324,267769,1,0,0:0:0:0:
324,308,267852,1,0,0:0:0:0:
340,284,267936,1,2,0:0:0:0:
344,256,268019,1,0,0:0:0:0:
348,228,268102,1,0,0:0:0:0:
356,204,268186,1,0,0:0:0:0:
376,188,268269,1,0,0:0:0:0:
404,180,268352,6,0,L|412:120,3,45,0|0|0|0,0:0|0:0|0:0|0:0,0:0:0:0:
480,124,268686,2,0,L|480:60,3,45,0|0|0|0,0:0|0:0|0:0|0:0,0:0:0:0:
464,60,269019,5,2,0:0:0:0:
440,48,269102,1,0,0:0:0:0:
416,40,269186,1,0,0:0:0:0:
388,40,269269,1,2,0:0:0:0:
360,40,269352,1,0,0:0:0:0:
332,40,269436,1,0,0:0:0:0:
304,40,269519,1,0,0:0:0:0:
276,40,269602,1,0,0:0:0:0:
248,44,269686,6,0,L|196:112,3,45,0|0|0|0,0:0|0:0|0:0|0:0,0:0:0:0:
156,68,270019,2,0,L|144:124,3,45,0|0|0|0,0:0|0:0|0:0|0:0,0:0:0:0:
204,144,270352,6,0,L|160:180,3,45,2|0|0|2,0:0|0:0|0:0|0:0,0:0:0:0:
103,174,270686,2,0,L|91:217,3,45
96,244,271019,5,0,0:0:0:0:
100,272,271102,1,0,0:0:0:0:
112,296,271186,1,0,0:0:0:0:
132,316,271269,1,0,0:0:0:0:
156,324,271352,1,0,0:0:0:0:
184,332,271436,1,0,0:0:0:0:
212,332,271519,1,0,0:0:0:0:
240,332,271602,1,0,0:0:0:0:
268,332,271686,1,2,0:0:0:0:
444,44,273019,5,6,0:0:0:0:
356,52,273186,1,0,0:0:0:0:
356,52,273269,1,2,0:0:0:0:
356,52,273352,2,0,P|300:68|284:124,1,90,8|0,0:0|0:0,0:0:0:0:
344,164,273686,1,2,0:0:0:0:
268,236,273852,1,0,0:0:0:0:
268,236,273936,1,0,0:0:0:0:
268,236,274019,1,10,0:0:0:0:
164,252,274186,1,0,0:0:0:0:
152,352,274352,6,0,P|88:320|68:280,1,90,2|0,0:0|0:0,0:0:0:0:
78,306,274602,1,2,0:0:0:0:
78,306,274686,1,8,0:0:0:0:
63,130,274852,2,0,L|60:220,1,90,0|2,0:0|0:0,0:0:0:0:
229,129,275186,2,0,L|236:40,1,90,0|10,0:0|0:0,0:0:0:0:
419,142,275519,2,0,L|416:232,1,90,0|2,0:0|0:0,0:0:0:0:
340,280,275852,5,0,0:0:0:0:
340,280,275936,1,2,0:0:0:0:
340,280,276019,1,8,0:0:0:0:
340,188,276186,1,0,0:0:0:0:
320,100,276352,1,2,0:0:0:0:
151,53,276519,2,0,P|195:47|240:56,2,90,0|10|0,0:0|0:0|0:0,0:0:0:0:
192,216,277019,5,2,0:0:0:0:
200,128,277186,1,0,0:0:0:0:
200,128,277269,1,2,0:0:0:0:
200,128,277352,1,8,0:0:0:0:
76,256,277519,1,0,0:0:0:0:
240,348,277686,2,0,L|160:308,1,90,2|0,0:0|0:0,0:0:0:0:
356,212,278019,2,0,L|248:276,1,90,10|0,0:0|0:0,0:0:0:0:
456,192,278352,5,2,0:0:0:0:
444,104,278519,1,0,0:0:0:0:
444,104,278602,1,2,0:0:0:0:
444,104,278686,1,8,0:0:0:0:
380,44,278852,1,0,0:0:0:0:
292,36,279019,1,2,0:0:0:0:
204,44,279186,1,0,0:0:0:0:
204,44,279269,1,0,0:0:0:0:
204,44,279352,2,0,P|168:96|160:132,1,90,10|0,0:0|0:0,0:0:0:0:
256,284,279686,5,2,0:0:0:0:
160,224,279852,2,0,L|112:244,2,45,0|2|8,0:0|0:0|0:0,0:0:0:0:
323,224,280186,2,0,P|291:193|248:192,1,90,0|2,0:0|0:0,0:0:0:0:
392,276,280519,2,0,L|424:232,2,45,0|0|10,0:0|0:0|0:0,0:0:0:0:
256,284,280852,1,0,0:0:0:0:
324,340,281019,5,2,0:0:0:0:
468,308,281186,1,0,0:0:0:0:
468,308,281269,1,2,0:0:0:0:
468,308,281352,1,8,0:0:0:0:
456,156,281519,1,0,0:0:0:0:
296,36,281686,1,2,0:0:0:0:
224,228,281852,1,0,0:0:0:0:
416,68,282019,1,10,0:0:0:0:
204,120,282186,1,0,0:0:0:0:
360,248,282352,5,2,0:0:0:0:
296,36,282519,2,0,L|296:92,2,45,0|2|8,0:0|0:0|0:0,0:0:0:0:
172,76,282852,1,0,0:0:0:0:
84,180,283019,1,2,0:0:0:0:
88,304,283186,1,0,0:0:0:0:
192,356,283352,1,10,0:0:0:0:
320,352,283519,1,0,0:0:0:0:
436,288,283686,6,0,P|456:220|456:168,1,90,6|0,0:0|0:0,0:0:0:0:
276,100,284019,2,0,P|252:164|252:212,1,90,8|0,0:0|0:0,0:0:0:0:
328,276,284352,2,0,P|348:208|348:156,1,90,2|0,0:0|0:0,0:0:0:0:
168,88,284686,2,0,P|144:152|144:200,1,90,10|0,0:0|0:0,0:0:0:0:
240,352,285019,5,2,0:0:0:0:
180,284,285186,1,0,0:0:0:0:
180,284,285269,1,2,0:0:0:0:
180,284,285352,2,0,P|216:224|268:216,1,90,8|0,0:0|0:0,0:0:0:0:
384,252,285686,1,2,0:0:0:0:
320,184,285852,1,0,0:0:0:0:
320,184,285936,1,0,0:0:0:0:
320,184,286019,2,0,P|336:124|332:80,1,90,10|0,0:0|0:0,0:0:0:0:
256,56,286352,5,2,0:0:0:0:
168,48,286519,2,0,L|100:56,2,45,0|2|8,0:0|0:0|0:0,0:0:0:0:
122,152,286852,1,0,0:0:0:0:
173,309,287019,1,2,0:0:0:0:
338,309,287186,1,0,0:0:0:0:
389,152,287352,1,10,0:0:0:0:
256,56,287519,1,0,0:0:0:0:
348,60,287686,5,2,0:0:0:0:
348,60,287852,2,0,L|387:24,2,45,0|2|8,0:0|0:0|0:0,0:0:0:0:
428,140,288186,1,0,0:0:0:0:
360,341,288352,1,2,0:0:0:0:
150,341,288519,1,0,0:0:0:0:
85,140,288686,1,10,0:0:0:0:
256,18,288852,1,0,0:0:0:0:
256,108,289019,5,2,0:0:0:0:
256,200,289186,1,0,0:0:0:0:
256,200,289269,1,2,0:0:0:0:
256,200,289352,1,8,0:0:0:0:
256,292,289519,1,0,0:0:0:0:
60,296,289686,2,0,L|156:256,1,90,2|0,0:0|0:0,0:0:0:0:
452,296,290019,2,0,L|356:256,1,90,10|0,0:0|0:0,0:0:0:0:
256,292,290352,5,2,0:0:0:0:
256,200,290519,1,0,0:0:0:0:
256,200,290602,1,2,0:0:0:0:
256,200,290686,1,8,0:0:0:0:
176,160,290852,1,0,0:0:0:0:
176,68,291019,1,2,0:0:0:0:
256,24,291186,1,0,0:0:0:0:
336,68,291352,1,10,0:0:0:0:
336,160,291519,1,0,0:0:0:0:
256,200,291686,5,2,0:0:0:0:
252,228,291769,1,0,0:0:0:0:
252,256,291852,1,0,0:0:0:0:
252,284,291936,1,2,0:0:0:0:
240,308,292019,1,8,0:0:0:0:
216,324,292102,1,0,0:0:0:0:
188,324,292186,1,0,0:0:0:0:
164,312,292269,1,0,0:0:0:0:
148,288,292352,5,2,0:0:0:0:
144,260,292436,1,0,0:0:0:0:
144,232,292519,1,0,0:0:0:0:
144,204,292602,1,0,0:0:0:0:
144,176,292686,1,10,0:0:0:0:
144,148,292769,1,0,0:0:0:0:
140,120,292852,1,0,0:0:0:0:
132,96,292936,1,0,0:0:0:0:
112,76,293019,6,0,P|64:120|40:208,2,135,2|2|0,0:0|0:0|0:0,0:0:0:0:
199,59,293686,2,0,P|286:64|336:136,1,180,2|2,0:0|0:0,0:0:0:0:
335,135,294352,5,6,0:0:0:0:
460,232,294519,1,0,0:0:0:0:
460,232,294602,1,2,0:0:0:0:
460,232,294686,2,0,P|472:176|464:112,1,90,8|0,0:0|0:0,0:0:0:0:
320,44,295019,1,2,0:0:0:0:
152,168,295186,1,0,0:0:0:0:
196,44,295352,1,10,0:0:0:0:
256,236,295519,1,0,0:0:0:0:
128,312,295686,6,0,P|104:272|96:212,1,90,2|0,0:0|0:0,0:0:0:0:
88,184,295936,1,2,0:0:0:0:
96,140,296019,2,0,P|100:104|148:52,1,90,8|0,0:0|0:0,0:0:0:0:
304,65,296352,2,0,P|264:45|220:44,1,90,2|0,0:0|0:0,0:0:0:0:
256,264,296686,2,0,P|300:280|376:280,1,90,10|0,0:0|0:0,0:0:0:0:
416,336,297019,5,2,0:0:0:0:
464,260,297186,2,0,L|396:244,2,45,0|2|8,0:0|0:0|0:0,0:0:0:0:
440,172,297519,1,0,0:0:0:0:
420,84,297686,1,2,0:0:0:0:
344,36,297852,1,0,0:0:0:0:
256,56,298019,1,10,0:0:0:0:
176,96,298186,1,0,0:0:0:0:
96,48,298352,5,2,0:0:0:0:
48,124,298519,2,0,L|116:140,2,45,0|2|8,0:0|0:0|0:0,0:0:0:0:
72,212,298852,1,0,0:0:0:0:
92,300,299019,1,2,0:0:0:0:
168,348,299186,1,0,0:0:0:0:
256,328,299352,1,10,0:0:0:0:
336,288,299519,1,0,0:0:0:0:
372,204,299686,6,0,P|382:141|337:74,2,135,2|2|0,0:0|0:0|0:0,0:0:0:0:
160,116,300352,2,0,L|98:50,1,90,2|0,0:0|0:0,0:0:0:0:
160,268,300686,2,0,L|98:333,1,90,10|0,0:0|0:0,0:0:0:0:
228,192,301019,6,0,L|380:192,2,135,2|2|0,0:0|0:0|0:0,0:0:0:0:
320,104,301686,1,2,0:0:0:0:
320,280,301852,1,0,0:0:0:0:
408,84,302019,1,10,0:0:0:0:
408,300,302186,1,0,0:0:0:0:
464,192,302352,5,2,0:0:0:0:
372,192,302519,1,0,0:0:0:0:
372,192,302602,1,2,0:0:0:0:
372,192,302686,2,0,L|272:192,1,90,8|0,0:0|0:0,0:0:0:0:
228,120,303019,1,2,0:0:0:0:
164,56,303186,1,0,0:0:0:0:
100,119,303352,1,10,0:0:0:0:
163,182,303519,1,0,0:0:0:0:
99,245,303686,5,2,0:0:0:0:
162,308,303852,2,0,L|128:340,2,45,0|2|8,0:0|0:0|0:0,0:0:0:0:
226,243,304186,1,0,0:0:0:0:
289,306,304352,1,2,0:0:0:0:
352,242,304519,1,0,0:0:0:0:
415,305,304686,1,10,0:0:0:0:
415,305,304769,1,0,0:0:0:0:
416,304,304852,1,0,0:0:0:0:
479,240,305019,6,0,P|476:168|440:128,1,90,6|0,0:0|0:0,0:0:0:0:
467,154,305269,1,2,0:0:0:0:
467,154,305352,1,8,0:0:0:0:
332,43,305519,2,0,P|377:42|416:64,2,90,0|2|0,0:0|0:0|0:0,0:0:0:0:
204,88,306019,2,0,L|172:44,2,45,10|0|0,0:0|0:0|0:0,0:0:0:0:
40,188,306352,5,2,0:0:0:0:
128,144,306519,1,0,0:0:0:0:
128,144,306602,1,2,0:0:0:0:
128,144,306686,2,0,P|132:184|112:256,1,90,8|0,0:0|0:0,0:0:0:0:
312,348,307019,1,2,0:0:0:0:
124,352,307186,1,0,0:0:0:0:
312,236,307352,1,10,0:0:0:0:
312,236,307436,1,0,0:0:0:0:
312,236,307519,1,0,0:0:0:0:
400,120,307686,5,2,0:0:0:0:
296,84,307852,1,0,0:0:0:0:
296,84,307936,1,2,0:0:0:0:
296,84,308019,2,0,P|248:104|200:88,1,90,8|0,0:0|0:0,0:0:0:0:
96,136,308352,1,2,0:0:0:0:
248,220,308519,1,0,0:0:0:0:
112,256,308686,2,0,L|72:288,2,45,10|0|0,0:0|0:0|0:0,0:0:0:0:
232,344,309019,5,2,0:0:0:0:
392,284,309186,1,0,0:0:0:0:
392,284,309269,1,2,0:0:0:0:
392,284,309352,1,8,0:0:0:0:
320,340,309519,1,0,0:0:0:0:
416,196,309686,1,2,0:0:0:0:
308,60,309852,1,0,0:0:0:0:
380,112,310019,1,10,0:0:0:0:
380,112,310102,1,0,0:0:0:0:
380,112,310186,1,0,0:0:0:0:
224,64,310352,5,2,0:0:0:0:
196,68,310436,1,0,0:0:0:0:
172,76,310519,1,0,0:0:0:0:
152,92,310602,1,2,0:0:0:0:
136,112,310686,1,8,0:0:0:0:
124,136,310769,1,0,0:0:0:0:
120,164,310852,1,0,0:0:0:0:
120,192,310936,1,0,0:0:0:0:
128,216,311019,5,2,0:0:0:0:
144,236,311102,1,0,0:0:0:0:
164,252,311186,1,0,0:0:0:0:
188,260,311269,1,0,0:0:0:0:
216,264,311352,1,10,0:0:0:0:
244,260,311436,1,0,0:0:0:0:
268,252,311519,1,0,0:0:0:0:
288,236,311602,1,0,0:0:0:0:
308,216,311686,6,0,L|356:172,3,45,2|0|0|2,0:0|0:0|0:0|0:0,0:0:0:0:
352,100,312019,2,0,L|420:148,3,45,8|0|0|0,0:0|0:0|0:0|0:0,0:0:0:0:
448,184,312352,2,0,L|408:228,3,45,2|0|0|0,0:0|0:0|0:0|0:0,0:0:0:0:
384,284,312686,2,0,L|312:260,3,45,10|0|0|0,0:0|0:0|0:0|0:0,0:0:0:0:
320,284,313019,5,2,0:0:0:0:
308,308,313102,1,0,0:0:0:0:
288,324,313186,1,0,0:0:0:0:
264,336,313269,1,2,0:0:0:0:
236,340,313352,1,8,0:0:0:0:
208,340,313436,1,0,0:0:0:0:
180,340,313519,1,0,0:0:0:0:
152,340,313602,1,0,0:0:0:0:
128,328,313686,5,2,0:0:0:0:
108,308,313769,1,0,0:0:0:0:
96,284,313852,1,0,0:0:0:0:
88,260,313936,1,0,0:0:0:0:
84,232,314019,1,10,0:0:0:0:
84,204,314102,1,0,0:0:0:0:
84,176,314186,1,0,0:0:0:0:
88,148,314269,1,0,0:0:0:0:
92,120,314352,6,0,P|128:84|200:88,1,90,2|0,0:0|0:0,0:0:0:0:
252,48,314686,1,2,0:0:0:0:
252,76,314769,1,0,0:0:0:0:
248,104,314852,1,0,0:0:0:0:
248,132,314936,1,0,0:0:0:0:
248,160,315019,2,0,L|264:192,8,22.5,2|0|0|0|0|0|0|0|2,0:0|0:0|0:0|0:0|0:0|0:0|0:0|0:0|0:0,0:0:0:0:
324,208,315519,1,0,0:0:0:0:
284,288,315686,1,4,0:0:0:0:
256,192,323686,12,0,325019,0:0:0:0:
112,184,325185,5,2,0:0:0:0:
416,40,325518,1,2,0:0:0:0:
479,103,325685,1,2,0:0:0:0:
415,166,325851,1,2,0:0:0:0:
351,102,326018,1,2,0:0:0:0:
112,184,326351,6,0,P|168:296|304:304,1,270
456,52,327601,2,0,P|356:52|300:144,1,202.5,2|2,0:0|0:0,0:0:0:0:
400,224,328143,2,0,P|292:352|112:284,1,382.5,2|0,0:0|0:0,0:0:0:0:
52,220,329018,6,0,P|56:160|120:88,2,135
312,52,330101,5,2,0:0:0:0:
312,52,330268,2,0,P|408:136|428:208,1,202.5,2|2,0:0|0:0,0:0:0:0:
352,256,330809,2,0,P|280:124|116:224,1,382.5,2|0,0:0|0:0,0:0:0:0:
40,268,331685,6,0,P|92:308|184:272,2,135
408,324,332768,5,2,0:0:0:0:
476,264,332934,2,0,P|472:176|420:96,2,180,2|2|2,0:0|0:0|0:0,0:0:0:0:
196,40,334351,5,0,0:0:0:0:
96,132,334601,1,0,0:0:0:0:
228,160,334851,1,0,0:0:0:0:
256,192,335185,12,4,337018,0:0:0:0:
484,112,337185,5,0,0:0:0:0:
484,112,337268,1,0,0:0:0:0:
352,72,337518,2,0,P|296:64|252:76,1,90
184,112,337851,1,0,0:0:0:0:
184,112,337935,1,0,0:0:0:0:
276,212,338185,1,0,0:0:0:0:
276,212,338268,1,0,0:0:0:0:
188,312,338518,5,0,0:0:0:0:
188,312,338601,1,0,0:0:0:0:
56,340,338851,2,0,P|44:292|52:240,1,90
52,224,339101,1,0,0:0:0:0:
64,200,339185,1,0,0:0:0:0:
84,184,339268,1,0,0:0:0:0:
108,172,339351,2,0,P|196:172|264:256,1,180,0|4,0:0|0:0,0:0:0:0:
324,296,339851,5,0,0:0:0:0:
324,296,339935,1,0,0:0:0:0:
440,224,340185,2,0,P|480:168|480:128,1,90
452,64,340518,1,0,0:0:0:0:
452,64,340601,1,0,0:0:0:0:
364,40,340768,1,0,0:0:0:0:
364,40,340851,1,0,0:0:0:0:
364,40,340935,1,0,0:0:0:0:
364,40,341018,6,0,P|340:108|296:124,1,90
284,120,341268,2,0,P|224:144|200:220,1,135
196,232,341601,1,0,0:0:0:0:
196,260,341685,1,0,0:0:0:0:
200,288,341768,1,0,0:0:0:0:
216,308,341851,1,0,0:0:0:0:
240,320,341935,1,0,0:0:0:0:
264,332,342018,2,0,B|292:292|292:292|340:308|344:256|344:256|424:256,1,180,0|4,0:0|0:0,0:0:0:0:
472,132,342518,5,0,0:0:0:0:
412,64,342685,1,0,0:0:0:0:
412,64,342768,1,0,0:0:0:0:
412,64,342851,1,0,0:0:0:0:
324,80,343018,1,0,0:0:0:0:
236,72,343185,2,0,L|172:56,2,45
172,136,343518,1,0,0:0:0:0:
260,160,343685,5,0,0:0:0:0:
196,224,343851,1,0,0:0:0:0:
196,224,343935,1,0,0:0:0:0:
196,224,344018,2,0,P|152:264|144:316,1,90
224,336,344351,1,0,0:0:0:0:
312,320,344518,1,0,0:0:0:0:
312,320,344601,1,0,0:0:0:0:
312,320,344685,1,0,0:0:0:0:
396,352,344851,1,0,0:0:0:0:
468,296,345018,5,0,0:0:0:0:
472,268,345101,1,0,0:0:0:0:
476,240,345185,1,0,0:0:0:0:
476,212,345268,1,0,0:0:0:0:
472,184,345351,1,0,0:0:0:0:
464,160,345435,1,0,0:0:0:0:
452,136,345518,1,0,0:0:0:0:
432,120,345601,1,0,0:0:0:0:
404,112,345685,6,0,L|352:148,3,45
340,68,346018,2,0,L|288:72,3,45
276,92,346351,5,2,0:0:0:0:
264,116,346435,1,2,0:0:0:0:
256,144,346518,1,2,0:0:0:0:
240,168,346601,1,2,0:0:0:0:
216,184,346685,1,2,0:0:0:0:
192,196,346768,1,2,0:0:0:0:
164,192,346851,1,2,0:0:0:0:
140,176,346935,1,2,0:0:0:0:
128,152,347018,1,2,0:0:0:0:
100,152,347101,1,2,0:0:0:0:
76,160,347185,1,2,0:0:0:0:
64,184,347268,1,2,0:0:0:0:
60,212,347351,1,0,0:0:0:0:
384,348,347685,5,2,0:0:0:0:
424,268,347851,1,0,0:0:0:0:
424,268,347935,1,2,0:0:0:0:
432,132,348185,2,0,P|408:76|372:44,1,90,0|2,0:0|0:0,0:0:0:0:
304,88,348518,1,2,0:0:0:0:
304,88,348601,1,2,0:0:0:0:
216,72,348768,2,0,L|168:48,2,45,0|2|0,0:0|0:0|0:0,0:0:0:0:
180,100,349018,6,0,P|120:120|88:168,1,90,2|0,0:0|0:0,0:0:0:0:
136,176,349268,2,0,P|96:220|88:272,1,90,2|0,0:0|0:0,0:0:0:0:
132,264,349518,2,0,P|140:320|164:356,1,90,2|2,0:0|0:0,0:0:0:0:
180,360,349768,1,0,0:0:0:0:
208,364,349851,1,2,0:0:0:0:
236,356,349935,1,0,0:0:0:0:
260,344,350018,2,0,P|296:252|368:280,1,180,2|2,0:0|0:0,0:0:0:0:
408,196,350518,5,0,0:0:0:0:
408,196,350601,1,2,0:0:0:0:
400,108,350768,1,0,0:0:0:0:
400,108,350851,1,0,0:0:0:0:
332,48,351018,1,2,0:0:0:0:
244,68,351185,2,0,L|168:96,1,45,2|2,0:0|0:0,0:0:0:0:
128,136,351435,1,0,0:0:0:0:
112,156,351518,1,2,0:0:0:0:
100,180,351601,1,0,0:0:0:0:
92,208,351685,5,2,0:0:0:0:
140,284,351851,2,0,L|96:332,1,45,0|2,0:0|0:0,0:0:0:0:
240,308,352101,2,0,L|276:272,1,45,0|2,0:0|0:0,0:0:0:0:
352,320,352351,1,2,0:0:0:0:
376,328,352435,1,0,0:0:0:0:
404,328,352518,1,2,0:0:0:0:
428,316,352601,1,0,0:0:0:0:
444,296,352685,2,0,B|448:256|448:256|472:228|472:228|444:192|444:192|448:120,1,180,2|2,0:0|0:0,0:0:0:0:
392,64,353185,6,0,L|324:48,1,45,0|2,0:0|0:0,0:0:0:0:
264,88,353435,2,0,L|225:111,1,45
144,76,353685,1,2,0:0:0:0:
80,140,353851,1,2,0:0:0:0:
80,140,353935,1,2,0:0:0:0:
40,220,354101,1,2,0:0:0:0:
48,244,354185,1,2,0:0:0:0:
64,264,354268,1,0,0:0:0:0:
84,280,354351,5,2,0:0:0:0:
164,324,354518,1,0,0:0:0:0:
164,324,354601,1,2,0:0:0:0:
240,276,354768,1,0,0:0:0:0:
240,276,354851,1,2,0:0:0:0:
312,328,355018,2,0,L|344:280,1,45,2|0,0:0|0:0,0:0:0:0:
380,308,355185,2,0,L|388:240,1,45,2|0,0:0|0:0,0:0:0:0:
432,260,355351,2,0,P|464:172|440:80,1,180,2|2,0:0|0:0,0:0:0:0:
364,48,355851,5,0,0:0:0:0:
364,48,355935,1,2,0:0:0:0:
292,104,356101,1,0,0:0:0:0:
248,116,356185,2,0,L|136:64,2,90,0|2|2,0:0|0:0|0:0,0:0:0:0:
240,160,356601,2,0,P|200:200|192:252,1,90,2|0,0:0|0:0,0:0:0:0:
196,256,356851,1,2,0:0:0:0:
212,280,356935,1,0,0:0:0:0:
236,292,357018,5,2,0:0:0:0:
164,344,357185,1,0,0:0:0:0:
164,344,357268,1,2,0:0:0:0:
80,308,357435,1,0,0:0:0:0:
80,308,357518,1,2,0:0:0:0:
68,220,357685,1,2,0:0:0:0:
64,192,357768,1,0,0:0:0:0:
64,164,357851,1,2,0:0:0:0:
68,136,357935,1,0,0:0:0:0:
76,112,358018,2,0,B|88:72|128:68|128:68|168:112|168:112|220:84,1,180,2|2,0:0|0:0,0:0:0:0:
284,40,358518,5,0,0:0:0:0:
284,40,358601,1,0,0:0:0:0:
284,40,358685,2,0,P|292:92|276:160,1,90,14|0,0:0|0:0,0:0:0:0:
228,344,359018,2,0,P|220:292|236:224,1,90,2|0,0:0|0:0,0:0:0:0:
408,220,359351,2,0,P|356:228|288:212,1,90,10|0,0:0|0:0,0:0:0:0:
104,164,359685,6,0,P|156:156|224:172,1,90,2|0,0:0|0:0,0:0:0:0:
144,256,360018,2,0,L|88:276,2,45,10|0|0,0:0|0:0|0:0,0:0:0:0:
232,240,360351,1,2,0:0:0:0:
272,160,360518,1,0,0:0:0:0:
272,160,360601,1,0,0:0:0:0:
272,160,360685,2,0,B|292:112|328:96|328:96|364:112|392:172,1,180,10|2,0:0|0:0,0:0:0:0:
396,320,361185,6,0,L|392:268,2,45,0|0|10,0:0|0:0|0:0,0:0:0:0:
456,120,361518,1,0,0:0:0:0:
264,36,361685,2,0,P|232:80|232:124,1,90,2|0,0:0|0:0,0:0:0:0:
120,200,362018,2,0,P|168:264|196:276,1,90,10|0,0:0|0:0,0:0:0:0:
312,336,362351,5,2,0:0:0:0:
384,280,362518,1,0,0:0:0:0:
384,280,362601,1,0,0:0:0:0:
308,232,362768,1,0,0:0:0:0:
308,232,362851,1,0,0:0:0:0:
380,180,363018,1,2,0:0:0:0:
380,180,363101,1,0,0:0:0:0:
380,180,363185,1,0,0:0:0:0:
380,180,363268,1,0,0:0:0:0:
380,180,363351,2,0,P|372:100|272:56,1,180,2|0,0:0|0:0,0:0:0:0:
264,52,363768,5,0,0:0:0:0:
240,60,363851,1,0,0:0:0:0:
216,72,363935,1,0,0:0:0:0:
200,92,364018,1,2,0:0:0:0:
188,116,364101,1,0,0:0:0:0:
184,144,364185,1,0,0:0:0:0:
184,172,364268,1,0,0:0:0:0:
192,196,364351,6,0,L|228:272,3,45,0|0|0|0,0:0|0:0|0:0|0:0,0:0:0:0:
172,280,364685,2,0,L|224:328,3,45,2|0|0|0,0:0|0:0|0:0|0:0,0:0:0:0:
224,332,365018,5,0,0:0:0:0:
252,340,365101,1,0,0:0:0:0:
280,348,365185,1,0,0:0:0:0:
308,348,365268,1,0,0:0:0:0:
336,348,365351,1,2,0:0:0:0:
364,348,365435,1,0,0:0:0:0:
388,336,365518,1,0,0:0:0:0:
408,316,365601,1,0,0:0:0:0:
420,292,365685,5,0,0:0:0:0:
428,268,365768,1,0,0:0:0:0:
432,240,365851,1,0,0:0:0:0:
436,212,365935,1,0,0:0:0:0:
436,184,366018,1,2,0:0:0:0:
436,156,366101,1,0,0:0:0:0:
432,128,366185,1,0,0:0:0:0:
424,104,366268,1,0,0:0:0:0:
404,84,366351,1,2,0:0:0:0:
230,48,366518,6,0,L|320:48,1,90,0|2,0:0|0:0,0:0:0:0:
192,164,366851,2,0,L|64:164,1,90,0|2,0:0|0:0,0:0:0:0:
84,184,367101,1,0,0:0:0:0:
76,208,367185,1,0,0:0:0:0:
72,236,367268,1,0,0:0:0:0:
72,264,367351,1,0,0:0:0:0:
76,292,367435,1,0,0:0:0:0:
88,316,367518,1,0,0:0:0:0:
108,336,367601,1,0,0:0:0:0:
132,344,367685,1,0,0:0:0:0:
256,192,367851,12,2,368685,0:0:0:0:
128,92,369018,6,0,L|216:32,1,90,2|0,0:0|0:0,0:0:0:0:
384,92,369351,2,0,L|296:32,1,90,2|0,0:0|0:0,0:0:0:0:
128,292,369685,2,0,L|216:352,1,90,2|0,0:0|0:0,0:0:0:0:
384,292,370018,2,0,L|296:352,1,90,2|0,0:0|0:0,0:0:0:0:
256,272,370351,6,0,P|256:184|172:136,1,180,2|2,0:0|0:0,0:0:0:0:
184,308,370851,2,0,P|107:264|108:167,1,180,2|2,0:0|0:0,0:0:0:0:
208,60,371351,1,2,0:0:0:0:
124,92,371518,1,2,0:0:0:0:
300,56,371685,6,0,L|412:104,1,90,2|0,0:0|0:0,0:0:0:0:
256,248,372017,1,2,0:0:0:0:
480,80,372185,1,0,0:0:0:0:
480,304,372351,1,2,0:0:0:0:
256,136,372517,1,0,0:0:0:0:
382,292,372684,2,0,L|300:328,1,90,2|0,0:0|0:0,0:0:0:0:
212,348,373018,6,0,P|216:288|120:228,1,180,2|2,0:0|0:0,0:0:0:0:
132,316,373518,2,0,P|56:284|52:176,1,180,2|2,0:0|0:0,0:0:0:0:
126,36,374018,2,0,L|80:120,1,90,2|2,0:0|0:0,0:0:0:0:
400,80,374351,6,0,L|296:40,1,90,2|0,0:0|0:0,0:0:0:0:
60,140,374685,2,0,L|164:180,1,90,2|0,0:0|0:0,0:0:0:0:
452,244,375018,2,0,L|348:204,1,90,2|0,0:0|0:0,0:0:0:0:
112,304,375351,2,0,L|216:344,1,90,2|0,0:0|0:0,0:0:0:0:
288,344,375685,6,0,P|328:324|364:276,1,90,2|0,0:0|0:0,0:0:0:0:
276,252,376018,2,0,P|268:188|276:144,2,90,2|2|0,0:0|0:0|0:0,0:0:0:0:
84,184,376518,1,2,0:0:0:0:
208,336,376685,1,2,0:0:0:0:
152,104,376851,1,2,0:0:0:0:
152,104,377018,6,0,L|224:40,1,90,2|0,0:0|0:0,0:0:0:0:
296,112,377351,2,0,L|388:56,1,90,2|0,0:0|0:0,0:0:0:0:
376,176,377685,2,0,L|480:220,1,90,2|0,0:0|0:0,0:0:0:0:
368,288,378018,2,0,L|444:352,1,90,2|0,0:0|0:0,0:0:0:0:
264,332,378351,6,0,P|248:260|224:232,2,90,2|0|2,0:0|0:0|0:0,0:0:0:0:
176,312,378851,2,0,P|104:248|104:156,1,180,2|2,0:0|0:0,0:0:0:0:
232,56,379351,1,2,0:0:0:0:
152,96,379518,1,2,0:0:0:0:
328,48,379685,6,0,P|376:56|416:80,1,90,2|0,0:0|0:0,0:0:0:0:
336,128,380018,2,0,P|284:144|256:172,1,90,2|0,0:0|0:0,0:0:0:0:
168,188,380351,1,2,0:0:0:0:
168,188,380518,1,0,0:0:0:0:
124,264,380685,1,2,0:0:0:0:
124,264,380851,1,0,0:0:0:0:
72,336,381018,5,2,0:0:0:0:
72,336,381351,1,2,0:0:0:0:
160,344,381518,2,0,P|212:300|336:312,1,180,2|2,0:0|0:0,0:0:0:0:
476,312,382018,2,0,L|396:352,1,90,2|2,0:0|0:0,0:0:0:0:
388,189,382351,6,0,L|344:268,1,90,2|0,0:0|0:0,0:0:0:0:
258,324,382685,2,0,L|180:280,1,90,2|0,0:0|0:0,0:0:0:0:
123,194,383018,2,0,L|168:116,1,90,2|0,0:0|0:0,0:0:0:0:
253,59,383351,2,0,L|332:104,1,90,2|0,0:0|0:0,0:0:0:0:
128,80,383685,6,0,P|40:132|32:216,1,180,2|2,0:0|0:0,0:0:0:0:
124,180,384185,2,0,L|224:244,1,90,2|0,0:0|0:0,0:0:0:0:
156,308,384518,1,2,0:0:0:0:
244,332,384685,1,2,0:0:0:0:
328,304,384851,1,2,0:0:0:0:
396,244,385018,6,0,P|406:200|404:155,1,90,2|0,0:0|0:0,0:0:0:0:
116,140,385351,2,0,P|105:183|107:228,1,90,2|0,0:0|0:0,0:0:0:0:
404,156,385685,2,0,P|420:104|476:68,1,90,2|0,0:0|0:0,0:0:0:0:
108,228,386018,2,0,P|92:280|36:316,1,90,2|0,0:0|0:0,0:0:0:0:
236,348,386351,5,2,0:0:0:0:
236,348,386685,1,2,0:0:0:0:
324,348,386851,2,0,P|336:296|384:248,1,90,2|0,0:0|0:0,0:0:0:0:
454,112,387185,2,0,P|444:160|412:192,2,90,2|2|2,0:0|0:0|0:0,0:0:0:0:
384,56,387685,5,2,0:0:0:0:
360,44,387768,1,0,0:0:0:0:
332,40,387851,1,0,0:0:0:0:
308,48,387935,1,0,0:0:0:0:
288,64,388018,1,2,0:0:0:0:
284,92,388101,1,0,0:0:0:0:
276,120,388185,1,0,0:0:0:0:
264,144,388268,1,0,0:0:0:0:
248,164,388351,5,2,0:0:0:0:
228,180,388435,1,0,0:0:0:0:
200,184,388518,1,0,0:0:0:0:
172,180,388601,1,0,0:0:0:0:
148,164,388685,1,2,0:0:0:0:
132,144,388768,1,0,0:0:0:0:
112,124,388851,1,0,0:0:0:0:
92,108,388935,1,0,0:0:0:0:
64,112,389018,1,2,0:0:0:0:
256,192,389101,12,4,390180,0:0:0:0:
216,96,390515,5,2,0:0:0:0:
136,136,390682,1,0,0:0:0:0:
88,212,390850,2,0,P|112:296|196:340,1,180,0|2,0:0|0:0,0:0:0:0:
284,340,391353,1,0,0:0:0:0:
284,340,391520,6,0,P|280:272|368:208,1,180,0|2,0:0|0:0,0:0:0:0:
308,136,392023,1,0,0:0:0:0:
444,48,392191,1,0,0:0:0:0:
408,132,392358,1,0,0:0:0:0:
352,64,392526,2,0,P|312:52|256:68,2,90,2|0|0,0:0|0:0|0:0,0:0:0:0:
172,92,393196,5,2,0:0:0:0:
68,240,393531,2,0,L|24:324,2,90,0|0|2,0:0|0:0|0:0,0:0:0:0:
214,343,394034,2,0,L|132:300,1,90
338,317,394369,6,0,L|264:268,2,90,0|2|0,0:0|0:0|0:0,0:0:0:0:
416,268,394872,2,0,P|464:192|456:72,2,180,0|2|0,0:0|0:0|0:0,0:0:0:0:
364,196,395710,5,0,0:0:0:0:
380,108,395878,2,0,P|360:64|320:32,2,90,2|0|0,0:0|0:0|0:0,0:0:0:0:
296,144,396381,1,0,0:0:0:0:
244,68,396548,1,2,0:0:0:0:
156,80,396716,1,0,0:0:0:0:
196,160,396883,6,2,P|124:244|120:312,1,180,0|2,0:0|0:0,0:0:0:0:
196,356,397386,1,0,0:0:0:0:
284,340,397554,2,0,P|332:352|392:336,2,90,0|0|2,0:0|0:0|0:0,0:0:0:0:
240,260,398057,1,0,0:0:0:0:
332,264,398224,6,0,P|416:216|416:124,1,180,0|2,0:0|0:0,0:0:0:0:
336,168,398727,1,0,0:0:0:0:
320,80,398895,2,0,P|292:48|224:40,2,90,0|0|2,0:0|0:0|0:0,0:0:0:0:
236,116,399397,1,0,0:0:0:0:
152,80,399565,6,0,P|112:104|88:148,1,90
168,184,399900,1,2,0:0:0:0:
104,248,400068,1,0,0:0:0:0:
140,332,400235,2,0,P|200:260|316:264,1,180,0|2,0:0|0:0,0:0:0:0:
300,340,400738,1,0,0:0:0:0:
396,336,400906,1,0,0:0:0:0:
396,336,401073,6,0,P|424:256|404:128,1,180,0|0,0:0|0:0,0:0:0:0:
404,72,401576,1,0,0:0:0:0:
316,80,401744,2,0,P|344:152|332:200,1,90,0|2,0:0|0:0,0:0:0:0:
252,160,402079,1,0,0:0:0:0:
284,244,402247,5,0,0:0:0:0:
248,328,402414,1,0,0:0:0:0:
156,284,402582,1,2,0:0:0:0:
76,328,402749,2,0,L|24:236,1,90,0|0,0:0|0:0,0:0:0:0:
116,192,403085,2,0,L|136:100,1,90,0|2,0:0|0:0,0:0:0:0:
212,56,403420,1,0,0:0:0:0:
300,76,403587,5,0,0:0:0:0:
384,44,403755,2,0,P|432:80|460:128,1,90,0|2,0:0|0:0,0:0:0:0:
364,136,404090,1,0,0:0:0:0:
420,200,404258,2,0,P|448:240|456:312,2,90,0|0|2,0:0|0:0|0:0,0:0:0:0:
344,248,404761,1,0,0:0:0:0:
283,179,404928,6,0,P|210:136|128:192,1,180,0|2,0:0|0:0,0:0:0:0:
208,224,405431,1,0,0:0:0:0:
132,268,405598,2,0,P|205:311|287:255,1,180,0|2,0:0|0:0,0:0:0:0:
364,304,406101,1,0,0:0:0:0:
440,252,406269,6,0,L|480:160,1,90
388,140,406604,2,0,L|336:64,2,90,2|0|0,0:0|0:0|0:0,0:0:0:0:
300,148,407107,1,0,0:0:0:0:
240,80,407275,1,2,0:0:0:0:
152,56,407442,1,0,0:0:0:0:
64,68,407610,6,0,L|28:184,1,90
140,148,407945,1,2,0:0:0:0:
200,216,408112,1,0,0:0:0:0:
116,244,408280,1,0,0:0:0:0:
72,324,408448,1,0,0:0:0:0:
160,340,408615,2,0,L|268:340,1,90,2|0,0:0|0:0,0:0:0:0:
280,256,408950,6,0,L|404:256,1,90
404,172,409286,2,0,L|440:64,2,90,2|0|0,0:0|0:0|0:0,0:0:0:0:
348,104,409788,1,0,0:0:0:0:
268,60,409956,2,0,P|212:88|216:148,1,90,2|0,0:0|0:0,0:0:0:0:
116,96,410291,6,0,P|104:172|176:252,1,180,0|2,0:0|0:0,0:0:0:0:
256,252,410794,1,0,0:0:0:0:
346,247,410962,2,0,P|405:182|396:96,1,180,0|2,0:0|0:0,0:0:0:0:
312,64,411464,1,0,0:0:0:0:
232,120,411633,1,4,0:0:0:0:
72,176,422333,6,0,L|112:80,2,90,4|0|8,0:0|0:0|0:0,0:0:0:0:
132,336,422833,1,0,0:0:0:0:
76,268,422999,1,0,0:0:0:0:
224,332,423166,1,0,0:0:0:0:
172,256,423333,1,8,0:0:0:0:
188,232,423416,1,0,0:0:0:0:
208,216,423499,1,0,0:0:0:0:
236,212,423583,1,0,0:0:0:0:
264,212,423666,6,0,P|316:224|368:264,1,90
456,344,423999,1,8,0:0:0:0:
336,344,424166,1,0,0:0:0:0:
464,236,424333,2,0,P|460:184|440:124,1,90
376,92,424666,1,8,0:0:0:0:
376,92,424749,1,0,0:0:0:0:
376,92,424833,1,0,0:0:0:0:
292,60,424999,5,4,0:0:0:0:
115,63,425166,2,0,P|159:74|202:62,1,90,0|8,0:0|0:0,0:0:0:0:
128,200,425499,2,0,P|85:212|41:201,1,90
104,312,425833,1,0,0:0:0:0:
228,356,425999,1,8,0:0:0:0:
360,312,426166,1,0,0:0:0:0:
452,200,426333,6,0,L|492:96,2,90,0|0|8,0:0|0:0|0:0,0:0:0:0:
400,128,426833,1,0,0:0:0:0:
344,196,426999,1,0,0:0:0:0:
260,228,427166,1,0,0:0:0:0:
172,220,427333,1,8,0:0:0:0:
172,220,427416,1,0,0:0:0:0:
172,220,427499,1,0,0:0:0:0:
112,152,427666,6,0,P|104:92|76:52,2,90,4|0|8,0:0|0:0|0:0,0:0:0:0:
188,104,428166,1,0,0:0:0:0:
188,104,428333,2,0,P|260:84|288:92,1,90
356,120,428666,1,8,0:0:0:0:
376,140,428749,1,0,0:0:0:0:
388,164,428833,1,0,0:0:0:0:
392,192,428916,1,0,0:0:0:0:
392,220,428999,6,0,P|380:284|336:324,1,90,4|0,0:0|0:0,0:0:0:0:
284,340,429333,1,8,0:0:0:0:
196,320,429499,1,0,0:0:0:0:
120,268,429666,1,0,0:0:0:0:
80,188,429833,1,0,0:0:0:0:
88,100,429999,2,0,L|84:40,2,45,8|0|0,0:0|0:0|0:0,0:0:0:0:
172,68,430333,5,4,0:0:0:0:
196,56,430416,1,0,0:0:0:0:
224,60,430499,1,0,0:0:0:0:
240,84,430583,1,0,0:0:0:0:
240,112,430666,1,12,0:0:0:0:
240,140,430749,1,0,0:0:0:0:
248,168,430833,1,0,0:0:0:0:
264,192,430916,1,0,0:0:0:0:
288,204,430999,5,4,0:0:0:0:
316,200,431083,1,0,0:0:0:0:
340,188,431166,1,0,0:0:0:0:
360,172,431249,1,0,0:0:0:0:
388,168,431333,1,12,0:0:0:0:
416,176,431416,1,0,0:0:0:0:
436,192,431499,1,0,0:0:0:0:
452,216,431583,1,0,0:0:0:0:
452,244,431666,1,6,0:0:0:0:
52,84,432999,6,0,L|156:28,1,90,2|0,0:0|0:0,0:0:0:0:
176,120,433333,2,0,L|276:104,1,90,2|0,0:0|0:0,0:0:0:0:
348,144,433666,1,2,0:0:0:0:
348,144,433999,1,2,0:0:0:0:
368,232,434166,1,2,0:0:0:0:
324,312,434333,5,0,0:0:0:0:
324,312,434499,2,0,L|237:336,1,90,2|0,0:0|0:0,0:0:0:0:
148,320,434833,1,2,0:0:0:0:
60,296,434999,2,0,B|44:196|44:196|72:156|136:156,1,180,2|2,0:0|0:0,0:0:0:0:
176,212,435499,5,0,0:0:0:0:
188,38,435666,2,0,L|192:128,1,90,2|0,0:0|0:0,0:0:0:0:
347,122,435999,2,0,L|272:172,1,90,2|0,0:0|0:0,0:0:0:0:
393,243,436333,2,0,L|304:256,1,90,2|0,0:0|0:0,0:0:0:0:
104,296,436666,1,2,0:0:0:0:
220,340,436833,2,0,L|192:224,1,90,2|0,0:0|0:0,0:0:0:0:
55,147,437166,6,0,L|136:188,1,90,2|0,0:0|0:0,0:0:0:0:
220,152,437499,1,2,0:0:0:0:
220,152,437666,2,0,L|312:84,1,90,2|0,0:0|0:0,0:0:0:0:
376,64,437999,5,2,0:0:0:0:
376,64,438333,2,0,L|372:164,1,90,2|0,0:0|0:0,0:0:0:0:
364,244,438666,1,10,0:0:0:0:
364,244,438999,2,0,P|332:284|264:304,1,90,2|0,0:0|0:0,0:0:0:0:
212,332,439333,1,10,0:0:0:0:
64,244,439499,2,0,P|90:279|130:300,1,90,2|0,0:0|0:0,0:0:0:0:
144,212,439833,6,0,L|216:144,1,90,2|8,0:0|0:0,0:0:0:0:
344,40,440166,1,2,0:0:0:0:
272,96,440333,2,0,L|312:208,1,90,2|0,0:0|0:0,0:0:0:0:
424,164,440666,2,0,L|356:268,1,90,10|0,0:0|0:0,0:0:0:0:
448,320,440999,6,0,L|332:348,1,90,2|0,0:0|0:0,0:0:0:0:
256,344,441333,1,10,0:0:0:0:
48,56,441666,1,2,0:0:0:0:
464,56,441999,1,10,0:0:0:0:
256,188,442166,1,2,0:0:0:0:
256,188,442499,6,0,P|208:208|180:240,1,90,2|8,0:0|0:0,0:0:0:0:
244,288,442833,1,2,0:0:0:0:
160,316,442999,2,0,P|100:284|76:236,1,90,2|0,0:0|0:0,0:0:0:0:
52,184,443333,1,10,0:0:0:0:
52,184,443416,1,0,0:0:0:0:
52,184,443499,1,0,0:0:0:0:
149,41,443666,6,0,P|111:64|92:104,1,90,2|0,0:0|0:0,0:0:0:0:
252,178,443999,2,0,L|180:124,1,90,10|0,0:0|0:0,0:0:0:0:
316,36,444333,1,2,0:0:0:0:
464,120,444499,1,2,0:0:0:0:
464,120,444833,2,0,P|472:168|460:228,1,90,2|0,0:0|0:0,0:0:0:0:
252,352,445166,6,0,P|206:334|160:294,1,90,2|8,0:0|0:0,0:0:0:0:
192,80,445499,2,0,P|229:49|287:29,1,90,2|0,0:0|0:0,0:0:0:0:
356,28,445833,1,2,0:0:0:0:
284,220,445999,1,10,0:0:0:0:
456,324,446166,1,2,0:0:0:0:
456,324,446499,6,0,P|400:336|360:336,1,90,2|8,0:0|0:0,0:0:0:0:
56,324,446833,2,0,P|112:336|152:336,1,90,2|0,0:0|0:0,0:0:0:0:
256,40,447166,2,0,L|256:144,1,90,2|8,0:0|0:0,0:0:0:0:
256,220,447499,1,2,0:0:0:0:
256,312,447666,5,2,0:0:0:0:
44,48,447999,1,10,0:0:0:0:
468,48,448333,1,2,0:0:0:0:
256,312,448666,1,10,0:0:0:0:
164,308,448833,1,2,0:0:0:0:
116,232,448999,6,0,P|64:200|48:140,1,90,2|0,0:0|0:0,0:0:0:0:
132,136,449333,2,0,P|116:72|128:32,1,90,10|0,0:0|0:0,0:0:0:0:
204,80,449666,2,0,P|248:48|316:48,1,90,2|0,0:0|0:0,0:0:0:0:
372,40,449999,1,10,0:0:0:0:
452,196,450166,1,2,0:0:0:0:
392,264,450333,5,0,0:0:0:0:
316,220,450499,2,0,P|280:192|212:192,2,90,2|8|2,0:0|0:0|0:0,0:0:0:0:
392,264,450999,1,0,0:0:0:0:
451,107,451166,2,0,P|464:152|452:196,1,90,2|8,0:0|0:0,0:0:0:0:
372,40,451499,1,2,0:0:0:0:
197,84,451666,6,0,P|235:60|280:56,1,90,2|0,0:0|0:0,0:0:0:0:
120,136,451999,1,10,0:0:0:0:
172,304,452166,1,0,0:0:0:0:
56,284,452332,1,2,0:0:0:0:
260,184,452499,1,0,0:0:0:0:
292,352,452666,1,10,0:0:0:0:
384,232,452832,1,2,0:0:0:0:
384,232,452916,1,0,0:0:0:0:
384,232,452999,6,0,P|432:212|460:172,1,90
392,36,453332,1,0,0:0:0:0:
464,92,453499,1,0,0:0:0:0:
304,48,453666,1,0,0:0:0:0:
280,56,453749,1,0,0:0:0:0:
260,72,453832,1,0,0:0:0:0:
244,96,453916,1,0,0:0:0:0:
236,120,453999,1,0,0:0:0:0:
228,144,454082,1,0,0:0:0:0:
220,168,454166,1,0,0:0:0:0:
208,192,454249,1,0,0:0:0:0:
188,208,454332,5,4,0:0:0:0:
152,292,454499,2,0,P|117:264|100:224,1,90,0|8,0:0|0:0,0:0:0:0:
300,336,454832,1,0,0:0:0:0:
240,272,454999,1,0,0:0:0:0:
384,296,455166,1,0,0:0:0:0:
448,232,455332,1,8,0:0:0:0:
448,232,455416,1,0,0:0:0:0:
448,232,455499,2,0,P|448:188|420:120,1,90
304,56,455832,6,0,L|256:32,2,45,0|0|8,0:0|0:0|0:0,0:0:0:0:
128,100,456166,2,0,L|72:112,2,45
84,252,456499,1,0,0:0:0:0:
84,252,456582,1,0,0:0:0:0:
84,252,456666,1,8,0:0:0:0:
84,252,456749,1,0,0:0:0:0:
84,252,456832,2,0,P|108:324|136:344,1,90
208,336,457166,5,0,0:0:0:0:
236,344,457249,1,0,0:0:0:0:
264,344,457332,1,8,0:0:0:0:
288,336,457416,1,0,0:0:0:0:
312,324,457499,1,0,0:0:0:0:
332,308,457582,1,0,0:0:0:0:
348,284,457666,1,0,0:0:0:0:
412,220,457832,2,0,L|464:192,2,45,0|0|8,0:0|0:0|0:0,0:0:0:0:
323,73,458166,2,0,L|392:132,1,90,0|0,0:0|0:0,0:0:0:0:
200,72,458499,6,0,L|252:164,1,90,0|8,0:0|0:0,0:0:0:0:
84,64,458832,2,0,L|112:168,1,90,0|0,0:0|0:0,0:0:0:0:
184,364,459166,1,0,0:0:0:0:
184,364,459249,1,0,0:0:0:0:
184,364,459332,1,8,0:0:0:0:
80,288,459499,1,0,0:0:0:0:
237,296,459666,6,0,P|201:270|188:228,1,90
340,320,459999,1,8,0:0:0:0:
432,248,460166,1,0,0:0:0:0:
324,232,460332,1,0,0:0:0:0:
296,52,460499,1,0,0:0:0:0:
308,140,460666,2,0,L|372:128,2,45,8|0|0,0:0|0:0|0:0,0:0:0:0:
224,104,460999,6,0,L|132:80,1,90
112,168,461332,1,8,0:0:0:0:
112,168,461416,1,0,0:0:0:0:
112,168,461499,2,0,L|72:264,1,90
260,348,461832,1,0,0:0:0:0:
156,320,461999,1,8,0:0:0:0:
156,320,462082,1,0,0:0:0:0:
156,320,462166,2,0,L|232:252,1,90,0|0,0:0|0:0,0:0:0:0:
460,340,462499,6,0,L|364:280,1,90,0|8,0:0|0:0,0:0:0:0:
52,44,462832,2,0,L|148:104,1,90,0|0,0:0|0:0,0:0:0:0:
460,44,463166,2,0,L|364:104,1,90,0|8,0:0|0:0,0:0:0:0:
52,340,463499,2,0,L|148:280,1,90
396,192,463832,5,0,0:0:0:0:
256,52,463999,1,8,0:0:0:0:
256,332,464166,1,0,0:0:0:0:
116,192,464332,1,0,0:0:0:0:
256,192,464499,1,0,0:0:0:0:
256,192,464582,1,0,0:0:0:0:
256,192,464666,2,0,P|304:248|344:260,1,90,8|0,0:0|0:0,0:0:0:0:
466,155,464999,6,0,P|476:199|472:244,1,90,4|0,0:0|0:0,0:0:0:0:
307,94,465332,2,0,P|352:99|392:120,2,90,8|0|0,0:0|0:0|0:0,0:0:0:0:
168,52,465832,1,0,0:0:0:0:
64,132,465999,1,8,0:0:0:0:
72,264,466166,1,0,0:0:0:0:
192,344,466332,5,0,0:0:0:0:
192,344,466416,1,0,0:0:0:0:
192,344,466499,2,0,P|240:348|300:324,1,90,0|8,0:0|0:0,0:0:0:0:
436,208,466832,2,0,P|428:252|388:296,2,90
312,80,467332,1,8,0:0:0:0:
312,80,467416,1,0,0:0:0:0:
312,80,467499,1,0,0:0:0:0:
312,80,467582,1,0,0:0:0:0:
312,80,467666,6,0,P|256:72|196:88,1,90,4|0,0:0|0:0,0:0:0:0:
256,312,467999,2,0,L|256:357,2,45,8|0|0,0:0|0:0|0:0,0:0:0:0:
256,192,468332,1,0,0:0:0:0:
416,144,468499,1,0,0:0:0:0:
428,168,468582,1,0,0:0:0:0:
432,196,468666,1,8,0:0:0:0:
428,224,468749,1,0,0:0:0:0:
420,248,468832,1,0,0:0:0:0:
320,348,468999,6,0,L|304:260,1,90
216,280,469332,1,8,0:0:0:0:
216,280,469416,1,0,0:0:0:0:
216,280,469499,2,0,L|172:160,1,90
100,168,469832,1,0,0:0:0:0:
100,168,469916,1,0,0:0:0:0:
100,168,469999,1,8,0:0:0:0:
100,168,470082,1,0,0:0:0:0:
100,168,470166,2,0,L|52:56,1,90,0|4,0:0|0:0,0:0:0:0:
156,80,470499,6,0,P|212:56|264:68,1,90,0|8,0:0|0:0,0:0:0:0:
396,136,470832,2,0,P|352:152|296:152,1,90
124,232,471166,1,0,0:0:0:0:
152,316,471332,1,8,0:0:0:0:
176,332,471416,1,0,0:0:0:0:
200,340,471499,1,0,0:0:0:0:
228,340,471582,1,0,0:0:0:0:
256,332,471666,5,4,0:0:0:0:
344,312,471832,2,0,L|384:344,2,45,0|0|8,0:0|0:0|0:0,0:0:0:0:
408,248,472166,2,0,L|376:128,1,90
324,92,472499,1,0,0:0:0:0:
240,56,472666,1,8,0:0:0:0:
216,64,472749,1,0,0:0:0:0:
192,80,472832,1,0,0:0:0:0:
176,104,472916,1,0,0:0:0:0:
164,128,472999,6,0,L|112:152,3,45
132,224,473332,2,0,L|84:244,3,45,8|0|0|0,0:0|0:0|0:0|0:0,0:0:0:0:
88,268,473666,5,0,0:0:0:0:
104,292,473749,1,0,0:0:0:0:
128,304,473832,1,0,0:0:0:0:
156,308,473916,1,0,0:0:0:0:
184,308,473999,1,8,0:0:0:0:
212,308,474082,1,0,0:0:0:0:
240,308,474166,1,0,0:0:0:0:
268,308,474249,1,0,0:0:0:0:
296,304,474332,1,0,0:0:0:0:
256,192,474499,12,0,475666,0:0:0:0:
460,188,476999,5,4,0:0:0:0:
376,44,477166,2,0,P|348:88|348:148,1,90,8|0,0:0|0:0,0:0:0:0:
120,332,477499,2,0,P|124:264|152:212,1,90,8|0,0:0|0:0,0:0:0:0:
120,52,477832,2,0,P|124:120|152:172,1,90,8|0,0:0|0:0,0:0:0:0:
376,340,478166,2,0,P|348:296|348:236,1,90,8|0,0:0|0:0,0:0:0:0:
220,260,478499,5,8,0:0:0:0:
388,116,478666,2,0,L|343:116,2,45,0|0|8,0:0|0:0|0:0,0:0:0:0:
388,268,478999,1,0,0:0:0:0:
388,268,479082,1,0,0:0:0:0:
388,268,479166,1,8,0:0:0:0:
388,268,479249,1,0,0:0:0:0:
388,268,479332,2,0,P|348:312|304:328,1,90,0|8,0:0|0:0,0:0:0:0:
108,336,479666,6,0,L|56:312,2,45,0|0|8,0:0|0:0|0:0,0:0:0:0:
224,348,479999,1,0,0:0:0:0:
92,224,480166,2,0,L|196:284,1,90,8|0,0:0|0:0,0:0:0:0:
388,156,480499,2,0,L|284:236,1,90,8|0,0:0|0:0,0:0:0:0:
152,92,480832,2,0,L|172:204,1,90,8|0,0:0|0:0,0:0:0:0:
292,24,481166,6,0,L|252:128,1,90,8|0,0:0|0:0,0:0:0:0:
188,160,481499,1,8,0:0:0:0:
100,184,481666,1,0,0:0:0:0:
232,236,481832,1,8,0:0:0:0:
220,324,481999,1,0,0:0:0:0:
312,204,482166,2,0,L|388:260,1,90,8|0,0:0|0:0,0:0:0:0:
456,128,482499,6,0,B|432:88|432:88|356:80,1,90,8|0,0:0|0:0,0:0:0:0:
56,128,482832,2,0,B|80:88|80:88|156:80,1,90,8|0,0:0|0:0,0:0:0:0:
368,176,483166,1,8,0:0:0:0:
144,252,483332,1,0,0:0:0:0:
368,252,483499,1,8,0:0:0:0:
144,176,483665,5,0,0:0:0:0:
336,60,483832,1,8,0:0:0:0:
176,60,483999,2,0,L|176:12,2,45,0|0|8,0:0|0:0|0:0,0:0:0:0:
256,148,484332,1,0,0:0:0:0:
256,175,484416,1,0,0:0:0:0:
256,201,484499,1,8,0:0:0:0:
256,227,484582,1,0,0:0:0:0:
256,254,484666,1,0,0:0:0:0:
256,280,484749,1,0,0:0:0:0:
256,306,484832,1,8,0:0:0:0:
108,320,484999,6,0,L|48:296,2,45,0|0|8,0:0|0:0|0:0,0:0:0:0:
168,188,485332,1,0,0:0:0:0:
108,64,485499,2,0,L|48:88,2,45,8|0|0,0:0|0:0|0:0,0:0:0:0:
404,56,485832,2,0,L|296:72,1,90,8|0,0:0|0:0,0:0:0:0:
404,328,486166,2,0,L|296:312,1,90,8|0,0:0|0:0,0:0:0:0:
132,256,486499,6,0,L|80:256,2,45,8|0|0,0:0|0:0|0:0,0:0:0:0:
380,128,486832,2,0,L|432:128,2,45,8|0|0,0:0|0:0|0:0,0:0:0:0:
192,68,487166,2,0,L|192:16,2,45,8|0|0,0:0|0:0|0:0,0:0:0:0:
320,316,487499,2,0,L|320:368,2,45,8|0|4,0:0|0:0|0:0,0:0:0:0:
152,144,487832,6,0,P|188:96|236:72,1,90,8|0,0:0|0:0,0:0:0:0:
360,240,488165,2,0,P|324:288|276:312,1,90,8|0,0:0|0:0,0:0:0:0:
304,88,488499,2,0,P|352:124|376:172,1,90,8|0,0:0|0:0,0:0:0:0:
208,296,488832,2,0,P|160:260|136:212,1,90,8|0,0:0|0:0,0:0:0:0:
448,276,489166,6,0,P|412:324|364:348,1,90,8|0,0:0|0:0,0:0:0:0:
64,108,489499,2,0,P|100:60|148:36,1,90,8|0,0:0|0:0,0:0:0:0:
124,339,489832,2,0,P|88:313|64:276,1,90,8|0,0:0|0:0,0:0:0:0:
387,44,490165,2,0,P|423:70|448:108,1,90,8|0,0:0|0:0,0:0:0:0:
452,340,490499,6,0,L|452:232,1,90,8|0,0:0|0:0,0:0:0:0:
60,44,490832,2,0,L|60:152,1,90,8|0,0:0|0:0,0:0:0:0:
452,44,491166,2,0,L|328:44,1,90,8|0,0:0|0:0,0:0:0:0:
60,340,491499,2,0,L|184:340,1,90,8|0,0:0|0:0,0:0:0:0:
336,240,491832,5,8,0:0:0:0:
176,144,491999,1,0,0:0:0:0:
336,144,492166,1,8,0:0:0:0:
176,240,492333,1,0,0:0:0:0:
256,56,492499,1,8,0:0:0:0:
256,328,492666,1,0,0:0:0:0:
256,196,492832,1,8,0:0:0:0:
256,196,492999,5,4,0:0:0:0:
64,40,493166,2,0,L|160:88,1,90,8|0,0:0|0:0,0:0:0:0:
472,192,493499,2,0,L|360:192,1,90,8|0,0:0|0:0,0:0:0:0:
64,344,493832,2,0,L|160:296,2,90,8|0|8,0:0|0:0|0:0,0:0:0:0:
256,196,494332,5,4,0:0:0:0:
448,40,494499,2,0,L|352:88,1,90,8|0,0:0|0:0,0:0:0:0:
40,192,494832,2,0,L|152:192,1,90,8|0,0:0|0:0,0:0:0:0:
448,344,495165,2,0,L|352:296,2,90,8|0|8,0:0|0:0|0:0,0:0:0:0:
472,192,495666,5,4,0:0:0:0:
448,184,495749,1,0,0:0:0:0:
428,164,495832,2,0,L|420:92,3,45,8|0|0|0,0:0|0:0|0:0|0:0,0:0:0:0:
360,220,496166,2,0,L|352:292,3,45,8|0|4|0,0:0|0:0|0:0|0:0,0:0:0:0:
292,164,496499,2,0,L|284:92,3,45,8|0|0|0,0:0|0:0|0:0|0:0,0:0:0:0:
228,216,496832,2,0,L|220:288,3,45,8|0|4|0,0:0|0:0|0:0|0:0,0:0:0:0:
156,284,497166,5,0,0:0:0:0:
140,304,497249,1,0,0:0:0:0:
124,324,497332,1,0,0:0:0:0:
104,208,497499,1,0,0:0:0:0:
88,188,497582,1,0,0:0:0:0:
72,168,497665,1,0,0:0:0:0:
152,68,497832,1,0,0:0:0:0:
288,68,497999,1,0,0:0:0:0:
288,68,498332,6,0,P|312:112|312:192,1,90,6|0,0:0|0:0,0:0:0:0:
432,32,498666,1,0,0:0:0:0:
456,192,498832,2,0,P|440:240|376:284,1,90,2|0,0:0|0:0,0:0:0:0:
280,332,499166,1,0,0:0:0:0:
280,332,499249,1,0,0:0:0:0:
280,332,499332,1,2,0:0:0:0:
88,336,499499,1,0,0:0:0:0:
88,336,499582,1,0,0:0:0:0:
88,336,499666,6,0,P|112:280|112:216,1,90,2|0,0:0|0:0,0:0:0:0:
88,56,499999,1,0,0:0:0:0:
64,160,500166,2,0,L|188:116,1,90,2|0,0:0|0:0,0:0:0:0:
244,220,500499,1,0,0:0:0:0:
376,108,500666,1,2,0:0:0:0:
452,284,500832,1,2,0:0:0:0:
384,344,500999,6,0,L|272:344,1,90,2|0,0:0|0:0,0:0:0:0:
64,344,501332,1,0,0:0:0:0:
292,244,501499,2,0,L|176:244,1,90,2|0,0:0|0:0,0:0:0:0:
76,140,501832,1,0,0:0:0:0:
76,140,501916,1,0,0:0:0:0:
76,140,501999,1,2,0:0:0:0:
140,76,502166,2,0,L|192:44,1,45,0|2,0:0|0:0,0:0:0:0:
268,64,502416,5,2,0:0:0:0:
224,140,502582,1,0,0:0:0:0:
224,140,502666,1,2,0:0:0:0:
164,208,502832,1,0,0:0:0:0:
164,208,502916,1,2,0:0:0:0:
108,276,503082,1,0,0:0:0:0:
176,336,503249,1,2,0:0:0:0:
176,336,503332,2,0,P|240:324|284:344,1,90,2|2,0:0|0:0,0:0:0:0:
441,346,503666,6,0,L|352:340,1,90,2|0,0:0|0:0,0:0:0:0:
488,244,503999,1,0,0:0:0:0:
288,248,504166,2,0,L|404:228,1,90,2|0,0:0|0:0,0:0:0:0:
464,88,504499,2,0,L|448:156,2,45,0|0|2,0:0|0:0|0:0,0:0:0:0:
304,52,504832,1,0,0:0:0:0:
304,52,504916,1,0,0:0:0:0:
304,52,504999,6,0,L|232:128,1,90,2|0,0:0|0:0,0:0:0:0:
360,184,505332,1,0,0:0:0:0:
304,308,505499,2,0,L|220:232,1,90,2|0,0:0|0:0,0:0:0:0:
104,108,505832,1,2,0:0:0:0:
68,256,505999,1,2,0:0:0:0:
232,332,506166,6,0,B|240:276|240:276|344:316|384:252,1,180,2|0,0:0|0:0,0:0:0:0:
380,264,506582,1,0,0:0:0:0:
404,252,506666,2,0,P|440:212|464:152,1,90,2|2,0:0|0:0,0:0:0:0:
440,92,506999,2,0,L|432:36,1,45,0|2,0:0|0:0,0:0:0:0:
344,44,507249,2,0,L|308:88,1,45,0|2,0:0|0:0,0:0:0:0:
228,92,507499,2,0,L|192:64,1,45,2|2,0:0|0:0,0:0:0:0:
116,112,507749,6,0,P|96:184|96:220,1,90,2|0,0:0|0:0,0:0:0:0:
68,232,507999,1,2,0:0:0:0:
96,316,508166,1,2,0:0:0:0:
96,316,508249,1,2,0:0:0:0:
184,328,508416,1,2,0:0:0:0:
192,240,508582,2,0,L|224:204,1,45,0|2,0:0|0:0,0:0:0:0:
308,192,508832,1,2,0:0:0:0:
308,192,508999,6,0,P|384:180|420:188,1,90,2|0,0:0|0:0,0:0:0:0:
332,328,509332,1,0,0:0:0:0:
332,328,509499,2,0,P|256:340|220:332,1,90,2|0,0:0|0:0,0:0:0:0:
80,308,509832,1,0,0:0:0:0:
168,288,509999,1,2,0:0:0:0:
172,196,510166,1,0,0:0:0:0:
172,196,510249,1,0,0:0:0:0:
172,196,510332,6,0,P|132:168|72:152,1,90,2|0,0:0|0:0,0:0:0:0:
152,44,510666,1,0,0:0:0:0:
348,88,510832,2,0,L|236:92,1,90,2|0,0:0|0:0,0:0:0:0:
404,220,511166,2,0,L|344:196,1,45
336,200,511332,2,0,P|340:248|296:300,1,90,2|2,0:0|0:0,0:0:0:0:
147,335,511666,6,0,L|236:320,1,90,2|0,0:0|0:0,0:0:0:0:
448,316,511999,1,0,0:0:0:0:
344,336,512166,2,0,L|340:232,1,90,2|0,0:0|0:0,0:0:0:0:
440,52,512499,2,0,L|396:112,2,45,0|0|2,0:0|0:0|0:0,0:0:0:0:
352,44,512832,1,0,0:0:0:0:
352,44,512916,1,2,0:0:0:0:
264,64,513082,6,0,L|260:128,1,45,2|0,0:0|0:0,0:0:0:0:
172,112,513332,1,2,0:0:0:0:
100,164,513499,1,2,0:0:0:0:
68,196,513582,2,0,P|32:224|24:280,2,90,2|2|2,0:0|0:0|0:0,0:0:0:0:
104,224,513999,1,2,0:0:0:0:
172,284,514166,1,2,0:0:0:0:
204,200,514332,6,0,L|288:144,1,90,2|0,0:0|0:0,0:0:0:0:
368,140,514666,1,0,0:0:0:0:
332,224,514832,2,0,L|228:292,1,90,2|0,0:0|0:0,0:0:0:0:
300,352,515166,1,0,0:0:0:0:
300,352,515249,1,0,0:0:0:0:
300,352,515332,1,2,0:0:0:0:
388,340,515499,1,0,0:0:0:0:
388,340,515582,1,0,0:0:0:0:
388,340,515666,6,0,L|464:280,1,90,2|0,0:0|0:0,0:0:0:0:
456,52,515999,1,0,0:0:0:0:
452,164,516166,2,0,L|344:128,1,90,2|0,0:0|0:0,0:0:0:0:
220,36,516499,1,2,0:0:0:0:
84,172,516666,1,2,0:0:0:0:
148,356,516832,2,0,L|232:300,1,90,2|0,0:0|0:0,0:0:0:0:
420,288,517166,5,0,0:0:0:0:
420,288,517249,1,0,0:0:0:0:
420,288,517332,2,0,L|368:208,1,90,2|2,0:0|0:0,0:0:0:0:
292,260,517666,1,0,0:0:0:0:
292,260,517749,1,2,0:0:0:0:
200,256,517916,1,2,0:0:0:0:
200,256,517999,1,2,0:0:0:0:
112,276,518166,1,2,0:0:0:0:
112,276,518249,2,0,P|64:244|56:208,1,90,2|2,0:0|0:0,0:0:0:0:
64,80,518666,6,0,L|152:32,1,90,2|2,0:0|0:0,0:0:0:0:
143,36,518916,1,2,0:0:0:0:
136,128,519082,2,0,P|172:168|252:148,1,135,2|2,0:0|0:0,0:0:0:0:
324,112,519499,1,2,0:0:0:0:
376,32,519666,6,0,P|408:68|416:120,1,90,6|0,0:0|0:0,0:0:0:0:
368,184,519999,1,0,0:0:0:0:
191,250,520166,2,0,L|276:220,1,90,2|0,0:0|0:0,0:0:0:0:
303,336,520499,2,0,L|324:296,2,45,0|0|2,0:0|0:0|0:0,0:0:0:0:
464,332,520832,1,0,0:0:0:0:
464,332,520916,1,0,0:0:0:0:
464,332,520999,6,0,L|464:236,1,90,2|0,0:0|0:0,0:0:0:0:
456,152,521332,1,0,0:0:0:0:
327,40,521499,2,0,P|370:51|407:75,1,90,2|0,0:0|0:0,0:0:0:0:
364,156,521832,1,0,0:0:0:0:
208,256,521999,1,2,0:0:0:0:
352,272,522166,1,2,0:0:0:0:
236,128,522332,6,0,P|160:88|148:84,1,90,2|0,0:0|0:0,0:0:0:0:
76,40,522666,1,0,0:0:0:0:
59,217,522832,2,0,L|72:128,1,90,2|0,0:0|0:0,0:0:0:0:
88,312,523166,1,0,0:0:0:0:
164,364,523332,1,2,0:0:0:0:
252,352,523499,2,0,L|272:300,1,45,2|2,0:0|0:0,0:0:0:0:
348,348,523749,6,0,P|396:324|412:244,1,135,2|2,0:0|0:0,0:0:0:0:
392,164,524166,1,0,0:0:0:0:
392,164,524249,1,2,0:0:0:0:
348,84,524416,1,0,0:0:0:0:
348,84,524499,1,2,0:0:0:0:
272,36,524666,2,0,P|236:72|200:96,1,90,2|2,0:0|0:0,0:0:0:0:
50,170,524999,6,0,L|116:108,1,90,2|0,0:0|0:0,0:0:0:0:
64,276,525332,1,0,0:0:0:0:
257,243,525499,2,0,L|168:240,1,90,2|0,0:0|0:0,0:0:0:0:
356,236,525832,1,0,0:0:0:0:
356,236,525916,1,0,0:0:0:0:
356,236,525999,1,2,0:0:0:0:
440,204,526166,2,0,L|456:160,1,45
484,156,526332,6,0,P|460:108|396:84,1,90,2|0,0:0|0:0,0:0:0:0:
356,40,526666,1,0,0:0:0:0:
274,199,526832,2,0,L|308:116,1,90,2|0,0:0|0:0,0:0:0:0:
212,272,527166,2,0,P|164:276|108:308,2,90,2|2|2,0:0|0:0|0:0,0:0:0:0:
280,332,527666,5,0,0:0:0:0:
336,260,527832,1,0,0:0:0:0:
336,260,527916,1,0,0:0:0:0:
336,260,527999,2,0,L|436:228,1,90,2|2,0:0|0:0,0:0:0:0:
444,144,528332,1,0,0:0:0:0:
444,144,528416,2,0,P|404:84|352:72,1,90,2|2,0:0|0:0,0:0:0:0:
372,120,528666,2,0,P|324:148|284:144,1,90,2|2,0:0|0:0,0:0:0:0:
280,104,528916,2,0,P|244:76|184:72,1,90,2|2,0:0|0:0,0:0:0:0:
72,60,529332,5,2,0:0:0:0:
56,148,529499,1,2,0:0:0:0:
56,148,529582,1,2,0:0:0:0:
44,236,529749,2,0,P|40:304|84:348,1,135,2|2,0:0|0:0,0:0:0:0:
172,336,530166,1,0,0:0:0:0:
256,300,530332,6,0,L|224:184,1,90,6|0,0:0|0:0,0:0:0:0:
264,68,530666,1,0,0:0:0:0:
392,268,530832,2,0,L|352:144,1,90,2|0,0:0|0:0,0:0:0:0:
440,48,531166,2,0,L|368:60,2,45,0|0|2,0:0|0:0|0:0,0:0:0:0:
288,144,531499,1,0,0:0:0:0:
288,144,531582,1,0,0:0:0:0:
288,144,531666,6,0,P|232:116|184:108,1,90,2|0,0:0|0:0,0:0:0:0:
128,64,531999,1,0,0:0:0:0:
96,148,532166,2,0,P|60:208|56:232,1,90,2|0,0:0|0:0,0:0:0:0:
144,336,532499,1,0,0:0:0:0:
304,336,532666,1,2,0:0:0:0:
416,256,532832,1,2,0:0:0:0:
424,96,532999,6,0,L|340:24,1,90,2|0,0:0|0:0,0:0:0:0:
352,128,533332,1,0,0:0:0:0:
237,237,533499,2,0,L|324:212,1,90,2|0,0:0|0:0,0:0:0:0:
204,148,533832,1,0,0:0:0:0:
204,148,533916,1,0,0:0:0:0:
204,148,533999,2,0,L|192:52,1,90,2|2,0:0|0:0,0:0:0:0:
148,52,534249,2,0,L|104:136,1,90,2|2,0:0|0:0,0:0:0:0:
68,260,534666,6,0,P|80:312|132:328,1,90,2|2,0:0|0:0,0:0:0:0:
152,348,534916,2,0,L|248:344,1,90,2|0,0:0|0:0,0:0:0:0:
268,336,535166,1,2,0:0:0:0:
292,328,535249,1,0,0:0:0:0:
316,320,535332,2,0,L|360:224,1,90,2|2,0:0|0:0,0:0:0:0:
436,200,535666,6,0,L|424:92,1,90,6|0,0:0|0:0,0:0:0:0:
344,144,535999,1,0,0:0:0:0:
276,192,536166,2,0,L|196:92,1,90,2|0,0:0|0:0,0:0:0:0:
156,212,536499,2,0,L|104:228,2,45,0|0|2,0:0|0:0|0:0,0:0:0:0:
96,64,536832,2,0,L|64:108,2,45,0|0|6,0:0|0:0|0:0,0:0:0:0:
260,64,537166,5,0,0:0:0:0:
408,96,537332,2,0,P|400:156|380:208,1,90,0|2,0:0|0:0,0:0:0:0:
444,256,537666,1,0,0:0:0:0:
388,324,537832,2,0,P|336:356|276:360,2,90,2|2|2,0:0|0:0|0:0,0:0:0:0:
208,324,538332,1,4,0:0:0:0:
256,192,538499,12,0,539666,0:0:0:0:
256,188,540999,5,4,0:0:0:0:
88,192,551666,6,0,P|144:200|196:200,1,90,6|0,0:0|0:0,0:0:0:0:
220,124,552166,1,0,0:0:0:0:
220,124,552499,2,0,P|264:112|312:124,1,90,2|0,0:0|0:0,0:0:0:0:
376,176,552999,1,0,0:0:0:0:
416,256,553332,1,2,0:0:0:0:
416,256,553499,2,0,P|388:296|340:324,1,90,0|2,0:0|0:0,0:0:0:0:
84,308,554332,5,2,0:0:0:0:
180,156,554666,1,0,0:0:0:0:
0,148,554999,1,2,0:0:0:0:
84,308,555332,1,0,0:0:0:0:
252,368,555666,6,0,P|268:336|268:280,1,90,2|0,0:0|0:0,0:0:0:0:
268,282,556166,1,0,0:0:0:0:
184,312,556332,2,0,P|180:264|208:212,1,90,2|0,0:0|0:0,0:0:0:0:
352,248,556999,2,0,P|356:296|328:348,1,90,2|0,0:0|0:0,0:0:0:0:
440,184,557666,5,0,0:0:0:0:
348,28,557999,1,0,0:0:0:0:
168,52,558332,2,0,L|120:32,3,45,2|0|0|0,0:0|0:0|0:0|0:0,0:0:0:0:
104,132,558999,2,0,L|52:134,3,45
64,224,559666,5,2,0:0:0:0:
88,312,559832,1,0,0:0:0:0:
172,348,559999,1,0,0:0:0:0:
260,324,560166,1,0,0:0:0:0:
352,69,560332,5,2,0:0:0:0:
404,168,560498,1,0,0:0:0:0:
359,271,560665,1,0,0:0:0:0:
260,324,560832,1,0,0:0:0:0:
168,232,560999,6,0,L|104:224,1,45,2|0,0:0|0:0,0:0:0:0:
240,140,561332,2,0,L|304:132,1,45
176,48,561666,2,0,L|112:40,1,45,2|0,0:0|0:0,0:0:0:0:
60,216,561999,2,0,P|80:180|120:132,1,90,0|4,0:0|0:0,0:0:0:0:
244,312,562832,5,0,0:0:0:0:
344,352,562999,2,0,P|376:312|456:280,1,125.999996154785,8|0,0:0|0:0,0:0:0:0:
428,68,563666,2,0,P|416:124|424:208,1,125.999996154785
344,24,564166,2,0,P|304:48|284:68,1,62.9999980773926,0|8,0:0|0:0,0:0:0:0:
160,80,564499,2,0,L|128:48,4,31.4999990386963
92,264,564999,6,0,B|120:316|120:316|180:344,1,125.999996154785,0|0,0:0|0:0,0:0:0:0:
260,272,565666,2,0,P|328:264|396:272,1,125.999996154785,8|0,0:0|0:0,0:0:0:0:
464,344,566166,1,8,0:0:0:0:
456,132,566499,1,8,0:0:0:0:
248,88,566832,1,8,0:0:0:0:
156,140,566999,2,0,L|104:120,3,31.4999990386963
92,108,567332,2,0,P|44:148|44:212,1,125.999996154785,0|4,0:0|0:0,0:0:0:0:
108,324,568166,5,0,0:0:0:0:
212,312,568332,2,0,L|220:356,7,31.4999990386963,8|0|0|0|0|0|0|0,0:0|0:0|0:0|0:0|0:0|0:0|0:0|0:0,0:0:0:0:
228,288,568999,2,0,B|248:228|248:228|296:184,1,125.999996154785
408,44,569499,1,0,0:0:0:0:
288,16,569666,1,8,0:0:0:0:
260,32,569749,1,0,0:0:0:0:
232,48,569832,1,0,0:0:0:0:
204,64,569916,1,0,0:0:0:0:
176,80,569999,2,0,L|148:100,3,31.4999990386963
124,112,570332,6,0,B|96:168|96:168|96:252,1,125.999996154785,8|0,0:0|0:0,0:0:0:0:
148,324,570832,1,0,0:0:0:0:
48,356,570999,2,0,B|92:312|92:312|172:284,1,125.999996154785,8|0,0:0|0:0,0:0:0:0:
296,340,571499,6,0,L|368:284,1,90,8|0,0:0|0:0,0:0:0:0:
376,144,571832,2,0,L|244:244,1,135.000005149842,8|0,0:0|0:0,0:0:0:0:
128,188,572166,2,0,L|280:76,1,180,8|0,0:0|0:0,0:0:0:0:
416,52,572666,6,0,L|496:52,3,41.9999987182618,0|0|0|0,0:0|0:0|0:0|0:0,0:0:0:0:
300,64,573166,1,0,0:0:0:0:
184,44,573332,2,0,P|180:100|224:152,1,116.999994644165,8|0,0:0|0:0,0:0:0:0:
332,172,573666,1,0,0:0:0:0:
356,192,573749,1,0,0:0:0:0:
364,220,573832,1,0,0:0:0:0:
268,288,573999,6,0,B|216:308|216:308|156:356,1,116.999994644165,8|0,0:0|0:0,0:0:0:0:
268,160,574332,2,0,B|216:140|216:140|156:92,1,116.999994644165
80,272,574666,2,0,P|68:212|92:156,1,116.999994644165,8|0,0:0|0:0,0:0:0:0:
288,176,575000,2,0,P|300:236|276:292,1,116.999994644165
184,148,575332,5,8,0:0:0:0:
272,288,575499,1,0,0:0:0:0:
336,72,575666,1,0,0:0:0:0:
420,152,575832,1,0,0:0:0:0:
420,152,575916,1,0,0:0:0:0:
420,152,575999,2,0,P|452:208|432:312,1,175.499991966248,8|0,0:0|0:0,0:0:0:0:
460,364,576332,2,0,P|384:336|272:344,1,175.499991966248
244,360,576666,1,8,0:0:0:0:
68,240,576832,1,0,0:0:0:0:
148,296,576999,6,0,P|84:284|12:292,1,116.999994644165
132,168,577332,2,0,P|196:156|268:164,1,116.999994644165,8|0,0:0|0:0,0:0:0:0:
348,224,577666,1,0,0:0:0:0:
292,52,577833,1,0,0:0:0:0:
348,224,577999,1,8,0:0:0:0:
248,160,578166,5,0,0:0:0:0:
412,108,578332,1,0,0:0:0:0:
156,88,578499,1,0,0:0:0:0:
128,100,578582,1,0,0:0:0:0:
104,120,578666,1,8,0:0:0:0:
64,288,578832,2,0,L|32:168,1,116.999994644165
120,348,579166,2,0,P|172:308|228:292,1,116.999994644165,0|8,0:0|0:0,0:0:0:0:
420,332,579499,1,0,0:0:0:0:
308,372,579666,1,0,0:0:0:0:
424,216,579832,1,0,0:0:0:0:
208,264,579999,1,8,0:0:0:0:
328,148,580166,6,0,P|264:120|192:108,1,116.999994644165
208,264,580499,2,0,P|151:250|98:226,1,116.999994644165,0|8,0:0|0:0,0:0:0:0:
332,276,580832,1,0,0:0:0:0:
332,276,580916,1,0,0:0:0:0:
332,276,580999,2,0,P|388:228|408:120,1,175.499991966248
412,92,581332,1,8,0:0:0:0:
312,32,581499,1,8,0:0:0:0:
216,96,581666,1,0,0:0:0:0:
112,44,581832,2,0,L|48:4,2,58.4999973220826,0|0|8,0:0|0:0|0:0,0:0:0:0:
24,120,582166,1,0,0:0:0:0:
8,236,582332,6,0,B|88:248|88:248|152:340,1,175.499991966248
160,360,582666,1,8,0:0:0:0:
368,324,582832,2,0,P|304:292|244:280,1,116.999994644165
232,128,583166,2,0,P|296:160|356:172,1,116.999994644165,0|0,0:0|0:0,0:0:0:0:
376,168,583499,5,0,0:0:0:0:
416,160,583666,1,4,0:0:0:0:
300,248,583832,5,0,0:0:0:0:
140,280,583999,1,8,0:0:0:0:
140,280,584166,2,0,B|88:168|88:168|88:48,1,233.999989288331
296,84,584666,5,8,0:0:0:0:
192,116,584832,1,0,0:0:0:0:
400,128,584999,2,0,P|440:104|480:32,1,116.999994644165
296,84,585332,1,8,0:0:0:0:
388,288,585499,2,0,P|373:173|298:85,1,233.999989288331,8|0,0:0|0:0,0:0:0:0:
108,68,585999,5,8,0:0:0:0:
84,120,586166,1,0,0:0:0:0:
64,176,586332,1,0,0:0:0:0:
44,232,586499,1,0,0:0:0:0:
128,312,586666,5,8,0:0:0:0:
128,312,586749,1,0,0:0:0:0:
128,312,586832,2,0,B|188:332|188:332|252:320,1,116.999994644165,8|0,0:0|0:0,0:0:0:0:
324,240,587166,1,0,0:0:0:0:
460,116,587332,2,0,P|436:64|380:16,1,116.999994644165,8|0,0:0|0:0,0:0:0:0:
420,216,587666,2,0,P|444:268|500:316,1,116.999994644165,0|0,0:0|0:0,0:0:0:0:
460,116,587999,1,8,0:0:0:0:
296,16,588166,1,0,0:0:0:0:
496,64,588332,1,0,0:0:0:0:
264,88,588499,2,0,L|144:128,2,116.999994644165,0|8|8,0:0|0:0|0:0,0:0:0:0:
64,76,588999,6,0,P|44:152|72:312,1,233.999989288331,0|8,0:0|0:0,0:0:0:0:
176,352,589499,2,0,B|280:304|280:304|412:320,1,233.999989288331,0|0,0:0|0:0,0:0:0:0:
464,220,589999,1,8,0:0:0:0:
472,192,590082,1,0,0:0:0:0:
472,164,590166,1,0,0:0:0:0:
372,56,590332,2,0,B|312:64|312:64|248:56,1,116.999994644165
316,220,590666,2,0,B|256:212|256:212|192:220,1,116.999994644165,8|0,0:0|0:0,0:0:0:0:
220,132,590999,2,0,B|160:140|160:140|96:132,1,116.999994644165
164,296,591333,2,0,B|104:288|104:288|40:296,1,116.999994644165,8|0,0:0|0:0,0:0:0:0:
316,352,591666,5,4,0:0:0:0:
424,304,591832,1,0,0:0:0:0:
404,72,592166,1,0,0:0:0:0:
200,188,592499,1,0,0:0:0:0:
44,32,592832,2,0,P|48:104|32:164,1,116.999994644165
16,264,593166,2,0,P|40:320|100:376,1,116.999994644165
192,344,593499,2,0,P|264:328|336:328,1,116.999994644165,0|8,0:0|0:0,0:0:0:0:
316,332,593749,5,0,0:0:0:0:
328,336,593832,1,8,0:0:0:0:
340,336,593916,1,0,0:0:0:0:
352,332,593999,1,8,0:0:0:0:
364,328,594082,1,0,0:0:0:0:
372,320,594166,1,8,0:0:0:0:
380,312,594249,1,0,0:0:0:0:
384,300,594332,1,4,0:0:0:0:
408,168,594499,5,0,0:0:0:0:
408,168,594666,2,0,L|324:184,1,80.9999975280763,8|0,0:0|0:0,0:0:0:0:
216,100,594999,2,0,L|300:84,1,80.9999975280763
216,100,595332,1,8,0:0:0:0:
136,48,595499,1,0,0:0:0:0:
52,100,595666,6,0,L|52:188,1,80.9999975280763,0|0,0:0|0:0,0:0:0:0:
148,184,595999,2,0,L|148:268,1,80.9999975280763,8|0,0:0|0:0,0:0:0:0:
208,340,596332,2,0,P|248:360|296:360,1,80.9999975280763
380,364,596666,2,0,P|420:360|455:341,1,80.9999975280763,8|0,0:0|0:0,0:0:0:0:
468,244,596999,6,0,P|472:200|464:152,1,80.9999975280763
364,116,597332,2,0,P|360:160|368:208,1,80.9999975280763,0|0,0:0|0:0,0:0:0:0:
147,28,597666,2,0,P|143:68|148:108,1,80.9999975280763
252,155,597999,2,0,P|256:115|251:75,1,80.9999975280763,0|0,0:0|0:0,0:0:0:0:
56,152,598332,1,0,0:0:0:0:
56,152,598499,1,0,0:0:0:0:
132,212,598666,6,0,L|132:304,1,80.9999975280763,0|0,0:0|0:0,0:0:0:0:
216,248,598999,2,0,L|216:340,1,80.9999975280763
312,328,599332,2,0,L|312:247,1,80.9999975280763,0|0,0:0|0:0,0:0:0:0:
396,292,599665,2,0,L|396:211,1,80.9999975280763
396,112,599999,1,8,0:0:0:0:
396,112,600166,1,0,0:0:0:0:
316,56,600332,2,0,P|276:40|228:40,1,80.9999975280763
152,84,600666,1,8,0:0:0:0:
64,44,600832,1,0,0:0:0:0:
32,136,600999,6,0,P|48:176|40:216,1,80.9999975280763
20,308,601332,1,8,0:0:0:0:
116,308,601499,1,0,0:0:0:0:
43,212,601666,2,0,L|124:212,1,80.9999975280763
292,148,601999,1,8,0:0:0:0:
196,148,602166,1,0,0:0:0:0:
324,236,602333,2,0,L|243:236,1,80.9999975280763
116,236,602666,5,8,0:0:0:0:
52,160,602832,2,0,L|52:68,1,80.9999975280763
140,124,603166,2,0,L|140:36,1,80.9999975280763,0|8,0:0|0:0,0:0:0:0:
232,76,603499,1,0,0:0:0:0:
328,96,603666,6,0,L|408:96,1,80.9999975280763
336,208,603999,2,0,L|252:208,1,80.9999975280763,0|0,0:0|0:0,0:0:0:0:
392,92,604332,2,0,L|472:92,1,80.9999975280763,0|0,0:0|0:0,0:0:0:0:
276,212,604665,2,0,L|192:212,1,80.9999975280763,0|0,0:0|0:0,0:0:0:0:
104,176,604999,5,4,0:0:0:0:
36,108,605166,2,0,P|28:64|44:20,1,80.9999975280763,0|8,0:0|0:0,0:0:0:0:
128,72,605499,2,0,L|212:72,1,80.9999975280763
300,36,605832,2,0,P|308:80|292:124,1,80.9999975280763,0|8,0:0|0:0,0:0:0:0:
208,156,606166,1,0,0:0:0:0:
208,156,606332,6,0,L|124:156,1,80.9999975280763
44,204,606666,1,8,0:0:0:0:
44,204,606832,1,0,0:0:0:0:
124,256,606999,2,0,L|212:256,1,80.9999975280763
268,328,607332,1,8,0:0:0:0:
268,328,607499,1,0,0:0:0:0:
364,332,607666,6,0,P|396:296|408:256,1,80.9999975280763
332,132,607999,2,0,P|300:168|288:208,1,80.9999975280763,0|0,0:0|0:0,0:0:0:0:
440,332,608332,2,0,P|472:296|484:256,1,80.9999975280763,0|0,0:0|0:0,0:0:0:0:
408,132,608665,2,0,P|376:168|364:208,1,80.9999975280763,0|0,0:0|0:0,0:0:0:0:
289,307,608999,5,0,0:0:0:0:
426,238,609166,1,0,0:0:0:0:
355,374,609332,1,8,0:0:0:0:
332,222,609499,1,0,0:0:0:0:
440,332,609666,2,0,L|440:232,1,80.9999975280763
440,52,609999,2,0,L|440:152,1,80.9999975280763,8|0,0:0|0:0,0:0:0:0:
284,224,610332,6,0,P|228:184|136:152,1,161.999995056153,0|8,0:0|0:0,0:0:0:0:
72,251,610832,1,0,0:0:0:0:
72,332,610999,2,0,L|72:232,1,80.9999975280763
228,160,611332,2,0,P|284:200|376:232,1,161.999995056153,8|0,0:0|0:0,0:0:0:0:
440,164,611832,1,0,0:0:0:0:
392,80,611999,2,0,L|316:40,1,80.9999975280763,8|0,0:0|0:0,0:0:0:0:
144,80,612332,2,0,L|220:40,1,80.9999975280763
268,200,612666,2,0,L|268:116,1,80.9999975280763,8|0,0:0|0:0,0:0:0:0:
272,296,612999,5,0,0:0:0:0:
272,296,613166,1,0,0:0:0:0:
136,348,613332,1,8,0:0:0:0:
136,348,613499,1,0,0:0:0:0:
60,224,613666,1,8,0:0:0:0:
60,224,613832,1,0,0:0:0:0:
104,84,613999,1,8,0:0:0:0:
104,84,614166,6,0,P|204:104|332:76,1,225,8|0,0:0|0:0,0:0:0:0:
456,144,615166,6,8,L|420:64,1,80.9999975280763
184,48,615663,5,4,0:2:0:0:
116,108,615829,1,0,2:0:0:0:
92,196,615996,2,0,P|104:236|144:260,1,90,0|2,2:0|2:0,0:0:0:0:
288,272,616329,2,0,P|276:232|236:208,1,90,0|2,2:0|2:0,0:0:0:0:
276,68,616663,1,2,2:0:0:0:
364,48,616829,1,0,2:0:0:0:
444,88,616996,5,4,0:2:0:0:
464,176,617163,2,0,L|480:264,1,90,2|0,2:0|2:0,0:0:0:0:
288,272,617496,1,2,2:0:0:0:
384,244,617663,1,2,2:0:0:0:
224,348,617829,2,0,B|168:360|152:348|152:348|160:280|112:252,1,180,2|0,2:0|2:0,0:0:0:0:
8,128,618329,6,0,L|100:88,1,90,4|2,1:2|2:0,0:0:0:0:
190,48,618663,1,0,2:0:0:0:
180,160,618829,2,0,L|272:120,1,90,2|0,2:0|2:0,0:0:0:0:
464,208,619163,2,0,L|372:248,1,90,2|0,2:0|2:0,0:0:0:0:
348,44,619496,2,0,L|384:128,1,90,2|4,2:0|1:2,0:0:0:0:
300,328,619829,6,0,L|264:245,1,90,2|0,2:0|2:0,0:0:0:0:
28,80,620163,2,0,L|63:162,1,90,2|0,2:0|2:0,0:0:0:0:
244,156,620496,1,2,2:0:0:0:
300,328,620663,2,0,P|368:320|400:264,1,135,2|0,2:0|2:0,0:0:0:0:
400,220,620996,5,4,0:2:0:0:
316,48,621163,1,0,0:0:0:0:
216,236,621329,5,0,0:0:0:0:
300,64,621496,1,0,0:0:0:0:
368,252,621663,5,4,0:2:0:0:
284,80,621829,1,0,0:0:0:0:
184,268,621996,5,0,0:0:0:0:
268,96,622163,1,0,0:0:0:0:
100,120,622329,5,4,0:2:0:0:
184,348,622496,1,0,0:0:0:0:
412,264,622663,1,0,0:0:0:0:
328,36,622829,1,0,0:0:0:0:
132,44,622996,5,4,0:2:0:0:
108,316,623163,1,0,0:0:0:0:
380,340,623329,1,0,0:0:0:0:
404,68,623496,1,0,0:0:0:0:
208,24,623663,5,4,0:2:0:0:
204,44,623746,1,0,0:0:0:0:
200,64,623829,1,0,0:0:0:0:
196,88,623913,1,0,0:0:0:0:
192,112,623996,1,0,0:0:0:0:
188,136,624079,1,0,0:0:0:0:
184,156,624163,1,0,0:0:0:0:
180,176,624246,1,0,0:0:0:0:
172,228,624329,5,4,0:2:0:0:
208,232,624413,1,0,0:0:0:0:
244,236,624496,1,0,0:0:0:0:
280,240,624579,1,0,0:0:0:0:
316,244,624663,1,0,0:0:0:0:
352,248,624746,1,0,0:0:0:0:
388,252,624829,1,0,0:0:0:0:
424,256,624913,1,0,0:0:0:0:
460,260,624996,5,4,0:3:0:0:
456,116,625163,1,0,0:3:0:0:
320,68,625329,2,0,L|300:24,2,45,0|0|0,0:0|0:0|0:0,0:0:0:0:
172,228,625663,1,0,0:0:0:0:
144,228,625746,1,0,0:0:0:0:
120,216,625829,1,0,0:0:0:0:
64,84,625996,1,4,0:2:0:0:
32,344,626329,6,2,L|128:352,1,90,2|0,0:0|0:0,0:0:0:0:
304,328,626663,2,0,L|208:320,1,90,0|2,0:0|0:0,0:0:0:0:
132,252,626996,1,0,0:0:0:0:
136,144,627163,1,2,2:0:0:0:
56,212,627329,2,2,P|132:252|212:216,1,180,2|0,2:0|0:0,0:0:0:0:
256,116,627829,5,2,0:0:0:0:
344,56,627996,2,2,P|392:56|432:68,1,90,2|0,0:0|0:0,0:0:0:0:
464,208,628329,2,0,P|416:208|376:196,1,90,2|0,0:0|2:0,0:0:0:0:
256,116,628663,2,0,L|244:208,1,90,2|0,2:1|2:0,0:0:0:0:
104,328,628996,5,0,0:0:0:0:
48,236,629163,1,0,0:0:0:0:
188,260,629329,2,0,L|276:276,1,90,0|0,0:0|0:0,0:0:0:0:
332,368,629663,2,0,L|244:352,1,90,0|0,0:0|0:0,0:0:0:0:
132,164,629996,2,2,B|96:112|168:104|168:104|148:16,1,180,2|0,2:0|0:0,0:0:0:0:
264,20,630496,5,2,0:0:0:0:
292,124,630663,2,2,L|312:212,1,90,2|0,0:0|0:0,0:0:0:0:
468,184,630996,2,0,L|400:244,1,90,2|0,2:1|2:0,0:0:0:0:
400,96,631329,2,0,L|424:8,1,90,2|0,2:1|2:0,0:0:0:0:
336,284,631663,6,2,L|312:372,1,90,2|0,1:0|0:0,0:0:0:0:
184,284,631996,1,0,0:0:0:0:
260,236,632163,1,2,0:0:0:0:
108,236,632329,2,0,L|132:148,1,90,0|2,0:0|2:0,0:0:0:0:
204,68,632663,2,2,B|264:76|300:24|300:24|340:80,1,180,2|0,2:0|0:0,0:0:0:0:
392,176,633163,5,2,0:0:0:0:
368,280,633329,2,2,P|336:312|288:312,1,90,2|0,0:0|0:0,0:0:0:0:
240,192,633663,2,0,P|283:203|307:245,1,90,2|0,0:0|2:0,0:0:0:0:
228,348,633996,2,0,P|216:304|240:262,1,90,2|0,2:1|2:0,0:0:0:0:
452,244,634329,5,0,0:0:0:0:
472,136,634496,1,0,0:0:0:0:
352,56,634663,2,0,L|376:144,1,90
240,192,634996,2,0,L|216:104,1,90
76,72,635329,2,2,B|96:140|96:140|48:180|68:240,1,180,2|0,2:0|0:0,0:0:0:0:
184,328,635829,5,2,0:0:0:0:
272,268,635996,1,2,0:0:0:0:
348,344,636163,1,2,0:0:0:0:
432,276,636329,2,2,P|460:192|432:108,1,180,2|0,0:0|0:0,0:0:0:0:
408,96,636746,1,0,0:0:0:0:
384,84,636829,1,0,0:0:0:0:
360,72,636913,1,0,0:0:0:0:
336,60,636996,5,0,0:0:0:0:
216,172,637163,1,0,0:0:0:0:
104,56,637329,1,0,0:0:0:0:
48,208,637496,2,0,L|0:216,2,45
64,228,637746,1,0,0:0:0:0:
80,248,637829,1,0,0:0:0:0:
96,268,637913,1,0,0:0:0:0:
112,284,637996,1,8,0:0:0:0:
288,328,638329,5,4,0:0:0:0:
384,280,638496,1,2,0:0:0:0:
400,172,638663,2,2,L|384:84,1,90,2|0,0:0|0:0,0:0:0:0:
236,200,638996,2,0,L|324:184,1,90,2|0,0:0|2:0,0:0:0:0:
144,124,639329,2,0,L|160:212,1,90,2|0,2:1|2:0,0:0:0:0:
184,344,639663,5,0,0:0:0:0:
96,348,639829,1,0,0:0:0:0:
228,268,639996,2,0,L|304:220,1,90
320,76,640329,2,0,L|244:124,1,90
120,200,640663,2,2,P|56:136|92:64,1,180,2|0,2:0|0:0,0:0:0:0:
144,124,641163,5,2,0:0:0:0:
64,256,641329,2,2,P|55:299|56:352,1,90,2|0,0:0|0:0,0:0:0:0:
220,356,641663,2,0,P|228:312|228:260,1,90,2|0,2:1|2:0,0:0:0:0:
152,216,641996,2,0,P|143:259|144:312,1,90,2|0,2:1|2:0,0:0:0:0:
304,320,642329,6,2,P|312:276|312:224,1,90,2|0,0:0|0:0,0:0:0:0:
264,136,642663,1,0,0:0:0:0:
372,140,642829,2,0,L|460:160,1,90,2|0,0:0|0:0,0:0:0:0:
156,128,643163,2,0,L|68:108,1,90,2|0,0:0|0:0,0:0:0:0:
140,28,643496,2,0,L|220:68,1,90,2|0,0:0|0:0,0:0:0:0:
324,44,643829,5,2,0:0:0:0:
456,172,643996,2,2,L|372:140,1,90,2|0,0:0|0:0,0:0:0:0:
408,316,644329,2,0,L|320:296,1,90,2|0,0:0|0:0,0:0:0:0:
148,352,644663,1,2,0:0:0:0:
116,336,644746,1,0,0:0:0:0:
84,320,644829,1,0,0:0:0:0:
52,304,644913,1,0,0:0:0:0:
20,288,644996,5,2,0:0:0:0:
240,180,645246,1,2,0:0:0:0:
48,28,645496,1,2,0:0:0:0:
240,180,645746,1,2,0:0:0:0:
428,28,645996,5,2,0:0:0:0:
440,52,646079,1,0,0:0:0:0:
448,80,646163,1,0,0:0:0:0:
448,108,646246,1,0,0:0:0:0:
444,136,646329,1,0,0:0:0:0:
432,160,646413,1,0,0:0:0:0:
416,184,646496,1,0,0:0:0:0:
404,208,646579,1,0,0:0:0:0:
396,236,646663,1,0,0:0:0:0:
392,264,646746,1,0,0:0:0:0:
396,292,646829,1,0,0:0:0:0:
412,316,646913,1,0,0:0:0:0:
432,336,646996,6,0,L|400:368,3,45,4|0|0|0,2:3|2:0|2:0|2:0,0:0:0:0:
316,340,647329,2,0,L|272:344,3,45,8|0|0|0,2:1|2:0|2:0|2:0,0:0:0:0:
192,304,647663,6,0,P|160:264|148:180,1,135,2|2,0:0|0:0,0:0:0:0:
152,164,647996,1,8,0:0:0:0:
176,60,648163,1,2,0:0:0:0:
328,44,648413,2,0,L|396:136,1,90,2|0,0:0|0:0,0:0:0:0:
404,156,648663,1,10,0:0:0:0:
268,204,648829,1,2,0:0:0:0:
372,304,648996,6,0,P|280:328|240:328,1,135,2|2,0:0|0:0,0:0:0:0:
224,324,649329,2,0,L|132:336,1,90,8|2,0:0|0:0,0:0:0:0:
40,208,649746,1,2,0:0:0:0:
36,244,649829,1,0,0:0:0:0:
140,168,649996,1,10,0:0:0:0:
172,152,650079,1,0,0:0:0:0:
200,128,650163,1,2,0:0:0:0:
220,100,650246,1,0,0:0:0:0:
240,72,650329,6,0,P|280:40|360:44,1,135,2|2,0:0|0:0,0:0:0:0:
384,60,650663,1,8,0:0:0:0:
448,148,650829,1,2,0:0:0:0:
308,228,651079,2,0,P|356:260|368:288,1,90,2|0,0:0|0:0,0:0:0:0:
340,336,651329,2,0,L|248:336,1,90,10|2,0:0|0:0,0:0:0:0:
80,276,651663,6,0,B|172:276|172:276|196:264|204:236,1,135,2|2,0:0|0:0,0:0:0:0:
180,216,651996,2,0,L|180:120,1,90,8|2,0:0|0:0,0:0:0:0:
316,40,652413,2,0,L|316:88,1,45,2|0,2:1|2:0,0:0:0:0:
416,40,652663,2,2,L|416:176,1,135,2|0,2:1|2:0,0:0:0:0:
364,188,652996,6,0,B|364:276|364:276|364:296|340:316,1,135,2|2,0:0|0:0,0:0:0:0:
316,324,653329,1,8,0:0:0:0:
256,236,653496,1,2,0:0:0:0:
120,324,653746,2,0,L|120:232,1,90,2|0,0:0|0:0,0:0:0:0:
120,208,653996,1,10,0:0:0:0:
16,84,654163,1,2,0:0:0:0:
164,24,654329,6,0,L|300:20,1,135,2|2,0:0|0:0,0:0:0:0:
320,40,654663,2,0,L|228:44,1,90,8|2,0:0|0:0,0:0:0:0:
252,204,655079,1,2,0:0:0:0:
260,168,655163,1,0,0:0:0:0:
352,224,655329,1,10,0:0:0:0:
348,260,655413,1,0,0:0:0:0:
332,292,655496,1,2,0:0:0:0:
304,312,655579,1,0,0:0:0:0:
268,324,655663,6,0,B|172:328|172:328|151:325|140:308,1,135,2|2,0:0|0:0,0:0:0:0:
148,284,655996,2,0,L|148:192,1,90,8|2,0:0|0:0,0:0:0:0:
120,32,656413,2,0,P|76:44|44:76,1,90,2|0,0:0|0:0,0:0:0:0:
24,124,656663,2,0,L|116:124,1,90,10|2,0:0|0:0,0:0:0:0:
384,144,656996,6,0,B|292:144|292:144|268:152|256:168,1,135,2|2,0:0|0:0,0:0:0:0:
256,196,657329,2,0,L|348:196,1,90,8|2,0:0|1:0,0:0:0:0:
484,284,657746,2,0,L|440:284,1,45,2|0,2:1|2:0,0:0:0:0:
352,348,657996,2,2,L|216:348,1,135,2|0,2:1|0:0,0:0:0:0:
180,308,658329,6,0,B|88:308|88:308|64:304|52:288,1,135,2|2,0:0|0:0,0:0:0:0:
44,260,658663,1,8,0:0:0:0:
44,152,658829,1,2,0:0:0:0:
172,56,659079,2,0,P|152:104|160:140,1,90,2|0,0:0|0:0,0:0:0:0:
188,144,659329,2,0,L|208:232,1,90,10|2,0:0|0:0,0:0:0:0:
300,352,659663,6,0,P|324:328|352:228,1,135,2|2,0:0|0:0,0:0:0:0:
336,212,659996,2,0,L|356:124,1,90,8|2,0:0|0:0,0:0:0:0:
440,32,660413,1,2,0:0:0:0:
448,68,660496,1,0,0:0:0:0:
332,36,660663,1,10,0:0:0:0:
296,36,660746,1,0,0:0:0:0:
264,48,660829,1,2,0:0:0:0:
228,56,660913,1,0,0:0:0:0:
192,52,660996,6,0,B|96:52|96:52|80:52|64:72,1,135,2|2,0:0|0:0,0:0:0:0:
88,100,661329,2,0,L|88:192,1,90,8|2,0:0|0:0,0:0:0:0:
72,364,661746,2,0,P|32:336|16:300,1,90,2|0,0:0|0:0,0:0:0:0:
56,264,661996,2,0,L|148:264,1,90,10|2,0:0|0:0,0:0:0:0:
384,344,662329,6,0,B|292:344|292:344|264:344|252:324,1,135,2|2,0:0|0:0,0:0:0:0:
244,300,662663,2,0,L|336:300,1,90,8|2,0:0|0:0,0:0:0:0:
428,168,663079,2,0,L|384:168,1,45,2|0,2:1|2:0,0:0:0:0:
428,68,663329,2,0,L|292:68,1,135,2|0,2:1|2:0,0:0:0:0:
248,100,663663,6,0,B|156:100|156:100|112:132,1,135,2|2,0:0|0:0,0:0:0:0:
136,148,663996,2,0,L|136:240,1,90,8|2,0:0|0:0,0:0:0:0:
256,348,664413,2,0,L|256:256,1,90,2|0,0:0|0:0,0:0:0:0:
256,232,664663,1,10,0:0:0:0:
352,128,664829,1,2,0:0:0:0:
488,172,664996,6,0,P|452:240|472:316,1,135,2|2,0:0|0:0,0:0:0:0:
476,316,665329,2,0,L|384:296,1,90,8|2,0:0|0:0,0:0:0:0:
252,144,665746,1,2,0:0:0:0:
284,156,665829,1,0,0:0:0:0:
176,252,665996,1,10,0:0:0:0:
140,244,666079,1,0,0:0:0:0:
112,224,666163,1,2,0:0:0:0:
92,192,666246,1,0,0:0:0:0:
88,156,666329,6,0,B|88:64|88:64|88:40|120:40,1,135,2|2,0:0|0:0,0:0:0:0:
144,40,666663,1,8,0:0:0:0:
192,136,666829,1,2,0:0:0:0:
340,72,667079,2,0,P|368:112|408:120,1,90,2|0,0:0|0:0,0:0:0:0:
440,132,667329,1,10,0:0:0:0:
464,160,667413,1,0,0:0:0:0:
472,196,667496,1,2,0:0:0:0:
464,232,667579,1,0,0:0:0:0:
440,256,667663,5,2,0:0:0:0:
344,208,667829,1,0,0:0:0:0:
216,308,667996,2,0,L|188:348,2,45
104,192,668329,2,0,L|80:148,2,45,0|0|0,0:0|0:0|0:0,0:0:0:0:
132,188,668579,1,0,0:0:0:0:
160,184,668663,1,4,0:2:0:0:
160,184,668998,5,4,0:0:0:0:
456,316,679664,5,4,0:0:0:0:
456,224,679830,1,0,0:0:0:0:
428,136,679997,2,0,P|396:65|288:64,1,180,2|0,0:0|0:0,0:0:0:0:
328,152,680497,2,0,B|256:199|256:199|256:320,1,180,2|0,0:0|0:0,0:0:0:0:
176,332,680997,6,0,B|176:284|176:284|152:228,1,90,2|0,0:0|0:0,0:0:0:0:
88,300,681330,1,2,0:0:0:0:
84,208,681497,1,2,0:0:0:0:
84,208,681664,2,0,B|84:84|84:84|152:132,2,180,0|2|2,0:0|0:0|0:0,0:0:0:0:
164,248,682497,5,0,0:0:0:0:
204,328,682664,2,0,P|280:280|396:320,1,180,2|0,0:0|0:0,0:0:0:0:
399,169,683164,2,0,P|320:127|296:6,1,180,2|0,0:0|0:0,0:0:0:0:
164,78,683664,6,0,P|167:168|75:249,1,180,2|0,0:0|0:0,0:0:0:0:
256,192,684164,2,0,L|256:282,1,90,2|0,0:0|0:0,0:0:0:0:
316,348,684497,2,0,L|416:328,2,90,2|2|2,0:0|0:0|0:0,0:0:0:0:
228,356,684997,5,2,0:0:0:0:
152,308,685164,1,0,0:0:0:0:
80,252,685330,2,0,P|72:156|152:80,1,180,2|0,0:0|0:0,0:0:0:0:
148,180,685830,2,0,P|216:124|312:124,1,180,2|0,0:0|0:0,0:0:0:0:
256,196,686331,6,0,L|256:292,1,90,2|0,0:0|0:0,0:0:0:0:
328,340,686664,1,2,0:0:0:0:
388,264,686831,2,0,L|436:252,3,45,0|0|2|0,0:0|0:0|0:0|0:0,0:0:0:0:
408,192,687164,2,0,L|456:180,3,45,0|0|2|0,0:0|0:0|0:0|0:0,0:0:0:0:
464,156,687498,1,0,0:0:0:0:
472,128,687581,1,0,0:0:0:0:
468,100,687664,6,0,P|452:64|392:52,1,90,2|0,0:0|0:0,0:0:0:0:
372,76,687914,2,0,L|276:128,1,90,2|0,0:0|0:0,0:0:0:0:
264,84,688164,2,0,L|180:128,1,90,2|0,0:0|0:0,0:0:0:0:
88,232,688498,1,2,0:0:0:0:
192,312,688665,2,0,P|224:352|292:352,2,90,2|2|2,0:0|0:0|0:0,0:0:0:0:
272,276,689165,6,0,L|348:208,1,90
404,280,689498,1,2,0:0:0:0:
456,204,689665,2,0,L|504:208,2,45,0|0|2,0:0|0:0|0:0,0:0:0:0:
436,116,689998,2,0,L|340:44,1,90,0|2,0:0|0:0,0:0:0:0:
272,60,690331,6,0,L|200:64,3,45,4|0|0|0,0:0|0:0|0:0|0:0,0:0:0:0:
216,136,690665,2,0,L|152:144,3,45,0|0|0|2,0:0|0:0|0:0|0:0,0:0:0:0:
96,256,691081,2,0,L|52:296,1,45,0|0,0:0|0:0,0:0:0:0:
168,300,691248,2,0,L|136:352,1,45
248,324,691415,2,0,L|240:368,1,45
328,336,691581,1,2,0:0:0:0:
440,240,691748,5,0,0:0:0:0:
436,212,691831,1,0,0:0:0:0:
428,184,691915,1,0,0:0:0:0:
416,160,691998,1,0,0:0:0:0:
400,136,692081,1,0,0:0:0:0:
380,116,692165,1,0,0:0:0:0:
356,104,692248,1,2,0:0:0:0:
156,104,692415,5,0,0:0:0:0:
132,116,692498,1,0,0:0:0:0:
112,136,692582,1,0,0:0:0:0:
96,160,692665,1,0,0:0:0:0:
84,184,692748,1,0,0:0:0:0:
76,212,692832,1,0,0:0:0:0:
72,240,692915,1,2,0:0:0:0:
124,344,693081,6,0,L|144:304,1,45,0|0,0:0|0:0,0:0:0:0:
224,360,693248,2,0,L|220:304,1,45
320,352,693415,2,0,L|304:296,1,45
400,300,693581,2,0,P|404:236|400:204,1,90,2|0,0:0|0:0,0:0:0:0:
444,120,693831,2,0,L|376:152,1,45,0|0,0:0|0:0,0:0:0:0:
376,64,693998,2,0,L|336:104,1,45
288,28,694165,2,0,L|264:92,1,45,0|2,0:0|0:0,0:0:0:0:
128,128,694415,5,0,0:0:0:0:
128,156,694498,1,0,0:0:0:0:
128,184,694581,1,0,0:0:0:0:
128,212,694665,2,0,L|104:284,3,45,0|0|0|2,0:0|0:0|0:0|0:0,0:0:0:0:
384,256,695081,5,0,0:0:0:0:
384,228,695164,1,0,0:0:0:0:
384,200,695247,1,0,0:0:0:0:
384,172,695331,2,0,L|408:100,3,45,0|0|0|2,0:0|0:0|0:0|0:0,0:0:0:0:
284,72,695748,5,0,0:0:0:0:
284,72,695831,1,2,0:0:0:0:
284,72,695915,1,0,0:0:0:0:
136,164,696081,1,0,0:0:0:0:
136,164,696164,1,2,0:0:0:0:
136,164,696248,1,0,0:0:0:0:
228,312,696415,1,0,0:0:0:0:
228,312,696498,1,2,0:0:0:0:
228,312,696582,1,0,0:0:0:0:
376,220,696748,1,0,0:0:0:0:
376,220,696831,1,2,0:0:0:0:
376,220,696915,1,0,0:0:0:0:
441,69,697081,6,0,L|476:40,2,45,0|2|0,0:0|0:0|0:0,0:0:0:0:
70,69,697415,2,0,L|36:40,2,45,0|2|0,0:0|0:0|0:0,0:0:0:0:
70,314,697748,2,0,L|36:344,2,45,0|2|0,0:0|0:0|0:0,0:0:0:0:
441,314,698082,2,0,L|476:344,2,45,0|2|0,0:0|0:0|0:0,0:0:0:0:
440,288,698331,5,2,0:0:0:0:
428,264,698415,1,0,0:0:0:0:
412,240,698498,1,2,0:0:0:0:
392,224,698581,1,0,0:0:0:0:
368,216,698665,1,2,0:0:0:0:
340,220,698748,1,0,0:0:0:0:
316,236,698831,1,2,0:0:0:0:
296,256,698915,1,0,0:0:0:0:
276,276,698998,5,2,0:0:0:0:
252,288,699081,1,0,0:0:0:0:
224,288,699165,1,2,0:0:0:0:
200,276,699248,1,0,0:0:0:0:
184,256,699331,1,2,0:0:0:0:
172,232,699415,1,0,0:0:0:0:
168,204,699498,1,2,0:0:0:0:
120,52,700998,6,0,B|88:84|88:84|124:120|96:168,2,135,6|2|2,0:0|0:0|0:0,0:0:0:0:
244,108,701665,1,2,0:0:0:0:
244,108,701998,1,2,0:0:0:0:
332,132,702165,1,2,0:0:0:0:
264,192,702331,5,2,0:0:0:0:
372,332,702581,1,2,0:0:0:0:
140,332,702831,1,0,0:0:0:0:
132,312,702915,2,0,P|84:328|44:296,2,90,2|2|2,0:0|0:0|0:0,0:0:0:0:
88,232,703415,1,2,0:0:0:0:
80,208,703498,1,0,0:0:0:0:
72,184,703581,1,0,0:0:0:0:
60,160,703665,6,0,B|40:108|40:108|112:56,2,135,2|2|2,0:0|0:0|0:0,0:0:0:0:
252,96,704415,1,2,0:0:0:0:
204,288,704665,2,0,P|232:328|292:340,2,90,2|2|2,0:0|0:0|0:0,0:0:0:0:
380,312,705248,5,2,0:0:0:0:
420,232,705415,1,2,0:0:0:0:
424,204,705498,1,0,0:0:0:0:
428,176,705582,1,2,0:0:0:0:
424,148,705665,1,2,0:0:0:0:
346,51,705831,2,0,L|388:68,1,45,0|2,0:0|0:0,0:0:0:0:
211,45,706081,2,0,L|256:48,2,45,2|0|0,0:0|0:0|0:0,0:0:0:0:
168,60,706331,5,2,0:0:0:0:
28,236,706581,1,2,0:0:0:0:
224,332,706831,1,2,0:0:0:0:
224,332,706998,2,0,P|244:236|196:184,2,135,2|2|2,0:0|0:0|0:0,0:0:0:0:
312,348,707665,5,2,0:0:0:0:
416,264,707915,1,2,0:0:0:0:
396,132,708165,1,0,0:0:0:0:
396,132,708248,1,2,0:0:0:0:
332,68,708415,2,0,P|296:128|264:140,1,90,2|2,0:0|0:0,0:0:0:0:
300,224,708748,1,2,0:0:0:0:
284,244,708831,1,0,0:0:0:0:
260,256,708915,1,0,0:0:0:0:
232,252,708998,6,0,P|164:264|104:308,2,135,2|2|2,0:0|0:0|0:0,0:0:0:0:
84,156,709748,1,2,0:0:0:0:
224,48,709998,1,2,0:0:0:0:
304,88,710165,1,2,0:0:0:0:
224,132,710331,5,2,0:0:0:0:
304,172,710498,2,0,L|304:220,1,45,0|2,0:0|0:0,0:0:0:0:
192,272,710748,2,2,L|136:300,1,45
256,312,710915,2,0,L|216:360,1,45,2|0,0:0|0:0,0:0:0:0:
384,312,711164,1,2,0:0:0:0:
444,244,711331,1,2,0:0:0:0:
444,216,711415,1,0,0:0:0:0:
444,188,711498,1,2,0:0:0:0:
444,160,711581,1,0,0:0:0:0:
444,132,711665,5,6,0:0:0:0:
260,48,711915,1,2,0:0:0:0:
76,132,712165,1,2,0:0:0:0:
156,324,712415,1,2,0:0:0:0:
356,324,712665,1,2,0:0:0:0:
364,236,712831,1,2,0:0:0:0:
280,272,712998,6,0,P|228:236|120:232,2,135,2|2|2,0:0|0:0|0:0,0:0:0:0:
288,228,713581,2,0,P|260:164|228:148,2,90,2|2|2,0:0|0:0|0:0,0:0:0:0:
406,166,714081,2,0,L|364:180,2,45,2|0|0,0:0|0:0|0:0,0:0:0:0:
396,124,714331,6,0,P|352:56|288:52,1,135,2|2,0:0|0:0,0:0:0:0:
228,160,714831,2,0,P|172:192|140:256,2,135,2|2|2,0:0|0:0|0:0,0:0:0:0:
268,244,715498,1,2,0:0:0:0:
220,320,715665,5,2,0:0:0:0:
308,324,715831,1,0,0:0:0:0:
308,324,715915,1,2,0:0:0:0:
396,304,716081,2,0,L|456:276,1,45,2|0,0:0|0:0,0:0:0:0:
384,224,716248,2,0,L|432:200,1,45,2|0,0:0|0:0,0:0:0:0:
396,116,716498,1,0,0:0:0:0:
396,116,716581,1,2,0:0:0:0:
324,64,716748,2,0,L|280:40,2,45,2|0|0,0:0|0:0|0:0,0:0:0:0:
300,104,716998,6,2,P|260:152|168:148,1,135
108,52,717497,1,2,0:0:0:0:
60,176,717747,1,2,0:0:0:0:
124,296,717997,2,0,P|76:316|52:348,2,90,2|2|2,0:0|0:0|0:0,0:0:0:0:
204,340,718497,6,0,L|256:340,1,45,0|2,0:0|0:0,0:0:0:0:
361,280,718747,2,0,L|316:280,2,45,0|0|2,0:0|0:0|0:0,0:0:0:0:
461,208,719081,2,0,L|416:208,2,45,2|0|2,0:0|0:0|0:0,0:0:0:0:
408,104,719414,1,2,0:0:0:0:
380,100,719497,1,0,0:0:0:0:
356,112,719580,1,0,0:0:0:0:
336,132,719664,6,0,P|304:96|256:88,1,90,2|0,0:0|0:0,0:0:0:0:
196,112,719914,2,0,P|160:144|152:192,1,90,2|0,0:0|0:0,0:0:0:0:
176,252,720164,2,0,P|208:288|256:296,1,90,2|0,0:0|0:0,0:0:0:0:
316,272,720414,2,0,P|352:240|360:192,1,90,2|0,0:0|0:0,0:0:0:0:
324,176,720664,1,2,0:0:0:0:
256,120,720830,1,2,0:0:0:0:
184,176,720997,5,6,0:0:0:0:
148,92,721164,1,0,0:0:0:0:
148,92,721247,1,2,0:0:0:0:
72,140,721414,2,0,L|20:176,1,45,0|2,0:0|0:0,0:0:0:0:
104,208,721580,2,0,L|48:248,1,45,0|2,0:0|0:0,0:0:0:0:
80,324,721830,1,2,0:0:0:0:
168,332,721997,1,2,0:0:0:0:
196,332,722080,1,2,0:0:0:0:
224,332,722164,1,2,0:0:0:0:
252,332,722247,1,2,0:0:0:0:
280,332,722330,6,0,P|304:268|412:272,1,180,2|14,0:0|0:0,0:0:0:0:
496,212,722830,1,0,0:0:0:0:
356,128,722997,1,0,0:0:0:0:
488,40,723164,2,0,P|440:32|380:40,1,90,2|8,0:0|0:0,0:0:0:0:
260,48,723497,1,0,0:0:0:0:
124,84,723664,6,0,P|60:160|68:256,1,180,2|8,0:0|0:0,0:0:0:0:
148,184,724164,2,0,P|160:240|272:308,1,180,2|0,0:0|0:0,0:0:0:0:
340,272,724664,1,8,0:0:0:0:
340,272,724747,1,0,0:0:0:0:
340,272,724830,1,0,0:0:0:0:
340,272,724914,1,0,0:0:0:0:
340,272,724997,6,0,L|424:192,1,90
284,72,725330,2,0,L|352:140,1,90,10|0,0:0|0:0,0:0:0:0:
168,168,725664,1,0,0:0:0:0:
192,328,725830,2,0,L|248:240,1,90,2|8,0:0|0:0,0:0:0:0:
24,284,726164,1,0,0:0:0:0:
24,284,726330,6,0,P|76:212|88:112,1,180,2|8,0:0|0:0,0:0:0:0:
40,48,726830,2,0,P|164:72|176:136,1,180,2|2,0:0|0:0,0:0:0:0:
160,196,727330,1,10,0:0:0:0:
164,224,727414,1,0,0:0:0:0:
176,248,727497,1,2,0:0:0:0:
200,260,727580,1,0,0:0:0:0:
228,264,727664,5,0,0:0:0:0:
432,308,727830,1,0,0:0:0:0:
432,308,727914,1,0,0:0:0:0:
432,308,727997,2,0,L|424:204,1,90,10|0,0:0|0:0,0:0:0:0:
260,56,728330,1,0,0:0:0:0:
260,56,728414,1,0,0:0:0:0:
260,56,728497,2,0,L|272:176,1,90,2|8,0:0|0:0,0:0:0:0:
336,208,728830,1,0,0:0:0:0:
336,208,728914,1,0,0:0:0:0:
336,208,728997,6,0,P|288:268|240:284,1,90,2|0,0:0|0:0,0:0:0:0:
56,204,729330,1,10,0:0:0:0:
168,72,729497,2,0,P|176:148|160:196,1,90,2|0,0:0|0:0,0:0:0:0:
164,188,729747,1,0,0:0:0:0:
148,212,729830,1,0,0:0:0:0:
128,232,729914,1,0,0:0:0:0:
104,244,729997,1,8,0:0:0:0:
156,332,730164,1,0,0:0:0:0:
156,332,730247,1,0,0:0:0:0:
156,332,730330,6,0,L|240:284,1,90,2|0,0:0|0:0,0:0:0:0:
264,332,730580,2,0,L|284:236,1,90,2|0,0:0|0:0,0:0:0:0:
336,268,730830,2,0,L|308:164,1,90,2|0,0:0|0:0,0:0:0:0:
368,168,731080,2,0,L|280:104,1,90,2|0,0:0|0:0,0:0:0:0:
288,64,731330,1,10,0:0:0:0:
196,68,731497,1,0,0:0:0:0:
156,148,731664,6,0,P|72:184|64:268,1,180,2|8,0:0|0:0,0:0:0:0:
208,304,732164,2,0,L|128:224,1,90,2|0,0:0|0:0,0:0:0:0:
308,220,732497,1,2,0:0:0:0:
368,92,732664,2,0,L|248:144,1,90,10|0,0:0|0:0,0:0:0:0:
112,188,732997,5,4,0:0:0:0:
180,112,733164,1,0,0:0:0:0:
216,212,733330,2,0,L|248:308,1,90,10|0,0:0|0:0,0:0:0:0:
464,192,733664,1,0,0:0:0:0:
352,200,733830,2,0,L|360:296,2,90,2|8|0,0:0|0:0|0:0,0:0:0:0:
392,36,734330,6,0,P|328:92|224:88,1,180,2|10,0:0|0:0,0:0:0:0:
124,248,734830,2,0,P|188:192|292:196,1,180,2|0,0:0|0:0,0:0:0:0:
456,160,735330,2,0,L|412:164,1,45,8|0,0:0|0:0,0:0:0:0:
428,248,735497,2,0,L|364:252,1,45
400,332,735664,6,0,L|280:340,1,90
324,212,735997,2,0,L|328:88,1,90,10|0,0:0|0:0,0:0:0:0:
92,312,736330,1,0,0:0:0:0:
216,40,736497,2,0,L|212:152,1,90,2|8,0:0|0:0,0:0:0:0:
428,248,736830,1,0,0:0:0:0:
276,344,736997,6,0,P|272:268|360:192,1,180,2|8,0:0|0:0,0:0:0:0:
188,264,737497,2,0,P|188:192|224:152,1,90,2|0,0:0|0:0,0:0:0:0:
312,48,737830,1,2,0:0:0:0:
120,76,737997,1,10,0:0:0:0:
380,172,738164,1,2,0:0:0:0:
84,204,738330,6,0,L|56:248,2,45
184,356,738664,2,0,P|204:264|276:204,1,180,10|0,0:0|0:0,0:0:0:0:
304,292,739164,2,0,P|372:232|368:112,1,180,2|0,0:0|0:0,0:0:0:0:
244,50,739664,6,0,L|332:72,1,90,2|0,0:0|0:0,0:0:0:0:
104,176,739997,1,10,0:0:0:0:
184,352,740164,2,0,P|208:304|252:280,1,90,2|0,0:0|0:0,0:0:0:0:
264,272,740414,1,0,0:0:0:0:
292,272,740497,1,0,0:0:0:0:
316,284,740580,1,0,0:0:0:0:
332,308,740664,1,8,0:0:0:0:
352,324,740747,1,0,0:0:0:0:
376,332,740830,1,0,0:0:0:0:
404,328,740914,1,0,0:0:0:0:
428,312,740997,6,0,L|484:208,1,90,2|0,0:0|0:0,0:0:0:0:
448,204,741247,2,0,L|428:112,1,90,2|0,0:0|0:0,0:0:0:0:
380,132,741497,2,0,L|312:72,1,90,2|0,0:0|0:0,0:0:0:0:
264,100,741747,2,0,L|176:56,1,90,2|0,0:0|0:0,0:0:0:0:
144,96,741997,2,0,P|112:132|116:196,2,90,10|2|6,0:0|0:0|0:0,0:0:0:0:
256,192,742497,12,4,743664,0:0:0:0:
184,156,746330,5,4,0:0:0:0:
188,164,748997,5,4,0:0:0:0:
192,172,750330,5,4,0:0:0:0:
196,180,751664,5,4,0:0:0:0:
200,188,751830,1,0,0:0:0:0:
204,196,751997,1,4,0:0:0:0:
208,204,752164,1,0,0:0:0:0:
212,212,752330,5,4,0:0:0:0:
228,236,752414,1,0,0:0:0:0:
252,248,752497,1,0,0:0:0:0:
280,248,752580,1,0,0:0:0:0:
304,236,752664,1,0,0:0:0:0:
328,224,752747,1,0,0:0:0:0:
356,220,752830,1,0,0:0:0:0:
384,224,752914,1,0,0:0:0:0:
408,236,752997,1,4,0:0:0:0:
272,68,753664,6,0,L|288:24,2,45,0|0|0,2:0|2:0|2:0,0:0:0:0:
244,68,753914,1,0,2:0:0:0:
216,68,753997,1,8,2:1:0:0:
56,224,754330,6,0,P|80:296|168:320,1,135,6|2,0:0|0:0,0:0:0:0:
160,304,754664,2,0,P|200:296|248:312,1,90,8|2,0:0|0:0,0:0:0:0:
396,248,755080,1,2,0:0:0:0:
424,144,755247,1,2,0:0:0:0:
420,108,755330,2,0,P|392:64|344:48,1,90,8|2,0:0|0:0,0:0:0:0:
248,236,755664,6,0,L|344:132,1,135,2|2,0:0|0:0,0:0:0:0:
352,120,755997,1,8,0:0:0:0:
292,28,756164,1,2,0:0:0:0:
132,44,756414,1,2,0:0:0:0:
104,64,756497,1,2,0:0:0:0:
88,96,756580,1,0,0:0:0:0:
92,132,756664,2,0,P|104:176|88:216,1,90,10|2,0:0|3:0,0:0:0:0:
8,348,756997,6,0,L|140:312,1,135,2|2,0:0|0:0,0:0:0:0:
140,276,757330,2,0,L|224:244,1,90,8|2,0:0|0:0,0:0:0:0:
380,200,757747,2,0,P|408:244|408:280,1,90,2|2,0:0|0:0,0:0:0:0:
400,316,757997,2,0,L|484:280,1,90,8|2,0:0|0:0,0:0:0:0:
482,103,758330,6,0,L|400:68,1,90,2|2,0:0|0:3,0:0:0:0:
376,60,758580,1,0,0:0:0:0:
348,56,758664,1,10,0:0:0:0:
276,180,758830,1,2,0:3:0:0:
252,188,758914,1,0,0:0:0:0:
224,192,758997,1,2,0:0:0:0:
196,188,759080,1,0,0:0:0:0:
172,180,759164,1,2,0:3:0:0:
152,164,759247,1,0,0:0:0:0:
136,140,759330,2,0,P|108:96|76:80,1,90,10|2,0:0|3:0,0:0:0:0:
76,292,759664,6,0,L|60:152,1,135,2|2,0:0|0:0,0:0:0:0:
32,136,759997,2,0,P|8:100|12:48,1,90,8|2,0:0|0:0,0:0:0:0:
152,20,760414,2,0,P|184:52|228:68,1,90,2|2,0:0|0:0,0:0:0:0:
260,68,760664,1,8,0:0:0:0:
400,48,760830,1,2,0:0:0:0:
468,176,760997,6,0,L|444:308,1,135,2|2,0:0|0:0,0:0:0:0:
408,312,761330,2,0,L|424:224,1,90,8|2,0:0|0:0,0:0:0:0:
268,184,761747,1,2,0:0:0:0:
244,192,761830,1,2,0:0:0:0:
216,192,761914,1,0,0:0:0:0:
192,184,761997,2,0,L|104:212,1,90,10|2,0:0|3:0,0:0:0:0:
20,320,762331,6,0,L|20:184,1,135,2|2,0:0|0:0,0:0:0:0:
24,148,762664,2,0,P|56:120|104:116,1,90,8|2,0:0|0:0,0:0:0:0:
180,356,763081,2,0,P|224:352|257:323,1,90,2|2,0:0|0:0,0:0:0:0:
276,292,763330,1,8,0:0:0:0:
348,164,763497,1,2,0:0:0:0:
468,244,763664,5,2,0:0:0:0:
456,84,763830,1,2,0:3:0:0:
436,68,763914,1,0,0:0:0:0:
412,56,763997,1,10,0:0:0:0:
256,108,764164,1,2,0:3:0:0:
236,124,764247,1,0,0:0:0:0:
212,140,764330,2,2,P|172:148|128:128,1,90,2|2,0:0|0:3,0:0:0:0:
68,36,764664,2,0,L|52:124,1,90,2|2,2:0|3:0,0:0:0:0:
104,352,764997,6,0,L|120:216,1,135,6|2,0:0|0:0,0:0:0:0:
124,196,765330,1,8,0:0:0:0:
216,256,765497,1,2,0:0:0:0:
356,336,765747,2,0,P|396:312|420:272,1,90,2|2,0:0|0:0,0:0:0:0:
420,240,765997,2,0,L|420:148,1,90,8|2,0:0|0:0,0:0:0:0:
316,36,766331,6,0,L|316:172,1,135,2|2,0:0|0:0,0:0:0:0:
308,208,766664,2,0,P|268:232|224:232,1,90,8|2,0:0|0:0,0:0:0:0:
116,116,767080,1,2,0:0:0:0:
80,124,767164,1,2,0:0:0:0:
52,144,767247,1,0,0:0:0:0:
32,176,767330,2,0,P|24:220|28:264,1,90,10|2,0:0|3:0,0:0:0:0:
152,360,767664,6,0,P|168:304|152:228,1,135,2|2,0:0|0:0,0:0:0:0:
116,228,767997,2,0,L|176:160,1,90,8|2,0:0|0:0,0:0:0:0:
280,288,768414,2,0,P|324:288|368:272,1,90,2|2,0:0|0:0,0:0:0:0:
392,248,768664,1,8,0:0:0:0:
444,112,768830,1,2,0:0:0:0:
320,40,768997,6,0,L|228:40,1,90,2|2,0:0|0:3,0:0:0:0:
204,40,769247,1,0,0:0:0:0:
176,40,769330,1,10,0:0:0:0:
84,152,769497,1,2,0:3:0:0:
112,152,769580,1,0,0:0:0:0:
140,152,769664,1,2,0:0:0:0:
168,152,769747,1,0,0:0:0:0:
196,152,769830,1,2,0:3:0:0:
224,152,769914,1,0,0:0:0:0:
252,152,769997,2,0,B|296:152|296:152|320:152|332:176,1,90,10|2,0:0|3:0,0:0:0:0:
256,320,770330,5,2,0:0:0:0:
228,324,770414,1,0,0:0:0:0:
200,324,770497,1,0,0:0:0:0:
172,320,770580,1,2,0:0:0:0:
148,312,770664,1,8,0:0:0:0:
128,296,770747,1,0,0:0:0:0:
112,272,770830,1,2,0:0:0:0:
104,244,770914,1,0,0:0:0:0:
104,216,770997,1,0,0:0:0:0:
112,188,771080,1,2,0:0:0:0:
124,164,771164,1,0,0:0:0:0:
132,136,771247,1,2,0:0:0:0:
132,108,771331,2,0,L|112:68,3,45,8|0|2|0,0:0|0:0|0:0|0:0,0:0:0:0:
84,60,771664,5,2,0:0:0:0:
60,72,771747,1,0,0:0:0:0:
44,92,771830,1,0,0:0:0:0:
32,116,771914,1,2,0:0:0:0:
28,144,771997,1,8,0:0:0:0:
32,172,772080,1,0,0:0:0:0:
44,196,772164,1,2,0:0:0:0:
64,216,772247,1,0,0:0:0:0:
88,224,772330,1,0,0:0:0:0:
116,224,772414,1,2,0:0:0:0:
144,220,772497,1,2,0:0:0:0:
168,212,772580,1,0,0:0:0:0:
192,200,772664,2,0,L|240:208,3,45,10|0|0|0,0:0|0:0|0:0|0:0,0:0:0:0:
256,224,772997,5,2,0:0:0:0:
272,248,773080,1,0,0:0:0:0:
296,260,773164,1,0,0:0:0:0:
320,268,773247,1,2,0:0:0:0:
348,268,773330,1,8,0:0:0:0:
376,260,773414,1,0,0:0:0:0:
400,248,773497,1,2,0:0:0:0:
416,224,773580,1,0,0:0:0:0:
428,200,773664,1,0,0:0:0:0:
432,172,773747,1,2,0:0:0:0:
428,144,773830,1,0,0:0:0:0:
416,120,773914,1,2,0:0:0:0:
400,100,773997,1,8,0:0:0:0:
376,84,774080,1,0,0:0:0:0:
352,76,774164,1,2,0:0:0:0:
324,76,774247,1,0,0:0:0:0:
300,84,774330,6,0,P|260:112|220:112,1,90,4|2,0:0|2:0,0:0:0:0:
196,104,774580,1,2,2:0:0:0:
172,88,774664,1,2,2:0:0:0:
48,84,774830,1,2,2:0:0:0:
36,108,774914,1,2,2:0:0:0:
36,136,774997,2,0,L|44:188,3,45,2|2|2|2,2:0|2:0|2:0|2:0,0:0:0:0:
112,220,775330,2,0,L|140:264,3,45,8|0|0|0,2:1|2:0|2:0|2:0,0:0:0:0:
152,336,775664,6,0,L|288:340,1,135,6|2,0:0|0:0,0:0:0:0:
320,324,775997,1,8,0:0:0:0:
376,232,776164,1,2,0:0:0:0:
288,96,776414,2,0,P|284:168|268:188,1,90,2|2,0:0|0:0,0:0:0:0:
240,188,776664,2,0,P|196:192|160:228,1,90,8|2,0:0|0:0,0:0:0:0:
152,336,776997,6,0,B|56:266|56:266|40:272,1,135,2|2,0:0|0:0,0:0:0:0:
12,292,777330,2,0,L|4:196,1,90,8|2,0:0|0:0,0:0:0:0:
80,44,777747,1,2,0:0:0:0:
112,32,777830,1,2,0:0:0:0:
148,32,777914,1,0,0:0:0:0:
184,44,777997,2,0,L|280:24,1,90,10|2,0:0|3:0,0:0:0:0:
424,80,778330,6,0,B|336:104|336:104|316:112|312:140,1,135,2|2,0:0|0:0,0:0:0:0:
344,156,778664,2,0,L|368:248,1,90,8|2,0:0|0:0,0:0:0:0:
228,328,779080,2,0,L|136:316,1,90,2|2,0:0|0:0,0:0:0:0:
104,312,779330,1,8,0:0:0:0:
40,172,779497,1,2,0:0:0:0:
136,52,779664,5,2,0:0:0:0:
212,196,779830,1,2,0:3:0:0:
236,208,779914,1,0,0:0:0:0:
264,212,779997,1,10,0:0:0:0:
408,136,780164,1,2,0:3:0:0:
432,148,780247,1,0,0:0:0:0:
452,168,780330,1,2,0:0:0:0:
464,192,780414,1,0,0:0:0:0:
468,220,780497,1,2,0:3:0:0:
464,248,780580,1,0,0:0:0:0:
452,272,780664,2,0,P|428:316|428:356,1,90,10|2,0:0|3:0,0:0:0:0:
280,344,780997,6,0,P|284:276|264:212,1,135,2|2,0:0|0:0,0:0:0:0:
256,180,781330,2,0,L|256:84,1,90,8|2,0:0|0:0,0:0:0:0:
100,136,781747,1,2,0:0:0:0:
32,52,781914,1,2,0:0:0:0:
12,84,781997,2,0,P|0:140|4:172,1,90,8|2,0:0|0:0,0:0:0:0:
144,264,782330,6,0,L|100:136,1,135,2|2,0:0|0:0,0:0:0:0:
120,108,782664,2,0,L|152:204,1,90,8|2,0:0|0:0,0:0:0:0:
236,328,783080,1,2,0:0:0:0:
264,328,783164,1,2,0:0:0:0:
292,320,783247,1,0,0:0:0:0:
316,308,783330,2,0,P|348:280|396:272,1,90,10|2,0:0|3:0,0:0:0:0:
388,360,783664,6,0,L|396:224,1,135,2|2,0:0|0:0,0:0:0:0:
396,188,783997,1,8,0:0:0:0:
360,84,784164,1,2,0:0:0:0:
232,184,784414,2,0,L|144:160,1,90,2|2,0:0|0:0,0:0:0:0:
128,128,784664,2,0,P|116:176|92:208,1,90,8|2,0:0|0:0,0:0:0:0:
84,316,784997,5,2,0:0:0:0:
240,272,785164,1,2,0:3:0:0:
264,260,785247,1,0,0:0:0:0:
284,240,785330,1,10,0:0:0:0:
304,80,785497,1,2,0:3:0:0:
324,52,785580,1,0,0:0:0:0:
356,32,785664,2,0,P|396:24|444:32,1,90,2|2,0:0|0:3,0:0:0:0:
464,176,785997,2,0,L|400:108,1,90,2|2,2:0|3:0,0:0:0:0:
392,256,786330,6,0,P|380:312|320:360,1,135,6|2,0:0|0:0,0:0:0:0:
292,340,786664,2,0,L|200:348,1,90,8|2,0:0|0:0,0:0:0:0:
108,216,787080,2,0,L|108:124,1,90,2|2,0:0|0:0,0:0:0:0:
84,100,787330,2,0,P|132:108|172:100,1,90,8|2,0:0|0:0,0:0:0:0:
320,20,787664,6,0,P|352:80|404:120,1,135,2|2,0:0|0:0,0:0:0:0:
436,104,787997,2,0,L|472:188,1,90,8|2,0:0|0:0,0:0:0:0:
396,332,788414,1,2,0:0:0:0:
364,348,788497,1,2,0:0:0:0:
328,348,788580,1,0,0:0:0:0:
296,332,788664,2,0,P|284:288|296:244,1,90,10|2,0:0|3:0,0:0:0:0:
436,104,788997,6,0,B|344:96|344:96|304:116,1,135,2|2,0:0|0:0,0:0:0:0:
320,148,789330,2,0,L|216:140,1,90,8|2,0:0|0:0,0:0:0:0:
104,40,789747,2,0,P|56:60|40:96,1,90,2|2,0:0|0:0,0:0:0:0:
44,128,789997,1,8,0:0:0:0:
184,88,790164,1,2,0:0:0:0:
120,256,790330,5,2,0:0:0:0:
244,328,790497,1,2,0:3:0:0:
272,328,790580,1,0,0:0:0:0:
300,320,790664,1,10,0:0:0:0:
320,176,790830,1,2,0:3:0:0:
324,148,790914,1,0,0:0:0:0:
336,124,790997,1,2,0:0:0:0:
352,100,791080,1,0,0:0:0:0:
372,80,791164,1,2,0:3:0:0:
396,64,791247,1,0,0:0:0:0:
420,56,791330,2,0,P|464:48|496:12,1,90,10|2,0:0|3:0,0:0:0:0:
456,184,791664,5,2,0:0:0:0:
452,212,791747,1,0,0:0:0:0:
444,236,791830,1,0,0:0:0:0:
428,260,791914,1,2,0:0:0:0:
404,272,791997,1,8,0:0:0:0:
376,276,792080,1,0,0:0:0:0:
348,272,792164,1,2,0:0:0:0:
320,264,792247,1,0,0:0:0:0:
296,256,792330,2,0,L|252:268,7,45,0|2|0|2|8|0|2|0,0:0|0:0|0:0|0:0|0:0|0:0|0:0|0:0,0:0:0:0:
224,268,792997,5,2,0:0:0:0:
196,284,793080,1,0,0:0:0:0:
164,292,793164,1,0,0:0:0:0:
132,292,793247,1,2,0:0:0:0:
100,284,793330,1,8,0:0:0:0:
72,268,793414,1,0,0:0:0:0:
56,240,793497,1,2,0:0:0:0:
52,208,793580,1,0,0:0:0:0:
52,176,793664,1,0,0:0:0:0:
60,144,793747,1,2,0:0:0:0:
80,120,793830,1,2,0:0:0:0:
108,104,793914,1,0,0:0:0:0:
140,96,793997,2,0,L|172:60,3,45,10|0|0|0,0:0|0:0|0:0|0:0,0:0:0:0:
192,36,794330,5,2,0:0:0:0:
216,64,794414,1,0,0:0:0:0:
248,76,794497,1,0,0:0:0:0:
284,72,794580,1,2,0:0:0:0:
320,60,794664,1,8,0:0:0:0:
352,44,794747,1,0,0:0:0:0:
384,32,794830,1,2,0:0:0:0:
420,28,794914,1,0,0:0:0:0:
456,40,794997,1,0,0:0:0:0:
480,64,795080,1,2,0:0:0:0:
488,100,795164,1,0,0:0:0:0:
480,136,795247,1,2,0:0:0:0:
456,160,795330,1,8,0:0:0:0:
424,176,795414,1,0,0:0:0:0:
388,188,795497,1,2,0:0:0:0:
360,208,795580,1,0,0:0:0:0:
344,240,795664,1,4,0:0:0:0:
256,192,795747,12,4,796997,0:0:0:0:
72,44,807671,5,4,0:0:0:0:
180,56,807837,2,0,P|240:84|264:164,2,135,0|0|0,0:0|0:0|0:0,0:0:0:0:
112,204,808587,2,0,P|68:260|68:352,1,135,0|2,0:0|0:0,0:0:0:0:
168,328,809004,5,0,0:0:0:0:
252,260,809171,2,0,P|332:280|392:264,1,135
472,132,809671,2,0,P|392:112|332:128,2,135,0|0|2,0:0|0:0|0:0,0:0:0:0:
452,236,810337,5,0,0:0:0:0:
372,308,810504,2,0,P|304:300|232:328,2,135
236,220,811254,2,0,P|184:160|96:160,1,135,0|2,0:0|0:0,0:0:0:0:
184,56,811671,5,0,0:0:0:0:
292,40,811837,2,0,P|348:104|416:96,1,135
420,264,812337,2,0,P|360:304|284:304,1,135
136,308,812837,1,2,0:0:0:0:
36,268,813004,6,0,P|12:184|28:152,1,90
140,84,813421,2,0,P|168:156|164:236,1,135
332,212,813921,2,0,P|334:144|360:83,1,135,0|2,0:0|0:0,0:0:0:0:
456,136,814337,5,0,0:0:0:0:
472,244,814504,1,0,0:0:0:0:
340,340,814754,1,0,0:0:0:0:
172,340,815004,1,0,0:0:0:0:
40,244,815254,1,0,0:0:0:0:
176,156,815504,1,2,0:0:0:0:
176,48,815671,5,0,0:0:0:0:
280,76,815837,2,0,B|380:80|380:80|404:136,1,135
280,228,816337,2,0,B|180:232|180:232|156:288,2,135,0|0|2,0:0|0:0|0:0,0:0:0:0:
344,316,817004,5,0,0:0:0:0:
328,316,817337,1,0,0:0:0:0:
316,316,817671,1,0,0:0:0:0:
304,316,818004,1,0,0:0:0:0:
128,344,818337,5,4,0:0:0:0:
157,250,818504,1,0,0:0:0:0:
300,86,818754,1,0,0:0:0:0:
281,303,819004,1,0,0:0:0:0:
169,116,819254,1,0,0:0:0:0:
369,201,819504,1,2,0:0:0:0:
122,158,819837,5,0,0:0:0:0:
383,140,820087,1,0,0:0:0:0:
183,308,820337,1,0,0:0:0:0:
246,55,820587,1,0,0:0:0:0:
344,297,820837,1,2,0:0:0:0:
171,50,821171,5,0,0:0:0:0:
407,256,821421,1,0,0:0:0:0:
95,229,821671,1,0,0:0:0:0:
364,67,821921,1,0,0:0:0:0:
241,356,822171,1,2,0:0:0:0:
303,0,822504,5,0,0:0:0:0:
330,375,822754,1,0,0:0:0:0:
88,87,823004,1,0,0:0:0:0:
453,178,823254,1,0,0:0:0:0:
104,319,823504,1,2,0:0:0:0:
48,248,823671,6,0,P|40:180|56:124,1,90
132,168,824004,2,0,P|140:120|184:88,1,90
244,44,824337,1,0,0:0:0:0:
224,132,824504,1,0,0:0:0:0:
224,132,824587,1,0,0:0:0:0:
224,132,824671,1,0,0:0:0:0:
312,152,824837,1,2,0:0:0:0:
312,152,824921,1,0,0:0:0:0:
312,152,825004,6,0,L|320:260,1,90
184,336,825337,2,0,L|232:260,2,90
120,184,825837,2,0,L|132:256,2,45
160,48,826171,1,2,0:0:0:0:
168,76,826254,1,0,0:0:0:0:
184,96,826337,5,0,0:0:0:0:
208,112,826421,1,0,0:0:0:0:
232,120,826504,1,0,0:0:0:0:
260,120,826587,1,0,0:0:0:0:
284,108,826671,1,0,0:0:0:0:
312,108,826754,1,0,0:0:0:0:
336,120,826837,1,0,0:0:0:0:
344,144,826921,1,0,0:0:0:0:
356,164,827004,6,0,L|424:212,3,45
392,216,827337,1,0,0:0:0:0:
388,244,827421,1,0,0:0:0:0:
372,264,827504,1,2,0:0:0:0:
348,276,827587,1,0,0:0:0:0:
320,276,827671,1,0,0:0:0:0:
256,192,827837,12,4,829004,0:0:0:0:
60,52,839671,5,2,0:0:0:0:
148,32,839837,1,0,0:0:0:0:
132,120,840004,1,0,0:0:0:0:
220,100,840171,2,0,P|276:124|304:248,1,180,0|0,0:0|0:0,0:0:0:0:
224,208,840671,1,0,0:0:0:0:
144,252,840837,1,0,0:0:0:0:
220,304,841004,6,0,P|300:356|388:336,1,180,2|0,0:0|0:0,0:0:0:0:
456,84,841671,1,2,0:0:0:0:
188,68,842004,1,0,0:0:0:0:
108,112,842171,1,0,0:0:0:0:
180,168,842337,6,0,P|92:216|88:324,1,180,2|0,0:0|0:0,0:0:0:0:
176,272,842837,2,0,P|224:344|320:340,1,180,2|0,0:0|0:0,0:0:0:0:
400,352,843337,1,0,0:0:0:0:
464,288,843504,1,0,0:0:0:0:
380,260,843671,6,0,P|371:173|284:132,1,180
312,44,844171,1,0,0:0:0:0:
232,84,844337,2,0,L|52:84,1,180,2|0,0:0|0:0,0:0:0:0:
28,172,844837,1,0,0:0:0:0:
48,260,845004,6,0,L|240:260,1,180,2|0,0:0|0:0,0:0:0:0:
288,328,845504,1,0,0:0:0:0:
288,328,845837,1,0,0:0:0:0:
380,332,846004,1,0,0:0:0:0:
460,288,846171,1,0,0:0:0:0:
472,200,846337,6,0,P|472:128|368:88,1,180,2|0,0:0|0:0,0:0:0:0:
388,172,846837,1,0,0:0:0:0:
336,244,847004,2,0,L|156:244,1,180,2|0,0:0|0:0,0:0:0:0:
100,316,847504,1,0,0:0:0:0:
64,232,847671,6,0,P|56:144|152:72,1,180,2|0,0:0|0:0,0:0:0:0:
136,168,848171,2,0,P|213:124|317:183,1,180,2|0,0:0|0:0,0:0:0:0:
220,204,848671,1,0,0:0:0:0:
188,288,848837,2,0,L|380:288,1,180
428,224,849337,5,0,0:0:0:0:
436,136,849504,2,0,L|408:48,1,90
348,120,849837,1,0,0:0:0:0:
344,212,850004,2,0,L|252:260,2,90,0|0|4,0:0|0:0|0:0,0:0:0:0:
272,160,850504,6,0,P|252:96|184:48,2,135
136,180,851254,2,0,P|64:272|68:316,1,135,0|2,0:0|0:0,0:0:0:0:
240,312,851837,6,0,P|316:324|404:308,1,135
324,192,852337,2,0,P|336:112|392:72,2,135,0|0|2,0:0|0:0|0:0,0:0:0:0:
216,48,853171,5,0,0:0:0:0:
48,188,853421,1,0,0:0:0:0:
216,336,853671,1,0,0:0:0:0:
80,56,853921,1,0,0:0:0:0:
80,328,854171,1,2,0:0:0:0:
296,48,854504,5,0,0:0:0:0:
464,188,854754,1,0,0:0:0:0:
296,336,855004,1,0,0:0:0:0:
432,56,855254,1,0,0:0:0:0:
432,328,855504,1,2,0:0:0:0:
312,196,855837,6,0,P|225:206|184:272,2,135
268,68,856587,1,0,0:0:0:0:
144,124,856837,1,2,0:0:0:0:
96,296,857171,5,0,0:0:0:0:
224,336,857421,1,0,0:0:0:0:
352,296,857671,1,0,0:0:0:0:
468,224,857921,2,0,P|452:128|392:108,1,135,0|2,0:0|0:0,0:0:0:0:
256,52,858504,5,0,0:0:0:0:
140,120,858754,1,0,0:0:0:0:
256,192,859004,1,0,0:0:0:0:
372,264,859254,1,0,0:0:0:0:
256,332,859504,1,2,0:0:0:0:
164,328,859671,5,0,0:0:0:0:
136,336,859754,1,0,0:0:0:0:
112,324,859837,1,0,0:0:0:0:
92,308,859921,2,0,L|52:228,1,90,2|0,0:0|0:0,0:0:0:0:
88,140,860254,1,2,0:0:0:0:
140,64,860421,2,0,L|176:36,2,45,0|0|2,0:0|0:0|0:0,0:0:0:0:
216,108,860754,1,0,0:0:0:0:
244,104,860837,1,0,0:0:0:0:
272,112,860921,1,0,0:0:0:0:
296,128,861004,5,0,0:0:0:0:
308,152,861087,1,0,0:0:0:0:
312,180,861171,1,0,0:0:0:0:
312,208,861254,1,2,0:0:0:0:
288,296,861421,1,2,0:0:0:0:
368,332,861587,1,2,0:0:0:0:
456,308,861754,2,0,L|452:352,2,45,0|0|0,0:0|0:0|0:0,0:0:0:0:
492,220,862087,1,0,0:0:0:0:
488,192,862171,1,0,0:0:0:0:
476,168,862254,1,0,0:0:0:0:
460,148,862337,5,0,0:0:0:0:
436,136,862421,1,0,0:0:0:0:
408,128,862504,1,0,0:0:0:0:
380,128,862587,1,0,0:0:0:0:
316,64,862754,2,0,P|256:72|212:40,1,90,2|2,0:0|0:0,0:0:0:0:
208,148,863087,2,0,L|144:148,2,45,2|0|0,0:0|0:0|0:0,0:0:0:0:
296,200,863421,1,0,0:0:0:0:
296,228,863504,1,0,0:0:0:0:
284,252,863587,1,0,0:0:0:0:
264,268,863671,5,0,0:0:0:0:
240,276,863754,1,0,0:0:0:0:
212,280,863837,1,0,0:0:0:0:
184,276,863921,1,0,0:0:0:0:
108,228,864087,1,2,0:0:0:0:
92,140,864254,1,2,0:0:0:0:
132,56,864421,1,2,0:0:0:0:
132,56,864504,1,0,0:0:0:0:
132,56,864587,1,0,0:0:0:0:
200,116,864754,1,0,0:0:0:0:
212,140,864837,1,0,0:0:0:0:
216,168,864921,1,0,0:0:0:0:
212,196,865004,5,0,0:0:0:0:
204,224,865087,1,0,0:0:0:0:
188,248,865171,1,0,0:0:0:0:
168,264,865254,1,0,0:0:0:0:
104,328,865421,1,2,0:0:0:0:
192,356,865587,1,2,0:0:0:0:
280,332,865754,1,2,0:0:0:0:
372,336,865921,1,2,0:0:0:0:
456,300,866087,1,0,0:0:0:0:
464,272,866171,1,0,0:0:0:0:
468,244,866254,1,0,0:0:0:0:
464,216,866337,5,0,0:0:0:0:
452,192,866421,1,0,0:0:0:0:
436,172,866504,1,0,0:0:0:0:
412,160,866587,1,0,0:0:0:0:
368,80,866754,2,0,P|328:48|256:48,1,90,2|2,0:0|0:0,0:0:0:0:
212,88,867087,2,0,L|184:48,2,45
132,128,867421,1,0,0:0:0:0:
148,148,867504,1,0,0:0:0:0:
156,172,867587,1,0,0:0:0:0:
148,196,867671,5,0,0:0:0:0:
132,216,867754,1,0,0:0:0:0:
64,272,867921,1,0,0:0:0:0:
128,336,868087,1,2,0:0:0:0:
216,316,868254,1,2,0:0:0:0:
304,336,868421,2,0,L|328:288,2,45,2|0|0,0:0|0:0|0:0,0:0:0:0:
392,328,868754,1,0,0:0:0:0:
408,308,868837,1,0,0:0:0:0:
420,284,868921,1,0,0:0:0:0:
424,256,869004,5,0,0:0:0:0:
428,228,869087,1,0,0:0:0:0:
424,200,869171,1,0,0:0:0:0:
420,172,869254,1,0,0:0:0:0:
416,144,869337,2,0,L|444:80,3,45,0|2|0|2,0:0|0:0|0:0|0:0,0:0:0:0:
360,92,869671,2,0,L|360:48,3,45
336,40,870004,1,0,0:0:0:0:
308,36,870087,1,0,0:0:0:0:
280,32,870171,1,0,0:0:0:0:
252,32,870254,1,0,0:0:0:0:
224,32,870337,5,0,0:0:0:0:
112,132,870504,2,0,L|104:192,1,45,0|2,0:0|0:0,0:0:0:0:
140,300,870754,2,0,P|176:328|236:316,1,90,2|2,0:0|0:0,0:0:0:0:
468,160,871171,2,0,P|464:204|456:232,1,45,2|0,0:0|0:0,0:0:0:0:
400,308,871421,1,0,0:0:0:0:
400,308,871504,1,0,0:0:0:0:
400,308,871587,1,0,0:0:0:0:
400,308,871671,6,0,P|336:288|312:248,1,107.999996704102,6|0,0:0|0:0,0:0:0:0:
356,224,871920,2,0,P|324:168|276:140,2,107.999996704102,0|0|0,0:0|0:0|0:0,0:0:0:0:
272,292,872420,1,2,0:0:0:0:
252,316,872504,1,0,0:0:0:0:
220,320,872587,1,2,0:0:0:0:
64,284,872754,1,0,0:0:0:0:
76,256,872837,1,0,0:0:0:0:
92,228,872920,1,0,0:0:0:0:
108,199,873004,5,2,0:0:0:0:
123,171,873087,1,0,0:0:0:0:
140,143,873170,1,0,0:0:0:0:
156,115,873254,1,0,0:0:0:0:
432,156,873420,1,0,0:0:0:0:
216,228,873587,1,0,0:0:0:0:
304,56,873754,1,2,0:0:0:0:
392,328,873920,1,2,0:0:0:0:
336,204,874087,1,0,0:0:0:0:
320,232,874170,1,0,0:0:0:0:
301,259,874254,1,0,0:0:0:0:
284,286,874337,5,2,0:0:0:0:
267,313,874420,1,0,0:0:0:0:
249,341,874504,1,0,0:0:0:0:
232,368,874587,1,0,0:0:0:0:
92,320,874754,1,0,0:0:0:0:
52,168,874920,1,0,0:0:0:0:
172,44,875087,1,2,0:0:0:0:
196,32,875170,1,0,0:0:0:0:
224,40,875254,1,2,0:0:0:0:
337,89,875420,2,0,L|380:56,1,53.9999983520508
377,169,875587,2,0,L|336:204,1,53.9999983520508,0|2,0:0|0:0,0:0:0:0:
461,206,875754,6,0,L|500:168,1,53.9999983520508
468,292,875920,2,0,P|424:336|344:324,2,107.999996704102,0|0|0,0:0|0:0|0:0,0:0:0:0:
156,320,876420,1,2,0:0:0:0:
336,272,876587,1,2,0:0:0:0:
112,252,876754,1,0,0:0:0:0:
84,236,876837,1,0,0:0:0:0:
68,208,876920,1,0,0:0:0:0:
60,176,877004,5,2,0:0:0:0:
64,144,877087,1,0,0:0:0:0:
84,120,877170,1,0,0:0:0:0:
112,100,877254,2,0,P|156:68|244:96,2,107.999996704102
224,188,877754,2,0,L|200:240,2,53.9999983520508,2|0|2,0:0|0:0|0:0,0:0:0:0:
400,48,878087,2,0,L|312:76,1,53.9999983520508
416,132,878254,2,0,L|328:168,1,53.9999983520508,0|2,0:0|0:0,0:0:0:0:
432,224,878420,6,0,L|352:256,1,53.9999983520508
432,320,878587,2,0,L|312:348,2,107.999996704102
168,232,879087,2,0,L|196:292,2,53.9999983520508,2|0|2,0:0|0:0|0:0,0:0:0:0:
252,44,879420,2,0,L|184:104,1,53.9999983520508
288,112,879587,2,0,L|264:172,1,53.9999983520508,0|2,0:0|0:0,0:0:0:0:
348,164,879754,6,0,L|336:236,1,53.9999983520508
420,192,879920,1,0,0:0:0:0:
284,340,880087,1,0,0:0:0:0:
84,300,880254,1,0,0:0:0:0:
68,96,880420,1,2,0:0:0:0:
68,96,880504,1,0,0:0:0:0:
68,96,880587,1,2,0:0:0:0:
192,36,880754,2,0,L|176:120,1,53.9999983520508
249,127,880920,2,0,L|236:180,2,53.9999983520508,0|2|0,0:0|0:0|0:0,0:0:0:0:
320,184,881170,6,0,L|296:244,1,53.9999983520508,0|2,0:0|0:0,0:0:0:0:
456,80,881420,1,2,0:0:0:0:
460,324,881587,1,2,0:0:0:0:
192,348,881754,2,0,L|244:320,2,53.9999983520508,0|2|2,0:0|0:0|0:0,0:0:0:0:
152,120,882087,1,0,0:0:0:0:
120,116,882170,1,0,0:0:0:0:
92,136,882254,1,0,0:0:0:0:
72,164,882337,5,6,0:0:0:0:
68,196,882420,1,0,0:0:0:0:
76,228,882504,1,0,0:0:0:0:
100,252,882587,2,0,P|172:284|220:232,2,107.999996704102,0|0|0,0:0|0:0|0:0,0:0:0:0:
388,276,883087,2,0,L|428:208,2,53.9999983520508,2|0|2,0:0|0:0|0:0,0:0:0:0:
416,48,883420,2,0,L|360:48,1,53.9999983520508
368,124,883587,2,0,L|296:124,1,53.9999983520508,0|2,0:0|0:0,0:0:0:0:
320,200,883754,6,0,L|256:200,1,53.9999983520508
276,272,883920,2,0,P|236:324|152:332,2,107.999996704102,0|0|0,0:0|0:0|0:0,0:0:0:0:
120,180,884420,1,2,0:0:0:0:
120,180,884504,1,0,0:0:0:0:
120,180,884587,1,2,0:0:0:0:
260,32,884754,1,0,0:0:0:0:
292,36,884837,1,0,0:0:0:0:
312,60,884920,1,0,0:0:0:0:
292,88,885004,5,2,0:0:0:0:
276,116,885087,1,0,0:0:0:0:
280,148,885170,1,0,0:0:0:0:
296,176,885254,2,0,P|324:240|396:256,2,107.999996704102,0|0|0,0:0|0:0|0:0,0:0:0:0:
280,312,885754,2,0,L|252:368,2,53.9999983520508,2|0|2,0:0|0:0|0:0,0:0:0:0:
88,324,886087,2,0,L|52:276,1,53.9999983520508
112,205,886254,2,0,L|132:256,1,53.9999983520508,0|2,0:0|0:0,0:0:0:0:
204,204,886420,6,0,L|184:128,1,53.9999983520508
260,96,886587,2,0,P|276:156|336:196,2,107.999996704102,0|0|0,0:0|0:0|0:0,0:0:0:0:
468,216,887087,1,2,0:0:0:0:
424,68,887254,1,2,0:0:0:0:
304,260,887420,1,0,0:0:0:0:
276,280,887504,1,0,0:0:0:0:
248,300,887587,1,0,0:0:0:0:
220,316,887670,5,2,0:0:0:0:
188,328,887754,1,0,0:0:0:0:
156,336,887837,1,0,0:0:0:0:
124,340,887920,2,0,P|48:320|24:276,2,107.999996704102,0|0|0,0:0|0:0|0:0,0:0:0:0:
116,168,888420,2,0,L|96:232,2,53.9999983520508,2|0|2,0:0|0:0|0:0,0:0:0:0:
232,64,888754,1,0,0:0:0:0:
264,72,888837,1,0,0:0:0:0:
292,88,888920,1,0,0:0:0:0:
312,116,889004,5,2,0:0:0:0:
324,148,889087,1,0,0:0:0:0:
332,180,889170,1,0,0:0:0:0:
328,212,889254,1,0,0:0:0:0:
380,352,889420,1,0,0:0:0:0:
468,228,889587,1,0,0:0:0:0:
240,312,889754,1,2,0:0:0:0:
240,312,889837,1,0,0:0:0:0:
240,312,889920,1,2,0:0:0:0:
76,260,890087,1,0,0:0:0:0:
60,224,890170,1,0,0:0:0:0:
52,188,890254,1,0,0:0:0:0:
52,152,890337,5,2,0:0:0:0:
68,116,890420,1,0,0:0:0:0:
92,88,890504,1,0,0:0:0:0:
124,68,890587,2,0,P|184:88|228:132,2,107.999996704102,0|0|0,0:0|0:0|0:0,0:0:0:0:
256,216,891087,2,0,L|192:248,2,53.9999983520508,2|0|2,0:0|0:0|0:0,0:0:0:0:
296,84,891420,1,0,0:0:0:0:
340,112,891504,1,0,0:0:0:0:
356,160,891587,2,0,L|428:180,2,53.9999983520508,0|2|0,0:0|0:0|0:0,0:0:0:0:
348,204,891837,6,0,L|300:252,1,53.9999983520508,0|2,0:0|0:0,0:0:0:0:
156,340,892087,2,0,P|136:288|140:232,1,107.999996704102,2|2,0:0|0:0,0:0:0:0:
76,76,892420,2,0,L|116:112,2,53.9999983520508,0|2|2,0:0|0:0|0:0,0:0:0:0:
256,40,892754,1,0,0:0:0:0:
276,72,892837,1,0,0:0:0:0:
264,108,892920,1,0,0:0:0:0:
252,144,893004,6,0,P|264:248|360:272,1,215.999993408203,2|4,0:0|0:0,0:0:0:0:
396,260,893420,2,0,P|416:200|464:168,1,107.999996704102
464,340,893754,1,2,0:0:0:0:
464,340,893837,1,0,0:0:0:0:
464,340,893920,1,2,0:0:0:0:
304,336,894087,2,0,L|260:288,1,53.9999983520508
184,336,894254,2,0,L|172:252,1,53.9999983520508,0|2,0:0|0:0,0:0:0:0:
96,292,894420,6,0,L|116:208,1,53.9999983520508
40,192,894587,2,0,P|68:112|96:88,2,107.999996704102,0|0|0,0:0|0:0|0:0,0:0:0:0:
200,148,895087,2,0,L|176:208,2,53.9999983520508,2|0|2,0:0|0:0|0:0,0:0:0:0:
296,32,895420,2,0,L|376:48,1,53.9999983520508
416,112,895587,2,0,L|328:120,1,53.9999983520508,0|2,0:0|0:0,0:0:0:0:
300,204,895754,6,0,L|372:196,1,53.9999983520508
420,264,895920,2,0,P|380:320|304:336,2,107.999996704102,0|0|0,0:0|0:0|0:0,0:0:0:0:
212,312,896420,1,2,0:0:0:0:
212,312,896504,1,0,0:0:0:0:
212,312,896587,1,2,0:0:0:0:
60,200,896754,1,0,0:0:0:0:
64,164,896837,1,0,0:0:0:0:
76,128,896920,1,0,0:0:0:0:
104,100,897004,5,2,0:0:0:0:
136,84,897087,1,0,0:0:0:0:
172,96,897170,1,0,0:0:0:0:
196,124,897254,1,0,0:0:0:0:
384,92,897420,1,0,0:0:0:0:
264,260,897587,1,0,0:0:0:0:
472,344,897754,2,0,P|480:288|472:232,1,107.999996704102,2|2,0:0|0:0,0:0:0:0:
288,68,898087,1,0,0:0:0:0:
304,100,898170,1,0,0:0:0:0:
300,136,898254,1,0,0:0:0:0:
276,164,898337,5,2,0:0:0:0:
244,184,898420,1,0,0:0:0:0:
208,188,898504,1,0,0:0:0:0:
172,172,898587,1,0,0:0:0:0:
56,304,898754,1,0,0:0:0:0:
232,336,898920,1,0,0:0:0:0:
376,252,899087,2,0,L|416:200,2,53.9999983520508,2|0|2,0:0|0:0|0:0,0:0:0:0:
352,64,899420,1,0,0:0:0:0:
332,96,899504,1,0,0:0:0:0:
300,112,899587,1,0,0:0:0:0:
264,112,899670,5,2,0:0:0:0:
228,100,899754,1,0,0:0:0:0:
204,72,899837,1,0,0:0:0:0:
184,40,899920,2,0,P|120:44|56:80,2,107.999996704102,0|0|0,0:0|0:0|0:0,0:0:0:0:
100,228,900420,1,2,0:0:0:0:
140,228,900504,1,0,0:0:0:0:
168,252,900587,1,2,0:0:0:0:
280,344,900754,2,0,L|348:332,1,53.9999983520508
316,256,900920,2,0,L|404:232,1,53.9999983520508,0|2,0:0|0:0,0:0:0:0:
352,168,901087,6,0,L|416:124,1,53.9999983520508
336,76,901254,2,0,L|464:32,2,107.999996704102,0|0|0,0:0|0:0|0:0,0:0:0:0:
480,176,901754,1,2,0:0:0:0:
468,212,901837,1,0,0:0:0:0:
440,236,901920,1,2,0:0:0:0:
284,216,902087,1,0,0:0:0:0:
272,180,902170,1,0,0:0:0:0:
248,152,902254,1,0,0:0:0:0:
212,136,902337,5,2,0:0:0:0:
176,140,902420,1,0,0:0:0:0:
144,164,902504,2,0,L|84:168,1,53.9999983520508,0|2,0:0|0:0,0:0:0:0:
168,352,902754,1,2,0:0:0:0:
32,288,902920,1,2,0:0:0:0:
48,112,903087,1,0,0:0:0:0:
48,112,903170,1,2,0:0:0:0:
48,112,903254,1,2,0:0:0:0:
216,36,903420,1,0,0:0:0:0:
252,52,903504,1,0,0:0:0:0:
276,84,903587,1,0,0:0:0:0:
276,120,903670,5,6,0:0:0:0:
256,152,903754,1,0,0:0:0:0:
220,168,903837,1,0,0:0:0:0:
188,192,903920,2,0,P|152:252|192:292,2,107.999996704102,0|0|0,0:0|0:0|0:0,0:0:0:0:
348,336,904420,1,2,0:0:0:0:
332,300,904504,1,0,0:0:0:0:
352,268,904587,1,2,0:0:0:0:
460,156,904754,1,0,0:0:0:0:
460,120,904837,1,0,0:0:0:0:
440,88,904920,1,0,0:0:0:0:
408,64,905004,5,2,0:0:0:0:
372,52,905087,1,0,0:0:0:0:
336,60,905170,1,0,0:0:0:0:
304,84,905254,2,0,P|244:120|176:92,2,107.999996704102,0|0|0,0:0|0:0|0:0,0:0:0:0:
320,216,905754,2,0,L|292:268,2,53.9999983520508,2|0|2,0:0|0:0|0:0,0:0:0:0:
216,328,906087,2,0,L|136:332,1,53.9999983520508
172,240,906254,2,0,L|96:280,1,53.9999983520508,0|2,0:0|0:0,0:0:0:0:
100,168,906420,6,0,L|56:236,1,53.9999983520508
52,72,906587,2,0,P|16:156|-4:204,2,107.999996704102,0|0|0,0:0|0:0|0:0,0:0:0:0:
228,48,907087,2,0,L|144:56,2,53.9999983520508,2|0|2,0:0|0:0|0:0,0:0:0:0:
224,172,907420,1,0,0:0:0:0:
188,184,907504,1,0,0:0:0:0:
168,216,907587,1,0,0:0:0:0:
164,252,907670,5,2,0:0:0:0:
172,288,907754,1,0,0:0:0:0:
204,308,907837,1,0,0:0:0:0:
240,304,907920,1,0,0:0:0:0:
412,336,908087,1,0,0:0:0:0:
464,196,908254,1,0,0:0:0:0:
352,64,908420,2,0,P|352:124|320:160,1,107.999996704102,2|2,0:0|0:0,0:0:0:0:
216,52,908754,2,0,L|136:56,1,53.9999983520508
168,136,908920,2,0,L|88:152,1,53.9999983520508,0|6,0:0|0:0,0:0:0:0:
132,224,909087,6,0,L|76:260,1,53.9999983520508
172,296,909254,2,0,P|120:328|72:368,2,107.999996704102,0|0|0,0:0|0:0|0:0,0:0:0:0:
333,341,909754,2,0,L|280:332,2,53.9999983520508,2|0|2,0:0|0:0|0:0,0:0:0:0:
424,272,910087,2,0,L|472:220,1,53.9999983520508
448,128,910254,2,0,L|392:184,1,53.9999983520508,0|6,0:0|0:0,0:0:0:0:
304,176,910420,6,0,L|360:108,1,53.9999983520508
352,44,910587,2,0,L|248:76,2,107.999996704102,0|0|0,0:0|0:0|0:0,0:0:0:0:
156,44,911087,2,0,L|120:104,2,53.9999983520508,2|0|2,0:0|0:0|0:0,0:0:0:0:
48,168,911420,1,0,0:0:0:0:
52,204,911504,1,0,0:0:0:0:
84,228,911587,1,0,0:0:0:0:
120,228,911670,5,2,0:0:0:0:
156,236,911754,1,0,0:0:0:0:
180,264,911837,1,0,0:0:0:0:
192,300,911920,1,0,0:0:0:0:
176,336,912004,1,0,0:0:0:0:
140,352,912087,1,0,0:0:0:0:
104,352,912170,1,0,0:0:0:0:
72,332,912254,1,0,0:0:0:0:
68,296,912337,5,0,0:0:0:0:
80,260,912420,1,2,0:0:0:0:
108,236,912504,1,0,0:0:0:0:
144,228,912587,1,2,0:0:0:0:
180,216,912670,1,0,0:0:0:0:
204,188,912754,1,0,0:0:0:0:
220,152,912837,1,0,0:0:0:0:
216,116,912920,1,0,0:0:0:0:
204,80,913004,5,0,0:0:0:0:
396,48,913170,2,0,L|360:104,1,53.9999983520508,0|2,0:0|0:0,0:0:0:0:
444,208,913420,1,2,0:0:0:0:
324,344,913587,1,2,0:0:0:0:
304,192,913754,2,0,L|296:136,2,53.9999983520508,0|2|2,0:0|0:0|0:0,0:0:0:0:
188,344,914087,1,0,0:0:0:0:
152,352,914170,1,0,0:0:0:0:
116,340,914254,1,0,0:0:0:0:
96,312,914339,6,0,P|104:236|132:208,1,90,4|2,0:0|0:0,0:0:0:0:
224,76,914673,2,0,P|224:136|188:172,1,90
244,280,915006,1,0,0:0:0:0:
92,124,915173,1,2,0:0:0:0:
312,152,915339,6,0,L|424:120,1,90,0|0,0:0|0:0,0:0:0:0:
408,308,915672,1,0,0:0:0:0:
308,272,915839,2,0,P|260:272|208:320,1,90,2|0,0:0|0:0,0:0:0:0:
388,200,916172,2,0,P|416:172|500:164,1,90,0|0,0:0|0:0,0:0:0:0:
224,40,916505,2,0,P|228:96|248:140,1,90,2|0,0:0|0:0,0:0:0:0:
128,328,916839,2,0,P|116:276|80:244,1,90,0|0,0:0|0:0,0:0:0:0:
120,68,917172,6,0,P|72:108|48:152,1,90,2|0,0:0|0:0,0:0:0:0:
392,316,917505,2,0,P|440:276|464:232,1,90,0|0,0:0|0:0,0:0:0:0:
120,316,917839,2,0,P|72:276|48:232,1,90,2|0,0:0|0:0,0:0:0:0:
392,68,918172,2,0,P|440:108|464:152,1,90,0|0,0:0|0:0,0:0:0:0:
32,280,918505,6,0,L|164:280,1,90,2|0,0:0|0:0,0:0:0:0:
480,104,918839,2,0,L|348:104,1,90
32,104,919172,2,0,L|164:104,1,90,2|0,0:0|0:0,0:0:0:0:
480,280,919506,2,0,L|348:280,1,90
224,304,919839,5,2,0:0:0:0:
288,240,920005,2,0,P|296:168|284:116,1,90
316,332,920339,1,0,0:0:0:0:
388,284,920505,2,0,P|420:216|408:168,1,90,2|0,0:0|0:0,0:0:0:0:
472,40,920839,1,0,0:0:0:0:
208,92,921005,5,0,0:0:0:0:
316,88,921172,2,0,P|320:144|352:200,1,90,2|0,0:0|0:0,0:0:0:0:
108,148,921505,1,0,0:0:0:0:
132,240,921672,2,0,P|168:292|228:296,1,90,0|2,0:0|0:0,0:0:0:0:
32,188,922005,1,0,0:0:0:0:
184,352,922172,1,0,0:0:0:0:
160,40,922339,5,0,0:0:0:0:
104,192,922506,2,0,P|176:200|212:228,1,90,2|0,0:0|0:0,0:0:0:0:
256,344,922839,2,0,P|264:272|292:236,1,90
408,192,923172,2,0,P|336:184|300:156,1,90,2|0,0:0|0:0,0:0:0:0:
256,40,923505,2,0,P|248:112|220:148,1,90
152,312,923839,5,2,0:0:0:0:
224,256,924005,1,0,0:0:0:0:
312,280,924172,1,0,0:0:0:0:
332,296,924255,1,0,0:0:0:0:
360,296,924339,1,0,0:0:0:0:
384,288,924422,1,0,0:0:0:0:
404,268,924505,1,2,0:0:0:0:
412,244,924589,1,0,0:0:0:0:
416,216,924672,1,0,0:0:0:0:
408,192,924755,1,0,0:0:0:0:
396,168,924839,1,0,0:0:0:0:
376,148,924922,1,0,0:0:0:0:
360,128,925005,6,0,P|356:72|324:36,1,90,4|2,0:0|0:0,0:0:0:0:
132,48,925339,2,0,P|140:104|168:140,1,90
264,336,925672,1,0,0:0:0:0:
300,192,925839,1,2,0:0:0:0:
180,264,926005,2,0,P|132:296|68:296,1,90
48,60,926339,5,0,0:0:0:0:
56,200,926505,2,0,P|116:168|176:168,1,90,2|0,0:0|0:0,0:0:0:0:
456,200,926839,2,0,P|396:168|336:168,1,90
256,360,927172,2,0,L|256:264,1,90,2|0,0:0|0:0,0:0:0:0:
256,104,927505,1,0,0:0:0:0:
256,104,927589,1,0,0:0:0:0:
256,104,927672,1,0,0:0:0:0:
56,204,927839,6,0,P|32:152|36:96,1,90,2|0,0:0|0:0,0:0:0:0:
153,256,928172,2,0,P|142:212|144:168,1,90
281,321,928505,2,0,P|249:290|236:248,1,90,2|0,0:0|0:0,0:0:0:0:
423,319,928839,2,0,P|382:303|356:268,1,90
423,64,929172,6,0,P|382:80|356:115,1,90,2|0,0:0|0:0,0:0:0:0:
281,62,929506,2,0,P|249:93|236:135,1,90
153,127,929839,2,0,P|142:171|144:216,1,90,2|0,0:0|0:0,0:0:0:0:
55,180,930172,2,0,P|34:219|30:263,1,90,0|4,0:0|0:0,0:0:0:0:
156,324,930505,5,2,0:0:0:0:
156,324,930589,1,0,0:0:0:0:
156,324,930672,1,0,0:0:0:0:
256,224,930839,1,0,0:0:0:0:
256,224,930922,1,0,0:0:0:0:
256,224,931005,1,4,0:0:0:0:
356,324,931172,1,2,0:0:0:0:
356,324,931256,1,0,0:0:0:0:
356,324,931339,1,0,0:0:0:0:
456,224,931505,1,0,0:0:0:0:
456,224,931588,1,0,0:0:0:0:
456,224,931671,5,4,0:0:0:0:
412,56,931839,2,0,L|384:108,2,45,2|0|0,0:0|0:0|0:0,0:0:0:0:
100,328,932172,2,0,L|128:276,2,45,0|0|4,0:0|0:0|0:0,0:0:0:0:
100,56,932505,2,0,L|128:108,2,45,2|0|0,0:0|0:0|0:0,0:0:0:0:
208,176,932839,1,0,0:0:0:0:
212,204,932922,1,0,0:0:0:0:
224,228,933005,5,0,0:0:0:0:
252,236,933089,1,0,0:0:0:0:
280,232,933172,1,2,0:0:0:0:
300,212,933255,1,0,0:0:0:0:
312,188,933339,2,0,L|352:136,3,45,0|0|0|0,0:0|0:0|0:0|0:0,0:0:0:0:
364,148,933672,5,0,0:0:0:0:
392,152,933755,1,0,0:0:0:0:
412,168,933839,1,2,0:0:0:0:
420,192,933922,1,0,0:0:0:0:
416,220,934005,1,0,0:0:0:0:
408,244,934089,1,0,0:0:0:0:
408,272,934172,1,0,0:0:0:0:
420,296,934255,1,0,0:0:0:0:
444,304,934339,1,0,0:0:0:0:
256,192,934505,12,4,935672,0:0:0:0:
96,80,946339,5,0,0:0:0:0:
276,68,946672,1,2,0:0:0:0:
348,120,946839,1,0,0:0:0:0:
264,156,947005,1,2,0:0:0:0:
264,156,947172,2,0,P|204:180|180:224,1,90
268,244,947505,1,2,0:0:0:0:
224,324,947672,5,2,0:0:0:0:
316,320,947839,2,0,P|392:328|428:304,1,90,2|0,0:0|0:0,0:0:0:0:
364,240,948172,2,0,P|416:200|424:72,1,180,2|2,0:0|0:0,0:0:0:0:
100,60,948839,1,2,0:0:0:0:
68,144,949005,5,2,0:0:0:0:
68,144,949339,1,2,0:0:0:0:
40,228,949505,2,0,P|60:320|160:340,2,180,2|2|2,0:0|0:0|0:0,0:0:0:0:
128,256,950339,5,0,0:0:0:0:
216,232,950505,1,0,0:0:0:0:
236,320,950672,1,2,0:0:0:0:
416,328,951005,2,0,L|476:252,1,90,2|0,0:0|0:0,0:0:0:0:
384,244,951339,2,0,L|416:144,1,90,2|0,0:0|0:0,0:0:0:0:
320,136,951672,6,0,L|304:48,1,90,2|0,0:0|0:0,0:0:0:0:
224,112,952005,1,0,0:0:0:0:
244,200,952172,1,0,0:0:0:0:
324,240,952339,2,0,L|272:320,1,90,2|0,0:0|0:0,0:0:0:0:
192,280,952672,1,0,0:0:0:0:
116,332,952839,1,0,0:0:0:0:
72,256,953005,6,0,P|40:220|28:160,1,90,2|0,0:0|0:0,0:0:0:0:
124,172,953339,1,0,0:0:0:0:
64,96,953505,2,0,P|116:76|184:96,1,90,2|0,0:0|0:0,0:0:0:0:
208,156,953839,1,0,0:0:0:0:
240,72,954005,2,0,P|300:132|268:224,1,180,2|0,0:0|0:0,0:0:0:0:
256,192,954505,12,0,955672,0:0:0:0:
56,336,957005,5,2,0:0:0:0:
256,40,957505,1,2,0:0:0:0:
456,336,958005,1,2,0:0:0:0:
88,192,958339,6,0,P|132:168|184:192,1,90,2|0,0:0|0:0,0:0:0:0:
424,192,958672,2,0,P|380:168|328:192,1,90,2|0,0:0|0:0,0:0:0:0:
68,332,959005,2,0,P|144:328|184:296,1,90,2|0,0:0|0:0,0:0:0:0:
444,332,959339,2,0,P|368:328|328:296,1,90,2|0,0:0|0:0,0:0:0:0:
256,344,959672,5,2,0:0:0:0:
56,48,960172,1,2,0:0:0:0:
456,48,960672,1,2,0:0:0:0:
468,352,961005,6,0,L|408:264,1,90,2|0,0:0|0:0,0:0:0:0:
168,44,961339,2,0,L|188:160,1,90,2|0,0:0|0:0,0:0:0:0:
344,44,961672,2,0,L|324:160,1,90,2|0,0:0|0:0,0:0:0:0:
44,352,962005,2,0,L|104:264,1,90,2|0,0:0|0:0,0:0:0:0:
40,192,962339,5,2,0:0:0:0:
468,352,962839,1,2,0:0:0:0:
468,32,963339,1,2,0:0:0:0:
196,92,963672,6,0,P|148:72|80:92,1,90,2|0,0:0|0:0,0:0:0:0:
316,292,964005,2,0,P|364:312|432:292,1,90,2|0,0:0|0:0,0:0:0:0:
156,252,964339,2,0,P|136:300|156:368,1,90,2|0,0:0|0:0,0:0:0:0:
356,132,964672,2,0,P|376:84|356:16,1,90,2|0,0:0|0:0,0:0:0:0:
40,188,965005,5,2,0:0:0:0:
476,40,965505,1,2,0:0:0:0:
476,344,966005,1,2,0:0:0:0:
136,188,966339,6,0,P|144:128|184:80,1,90,2|0,0:0|0:0,0:0:0:0:
228,164,966672,2,0,P|220:224|180:272,1,90,2|0,0:0|0:0,0:0:0:0:
112,272,967005,1,2,0:0:0:0:
128,296,967089,1,0,0:0:0:0:
148,312,967172,1,0,0:0:0:0:
172,320,967255,1,0,0:0:0:0:
200,320,967339,1,2,0:0:0:0:
324,348,967505,1,0,0:0:0:0:
368,244,967672,6,0,P|408:172|396:136,1,90,4|0,0:0|0:0,0:0:0:0:
337,82,968005,2,0,P|312:120|312:168,1,90,0|0,0:0|0:0,0:0:0:0:
252,232,968339,1,0,0:0:0:0:
164,212,968505,1,0,0:0:0:0:
112,140,968672,1,0,0:0:0:0:
72,60,968839,1,0,0:0:0:0:
64,148,969005,6,0,P|64:216|48:264,1,90
92,320,969339,1,0,0:0:0:0:
92,320,969422,1,0,0:0:0:0:
92,320,969505,1,0,0:0:0:0:
92,320,969589,1,0,0:0:0:0:
92,320,969672,2,0,P|152:308|220:312,1,90
272,312,970005,2,0,L|344:336,1,45
328,252,970172,2,0,L|392:256,1,45
376,176,970339,6,0,P|412:124|484:120,2,135,2|2|2,0:0|0:0|0:0,0:0:0:0:
264,96,971089,2,0,P|204:56|120:64,1,135,2|2,0:0|0:0,0:0:0:0:
64,96,971505,1,2,0:0:0:0:
40,184,971672,6,0,P|68:268|136:292,2,135,2|2|2,0:0|0:0|0:0,0:0:0:0:
176,204,972422,2,0,P|228:248|240:316,1,135,2|2,0:0|0:0,0:0:0:0:
328,328,972838,1,0,0:0:0:0:
328,328,972922,1,0,0:0:0:0:
328,328,973005,6,0,P|368:296|372:236,1,90,4|0,0:0|0:0,0:0:0:0:
380,232,973255,1,0,0:0:0:0:
376,204,973338,1,0,0:0:0:0:
364,180,973422,1,0,0:0:0:0:
344,160,973505,1,0,0:0:0:0:
320,152,973588,1,0,0:0:0:0:
292,160,973672,6,0,L|212:176,3,45,0|0|0|0,0:0|0:0|0:0|0:0,0:0:0:0:
228,188,974005,1,0,0:0:0:0:
216,212,974088,1,0,0:0:0:0:
204,236,974172,1,0,0:0:0:0:
204,264,974255,1,0,0:0:0:0:
212,288,974338,5,0,0:0:0:0:
216,316,974422,1,0,0:0:0:0:
196,332,974505,1,0,0:0:0:0:
172,340,974588,1,0,0:0:0:0:
144,336,974672,2,0,L|60:308,3,45,0|0|0|0,0:0|0:0|0:0|0:0,0:0:0:0:
80,308,975005,5,0,0:0:0:0:
60,288,975088,1,0,0:0:0:0:
48,264,975172,1,0,0:0:0:0:
40,236,975255,1,0,0:0:0:0:
40,208,975338,1,0,0:0:0:0:
40,180,975422,1,0,0:0:0:0:
56,160,975505,1,0,0:0:0:0:
80,152,975588,1,0,0:0:0:0:
104,140,975672,6,0,L|152:88,3,45,2|0|0|2,0:0|0:0|0:0|0:0,0:0:0:0:
156,88,976005,1,0,0:0:0:0:
180,76,976088,1,0,0:0:0:0:
204,88,976172,1,2,0:0:0:0:
216,112,976255,1,0,0:0:0:0:
220,140,976338,5,0,0:0:0:0:
232,164,976422,1,2,0:0:0:0:
256,180,976505,1,0,0:0:0:0:
284,184,976588,1,0,0:0:0:0:
308,176,976672,1,2,0:0:0:0:
332,160,976755,1,0,0:0:0:0:
352,144,976838,1,2,0:0:0:0:
368,120,976922,1,0,0:0:0:0:
372,92,977005,6,0,P|424:48|508:40,1,135,2|2,0:0|0:0,0:0:0:0:
456,168,977505,2,0,L|420:308,2,135,2|2|2,0:0|0:0|0:0,0:0:0:0:
196,48,978338,5,6,0:0:0:0:
316,336,978588,1,2,0:0:0:0:
44,236,978838,1,2,0:0:0:0:
468,148,979088,1,0,0:0:0:0:
436,152,979172,1,0,0:0:0:0:
404,164,979255,1,0,0:0:0:0:
376,180,979338,2,0,P|336:224|280:228,1,112.5,2|0,0:0|0:0,0:0:0:0:
148,92,979672,6,0,P|128:176|152:280,2,168.75,2|2|2,0:0|0:0|0:0,0:0:0:0:
356,336,980422,1,0,0:0:0:0:
372,308,980505,1,0,0:0:0:0:
388,280,980588,1,0,0:0:0:0:
404,248,980672,1,2,0:0:0:0:
460,144,980838,1,0,0:0:0:0:
340,128,981005,6,0,P|268:84|160:84,2,168.75,2|2|2,0:0|0:0|0:0,0:0:0:0:
72,52,981755,2,0,P|72:144|108:232,1,168.75,2|2,0:0|0:0,0:0:0:0:
108,328,982172,1,2,0:0:0:0:
208,276,982338,6,0,P|280:244|372:260,1,168.75,2|2,0:0|0:0,0:0:0:0:
464,48,982838,2,0,P|416:120|436:244,2,168.75,2|2|2,0:0|0:0|0:0,0:0:0:0:
280,40,983505,1,0,0:0:0:0:
140,100,983672,5,2,0:0:0:0:
92,332,983922,1,2,0:0:0:0:
312,248,984172,1,2,0:0:0:0:
352,16,984422,1,0,0:0:0:0:
344,48,984505,1,0,0:0:0:0:
336,80,984588,1,0,0:0:0:0:
328,112,984672,2,0,P|272:136|236:172,1,112.5,2|0,0:0|0:0,0:0:0:0:
180,64,985005,5,2,0:0:0:0:
60,268,985255,1,2,0:0:0:0:
288,332,985505,1,2,0:0:0:0:
416,136,985755,1,0,0:0:0:0:
392,160,985838,1,0,0:0:0:0:
368,184,985922,1,0,0:0:0:0:
344,208,986005,2,0,P|288:232|232:232,1,112.5,2|0,0:0|0:0,0:0:0:0:
192,120,986338,6,0,P|104:148|48:208,2,168.75,2|2|2,0:0|0:0|0:0,0:0:0:0:
136,328,987088,1,2,0:0:0:0:
352,352,987338,2,0,P|412:336|456:284,2,112.5,2|2|2,0:0|0:0|0:0,0:0:0:0:
400,144,987922,1,2,0:0:0:0:
204,56,988172,2,0,P|112:68|76:160,2,168.75,2|2|2,0:0|0:0|0:0,0:0:0:0:
244,204,988838,1,0,0:0:0:0:
316,336,989005,5,6,0:0:0:0:
196,48,989255,1,2,0:0:0:0:
468,148,989505,1,2,0:0:0:0:
44,236,989755,1,0,0:0:0:0:
76,232,989839,1,0,0:0:0:0:
108,220,989922,1,0,0:0:0:0:
136,204,990005,2,0,P|176:160|232:156,1,112.5,2|0,0:0|0:0,0:0:0:0:
364,292,990339,6,0,P|384:208|360:104,2,168.75,2|2|2,0:0|0:0|0:0,0:0:0:0:
156,48,991089,1,0,0:0:0:0:
140,76,991172,1,0,0:0:0:0:
124,104,991255,1,0,0:0:0:0:
108,136,991339,1,2,0:0:0:0:
56,236,991505,1,0,0:0:0:0:
172,256,991672,6,0,P|244:300|352:300,2,168.75,2|2|2,0:0|0:0|0:0,0:0:0:0:
440,332,992422,2,0,P|440:240|404:152,1,168.75,2|2,0:0|0:0,0:0:0:0:
404,56,992839,1,2,0:0:0:0:
304,108,993005,6,0,P|232:140|140:124,1,168.75,2|2,0:0|0:0,0:0:0:0:
48,336,993505,2,0,P|96:264|76:140,2,168.75,2|2|2,0:0|0:0|0:0,0:0:0:0:
232,344,994172,1,0,0:0:0:0:
372,284,994339,5,2,0:0:0:0:
420,52,994589,1,2,0:0:0:0:
200,136,994839,1,2,0:0:0:0:
160,368,995089,1,0,0:0:0:0:
168,336,995172,1,0,0:0:0:0:
176,304,995255,1,0,0:0:0:0:
184,272,995339,2,0,P|240:248|276:212,1,112.5,2|0,0:0|0:0,0:0:0:0:
332,320,995672,5,2,0:0:0:0:
452,116,995922,1,2,0:0:0:0:
224,52,996172,1,2,0:0:0:0:
96,248,996422,1,0,0:0:0:0:
120,224,996505,1,0,0:0:0:0:
144,200,996589,1,0,0:0:0:0:
168,176,996672,2,0,P|224:152|280:152,1,112.5,2|0,0:0|0:0,0:0:0:0:
352,284,997005,6,0,P|433:260|493:202,2,168.75,2|2|2,0:0|0:0|0:0,0:0:0:0:
236,324,997672,1,0,0:0:0:0:
204,324,997755,1,2,0:0:0:0:
172,316,997838,1,0,0:0:0:0:
140,304,997922,1,0,0:0:0:0:
116,280,998005,1,2,0:0:0:0:
104,248,998088,1,0,0:0:0:0:
100,216,998172,1,2,0:0:0:0:
132,108,998338,6,0,P|192:96|248:40,1,112.5,2|0,0:0|0:0,0:0:0:0:
464,336,998838,1,2,0:0:0:0:
352,344,999005,1,0,0:0:0:0:
72,36,999338,1,2,0:0:0:0:
72,36,999672,6,0,P|68:100|96:152,1,112.5,4|0,0:0|0:0,0:0:0:0:
180,76,1000005,2,0,P|200:140|192:192,1,112.5,8|0,0:0|0:0,0:0:0:0:
96,236,1000338,1,0,0:0:0:0:
332,348,1000505,1,0,0:0:0:0:
184,336,1000672,2,0,P|232:268|304:248,1,112.5,10|0,0:0|0:0,0:0:0:0:
468,120,1001005,5,0,0:0:0:0:
432,264,1001172,1,0,0:0:0:0:
368,180,1001338,1,8,0:0:0:0:
332,84,1001505,1,0,0:0:0:0:
332,84,1001672,2,0,P|272:68|176:88,1,112.5
248,216,1002005,2,0,P|176:220|104:188,1,112.5,10|0,0:0|0:0,0:0:0:0:
72,28,1002338,6,0,P|52:88|64:156,1,112.5
76,348,1002672,2,0,P|132:316|200:320,1,112.5,8|0,0:0|0:0,0:0:0:0:
384,160,1003005,1,0,0:0:0:0:
152,180,1003172,1,0,0:0:0:0:
400,296,1003338,1,10,0:0:0:0:
276,40,1003505,2,0,P|272:112|232:152,1,112.5,2|2,0:0|0:0,0:0:0:0:
344,208,1003838,6,0,P|340:264|384:328,1,112.5,0|8,0:0|0:0,0:0:0:0:
472,108,1004172,2,0,P|404:64|316:64,2,168.75,2|2|10,0:0|0:0|0:0,0:0:0:0:
372,168,1004838,1,0,0:0:0:0:
280,128,1005005,5,0,0:0:0:0:
196,184,1005172,2,0,P|152:216|88:216,1,112.5,0|8,0:0|0:0,0:0:0:0:
256,256,1005505,2,0,P|244:316|200:372,1,112.5
340,248,1005838,2,0,P|368:304|364:364,1,112.5,0|10,0:0|0:0,0:0:0:0:
388,168,1006172,2,0,P|452:220|476:288,1,112.5
436,48,1006505,6,0,L|312:40,1,112.5,0|8,0:0|0:0,0:0:0:0:
108,132,1006838,2,0,L|236:144,1,112.5
448,268,1007172,2,0,L|304:256,1,112.5,0|10,0:0|0:0,0:0:0:0:
60,332,1007505,2,0,L|188:340,1,112.5
372,320,1007838,5,0,0:0:0:0:
272,340,1008005,1,8,0:0:0:0:
256,140,1008172,1,0,0:0:0:0:
264,240,1008338,2,0,P|320:220|356:156,1,112.5,0|0,0:0|0:0,0:0:0:0:
256,36,1008672,2,0,P|200:56|164:120,1,112.5,8|0,0:0|0:0,0:0:0:0:
409,53,1009005,6,0,P|421:136|396:216,2,168.75,2|2|2,0:0|0:0|0:0,0:0:0:0:
292,148,1009672,1,0,0:0:0:0:
268,168,1009755,1,2,0:0:0:0:
236,180,1009838,1,0,0:0:0:0:
200,180,1009922,1,0,0:0:0:0:
168,168,1010005,1,10,0:0:0:0:
72,64,1010172,1,0,0:0:0:0:
44,188,1010338,5,0,0:0:0:0:
116,352,1010505,1,0,0:0:0:0:
336,284,1010672,1,8,0:0:0:0:
160,288,1010838,1,0,0:0:0:0:
112,136,1011005,2,0,P|160:108|232:104,1,112.5
400,248,1011338,2,0,B|352:276|339:272|280:280,1,112.5,10|0,0:0|0:0,0:0:0:0:
312,48,1011672,6,0,B|340:96|336:108|344:168,1,112.5
198,335,1012005,2,0,P|170:287|164:232,1,112.5,8|0,0:0|0:0,0:0:0:0:
312,48,1012338,1,0,0:0:0:0:
308,284,1012505,1,0,0:0:0:0:
180,80,1012672,1,10,0:0:0:0:
420,144,1012838,1,0,0:0:0:0:
164,232,1013005,6,0,L|60:296,1,112.5
356,180,1013338,2,0,L|460:120,1,112.5,8|0,0:0|0:0,0:0:0:0:
104,168,1013672,2,0,L|208:108,1,112.5
416,244,1014005,2,0,L|312:308,1,112.5,8|0,0:0|0:0,0:0:0:0:
260,192,1014338,6,0,P|232:112|120:72,2,168.75,2|2|2,0:0|0:0|0:0,0:0:0:0:
156,236,1015005,2,0,P|184:316|296:356,2,168.75,2|2|0,0:0|0:0|0:0,0:0:0:0:
60,176,1015672,5,0,0:0:0:0:
112,76,1015838,1,0,0:0:0:0:
144,64,1015922,1,0,0:0:0:0:
176,68,1016005,1,8,0:0:0:0:
192,100,1016088,1,0,0:0:0:0:
192,136,1016172,1,0,0:0:0:0:
180,168,1016255,1,0,0:0:0:0:
180,200,1016338,5,0,0:0:0:0:
208,216,1016422,1,0,0:0:0:0:
240,220,1016505,1,0,0:0:0:0:
272,212,1016588,1,0,0:0:0:0:
304,204,1016672,2,0,L|384:156,3,56.25,8|0|0|0,0:0|0:0|0:0|0:0,0:0:0:0:
372,148,1017005,5,0,0:0:0:0:
384,116,1017088,1,0,0:0:0:0:
384,80,1017172,1,0,0:0:0:0:
368,48,1017255,1,0,0:0:0:0:
336,40,1017338,1,8,0:0:0:0:
304,48,1017422,1,0,0:0:0:0:
284,76,1017505,1,0,0:0:0:0:
268,104,1017588,1,0,0:0:0:0:
252,136,1017672,5,0,0:0:0:0:
236,164,1017755,1,0,0:0:0:0:
216,192,1017838,1,0,0:0:0:0:
196,220,1017922,1,0,0:0:0:0:
180,248,1018005,2,0,L|116:320,3,56.25,8|0|0|0,0:0|0:0|0:0|0:0,0:0:0:0:
120,316,1018338,5,0,0:0:0:0:
84,316,1018422,1,0,0:0:0:0:
60,296,1018505,1,0,0:0:0:0:
48,264,1018588,1,0,0:0:0:0:
48,228,1018672,1,8,0:0:0:0:
60,196,1018755,1,0,0:0:0:0:
80,168,1018838,1,0,0:0:0:0:
108,148,1018922,1,0,0:0:0:0:
140,136,1019005,5,0,0:0:0:0:
172,136,1019088,1,0,0:0:0:0:
204,140,1019172,1,0,0:0:0:0:
236,164,1019255,1,0,0:0:0:0:
248,196,1019338,1,8,0:0:0:0:
268,224,1019422,1,0,0:0:0:0:
296,244,1019505,1,0,0:0:0:0:
328,252,1019588,1,0,0:0:0:0:
360,244,1019672,6,0,P|448:194|452:91,1,168.75,2|2,0:0|0:0,0:0:0:0:
380,20,1020172,2,0,P|284:52|260:152,2,168.75,2|2|2,0:0|0:0|0:0,0:0:0:0:
248,320,1021005,1,4,0:0:0:0:
