osu file format v14

[General]
AudioFilename: 174.Misplaced Shadow.mp3
AudioLeadIn: 0
PreviewTime: 44808
Countdown: 0
SampleSet: Soft
StackLeniency: 0.3
Mode: 0
LetterboxInBreaks: 1
WidescreenStoryboard: 1

[Editor]
DistanceSpacing: 0.6
BeatDivisor: 8
GridSize: 8
TimelineZoom: 2.2

[Metadata]
Title:Streamjump Practice Maps
TitleUnicode:Streamjump Practice Maps
Artist:Various Artists
ArtistUnicode:Various Artists
Creator:Hisoka
Version:150 BPM - Misplaced Shadow (Insane)
Source:
Tags:Stream Practice Streamjump Jump Various
BeatmapID:684093
BeatmapSetID:305449

[Difficulty]
HPDrainRate:3
CircleSize:4
OverallDifficulty:7.5
ApproachRate:9
SliderMultiplier:1.8
SliderTickRate:1

[Events]
//Background and Video events
0,0,"22462-beatuiful-night-sky-1920x1080-fantasy-wallpaper.jpg",0,0
//Break Periods
2,16208,17808
2,57808,69808
//Storyboard Layer 0 (Background)
//Storyboard Layer 1 (Fail)
//Storyboard Layer 2 (Pass)
//Storyboard Layer 3 (Foreground)
//Storyboard Layer 4 (Overlay)
//Storyboard Sound Samples

[TimingPoints]
3208,400,4,2,1,56,1,0
40008,-133.333333333333,4,2,1,56,0,0
40408,-90.9090909090909,4,2,1,56,0,0
40808,-62.111801242236,4,2,1,56,0,0
41208,-42.1940928270042,4,2,1,56,0,0
41608,-71.4285714285714,4,2,1,56,0,0
43608,-33.3333333333333,4,2,1,56,0,0
44008,-71.4285714285714,4,2,1,56,0,0
55408,-54.054054054054,4,2,1,56,0,0
55608,-40.983606557377,4,2,1,56,0,0
55808,-31.055900621118,4,2,1,56,0,0
56008,-50,4,2,1,56,0,0
70408,-133.333333333333,4,2,1,56,0,0
76808,-100,4,2,1,56,0,0
77608,-80,4,2,1,56,0,0
78408,-66.6666666666667,4,2,1,56,0,0
78808,-50,4,2,1,56,0,0
79208,-37.593984962406,4,2,1,56,0,0
79608,-28.169014084507,4,2,1,56,0,0
80008,-71.4285714285714,4,2,1,56,0,0
81608,-33.3333333333333,4,2,1,56,0,0
84008,-58.8235294117647,4,2,1,56,0,0
92008,-40,4,2,1,56,0,0
92808,-58.8235294117647,4,2,1,56,0,0
102408,-50,4,2,1,56,0,0
104008,-58.8235294117647,4,2,1,56,0,0
107208,422.535211267606,4,2,1,100,1,0
107208,-58.8235294117647,4,2,1,100,0,0
108041,447.761194029851,4,2,1,100,1,0
108041,-58.8235294117647,4,2,1,100,0,0
108936,-100,4,2,1,100,0,0
112630,-200,4,2,1,100,0,0

[Colours]
Combo1 : 255,255,255
Combo2 : 255,0,0

[HitObjects]
80,72,3208,6,0,P|104:104|112:152,1,90
400,152,3608,2,0,P|406:108|432:72,2,90
111,152,4208,2,0,P|105:108|80:72,1,90
304,320,4808,6,0,P|352:312|384:272,2,90
156,256,5408,1,0,0:0:0:0:
152,252,5508,1,0,0:0:0:0:
308,192,5708,1,0,0:0:0:0:
156,128,5908,1,0,0:0:0:0:
152,132,6008,1,0,0:0:0:0:
308,64,6208,1,0,0:0:0:0:
456,280,6408,6,0,P|416:260|388:216,1,90
56,280,6808,2,0,P|96:260|124:216,1,90
220,56,7208,2,0,P|248:92|252:136,2,90
328,64,8008,5,0,0:0:0:0:
384,96,8108,1,0,0:0:0:0:
412,152,8208,1,0,0:0:0:0:
408,216,8308,1,0,0:0:0:0:
368,264,8408,2,0,L|372:304,6,30
100,80,9008,1,0,0:0:0:0:
236,268,9208,1,0,0:0:0:0:
236,116,9408,1,0,0:0:0:0:
100,296,9608,6,0,P|68:268|64:208,2,90
412,296,10208,2,0,P|444:268|448:208,2,90
256,72,10808,1,0,0:0:0:0:
136,228,11208,6,0,P|164:192|168:144,2,90
256,304,11808,1,0,0:0:0:0:
256,284,11908,2,0,L|256:192,1,90
344,128,12308,1,0,0:0:0:0:
343,148,12408,2,0,P|348:193|376:228,1,90
68,104,12808,6,0,P|112:112|148:68,1,90
444,280,13208,2,0,P|400:272|364:316,1,90
148,256,13608,2,0,P|168:296|208:328,1,90
364,128,14008,2,0,P|344:88|304:56,1,90
256,192,14408,5,0,0:0:0:0:
256,192,14808,1,0,0:0:0:0:
256,192,15208,1,0,0:0:0:0:
88,84,15608,1,0,0:0:0:0:
168,45,15708,1,0,0:0:0:0:
257,32,15808,1,0,0:0:0:0:
346,45,15908,1,0,0:0:0:0:
427,83,16008,1,0,0:0:0:0:
88,68,18408,5,0,0:0:0:0:
72,128,18508,1,0,0:0:0:0:
84,192,18608,1,0,0:0:0:0:
124,244,18708,1,0,0:0:0:0:
148,328,18808,1,0,0:0:0:0:
200,292,18908,1,0,0:0:0:0:
236,240,19008,1,0,0:0:0:0:
244,176,19108,1,0,0:0:0:0:
220,76,19208,5,0,0:0:0:0:
252,68,19308,1,0,0:0:0:0:
284,60,19408,1,0,0:0:0:0:
316,52,19508,1,0,0:0:0:0:
344,144,19608,1,0,0:0:0:0:
375,153,19708,1,0,0:0:0:0:
407,162,19808,1,0,0:0:0:0:
439,171,19908,1,0,0:0:0:0:
404,260,20008,5,0,0:0:0:0:
426,283,20108,1,0,0:0:0:0:
449,307,20208,1,0,0:0:0:0:
472,330,20308,1,0,0:0:0:0:
372,348,20408,1,0,0:0:0:0:
340,344,20508,1,0,0:0:0:0:
324,316,20608,1,0,0:0:0:0:
292,312,20708,1,0,0:0:0:0:
200,340,20808,5,0,0:0:0:0:
188,344,20908,1,0,0:0:0:0:
176,344,21008,1,0,0:0:0:0:
164,340,21108,1,0,0:0:0:0:
152,332,21208,1,0,0:0:0:0:
140,268,21308,1,0,0:0:0:0:
112,212,21408,1,0,0:0:0:0:
52,188,21508,1,0,0:0:0:0:
76,112,21608,5,0,0:0:0:0:
72,80,21708,1,0,0:0:0:0:
152,144,21808,5,0,0:0:0:0:
160,112,21908,1,0,0:0:0:0:
200,216,22008,5,0,0:0:0:0:
224,196,22108,1,0,0:0:0:0:
264,276,22208,5,0,0:0:0:0:
292,292,22308,1,0,0:0:0:0:
416,204,22408,6,0,L|376:184,3,45
456,56,22808,5,0,0:0:0:0:
448,56,22908,1,0,0:0:0:0:
440,56,23008,1,0,0:0:0:0:
432,56,23108,1,0,0:0:0:0:
280,76,23208,6,0,L|308:112,3,45
224,196,23608,5,0,0:0:0:0:
220,200,23708,1,0,0:0:0:0:
216,204,23808,1,0,0:0:0:0:
212,208,23908,1,0,0:0:0:0:
248,332,24008,5,0,0:0:0:0:
214,307,24108,1,0,0:0:0:0:
176,293,24208,1,0,0:0:0:0:
135,290,24308,1,0,0:0:0:0:
134,328,24408,1,0,0:0:0:0:
92,326,24508,1,0,0:0:0:0:
54,312,24608,1,0,0:0:0:0:
21,287,24708,1,0,0:0:0:0:
76,216,24808,5,0,0:0:0:0:
108,212,24908,1,0,0:0:0:0:
72,136,25008,5,0,0:0:0:0:
40,136,25108,1,0,0:0:0:0:
84,56,25208,5,0,0:0:0:0:
116,60,25308,1,0,0:0:0:0:
204,60,25408,5,0,0:0:0:0:
236,56,25508,1,0,0:0:0:0:
324,60,25608,6,0,L|368:60,3,45
208,192,26008,2,0,L|164:192,3,45
324,324,26408,2,0,L|368:324,3,45
472,192,26808,2,0,L|427:192,3,45
328,192,27208,5,0,0:0:0:0:
292,112,27308,1,0,0:0:0:0:
212,80,27408,1,0,0:0:0:0:
132,112,27508,1,0,0:0:0:0:
100,192,27608,1,0,0:0:0:0:
132,268,27708,1,0,0:0:0:0:
212,300,27808,1,0,0:0:0:0:
292,268,27908,1,0,0:0:0:0:
380,268,28008,5,0,0:0:0:0:
380,268,28108,1,0,0:0:0:0:
384,272,28208,1,0,0:0:0:0:
388,276,28308,1,0,0:0:0:0:
392,280,28408,1,0,0:0:0:0:
396,284,28508,1,0,0:0:0:0:
400,288,28608,1,0,0:0:0:0:
404,292,28708,1,0,0:0:0:0:
460,192,28808,6,0,L|460:148,1,45
368,48,29008,2,0,L|368:92,1,45
276,192,29208,2,0,L|276:148,1,45
184,48,29408,2,0,L|184:92,1,45
52,192,29608,6,0,L|52:236,1,45
144,336,29808,2,0,L|144:292,1,45
236,192,30008,2,0,L|236:236,1,45
328,336,30208,2,0,L|328:292,1,45
460,192,30408,5,0,0:0:0:0:
433,155,30508,1,0,0:0:0:0:
402,123,30608,1,0,0:0:0:0:
366,96,30708,1,0,0:0:0:0:
326,75,30808,1,0,0:0:0:0:
283,60,30908,1,0,0:0:0:0:
239,52,31008,1,0,0:0:0:0:
194,51,31108,1,0,0:0:0:0:
56,52,31208,5,0,0:0:0:0:
82,88,31308,1,0,0:0:0:0:
113,120,31408,1,0,0:0:0:0:
149,147,31508,1,0,0:0:0:0:
189,168,31608,1,0,0:0:0:0:
232,183,31708,1,0,0:0:0:0:
276,191,31808,1,0,0:0:0:0:
321,192,31908,1,0,0:0:0:0:
364,184,32008,6,0,P|400:216|416:260,1,90
424,72,32408,1,0,0:0:0:0:
80,256,32608,2,0,P|95:301|129:333,1,90
248,64,33008,1,0,0:0:0:0:
228,320,33208,2,0,P|273:304|305:270,1,90
76,84,33608,5,0,0:0:0:0:
67,127,33708,1,0,0:0:0:0:
77,171,33808,1,0,0:0:0:0:
104,206,33908,1,0,0:0:0:0:
144,227,34008,1,0,0:0:0:0:
188,231,34108,1,0,0:0:0:0:
230,215,34208,1,0,0:0:0:0:
262,184,34308,1,0,0:0:0:0:
173,127,34408,5,0,0:0:0:0:
205,96,34508,1,0,0:0:0:0:
247,80,34608,1,0,0:0:0:0:
291,84,34708,1,0,0:0:0:0:
331,105,34808,1,0,0:0:0:0:
358,140,34908,1,0,0:0:0:0:
368,184,35008,1,0,0:0:0:0:
360,227,35108,1,0,0:0:0:0:
332,264,35208,6,0,P|347:309|381:341,2,90
124,132,35808,2,0,P|139:86|173:54,1,90
156,312,36208,1,0,0:0:0:0:
372,72,36408,1,0,0:0:0:0:
420,264,36608,1,0,0:0:0:0:
240,46,36808,5,0,0:0:0:0:
202,70,36908,1,0,0:0:0:0:
178,108,37008,1,0,0:0:0:0:
172,152,37108,1,0,0:0:0:0:
178,197,37208,1,0,0:0:0:0:
173,241,37308,1,0,0:0:0:0:
150,279,37408,1,0,0:0:0:0:
113,304,37508,1,0,0:0:0:0:
47,238,37608,5,0,0:0:0:0:
72,200,37708,1,0,0:0:0:0:
109,177,37808,1,0,0:0:0:0:
154,172,37908,1,0,0:0:0:0:
198,178,38008,1,0,0:0:0:0:
243,172,38108,1,0,0:0:0:0:
280,148,38208,1,0,0:0:0:0:
305,111,38308,1,0,0:0:0:0:
310,62,38408,6,0,P|355:77|387:111,1,90
95,333,38808,1,0,0:0:0:0:
85,88,39008,1,0,0:0:0:0:
85,88,39108,1,0,0:0:0:0:
85,88,39208,2,0,P|130:72|162:38,1,90
374,321,39608,2,0,P|358:275|324:243,1,90
121,190,40008,6,0,P|90:174|72:143,1,67.5000025749208
205,120,40408,6,0,P|250:96|296:88,1,99.0000030212403
434,78,40808,6,0,P|476:142|470:217,1,144.9000002211
257,232,41208,2,0,P|192:303|57:325,1,213.30000520752
80,64,41608,5,0,0:0:0:0:
132,98,41708,1,0,0:0:0:0:
194,105,41808,1,0,0:0:0:0:
255,91,41908,1,0,0:0:0:0:
316,78,42008,1,0,0:0:0:0:
378,85,42108,1,0,0:0:0:0:
421,129,42208,1,0,0:0:0:0:
431,191,42308,1,0,0:0:0:0:
422,253,42408,1,0,0:0:0:0:
380,297,42508,1,0,0:0:0:0:
318,305,42608,1,0,0:0:0:0:
256,293,42708,1,0,0:0:0:0:
195,278,42808,1,0,0:0:0:0:
133,285,42908,1,0,0:0:0:0:
80,319,43008,1,0,0:0:0:0:
144,64,43208,6,0,P|166:92|176:128,1,62.9999980773926
262,120,43408,1,0,0:0:0:0:
310,46,43508,1,0,0:0:0:0:
360,137,43608,2,0,B|401:120|431:66|431:66|483:163|437:224,1,270.000010299683
256,192,44008,12,0,44608,0:0:0:0:
148,75,44808,6,0,P|122:135|75:172,1,125.999996154785
112,308,45208,1,0,0:0:0:0:
227,165,45408,2,0,P|274:209|293:266,1,125.999996154785
312,63,45808,1,0,0:0:0:0:
354,339,46008,2,0,P|413:318|456:273,1,125.999996154785
420,90,46408,5,0,0:0:0:0:
387,143,46508,1,0,0:0:0:0:
331,170,46608,1,0,0:0:0:0:
270,164,46708,1,0,0:0:0:0:
310,55,46808,5,0,0:0:0:0:
248,48,46908,1,0,0:0:0:0:
192,75,47008,1,0,0:0:0:0:
160,129,47108,1,0,0:0:0:0:
51,109,47208,5,0,0:0:0:0:
57,170,47308,1,0,0:0:0:0:
95,219,47408,1,0,0:0:0:0:
154,240,47508,1,0,0:0:0:0:
113,339,47608,5,0,0:0:0:0:
175,342,47708,1,0,0:0:0:0:
229,311,47808,1,0,0:0:0:0:
258,257,47908,1,0,0:0:0:0:
317,233,48008,6,0,P|345:291|396:327,1,125.999996154785
423,83,48408,1,0,0:0:0:0:
113,339,48608,1,0,0:0:0:0:
310,55,48808,1,0,0:0:0:0:
154,240,49008,1,0,0:0:0:0:
51,109,49208,1,0,0:0:0:0:
317,234,49408,1,0,0:0:0:0:
185,63,49608,5,0,0:0:0:0:
185,63,49708,1,0,0:0:0:0:
185,63,49808,1,0,0:0:0:0:
185,63,49908,1,0,0:0:0:0:
185,63,50008,1,0,0:0:0:0:
185,63,50108,1,0,0:0:0:0:
185,63,50208,1,0,0:0:0:0:
185,63,50308,1,0,0:0:0:0:
326,131,50408,6,0,L|360:78,1,62.9999980773926
104,323,50608,2,0,L|138:270,1,62.9999980773926
111,138,50808,2,0,L|77:85,1,62.9999980773926
365,320,51008,2,0,L|331:267,1,62.9999980773926
230,167,51208,5,0,0:0:0:0:
259,111,51308,1,0,0:0:0:0:
316,84,51408,1,0,0:0:0:0:
377,96,51508,1,0,0:0:0:0:
443,178,51608,2,0,P|409:177|380:189,1,62.9999980773926
428,277,51808,1,0,0:0:0:0:
365,280,51908,1,0,0:0:0:0:
266,260,52008,6,0,P|208:290|148:293,1,125.999996154785
101,73,52408,5,0,0:0:0:0:
388,84,52608,5,0,0:0:0:0:
388,84,52708,1,0,0:0:0:0:
427,264,52908,5,0,0:0:0:0:
427,264,53008,2,0,P|387:273|366:289,1,62.9999980773926
284,328,53208,1,0,0:0:0:0:
224,308,53308,1,0,0:0:0:0:
161,317,53408,2,0,P|160:274|178:239,1,62.9999980773926
388,84,53708,5,0,0:0:0:0:
388,84,53808,1,0,0:0:0:0:
95,84,54008,5,0,0:0:0:0:
407,329,54208,6,0,P|392:291|386:264,1,62.9999980773926
351,192,54408,5,0,0:0:0:0:
307,235,54508,1,0,0:0:0:0:
285,294,54608,1,0,0:0:0:0:
238,334,54708,1,0,0:0:0:0:
211,253,54808,5,0,0:0:0:0:
163,213,54908,1,0,0:0:0:0:
141,154,55008,1,0,0:0:0:0:
98,110,55108,1,0,0:0:0:0:
187,67,55208,6,0,P|221:84|253:88,1,62.9999980773926
313,205,55408,6,0,P|327:159|358:122,1,83.2499996824265
416,46,55608,6,0,P|452:98|450:170,1,109.79999547638
313,326,55808,6,0,P|407:283|436:196,1,144.9000002211
368,48,56008,5,0,0:0:0:0:
287,87,56108,1,0,0:0:0:0:
198,97,56208,1,0,0:0:0:0:
109,110,56308,1,0,0:0:0:0:
44,168,56408,1,0,0:0:0:0:
43,255,56508,1,0,0:0:0:0:
108,314,56608,1,0,0:0:0:0:
195,336,56708,1,0,0:0:0:0:
288,320,56808,2,0,B|272:256|296:248|296:248|304:224|304:224|312:240|312:240|320:216|320:216|328:232|328:232|336:208|336:208|344:224|344:224|352:200|352:200|408:184|416:120,1,315
400,80,57208,2,0,P|380:82|352:80,7,45
288,46,57608,5,0,0:0:0:0:
115,65,70408,6,0,P|107:97|80:133,1,67.5000025749208
83,199,70808,1,0,0:0:0:0:
104,270,71208,1,0,0:0:0:0:
161,317,71608,1,0,0:0:0:0:
380,342,71808,6,0,P|345:273|301:232,1,135.000005149842
243,193,72408,1,0,0:0:0:0:
230,120,72808,1,0,0:0:0:0:
259,53,73208,1,0,0:0:0:0:
405,77,73608,6,0,P|373:130|391:203,1,135.000005149842
465,146,74208,1,0,0:0:0:0:
301,340,74408,6,0,P|309:278|264:218,1,135.000005149842
218,299,75008,1,0,0:0:0:0:
277,57,75208,6,0,P|204:78|135:86,1,135.000005149842
78,331,76008,2,0,P|122:269|151:196,1,135.000005149842
382,76,76808,6,0,P|378:165|412:247,1,180
397,299,77408,1,0,0:0:0:0:
357,320,77608,2,0,P|288:221|280:110,1,225
251,70,78208,1,0,0:0:0:0:
187,45,78408,6,0,P|119:75|67:127,1,135.000005149842
73,327,78808,2,0,P|131:243|163:151,1,180
325,45,79208,6,0,P|397:82|483:221,1,239.399990137024
439,327,79608,2,0,P|337:310|257:127,1,319.500001218796
256,48,80008,5,0,0:0:0:0:
229,104,80108,1,0,0:0:0:0:
181,144,80208,1,0,0:0:0:0:
124,172,80308,1,0,0:0:0:0:
64,191,80408,1,0,0:0:0:0:
96,244,80508,1,0,0:0:0:0:
140,289,80608,1,0,0:0:0:0:
195,320,80708,1,0,0:0:0:0:
256,335,80808,1,0,0:0:0:0:
316,320,80908,1,0,0:0:0:0:
371,289,81008,1,0,0:0:0:0:
415,244,81108,1,0,0:0:0:0:
446,191,81208,1,0,0:0:0:0:
387,172,81308,1,0,0:0:0:0:
330,144,81408,1,0,0:0:0:0:
282,104,81508,1,0,0:0:0:0:
256,64,81608,6,0,B|224:160|224:160|138:96|48:160,1,270.000010299683
136,253,82008,2,0,B|202:273|202:273|148:331|148:331|249:353|289:300|289:300|289:300|355:341|457:315,1,472.500018024445
439,224,82408,6,0,B|400:195|400:195|406:160|406:160|364:189|364:189|380:141|380:141|338:171|338:171|354:122|354:122|313:152|313:152|328:104|328:104|244:82|234:15,1,472.500018024445
176,65,82808,2,0,B|173:183|173:183|264:215|277:285,2,270.000010299683
83,71,84008,5,0,0:0:0:0:
56,128,84108,1,0,0:0:0:0:
57,190,84208,1,0,0:0:0:0:
88,244,84308,1,0,0:0:0:0:
137,200,84408,1,0,0:0:0:0:
191,169,84508,1,0,0:0:0:0:
253,168,84608,1,0,0:0:0:0:
310,195,84708,1,0,0:0:0:0:
344,247,84808,6,0,P|267:268|198:335,1,153.000002918243
327,56,85208,2,0,P|385:104|459:123,1,153.000002918243
425,243,85508,1,0,0:0:0:0:
344,316,85608,2,0,P|267:295|198:228,1,153.000002918243
149,63,86008,2,0,P|124:98|88:123,1,76.5000014591217
67,171,86208,1,0,0:0:0:0:
76,231,86308,1,0,0:0:0:0:
154,342,86408,6,0,P|207:273|204:185,1,153.000002918243
244,158,86708,1,0,0:0:0:0:
290,118,86808,2,0,P|250:87|222:51,1,76.5000014591217
360,208,87008,1,0,0:0:0:0:
400,161,87108,2,0,P|401:117|411:73,1,76.5000014591217
440,287,87308,1,0,0:0:0:0:
391,324,87408,1,0,0:0:0:0:
329,327,87508,1,0,0:0:0:0:
273,300,87608,2,0,P|243:334|204:357,1,76.5000014591217
378,35,87808,2,0,P|337:54|292:60,1,76.5000014591217
56,71,88008,6,0,P|45:147|106:215,1,153.000002918243
152,119,88308,1,0,0:0:0:0:
215,205,88408,1,0,0:0:0:0:
249,167,88508,1,0,0:0:0:0:
260,118,88608,1,0,0:0:0:0:
246,70,88708,1,0,0:0:0:0:
342,40,88808,1,0,0:0:0:0:
381,72,88908,1,0,0:0:0:0:
420,105,89008,1,0,0:0:0:0:
459,138,89108,1,0,0:0:0:0:
459,245,89208,1,0,0:0:0:0:
420,278,89308,1,0,0:0:0:0:
381,311,89408,1,0,0:0:0:0:
342,344,89508,1,0,0:0:0:0:
242,341,89608,6,0,P|198:298|136:275,1,114.750002188683
96,196,89808,2,0,L|48:175,3,38.2500007295609
148,53,90008,2,0,L|167:138,1,76.5000014591217
263,190,90208,2,0,L|279:115,1,76.5000014591217
371,46,90408,1,0,0:0:0:0:
388,93,90508,1,0,0:0:0:0:
419,134,90608,1,0,0:0:0:0:
459,165,90708,1,0,0:0:0:0:
366,222,90808,1,0,0:0:0:0:
348,270,90908,1,0,0:0:0:0:
318,311,91008,1,0,0:0:0:0:
278,342,91108,1,0,0:0:0:0:
175,339,91208,6,0,B|146:265|72:233|72:233|79:149|149:108,1,306.000005836487
416,308,91808,1,0,0:0:0:0:
392,70,92008,6,0,P|344:173|231:229,1,225
107,62,92408,6,0,P|68:168|108:288,1,225
217,341,92808,5,0,0:0:0:0:
277,335,92908,1,0,0:0:0:0:
332,310,93008,2,0,P|325:236|380:187,1,153.000002918243
107,73,93408,1,0,0:0:0:0:
107,73,93508,1,0,0:0:0:0:
386,62,93708,1,0,0:0:0:0:
127,323,93908,1,0,0:0:0:0:
127,323,94008,2,0,P|107:278|64:242,1,76.5000014591217
255,76,94208,2,0,P|236:115|230:150,1,76.5000014591217
309,324,94408,6,0,P|387:305|464:248,2,153.000002918243
98,78,95008,1,0,0:0:0:0:
159,73,95108,1,0,0:0:0:0:
217,89,95208,2,0,P|298:108|373:85,1,153.000002918243
320,208,95508,1,0,0:0:0:0:
259,197,95608,2,0,P|178:178|103:201,1,153.000002918243
82,298,95908,1,0,0:0:0:0:
256,192,96008,12,0,96808,0:0:0:0:
96,62,97608,6,0,P|134:121|229:137,1,153.000002918243
302,55,97908,1,0,0:0:0:0:
410,131,98008,1,0,0:0:0:0:
367,149,98108,1,0,0:0:0:0:
331,178,98208,1,0,0:0:0:0:
315,221,98308,1,0,0:0:0:0:
111,321,98408,2,0,L|75:249,1,76.5000014591217
401,321,98608,2,0,L|437:249,1,76.5000014591217
115,119,98808,2,0,L|48:77,1,76.5000014591217
397,119,99008,2,0,L|464:77,1,76.5000014591217
280,300,99208,6,0,P|190:277|154:180,1,153.000002918243
251,207,99508,1,0,0:0:0:0:
251,207,99608,1,0,0:0:0:0:
435,296,99808,2,0,P|436:254|451:217,1,76.5000014591217
438,148,100008,5,0,0:0:0:0:
385,136,100108,1,0,0:0:0:0:
341,104,100208,1,0,0:0:0:0:
316,56,100308,1,0,0:0:0:0:
206,42,100408,1,0,0:0:0:0:
153,53,100508,1,0,0:0:0:0:
121,95,100608,1,0,0:0:0:0:
121,148,100708,6,0,P|157:210|131:281,1,153.000002918243
172,316,101008,1,0,0:0:0:0:
222,332,101108,1,0,0:0:0:0:
301,258,101208,1,0,0:0:0:0:
354,251,101308,1,0,0:0:0:0:
407,245,101408,1,0,0:0:0:0:
460,238,101508,1,0,0:0:0:0:
460,121,101608,6,0,L|382:143,1,76.5000014591217
309,43,101808,2,0,L|231:65,1,76.5000014591217
60,64,102008,1,0,0:0:0:0:
89,99,102108,1,0,0:0:0:0:
98,143,102208,1,0,0:0:0:0:
82,186,102308,1,0,0:0:0:0:
74,306,102408,6,0,B|116:296|162:309|162:309|196:184|341:208,1,315
348,296,102808,2,0,P|317:308|270:304,7,45
454,253,103208,5,0,0:0:0:0:
443,200,103308,1,0,0:0:0:0:
433,146,103408,1,0,0:0:0:0:
422,93,103508,1,0,0:0:0:0:
313,33,103608,5,0,0:0:0:0:
306,83,103708,1,0,0:0:0:0:
276,123,103808,1,0,0:0:0:0:
230,144,103908,1,0,0:0:0:0:
125,55,104008,6,0,P|64:90|44:167,1,153.000002918243
51,211,104308,1,0,0:0:0:0:
151,199,104408,1,0,0:0:0:0:
144,249,104508,1,0,0:0:0:0:
114,289,104608,1,0,0:0:0:0:
68,310,104708,1,0,0:0:0:0:
189,353,104808,5,0,0:0:0:0:
234,344,104908,1,0,0:0:0:0:
279,336,105008,1,0,0:0:0:0:
324,328,105108,1,0,0:0:0:0:
421,254,105208,5,0,0:0:0:0:
376,245,105308,1,0,0:0:0:0:
331,237,105408,1,0,0:0:0:0:
285,228,105508,2,0,P|231:182|197:108,1,153.000002918243
325,74,105808,2,0,L|412:51,1,76.5000014591217
88,238,106008,2,0,L|59:326,1,76.5000014591217
168,108,106208,2,0,L|94:67,1,76.5000014591217
246,185,106408,5,0,0:0:0:0:
257,229,106508,1,0,0:0:0:0:
250,274,106608,1,0,0:0:0:0:
218,307,106708,1,0,0:0:0:0:
159,232,106808,5,0,0:0:0:0:
115,243,106908,1,0,0:0:0:0:
70,236,107008,1,0,0:0:0:0:
37,204,107108,1,0,0:0:0:0:
117,138,107208,6,0,P|122:94|115:57,1,76.5000014591217
223,55,107419,1,0,0:0:0:0:
268,61,107524,1,0,0:0:0:0:
313,67,107630,1,0,0:0:0:0:
359,73,107736,1,0,0:0:0:0:
404,79,107841,1,0,0:0:0:0:
450,85,107947,1,0,0:0:0:0:
227,211,108041,6,0,P|232:166|224:125,1,76.5000014591217
331,157,108264,1,0,0:0:0:0:
364,187,108376,1,0,0:0:0:0:
395,221,108488,1,0,0:0:0:0:
423,258,108600,1,0,0:0:0:0:
447,297,108712,1,0,0:0:0:0:
467,338,108824,1,0,0:0:0:0:
352,336,108936,6,0,B|312:320|264:336|264:336|256:288|256:288|216:304|216:304|208:256|208:256|168:272|168:272|104:264|72:208,1,360
256,192,109888,12,0,111511,0:0:0:0:
227,138,112658,6,0,B|247:151|247:151|228:171|228:171|250:184|250:184|228:202|228:202|249:217|249:217|232:232|232:232|230:257|230:257|212:273|212:273|179:281|134:256|97:284,1,320.625
89,290,114309,1,0,0:0:0:0:
