osu file format v14

[General]
AudioFilename: identity part 5.mp3
AudioLeadIn: 0
PreviewTime: 70430
Countdown: 0
SampleSet: Soft
StackLeniency: 0.2
Mode: 0
LetterboxInBreaks: 1
WidescreenStoryboard: 1

[Editor]
DistanceSpacing: 2.3
BeatDivisor: 4
GridSize: 4
TimelineZoom: 1.6

[Metadata]
Title:Streamjump Practice Maps
TitleUnicode:Streamjump Practice Maps
Artist:Various Artists
ArtistUnicode:Various Artists
Creator:Hisoka
Version:140 BPM - Identity Part 5 (Normal)
Source:
Tags:Stream Practice Streamjump
BeatmapID:684091
BeatmapSetID:305449

[Difficulty]
HPDrainRate:4
CircleSize:4
OverallDifficulty:7.5
ApproachRate:9
SliderMultiplier:1.6
SliderTickRate:1

[Events]
//Background and Video events
0,0,"6982811-dark-space-wallpaper.jpg",0,0
//Break Periods
2,84345,89973
//Storyboard Layer 0 (Background)
//Storyboard Layer 1 (Fail)
//Storyboard Layer 2 (Pass)
//Storyboard Layer 3 (Foreground)
//Storyboard Layer 4 (Overlay)
//Storyboard Sound Samples

[TimingPoints]
145,428.571428571429,4,2,1,100,1,0
56716,-133.333333333333,4,2,1,100,0,0
60145,-100,4,2,1,100,0,0
63573,-133.333333333333,4,2,1,100,0,0
67002,-100,4,2,1,100,0,0
117573,-66.6666666666667,4,2,1,100,0,0

[Colours]
Combo1 : 255,255,255
Combo2 : 255,0,0

[HitObjects]
328,296,1430,5,0,0:0:0:0:
317,313,1537,1,0,0:0:0:0:
264,320,1645,1,0,0:0:0:0:
244,322,1752,1,0,0:0:0:0:
208,288,1859,6,0,P|112:248|40:344,1,240
264,208,3145,1,0,0:0:0:0:
338,154,3573,2,0,P|242:114|170:210,1,240
384,72,4859,1,0,0:0:0:0:
72,48,5287,6,0,P|136:112|120:264,1,240
432,312,6573,1,0,0:0:0:0:
192,128,7002,1,0,0:0:0:0:
312,104,7216,1,0,0:0:0:0:
336,224,7430,1,0,0:0:0:0:
216,248,7644,1,0,0:0:0:0:
416,64,8287,5,0,0:0:0:0:
431,76,8395,1,0,0:0:0:0:
432,120,8502,1,0,0:0:0:0:
433,139,8609,1,0,0:0:0:0:
416,176,8716,2,0,B|392:216|408:248|408:248|392:296|328:296,1,160
224,276,9359,1,0,0:0:0:0:
120,336,9573,1,0,0:0:0:0:
192,64,10002,1,0,0:0:0:0:
56,104,10430,6,0,P|92:172|164:208,1,160
264,140,11073,1,0,0:0:0:0:
164,208,11287,1,0,0:0:0:0:
346,40,11716,1,0,0:0:0:0:
372,328,12145,6,0,P|352:252|388:184,1,160
476,100,12787,1,0,0:0:0:0:
360,39,13002,1,0,0:0:0:0:
248,108,13216,1,0,0:0:0:0:
360,64,13430,1,0,0:0:0:0:
248,130,13645,1,0,0:0:0:0:
132,80,13859,5,0,0:0:0:0:
116,104,13966,1,0,0:0:0:0:
100,128,14073,1,0,0:0:0:0:
84,152,14180,1,0,0:0:0:0:
84,232,14287,1,0,0:0:0:0:
100,256,14395,1,0,0:0:0:0:
116,280,14501,1,0,0:0:0:0:
132,304,14608,1,0,0:0:0:0:
216,304,14716,5,0,0:0:0:0:
244,300,14823,1,0,0:0:0:0:
272,296,14930,1,0,0:0:0:0:
300,292,15037,1,0,0:0:0:0:
276,216,15145,1,0,0:0:0:0:
304,212,15252,1,0,0:0:0:0:
332,208,15359,1,0,0:0:0:0:
360,204,15466,1,0,0:0:0:0:
336,124,15573,6,0,P|368:104|408:88,1,80
175,123,16002,2,0,P|142:102|104:88,1,80
152,260,16430,1,0,0:0:0:0:
176,272,16537,1,0,0:0:0:0:
196,292,16645,1,0,0:0:0:0:
212,316,16752,1,0,0:0:0:0:
300,316,16859,1,0,0:0:0:0:
316,292,16966,1,0,0:0:0:0:
336,272,17074,1,0,0:0:0:0:
360,260,17181,1,0,0:0:0:0:
384,180,17287,6,0,L|448:228,1,80
128,180,17716,2,0,L|64:228,1,80
200,48,18145,1,0,0:0:0:0:
228,48,18252,1,0,0:0:0:0:
256,48,18359,1,0,0:0:0:0:
284,48,18466,1,0,0:0:0:0:
312,124,18573,1,0,0:0:0:0:
284,124,18680,1,0,0:0:0:0:
256,124,18787,1,0,0:0:0:0:
228,124,18894,1,0,0:0:0:0:
152,108,19002,6,0,L|72:92,1,80
360,64,19430,2,0,L|440:80,1,80
216,268,19859,1,0,0:0:0:0:
213,274,19966,1,0,0:0:0:0:
211,280,20073,1,0,0:0:0:0:
208,286,20180,1,0,0:0:0:0:
296,268,20287,1,0,0:0:0:0:
298,274,20394,1,0,0:0:0:0:
300,280,20501,1,0,0:0:0:0:
303,286,20608,1,0,0:0:0:0:
256,344,20716,5,0,0:0:0:0:
400,220,20930,1,0,0:0:0:0:
112,220,21145,1,0,0:0:0:0:
256,96,21359,1,0,0:0:0:0:
80,72,22002,1,0,0:0:0:0:
88,72,22109,1,0,0:0:0:0:
104,80,22216,1,0,0:0:0:0:
116,104,22323,1,0,0:0:0:0:
108,148,22430,6,0,P|104:184|128:240,2,80
394,225,23073,2,0,P|407:187|404:148,2,80
256,80,23716,1,0,0:0:0:0:
256,304,23930,1,0,0:0:0:0:
388,64,24145,6,0,P|420:88|460:108,2,80
124,64,24787,2,0,P|92:88|52:108,2,80
408,280,25430,1,0,0:0:0:0:
104,280,25645,1,0,0:0:0:0:
320,64,25859,6,0,L|328:144,1,80
192,64,26287,2,0,L|184:144,1,80
424,180,26716,2,0,L|376:252,1,80
88,180,27145,2,0,L|136:252,1,80
352,336,27573,5,0,0:0:0:0:
328,320,27680,1,0,0:0:0:0:
312,296,27787,1,0,0:0:0:0:
304,268,27895,1,0,0:0:0:0:
208,268,28002,1,0,0:0:0:0:
200,296,28110,1,0,0:0:0:0:
184,320,28217,1,0,0:0:0:0:
160,336,28324,1,0,0:0:0:0:
124,260,28430,5,0,0:0:0:0:
132,220,28537,1,0,0:0:0:0:
160,192,28645,1,0,0:0:0:0:
200,180,28752,1,0,0:0:0:0:
312,180,28859,1,0,0:0:0:0:
352,192,28966,1,0,0:0:0:0:
380,220,29074,1,0,0:0:0:0:
388,260,29181,1,0,0:0:0:0:
464,224,29287,6,0,L|496:252,3,40
448,140,29716,1,0,0:0:0:0:
412,120,29823,1,0,0:0:0:0:
380,96,29930,1,0,0:0:0:0:
356,64,30037,1,0,0:0:0:0:
256,44,30145,5,0,0:0:0:0:
256,50,30252,1,0,0:0:0:0:
256,57,30359,1,0,0:0:0:0:
256,64,30466,1,0,0:0:0:0:
156,64,30573,1,0,0:0:0:0:
132,96,30680,1,0,0:0:0:0:
100,120,30787,1,0,0:0:0:0:
64,140,30894,1,0,0:0:0:0:
92,216,31002,6,0,L|56:240,3,40
256,296,31430,2,0,L|256:336,3,40
420,216,31859,2,0,L|456:240,3,40
256,96,32287,2,0,L|256:48,3,40
160,132,32716,6,0,P|181:166|212:196,1,80
352,132,33145,2,0,P|331:166|300:196,1,80
56,268,33573,2,0,P|84:296|124:320,1,80
456,268,34002,2,0,P|428:296|388:320,1,80
128,80,34430,1,0,0:0:0:0:
384,80,34645,1,0,0:0:0:0:
128,304,34859,1,0,0:0:0:0:
384,304,35073,1,0,0:0:0:0:
216,60,35716,5,0,0:0:0:0:
216,100,35823,1,0,0:0:0:0:
296,100,35930,1,0,0:0:0:0:
296,140,36037,1,0,0:0:0:0:
376,140,36145,6,0,P|388:176|392:220,2,80
256,248,36787,1,0,0:0:0:0:
136,140,37002,2,0,P|124:176|120:220,2,80
256,324,37645,1,0,0:0:0:0:
68,328,37859,6,0,L|156:312,1,80
444,56,38287,2,0,L|356:72,1,80
68,56,38716,2,0,L|156:72,1,80
444,328,39145,2,0,L|356:312,1,80
204,152,39573,5,0,0:0:0:0:
308,132,39787,1,0,0:0:0:0:
328,236,40002,1,0,0:0:0:0:
232,256,40216,1,0,0:0:0:0:
244,80,40430,1,0,0:0:0:0:
384,172,40645,1,0,0:0:0:0:
292,312,40859,1,0,0:0:0:0:
152,224,41073,1,0,0:0:0:0:
408,332,41287,6,0,L|456:264,1,80
104,332,41716,2,0,L|56:264,1,80
408,52,42145,2,0,L|456:120,1,80
256,272,42573,1,0,0:0:0:0:
280,240,42680,1,0,0:0:0:0:
288,200,42787,1,0,0:0:0:0:
276,160,42895,1,0,0:0:0:0:
228,96,43002,6,0,L|248:52,3,40
148,104,43430,1,0,0:0:0:0:
112,124,43537,1,0,0:0:0:0:
92,160,43645,1,0,0:0:0:0:
88,200,43752,1,0,0:0:0:0:
40,268,43859,5,0,0:0:0:0:
68,296,43966,1,0,0:0:0:0:
100,316,44073,1,0,0:0:0:0:
136,328,44180,1,0,0:0:0:0:
152,248,44287,1,0,0:0:0:0:
188,260,44394,1,0,0:0:0:0:
220,280,44501,1,0,0:0:0:0:
248,308,44608,1,0,0:0:0:0:
328,340,44716,6,0,L|368:368,3,40
384,276,45145,1,0,0:0:0:0:
404,240,45252,1,0,0:0:0:0:
420,204,45359,1,0,0:0:0:0:
436,168,45466,1,0,0:0:0:0:
388,100,45573,5,0,0:0:0:0:
372,136,45680,1,0,0:0:0:0:
356,172,45787,1,0,0:0:0:0:
336,208,45894,1,0,0:0:0:0:
252,216,46002,1,0,0:0:0:0:
272,180,46109,1,0,0:0:0:0:
288,144,46216,1,0,0:0:0:0:
304,108,46323,1,0,0:0:0:0:
244,48,46430,6,0,L|256:8,3,40
160,56,46859,1,0,0:0:0:0:
132,84,46966,1,0,0:0:0:0:
112,120,47073,1,0,0:0:0:0:
104,160,47180,1,0,0:0:0:0:
52,228,47287,5,0,0:0:0:0:
92,240,47395,1,0,0:0:0:0:
120,268,47502,1,0,0:0:0:0:
144,300,47609,1,0,0:0:0:0:
224,320,47716,1,0,0:0:0:0:
232,280,47823,1,0,0:0:0:0:
252,244,47930,1,0,0:0:0:0:
280,216,48037,1,0,0:0:0:0:
260,136,48145,6,0,P|284:104|296:64,2,80
181,205,48787,1,0,0:0:0:0:
412,60,49430,1,0,0:0:0:0:
436,92,49537,1,0,0:0:0:0:
380,136,49645,1,0,0:0:0:0:
404,168,49752,1,0,0:0:0:0:
340,224,49859,6,0,B|288:248|264:280|264:280|240:268|224:232|224:232|184:232|168:272|168:272|144:272|132:316|92:296,1,300
96,236,50716,2,0,P|60:220|24:152,2,120
120,144,51573,2,0,B|176:116|244:140|244:140|312:164|340:108,1,240
339,108,52859,1,0,0:0:0:0:
256,192,53287,12,0,55002,0:0:0:0:
144,96,55859,5,0,0:0:0:0:
424,280,56287,1,0,0:0:0:0:
388,264,56395,1,0,0:0:0:0:
328,304,56502,1,0,0:0:0:0:
292,288,56609,1,0,0:0:0:0:
224,320,56716,6,0,B|208:308|208:308|208:292|208:292|200:300|200:300|200:284|200:284|192:292|192:292|192:276|192:276|184:284|184:284|185:267|185:267|150:257|115:217|127:161,1,240.000009155274
212,184,57787,1,0,0:0:0:0:
216,100,58002,2,0,B|232:112|252:108|252:108|268:124|284:116,1,60.0000022888184
360,324,58430,5,0,0:0:0:0:
100,204,58752,1,0,0:0:0:0:
328,52,59073,1,0,0:0:0:0:
312,144,59287,1,0,0:0:0:0:
200,240,59430,1,0,0:0:0:0:
256,144,59573,1,0,0:0:0:0:
256,240,59716,1,0,0:0:0:0:
200,160,59859,1,0,0:0:0:0:
312,224,60002,1,0,0:0:0:0:
380,180,60145,6,0,P|432:216|456:280,1,133.333333333333
408,284,60573,2,0,P|368:304|336:332,1,80
84,248,61002,1,0,0:0:0:0:
196,336,61216,1,0,0:0:0:0:
196,48,61430,1,0,0:0:0:0:
84,136,61644,1,0,0:0:0:0:
344,192,61859,6,0,P|400:168|444:120,2,120
112,192,62716,1,0,0:0:0:0:
316,64,63145,5,0,0:0:0:0:
300,100,63252,1,0,0:0:0:0:
216,124,63359,1,0,0:0:0:0:
236,160,63466,1,0,0:0:0:0:
256,240,63573,6,0,B|276:248|276:248|284:244|284:244|284:256|284:256|292:248|292:248|292:260|292:260|300:252|300:252|300:264|300:264|308:256|308:256|308:268|308:268|340:280|344:320|344:320|376:328|408:316,1,240.000009155274
424,204,64645,1,0,0:0:0:0:
348,124,64859,1,0,0:0:0:0:
460,96,65073,1,0,0:0:0:0:
104,96,65287,5,0,0:0:0:0:
260,324,65609,1,0,0:0:0:0:
384,84,65930,1,0,0:0:0:0:
200,160,66145,1,0,0:0:0:0:
312,224,66288,1,0,0:0:0:0:
256,144,66431,1,0,0:0:0:0:
256,240,66574,1,0,0:0:0:0:
312,144,66717,1,0,0:0:0:0:
200,240,66860,1,0,0:0:0:0:
132,304,67002,6,0,B|120:296|120:296|120:280|120:280|112:288|112:288|112:272|112:272|104:280|104:280|104:264|104:264|96:272|96:272|96:256|96:256|52:208|76:136,1,240
256,192,67698,12,0,68716,0:0:0:0:
424,216,69037,5,0,0:0:0:0:
116,304,69359,1,0,0:0:0:0:
208,40,69573,1,0,0:0:0:0:
220,76,69680,1,0,0:0:0:0:
288,108,69787,1,0,0:0:0:0:
276,144,69894,1,0,0:0:0:0:
208,180,70002,1,0,0:0:0:0:
220,216,70109,1,0,0:0:0:0:
288,252,70216,1,0,0:0:0:0:
276,288,70323,1,0,0:0:0:0:
208,328,70430,6,0,L|160:332,3,40
112,264,70859,1,0,0:0:0:0:
92,228,70966,1,0,0:0:0:0:
36,160,71073,2,0,P|68:112|136:92,1,120
164,96,71502,1,0,0:0:0:0:
192,124,71609,1,0,0:0:0:0:
260,92,71716,5,0,0:0:0:0:
284,124,71823,1,0,0:0:0:0:
292,164,71930,1,0,0:0:0:0:
284,204,72037,1,0,0:0:0:0:
352,228,72145,2,0,P|376:280|428:320,2,120
368,184,72895,1,0,0:0:0:0:
392,152,73002,1,0,0:0:0:0:
108,120,73216,1,0,0:0:0:0:
392,232,73430,1,0,0:0:0:0:
108,264,73644,1,0,0:0:0:0:
196,28,73859,5,0,0:0:0:0:
208,64,73966,1,0,0:0:0:0:
220,100,74073,1,0,0:0:0:0:
232,136,74180,1,0,0:0:0:0:
300,100,74287,1,0,0:0:0:0:
288,136,74394,1,0,0:0:0:0:
276,172,74501,1,0,0:0:0:0:
264,208,74608,1,0,0:0:0:0:
192,244,74716,5,0,0:0:0:0:
216,276,74823,1,0,0:0:0:0:
240,308,74930,1,0,0:0:0:0:
268,340,75037,1,0,0:0:0:0:
316,272,75145,1,0,0:0:0:0:
356,276,75252,1,0,0:0:0:0:
396,280,75359,1,0,0:0:0:0:
436,284,75466,1,0,0:0:0:0:
428,204,75573,5,0,0:0:0:0:
420,164,75680,1,0,0:0:0:0:
412,124,75787,1,0,0:0:0:0:
404,84,75895,1,0,0:0:0:0:
324,84,76002,1,0,0:0:0:0:
316,124,76110,1,0,0:0:0:0:
308,164,76217,1,0,0:0:0:0:
300,204,76324,1,0,0:0:0:0:
216,204,76430,5,0,0:0:0:0:
208,164,76537,1,0,0:0:0:0:
200,124,76644,1,0,0:0:0:0:
192,84,76752,1,0,0:0:0:0:
112,84,76859,1,0,0:0:0:0:
104,124,76967,1,0,0:0:0:0:
96,164,77074,1,0,0:0:0:0:
88,204,77181,1,0,0:0:0:0:
92,288,77287,6,0,L|60:324,3,40
168,304,77716,1,0,0:0:0:0:
208,300,77823,1,0,0:0:0:0:
268,352,77930,2,0,P|320:316|392:320,1,120
416,312,78359,1,0,0:0:0:0:
444,284,78466,1,0,0:0:0:0:
372,240,78573,1,0,0:0:0:0:
368,200,78680,1,0,0:0:0:0:
384,164,78787,1,0,0:0:0:0:
416,140,78895,1,0,0:0:0:0:
384,64,79002,6,0,L|424:44,3,40
256,88,79430,1,0,0:0:0:0:
256,96,79537,1,0,0:0:0:0:
256,104,79645,1,0,0:0:0:0:
256,112,79752,1,0,0:0:0:0:
128,64,79859,2,0,L|88:44,3,40
256,180,80287,1,0,0:0:0:0:
256,188,80394,1,0,0:0:0:0:
256,196,80502,1,0,0:0:0:0:
256,204,80609,1,0,0:0:0:0:
164,224,80716,5,0,0:0:0:0:
164,264,80823,1,0,0:0:0:0:
176,304,80930,1,0,0:0:0:0:
204,332,81037,1,0,0:0:0:0:
308,332,81145,1,0,0:0:0:0:
336,304,81252,1,0,0:0:0:0:
348,264,81359,1,0,0:0:0:0:
348,224,81466,1,0,0:0:0:0:
388,156,81573,5,0,0:0:0:0:
352,140,81680,1,0,0:0:0:0:
324,112,81787,1,0,0:0:0:0:
304,76,81895,1,0,0:0:0:0:
208,76,82002,1,0,0:0:0:0:
188,112,82110,1,0,0:0:0:0:
160,140,82217,1,0,0:0:0:0:
124,156,82324,1,0,0:0:0:0:
80,244,82430,6,0,L|92:292,3,40
60,140,82859,1,0,0:0:0:0:
80,96,82966,1,0,0:0:0:0:
116,64,83073,1,0,0:0:0:0:
160,48,83180,1,0,0:0:0:0:
256,148,83287,6,0,L|256:192,3,40
352,48,83716,1,0,0:0:0:0:
396,64,83823,1,0,0:0:0:0:
432,96,83930,1,0,0:0:0:0:
452,140,84037,1,0,0:0:0:0:
456,188,84145,1,0,0:0:0:0:
288,316,90573,5,0,0:0:0:0:
288,268,90680,1,0,0:0:0:0:
224,268,90787,1,0,0:0:0:0:
224,220,90894,1,0,0:0:0:0:
160,220,91002,6,0,L|128:248,3,40
132,144,91430,1,0,0:0:0:0:
135,144,91537,1,0,0:0:0:0:
138,144,91644,1,0,0:0:0:0:
142,144,91751,1,0,0:0:0:0:
224,144,91859,5,0,0:0:0:0:
221,144,91966,1,0,0:0:0:0:
218,144,92073,1,0,0:0:0:0:
214,144,92180,1,0,0:0:0:0:
196,68,92287,1,0,0:0:0:0:
199,68,92394,1,0,0:0:0:0:
202,68,92501,1,0,0:0:0:0:
206,68,92608,1,0,0:0:0:0:
288,68,92716,6,0,L|312:36,3,40
364,192,93145,2,0,L|404:192,3,40
288,316,93573,2,0,L|312:348,3,40
76,192,94002,2,0,L|36:192,3,40
136,72,94430,5,0,0:0:0:0:
164,112,94537,1,0,0:0:0:0:
204,136,94645,1,0,0:0:0:0:
252,144,94752,1,0,0:0:0:0:
260,240,94859,1,0,0:0:0:0:
308,248,94966,1,0,0:0:0:0:
348,272,95074,1,0,0:0:0:0:
376,312,95181,1,0,0:0:0:0:
256,328,95287,6,0,L|216:348,3,40
256,56,95716,2,0,L|296:36,3,40
400,152,96145,5,0,0:0:0:0:
112,232,96359,1,0,0:0:0:0:
168,68,96573,1,0,0:0:0:0:
344,316,96787,1,0,0:0:0:0:
204,344,97002,5,0,0:0:0:0:
204,296,97109,1,0,0:0:0:0:
236,264,97216,1,0,0:0:0:0:
232,216,97323,1,0,0:0:0:0:
168,140,97430,1,0,0:0:0:0:
216,112,97537,1,0,0:0:0:0:
272,120,97645,1,0,0:0:0:0:
316,156,97752,1,0,0:0:0:0:
376,220,97859,6,0,L|404:248,3,40
420,132,98287,1,0,0:0:0:0:
396,84,98395,1,0,0:0:0:0:
352,52,98502,1,0,0:0:0:0:
304,36,98609,1,0,0:0:0:0:
208,36,98716,5,0,0:0:0:0:
160,52,98823,1,0,0:0:0:0:
116,84,98930,1,0,0:0:0:0:
92,132,99038,1,0,0:0:0:0:
184,172,99145,1,0,0:0:0:0:
160,220,99253,1,0,0:0:0:0:
116,252,99360,1,0,0:0:0:0:
68,268,99467,1,0,0:0:0:0:
124,348,99573,6,0,L|92:372,3,40
224,348,100002,1,0,0:0:0:0:
240,300,100109,1,0,0:0:0:0:
248,248,100216,1,0,0:0:0:0:
244,196,100323,1,0,0:0:0:0:
344,196,100430,5,0,0:0:0:0:
340,248,100537,1,0,0:0:0:0:
348,300,100644,1,0,0:0:0:0:
364,348,100751,1,0,0:0:0:0:
464,348,100859,1,0,0:0:0:0:
480,300,100966,1,0,0:0:0:0:
488,248,101073,1,0,0:0:0:0:
484,196,101180,1,0,0:0:0:0:
464,104,101287,6,0,L|492:68,3,40
380,64,101716,1,0,0:0:0:0:
328,72,101823,1,0,0:0:0:0:
284,100,101930,1,0,0:0:0:0:
264,148,102037,1,0,0:0:0:0:
172,148,102145,5,0,0:0:0:0:
152,100,102252,1,0,0:0:0:0:
108,72,102359,1,0,0:0:0:0:
56,64,102466,1,0,0:0:0:0:
76,156,102573,1,0,0:0:0:0:
72,204,102680,1,0,0:0:0:0:
88,248,102787,1,0,0:0:0:0:
128,276,102895,1,0,0:0:0:0:
218,235,103002,5,0,0:0:0:0:
444,328,103216,1,0,0:0:0:0:
212,308,103430,1,0,0:0:0:0:
452,256,103645,1,0,0:0:0:0:
424,112,104287,1,0,0:0:0:0:
384,140,104395,1,0,0:0:0:0:
340,160,104502,1,0,0:0:0:0:
292,164,104609,1,0,0:0:0:0:
256,88,104716,6,0,L|256:44,3,40
220,164,105145,1,0,0:0:0:0:
172,160,105252,1,0,0:0:0:0:
128,140,105359,1,0,0:0:0:0:
88,112,105467,1,0,0:0:0:0:
68,208,105573,5,0,0:0:0:0:
112,232,105681,1,0,0:0:0:0:
160,244,105788,1,0,0:0:0:0:
208,244,105895,1,0,0:0:0:0:
304,244,106002,1,0,0:0:0:0:
352,244,106109,1,0,0:0:0:0:
400,232,106216,1,0,0:0:0:0:
444,208,106324,1,0,0:0:0:0:
456,312,106430,5,0,0:0:0:0:
455,315,106537,1,0,0:0:0:0:
454,318,106644,1,0,0:0:0:0:
453,321,106751,1,0,0:0:0:0:
360,340,106859,5,0,0:0:0:0:
360,336,106966,1,0,0:0:0:0:
360,333,107073,1,0,0:0:0:0:
360,330,107180,1,0,0:0:0:0:
253,342,107287,5,0,0:0:0:0:
253,342,107394,1,0,0:0:0:0:
255,345,107501,1,0,0:0:0:0:
257,348,107608,1,0,0:0:0:0:
144,328,107716,5,0,0:0:0:0:
142,324,107823,1,0,0:0:0:0:
141,321,107930,1,0,0:0:0:0:
140,318,108037,1,0,0:0:0:0:
60,248,108145,5,0,0:0:0:0:
48,188,108252,1,0,0:0:0:0:
64,128,108359,1,0,0:0:0:0:
108,88,108466,1,0,0:0:0:0:
216,88,108573,1,0,0:0:0:0:
260,128,108680,1,0,0:0:0:0:
276,188,108787,1,0,0:0:0:0:
264,248,108894,1,0,0:0:0:0:
160,212,109002,6,0,L|160:172,3,40
372,212,109430,2,0,L|372:252,3,40
456,320,109859,5,0,0:0:0:0:
460,260,109966,1,0,0:0:0:0:
464,200,110073,1,0,0:0:0:0:
468,140,110180,1,0,0:0:0:0:
460,60,110287,1,0,0:0:0:0:
404,88,110395,1,0,0:0:0:0:
352,116,110502,1,0,0:0:0:0:
300,144,110609,1,0,0:0:0:0:
212,144,110716,5,0,0:0:0:0:
160,116,110823,1,0,0:0:0:0:
108,88,110930,1,0,0:0:0:0:
52,60,111038,1,0,0:0:0:0:
44,140,111145,1,0,0:0:0:0:
48,200,111252,1,0,0:0:0:0:
52,260,111359,1,0,0:0:0:0:
56,320,111466,1,0,0:0:0:0:
144,328,111573,6,0,P|140:284|128:248,1,80
368,328,112002,2,0,P|372:284|384:248,1,80
147,161,112430,2,0,P|182:181|208:212,1,80
364,161,112859,2,0,P|329:181|304:212,1,80
156,64,113287,5,0,0:0:0:0:
356,64,113502,1,0,0:0:0:0:
108,152,113716,1,0,0:0:0:0:
404,152,113930,1,0,0:0:0:0:
176,228,114145,1,0,0:0:0:0:
336,228,114359,1,0,0:0:0:0:
56,304,114573,1,0,0:0:0:0:
456,304,114787,1,0,0:0:0:0:
328,328,115002,5,0,0:0:0:0:
320,300,115109,1,0,0:0:0:0:
312,272,115216,1,0,0:0:0:0:
304,244,115323,1,0,0:0:0:0:
208,244,115430,1,0,0:0:0:0:
200,272,115537,1,0,0:0:0:0:
192,300,115644,1,0,0:0:0:0:
184,328,115751,1,0,0:0:0:0:
112,272,115859,5,0,0:0:0:0:
120,244,115966,1,0,0:0:0:0:
128,216,116073,1,0,0:0:0:0:
136,188,116180,1,0,0:0:0:0:
208,128,116287,5,0,0:0:0:0:
240,116,116395,1,0,0:0:0:0:
272,116,116502,1,0,0:0:0:0:
304,128,116609,1,0,0:0:0:0:
376,188,116716,5,0,0:0:0:0:
384,216,116823,1,0,0:0:0:0:
392,244,116930,1,0,0:0:0:0:
400,272,117037,1,0,0:0:0:0:
472,336,117145,2,0,L|432:352,3,40
480,248,117573,6,0,B|476:232|476:232|472:208|472:208|476:192|476:180|476:180|460:164|456:152|456:152|412:128|404:93|404:93|384:16|288:24|268:64,1,360.000013732911
220,156,118430,1,0,0:0:0:0:
208,144,118537,1,0,0:0:0:0:
196,132,118645,1,0,0:0:0:0:
184,120,118752,1,0,0:0:0:0:
292,228,118859,1,0,0:0:0:0:
304,240,118966,1,0,0:0:0:0:
316,252,119074,1,0,0:0:0:0:
328,264,119181,1,0,0:0:0:0:
220,228,119287,5,0,0:0:0:0:
208,240,119395,1,0,0:0:0:0:
196,252,119502,1,0,0:0:0:0:
184,264,119609,1,0,0:0:0:0:
292,160,119716,2,0,B|308:144|308:144|320:124|320:124|360:108|400:136|392:152,1,120.000004577637
432,320,120145,5,0,0:0:0:0:
388,336,120252,1,0,0:0:0:0:
340,348,120359,1,0,0:0:0:0:
292,348,120466,1,0,0:0:0:0:
220,348,120573,1,0,0:0:0:0:
172,348,120680,1,0,0:0:0:0:
124,336,120787,1,0,0:0:0:0:
80,320,120894,1,0,0:0:0:0:
120,256,121002,5,0,0:0:0:0:
120,208,121109,1,0,0:0:0:0:
100,164,121216,1,0,0:0:0:0:
56,140,121323,1,0,0:0:0:0:
112,88,121430,1,0,0:0:0:0:
148,60,121537,1,0,0:0:0:0:
184,76,121645,1,0,0:0:0:0:
216,44,121752,1,0,0:0:0:0:
296,44,121859,5,0,0:0:0:0:
328,76,121966,1,0,0:0:0:0:
364,60,122074,1,0,0:0:0:0:
400,88,122181,1,0,0:0:0:0:
456,140,122287,1,0,0:0:0:0:
412,164,122394,1,0,0:0:0:0:
392,208,122501,1,0,0:0:0:0:
392,256,122608,1,0,0:0:0:0:
324,232,122716,5,0,0:0:0:0:
316,204,122823,1,0,0:0:0:0:
312,176,122930,1,0,0:0:0:0:
300,148,123037,1,0,0:0:0:0:
212,148,123145,1,0,0:0:0:0:
200,176,123252,1,0,0:0:0:0:
196,204,123359,1,0,0:0:0:0:
188,232,123466,1,0,0:0:0:0:
180,324,123573,5,0,0:0:0:0:
116,299,123680,1,0,0:0:0:0:
65,254,123787,1,0,0:0:0:0:
41,190,123894,1,0,0:0:0:0:
51,123,124001,1,0,0:0:0:0:
91,68,124108,1,0,0:0:0:0:
152,39,124215,1,0,0:0:0:0:
220,39,124322,1,0,0:0:0:0:
287,39,124430,1,0,0:0:0:0:
355,38,124537,1,0,0:0:0:0:
417,66,124644,1,0,0:0:0:0:
458,120,124751,1,0,0:0:0:0:
470,186,124858,1,0,0:0:0:0:
448,250,124965,1,0,0:0:0:0:
398,297,125072,1,0,0:0:0:0:
335,323,125180,1,0,0:0:0:0:
256,192,125287,1,0,0:0:0:0:
256,192,125395,12,0,128716,0:0:0:0:
