osu file format v9

[General]
AudioFilename: perditusparadisus.mp3
AudioLeadIn: 0
PreviewTime: 30741
Countdown: 0
SampleSet: Soft
StackLeniency: 0.7
Mode: 0
LetterboxInBreaks: 0

[Editor]
Bookmarks: 23764,27950,29346,41904,43299,44695,46090,64230,69811,79230,92137,97718,103299,108881
DistanceSpacing: 0.4
BeatDivisor: 4
GridSize: 4

[Metadata]
Title:Stream Practice Maps 2
Artist:Various Artists
Creator:NewRulerNA
Version:perditus paradisus BPM172
Source:
Tags:dj amuro dm ashura aaa remix iconoclasm perditus paradisus Beatmania IIDX 18 Resort Anthem dj taka suzaku vs genbu himiko IIDX 16 EMPRESS xi Ascension to Heaven BMS artcore bms of fighters 2009 FREEDOM DiVE parousia

[Difficulty]
HPDrainRate:4
CircleSize:4
OverallDifficulty:8
ApproachRate:8
SliderMultiplier:2
SliderTickRate:1

[Events]
//Background and Video events
0,0,"perditus paradisus.jpg"
//Break Periods
2,103499,108131
//Storyboard Layer 0 (Background)
//Storyboard Layer 1 (Fail)
//Storyboard Layer 2 (Pass)
//Storyboard Layer 3 (Foreground)
//Storyboard Sound Samples
//Background Colour Transformations
3,100,0,0,0

[TimingPoints]
44,348.837209302326,4,2,0,100,1,0
1439,-200,4,2,0,50,0,0
12602,-100,4,1,0,80,0,0
23852,-100,4,1,0,30,0,0
25160,-100,4,1,0,80,0,0
25247,-100,4,1,0,30,0,0
26555,-100,4,1,0,80,0,0
26642,-100,4,1,0,30,0,0
27253,-100,4,1,0,80,0,0
27340,-100,4,1,0,30,0,0
30741,-100,4,1,0,80,0,0
32137,-100,4,1,0,80,0,0
32224,-100,4,1,0,50,0,0
32834,-100,4,1,0,80,0,0
32921,-100,4,1,0,50,0,0
33183,-100,4,1,0,80,0,0
33270,-100,4,1,0,50,0,0
33532,-100,4,1,0,80,0,0
33619,-100,4,1,0,50,0,0
34230,-100,4,1,0,80,0,0
34317,-100,4,1,0,50,0,0
34927,-100,4,1,0,80,0,0
35014,-100,4,1,0,50,0,0
35625,-100,4,1,0,80,0,0
35712,-100,4,1,0,50,0,0
35974,-100,4,1,0,80,0,0
36061,-100,4,1,0,50,0,0
36323,-100,4,1,0,80,0,0
36410,-100,4,1,0,50,0,0
37020,-100,4,1,0,80,0,0
37107,-100,4,1,0,50,0,0
37718,-100,4,1,0,80,0,0
37805,-100,4,1,0,50,0,0
38416,-100,4,1,0,80,0,0
38503,-100,4,1,0,50,0,0
38764,-100,4,1,0,80,0,0
38852,-100,4,1,0,50,0,0
39113,-100,4,1,0,80,0,0
39200,-100,4,1,0,50,0,0
39811,-100,4,1,0,80,0,0
39898,-100,4,1,0,50,0,0
40509,-100,4,1,0,80,0,0
40596,-100,4,1,0,50,0,0
41206,-100,4,1,0,80,0,0
41294,-100,4,1,0,50,0,0
41555,-100,4,1,0,80,0,0
41644,-100,4,1,0,50,0,0
103299,-100,4,1,0,80,0,0
108881,-100,4,1,0,50,0,0
114462,-100,4,1,0,80,0,0
114549,-100,4,1,0,50,0,0
115857,-100,4,1,0,80,0,0
115945,-100,4,1,0,50,0,0
117253,-100,4,1,0,80,0,0
117340,-100,4,1,0,50,0,0
118648,-100,4,1,0,80,0,0
118735,-100,4,1,0,50,0,0
120044,-100,4,1,0,80,0,0
120131,-100,4,1,0,50,0,0
121439,-100,4,1,0,80,0,0
121526,-100,4,1,0,50,0,0
122834,-100,4,1,0,80,0,0
122921,-100,4,1,0,50,0,0
124230,-100,4,1,0,80,0,0
124317,-100,4,1,0,50,0,0
125625,-100,4,1,0,80,0,0
125712,-100,4,1,0,5,0,0

[Colours]
Combo1 : 255,0,0
Combo2 : 0,200,0
Combo3 : 0,0,255

[HitObjects]
256,120,1439,2,0,B|344:32|432:120,1,200
256,120,2834,2,0,B|168:32|80:120,1,200
256,120,4230,6,0,B|256:328,1,200
168,88,5625,2,0,B|256:0|344:88,1,200
344,296,7020,6,0,B|256:384|168:296,1,200
296,192,8416,2,0,B|512:192,1,200
216,192,9811,6,0,B|0:192,1,200
256,272,11206,1,0
256,128,11904,1,0
336,40,12602,6,0,B|400:128,1,100
304,200,12950,2,0,B|368:288,1,100,0|0
152,280,13299,2,0,B|88:192,1,100
184,120,13648,2,0,B|120:32,1,100,0|0
328,136,13997,6,0,B|432:136,1,100
184,248,14346,2,0,B|80:248,1,100
376,224,14695,2,0,B|466:276,1,100
136,160,15044,2,0,B|45:108,1,100
336,320,15392,6,0,B|286:233,1,100
176,64,15741,2,0,B|226:150,1,100
128,272,16090,2,0,B|214:222,1,100
384,112,16439,2,0,B|297:162,1,100
368,216,16788,5,0
368,216,16875,1,0
368,216,16962,1,0
232,304,17137,1,0
232,304,17224,1,0
232,304,17311,1,0
144,168,17485,5,0
144,168,17573,1,0
144,168,17660,1,0
280,80,17834,1,0
280,80,17921,1,0
280,80,18009,1,0
416,152,18183,6,0,B|368:132|320:152,1,100
96,232,18532,2,0,B|144:252|192:232,1,100
312,264,18881,5,0
312,264,18968,1,0
312,264,19055,1,0
200,120,19230,1,0
200,120,19317,1,0
200,120,19404,1,0
168,272,19578,6,0,B|168:384,1,100
344,112,19927,2,0,B|344:0,1,100
144,176,20276,1,0
144,176,20363,1,0
144,176,20450,1,0
368,208,20625,1,0
368,208,20712,1,0
368,208,20799,1,0
208,48,20974,6,0,B|160:28|112:48,1,100
304,336,21323,2,0,B|352:356|400:336,1,100
440,136,21671,2,0,B|328:136,1,100
72,248,22020,2,0,B|184:248,1,100
256,144,22369,6,0,B|208:124|160:144,1,100,0|0
256,240,22718,2,0,B|304:260|352:240,1,100,0|0
168,72,23067,2,0,B|116:78|84:120,1,100,0|0
344,312,23416,2,0,B|395:305|427:264,1,100,0|0
456,72,23764,5,4
448,76,23852,1,0
440,80,23939,1,0
432,84,24026,1,0
424,88,24113,1,0
416,92,24200,1,0
408,96,24288,1,0
400,100,24375,1,0
392,104,24462,1,0
384,108,24549,1,0
376,112,24637,1,0
368,116,24724,1,0
360,120,24811,1,0
352,124,24898,1,0
344,128,24985,1,0
336,132,25073,1,0
328,136,25160,5,4
324,144,25247,1,0
320,152,25334,1,0
316,160,25421,1,0
312,168,25509,1,0
308,176,25596,1,0
304,184,25683,1,0
300,192,25770,1,0
296,200,25857,1,0
292,208,25945,1,0
288,216,26032,1,0
284,224,26119,1,0
280,232,26206,1,0
276,240,26293,1,0
272,248,26381,1,0
268,256,26468,1,0
264,264,26555,5,4
256,268,26642,1,0
248,272,26730,1,0
240,276,26817,1,0
232,280,26904,1,0
224,284,26991,1,0
216,288,27078,1,0
208,292,27166,1,0
200,296,27253,1,4
192,300,27340,1,0
184,304,27427,1,0
176,308,27514,1,0
168,312,27602,1,0
160,316,27689,1,0
152,320,27776,1,0
144,324,27863,1,0
136,328,27950,6,0,B|96:352,32,25
56,188,30741,5,0
60,180,30828,1,0
64,172,30916,2,0,B|100:148|100:148|164:144,1,100
256,140,31264,1,0
412,240,31439,5,0
408,248,31526,1,0
404,256,31613,2,0,B|368:280|368:280|304:284,1,100
212,288,31962,1,0
136,224,32137,5,4
125,206,32224,1,0
126,186,32311,1,0
132,167,32398,1,0
145,152,32485,1,0
163,144,32573,1,0
182,143,32660,1,0
201,146,32747,1,0
220,150,32834,5,4
239,152,32921,1,0
259,151,33009,1,0
278,148,33096,1,0
297,142,33183,1,4
314,132,33270,1,0
329,119,33357,1,0
337,100,33445,1,0
336,80,33532,5,4
326,62,33619,1,0
312,47,33706,1,0
292,40,33793,1,0
272,41,33881,1,0
253,48,33968,1,0
235,56,34055,1,0
216,64,34142,1,0
197,72,34230,5,4
178,80,34317,1,0
158,89,34404,1,0
140,97,34491,1,0
123,108,34578,1,0
109,123,34666,1,0
100,141,34753,1,0
93,159,34840,1,0
92,178,34927,5,4
93,197,35014,1,0
98,216,35102,1,0
104,235,35189,1,0
115,251,35276,1,0
126,267,35363,1,0
142,278,35450,1,0
162,279,35538,1,0
181,275,35625,5,4
198,265,35712,1,0
209,248,35799,1,0
220,231,35887,1,0
237,221,35974,1,4
256,215,36061,1,0
275,212,36148,1,0
294,215,36235,1,0
309,227,36323,5,4
318,244,36410,1,0
327,261,36497,1,0
339,276,36584,1,0
356,285,36671,1,0
375,288,36759,1,0
394,286,36846,1,0
413,280,36933,1,0
430,269,37020,5,4
439,251,37107,1,0
446,232,37195,1,0
446,212,37282,1,0
442,192,37369,1,0
438,172,37456,1,0
434,152,37543,1,0
430,132,37631,1,0
416,117,37718,5,4
402,102,37805,1,0
383,94,37892,1,0
363,88,37980,1,0
343,87,38067,1,0
323,92,38154,1,0
306,103,38241,1,0
286,107,38328,1,0
265,105,38416,5,4
253,89,38503,1,0
248,69,38590,1,0
234,54,38677,1,0
214,50,38764,1,4
195,57,38852,1,0
177,67,38939,1,0
163,81,39026,1,0
154,98,39113,5,4
151,117,39200,1,0
152,137,39288,1,0
158,155,39375,1,0
173,167,39462,1,0
190,176,39549,1,0
208,183,39637,1,0
224,193,39724,1,0
238,207,39811,5,4
248,224,39898,1,0
253,243,39985,1,0
255,263,40073,1,0
248,281,40160,1,0
239,298,40247,1,0
224,311,40334,1,0
206,320,40421,1,0
186,324,40509,5,4
166,322,40596,1,0
146,315,40683,1,0
129,303,40770,1,0
117,287,40857,1,0
106,269,40945,1,0
97,251,41032,1,0
89,232,41119,1,0
83,212,41206,5,4
80,191,41293,1,0
83,171,41381,1,0
90,152,41468,1,0
100,135,41555,1,4
113,120,41642,1,0
131,111,41730,1,0
148,101,41817,1,0
168,92,41904,6,0,B|228:68,7,50,2|0|0|0|0|0|0|0
212,92,42602,2,0,B|272:116,7,50,2|0|0|0|0|0|0|0
216,136,43299,6,0,B|156:160,1,50,2|0
212,172,43474,2,0,B|152:196,1,50,0|0
208,208,43648,2,0,B|148:232,1,50,2|0
204,244,43823,2,0,B|144:268,1,50,0|0
234,250,43997,6,0,B|297:240,1,50,2|0
256,280,44171,2,0,B|319:270,1,50,0|0
277,309,44346,2,0,B|340:299,1,50,2|0
298,338,44520,2,0,B|361:328,1,50,0|0
320,368,44695,6,0,B|383:358,7,50,2|0|0|0|0|0|0|0
388,328,45392,2,0,B|451:318,7,50,2|0|0|0|0|0|0|0
452,304,46090,5,2
456,284,46177,1,0
444,268,46264,1,0
448,248,46352,1,0
432,236,46439,1,2
436,216,46526,1,0
424,200,46613,1,0
428,180,46700,1,0
408,172,46788,5,2
392,158,46875,1,0
372,160,46962,1,0
357,147,47049,1,0
339,155,47137,1,2
323,141,47224,1,0
303,144,47311,1,0
288,130,47398,1,0
272,140,47485,6,0,B|212:140,7,50,2|0|0|0|0|0|0|0
208,156,48183,2,0,B|150:171,7,50,2|0|0|0|0|0|0|0
148,188,48881,5,2
148,196,48968,1,0
148,204,49055,1,0
148,212,49142,1,0
148,220,49230,1,2
148,228,49317,1,0
148,236,49404,1,0
148,244,49491,1,0
148,252,49578,5,2
148,260,49666,1,0
148,268,49753,1,0
148,276,49840,1,0
148,284,49927,1,2
148,292,50014,1,0
148,300,50102,1,0
148,308,50189,1,0
152,316,50276,6,0,B|212:348,7,50,2|0|0|0|0|0|0|0
228,340,50974,2,0,B|288:308,7,50,2|0|0|0|0|0|0|0
284,308,51671,5,2
296,300,51759,1,0
308,292,51846,1,0
320,284,51933,1,0
332,276,52020,1,2
344,268,52107,1,0
356,260,52195,1,0
368,248,52282,1,0
380,240,52369,5,2
384,224,52456,1,0
388,208,52543,1,0
392,192,52631,1,0
396,176,52718,1,2
400,160,52805,1,0
404,144,52892,1,0
408,128,52980,1,0
412,112,53067,5,2
408,96,53154,1,0
400,84,53241,1,0
388,72,53328,1,0
372,68,53416,1,0
356,68,53503,1,0
340,72,53590,1,0
328,80,53677,1,0
316,88,53764,5,2
304,96,53852,1,0
292,104,53939,1,0
280,112,54026,1,0
268,120,54113,1,0
256,128,54200,1,0
244,136,54288,1,0
228,140,54375,1,0
212,144,54462,5,2
196,144,54549,1,0
180,140,54637,1,0
168,132,54724,1,0
156,124,54811,1,2
152,108,54898,1,0
148,92,54985,1,0
144,80,55073,1,0
136,68,55160,5,2
124,60,55247,1,0
108,56,55334,1,0
92,56,55421,1,0
76,60,55509,1,2
63,72,55596,1,0
54,84,55683,1,0
48,97,55770,1,0
45,111,55857,5,2
43,126,55945,1,0
43,140,56032,1,0
46,154,56119,1,0
52,167,56206,1,0
58,180,56293,1,0
65,192,56381,1,0
72,204,56468,1,0
80,216,56555,5,2
88,228,56642,1,0
96,240,56730,1,0
107,249,56817,1,0
119,256,56904,1,0
133,258,56991,1,0
146,251,57078,1,0
157,240,57166,1,0
167,229,57253,5,2
180,222,57340,1,0
194,220,57427,1,0
208,224,57514,1,0
221,230,57602,1,2
233,237,57689,1,0
245,244,57776,1,0
257,251,57863,1,0
269,258,57950,5,2
282,265,58038,1,0
295,272,58125,1,0
308,279,58212,1,0
321,284,58299,1,2
335,288,58387,1,0
349,286,58474,1,0
362,280,58561,1,0
374,272,58648,5,2
385,262,58735,1,0
393,249,58823,1,0
398,235,58910,1,0
401,220,58997,1,0
402,205,59084,1,0
400,190,59171,1,0
395,175,59259,1,0
387,162,59346,5,2
378,149,59433,1,0
369,136,59520,1,0
360,123,59607,1,0
351,110,59695,1,0
340,99,59782,1,0
328,88,59869,1,0
315,80,59956,1,0
300,76,60043,5,2
285,72,60131,1,0
270,75,60218,1,0
256,80,60305,1,0
243,88,60392,1,2
231,97,60480,1,0
219,106,60567,1,0
205,113,60654,1,0
199,126,60741,5,2
193,140,60828,1,0
187,154,60916,1,0
181,168,61003,1,0
175,182,61090,1,2
169,196,61177,1,0
164,210,61264,1,0
158,224,61352,1,0
154,238,61439,5,2
151,252,61526,1,0
151,266,61613,1,0
157,279,61700,1,0
168,288,61788,1,0
181,294,61875,1,0
195,297,61962,1,0
209,300,62049,1,0
224,301,62137,5,2
238,299,62224,1,0
251,293,62311,1,0
263,284,62398,1,0
274,274,62485,1,0
285,263,62573,1,0
294,251,62660,1,0
300,237,62747,1,0
303,222,62834,5,2
304,207,62921,1,0
301,192,63009,1,0
295,178,63096,1,0
288,164,63183,1,2
275,155,63270,1,0
262,147,63357,1,0
247,144,63445,1,0
232,147,63532,5,2
217,151,63619,1,0
202,154,63706,1,0
187,157,63793,1,0
172,157,63881,1,2
157,154,63968,1,0
142,149,64055,1,0
128,142,64142,1,0
116,136,64230,6,0,B|96:88,3,50,4|0|0|0
136,88,64578,2,0,B|142:36,3,50,0|0|0|0
176,60,64927,2,0,B|207:18,3,50,0|0|0|0
224,56,65276,2,0,B|271:35,3,50,0|0|0|0
272,76,65625,6,0,B|323:82,3,50,0|0|0|0
300,116,65974,2,0,B|341:147,3,50,0|0|0|0
304,164,66323,2,0,B|324:211,3,50,0|0|0|0
284,208,66671,2,0,B|277:259,3,50,0|0|0|0
244,236,67020,6,0,B|212:277,3,50,4|0|0|0
192,242,67369,2,0,B|143:262,3,50,0|0|0|0
148,222,67718,2,0,B|96:216,3,50,0|0|0|0
120,182,68067,2,0,B|78:151,3,50,0|0|0|0
114,130,68416,6,0,B|93:82,3,50,4|0|0|0
134,86,68764,2,0,B|140:34,3,50,0|0|0|0
174,59,69113,2,0,B|204:18,3,50,0|0|0|0
222,54,69462,2,0,B|269:34,3,50,0|0|0|0
268,76,69811,5,4
268,84,69898,1,0
268,92,69985,1,0
268,100,70073,1,0
268,108,70160,1,0
268,116,70247,1,0
268,124,70334,1,0
268,132,70421,1,0
276,136,70509,5,0
276,144,70596,1,0
276,152,70683,1,0
276,160,70770,1,0
276,168,70857,1,0
276,176,70945,1,0
276,184,71032,1,0
276,192,71119,1,0
260,196,71206,5,4
260,204,71293,1,0
260,212,71381,1,0
260,220,71468,1,0
260,228,71555,1,0
260,236,71642,1,0
260,244,71730,1,0
260,252,71817,1,0
248,264,71904,5,0
240,268,71991,1,0
232,272,72078,1,0
224,276,72166,1,0
216,280,72253,1,0
208,280,72340,1,0
200,280,72427,1,0
192,280,72514,1,0
184,276,72602,5,4
176,272,72689,1,0
168,268,72776,1,0
160,264,72863,1,0
152,256,72950,1,0
144,248,73038,1,0
140,240,73125,1,0
136,232,73212,1,0
132,224,73299,5,0
132,216,73387,1,0
132,208,73474,1,0
132,200,73561,1,0
132,192,73648,1,0
132,184,73735,1,0
136,176,73823,1,0
140,168,73910,1,0
144,160,73997,5,4
148,152,74084,1,0
156,144,74171,1,0
164,136,74259,1,0
172,132,74346,1,0
180,128,74433,1,0
188,124,74520,1,0
196,124,74607,1,0
204,124,74695,5,0
212,128,74782,1,0
220,132,74869,1,0
228,136,74956,1,0
236,140,75044,1,0
244,140,75131,1,0
252,140,75218,1,0
260,140,75305,1,0
268,140,75392,5,4
276,136,75480,1,0
284,132,75567,1,0
292,128,75654,1,0
300,124,75741,1,0
308,116,75828,1,0
316,112,75916,1,0
324,108,76003,1,0
332,108,76090,5,0
340,108,76177,1,0
348,112,76264,1,0
356,116,76352,1,0
364,124,76439,1,0
372,132,76526,1,0
376,140,76613,1,0
380,148,76700,1,0
384,156,76788,5,4
388,164,76875,1,0
388,172,76962,1,0
388,180,77049,1,0
384,188,77137,1,0
380,196,77224,1,0
376,204,77311,1,0
372,212,77398,1,0
364,220,77485,5,0
356,228,77573,1,0
348,232,77660,1,0
339,237,77747,1,0
329,240,77834,1,0
319,242,77921,1,0
308,243,78009,1,0
298,242,78096,1,0
288,240,78183,5,4
278,237,78270,1,0
269,231,78357,1,0
262,223,78445,1,0
255,215,78532,1,0
249,206,78619,1,0
243,197,78706,1,0
237,188,78794,1,0
232,179,78881,1,0
225,171,78968,1,0
216,166,79055,1,0
206,164,79142,1,0
196,164,79230,6,0,B|136:176,1,50,2|0
172,204,79404,2,0,B|126:244,1,50
172,248,79578,2,0,B|152:305,1,50,2|0
194,288,79753,2,0,B|206:347,1,50
232,308,79927,6,0,B|272:353,11,50,2|0|0|0|2|0|0|0|0|0|0|0
304,348,80974,5,4
313,346,81061,1,0
321,341,81148,1,0
328,334,81235,1,0
334,325,81323,1,0
339,316,81410,1,0
343,306,81497,1,0
345,296,81584,1,0
346,286,81671,5,0
346,275,81759,1,0
346,265,81846,1,0
346,255,81933,1,0
346,245,82020,1,0
346,235,82107,1,0
347,224,82195,1,0
348,214,82282,1,0
349,204,82369,5,4
350,194,82456,1,0
352,184,82544,1,0
354,174,82631,1,0
357,164,82718,1,0
361,154,82805,1,0
365,144,82892,1,0
366,134,82980,1,0
366,124,83067,5,0
362,114,83154,1,0
355,106,83241,1,0
347,99,83328,1,0
338,94,83416,1,0
328,91,83503,1,0
318,88,83590,1,0
308,87,83677,1,0
298,88,83764,5,4
288,90,83852,1,0
278,93,83939,1,0
269,97,84026,1,0
260,102,84113,1,0
252,109,84200,1,0
245,116,84288,1,0
240,124,84375,1,0
236,133,84462,5,0
234,142,84549,1,0
233,152,84637,1,0
233,161,84724,1,0
234,170,84811,1,0
236,179,84898,1,0
239,188,84985,1,0
242,197,85073,1,0
245,206,85160,5,4
248,215,85247,1,0
249,224,85334,1,0
249,233,85421,1,0
246,242,85509,1,0
242,251,85596,1,0
236,259,85683,1,0
229,266,85770,1,0
221,272,85857,5,0
212,277,85945,1,0
202,281,86032,1,0
192,284,86119,1,0
182,286,86206,1,0
171,286,86294,1,0
161,285,86381,1,0
151,283,86468,1,0
141,279,86555,5,4
131,275,86642,1,0
122,269,86730,1,0
114,262,86817,1,0
107,254,86904,1,0
100,246,86991,1,0
94,237,87078,1,0
90,227,87166,1,0
87,217,87253,5,0
85,207,87340,1,0
85,197,87427,1,0
86,187,87514,1,0
88,177,87602,1,0
90,167,87689,1,0
92,157,87776,1,0
97,148,87863,1,0
103,140,87950,5,4
110,133,88038,1,0
119,129,88125,1,0
128,127,88212,1,0
137,128,88299,1,0
146,129,88387,1,0
155,130,88474,1,0
164,131,88561,1,0
173,132,88648,5,0
182,133,88735,1,0
192,133,88823,1,0
201,132,88910,1,0
210,130,88997,1,0
219,127,89084,1,0
228,123,89171,1,0
237,119,89259,1,0
246,115,89346,5,4
255,111,89433,1,0
264,107,89520,1,0
273,103,89607,1,0
282,101,89695,1,0
291,99,89782,1,0
300,99,89869,1,0
309,100,89956,1,0
318,102,90044,5,0
327,105,90131,1,0
335,109,90218,1,0
343,114,90305,1,0
350,120,90392,1,0
356,127,90480,1,0
361,135,90567,1,0
365,144,90654,1,0
368,153,90741,5,4
370,162,90828,1,0
372,171,90916,1,0
371,180,91003,1,0
368,189,91090,1,0
364,198,91177,1,0
359,206,91264,1,0
353,214,91352,1,0
346,221,91439,5,0
338,228,91526,1,0
329,233,91613,1,0
320,237,91700,1,0
310,241,91788,1,0
300,244,91875,1,0
290,248,91962,1,0
280,251,92049,1,0
272,252,92137,6,0,B|208:252,3,50,2|0|0|0
204,204,92485,2,0,B|259:172,3,50,2|0|0|0
220,136,92834,2,0,B|188:80,3,50,2|0|0|0
236,68,93183,2,0,B|291:36,3,50,2|0|0|0
316,76,93532,6,0,B|380:76,3,50,2|0|0|0
380,124,93881,2,0,B|435:156,3,50,2|0|0|0
408,196,94230,2,0,B|439:251,3,50,2|0|0|0
398,275,94578,2,0,B|398:339,3,50,2|0|0|0
372,336,94927,5,2
362,339,95014,1,0
352,342,95102,1,0
342,343,95189,1,0
332,343,95276,1,2
322,342,95363,1,0
312,340,95450,1,0
302,336,95538,1,0
293,331,95625,5,2
284,325,95712,1,0
276,318,95799,1,0
268,311,95887,1,0
261,303,95974,1,2
254,295,96061,1,0
247,287,96148,1,0
241,278,96235,1,0
235,269,96323,5,2
229,260,96410,1,0
223,251,96497,1,0
218,242,96584,1,0
214,232,96671,1,2
211,222,96759,1,0
210,212,96846,1,0
211,202,96933,1,0
211,192,97020,5,2
213,182,97107,1,0
217,172,97195,1,0
221,163,97282,1,0
224,153,97369,1,2
226,143,97456,1,0
227,132,97544,1,0
224,122,97631,1,0
220,112,97718,6,0,B|204:64,3,50,2|0|0|0
180,96,98067,2,0,B|142:62,3,50,2|0|0|0
140,104,98416,2,0,B|90:93,3,50,2|0|0|0
108,132,98764,2,0,B|60:148,3,50,2|0|0|0
92,172,99113,6,0,B|58:209,3,50,2|0|0|0
98,214,99462,2,0,B|87:263,3,50,2|0|0|0
125,245,99811,2,0,B|141:293,3,50,2|0|0|0
164,259,100160,2,0,B|201:292,3,50,2|0|0|0
204,252,100509,5,2
224,244,100596,1,0
244,236,100683,1,0
260,228,100770,1,0
276,220,100857,1,2
292,212,100945,1,0
308,204,101032,1,0
324,192,101119,1,0
340,180,101206,5,2
352,164,101294,1,0
356,144,101381,1,0
356,124,101468,1,0
352,104,101555,1,2
340,88,101642,1,0
324,76,101730,1,0
304,68,101817,1,0
284,64,101904,5,2
264,68,101991,1,0
244,76,102078,1,0
228,92,102166,1,0
216,108,102253,1,2
204,124,102340,1,0
188,136,102427,1,0
168,140,102514,1,0
148,148,102602,5,2
132,160,102689,1,0
120,176,102776,1,0
112,192,102863,1,0
104,212,102950,1,2
100,232,103038,1,0
96,252,103125,1,0
100,272,103212,1,0
104,292,103299,5,4
112,108,108881,5,4
112,108,108968,1,0
112,108,109055,1,0
112,108,109142,1,0
112,108,109230,1,0
112,108,109317,1,0
112,108,109404,1,0
112,108,109491,1,0
112,108,109578,5,0
112,108,109666,1,0
112,108,109753,1,0
112,108,109840,1,0
112,108,109927,1,0
112,108,110014,1,0
112,108,110102,1,0
112,108,110189,1,0
192,196,110276,5,0
192,196,110363,1,0
192,196,110450,1,0
192,196,110538,1,0
192,196,110625,1,0
192,196,110712,1,0
192,196,110799,1,0
192,196,110887,1,0
192,196,110974,5,0
192,196,111061,1,0
192,196,111148,1,0
192,196,111235,1,0
192,196,111323,1,0
192,196,111410,1,0
192,196,111497,1,0
192,196,111584,1,0
264,284,111671,5,0
264,284,111759,1,0
264,284,111846,1,0
264,284,111933,1,0
264,284,112020,1,0
264,284,112107,1,0
264,284,112195,1,0
264,284,112282,1,0
264,284,112369,5,0
264,284,112456,1,0
264,284,112544,1,0
264,284,112631,1,0
264,284,112718,1,0
264,284,112805,1,0
264,284,112892,1,0
264,284,112980,1,0
352,372,113067,5,0
352,372,113154,1,0
352,372,113241,1,0
352,372,113328,1,0
352,372,113416,1,0
352,372,113503,1,0
352,372,113590,1,0
352,372,113677,1,0
352,372,113764,5,0
352,372,113852,1,0
352,372,113939,1,0
352,372,114026,1,0
352,372,114113,1,0
352,372,114200,1,0
352,372,114288,1,0
352,372,114375,1,0
368,360,114462,5,4
380,344,114549,1,0
388,325,114637,1,0
394,306,114724,1,0
395,286,114811,1,0
394,266,114898,1,0
388,246,114985,1,0
376,229,115073,1,0
361,215,115160,5,0
347,199,115247,1,0
336,182,115334,1,0
333,162,115421,1,0
338,142,115509,1,0
345,123,115596,1,0
345,103,115683,1,0
335,85,115770,1,0
321,70,115857,5,4
302,61,115945,1,0
282,55,116032,1,0
262,52,116119,1,0
242,53,116206,1,0
222,57,116294,1,0
204,67,116381,1,0
189,81,116468,1,0
182,99,116555,5,0
180,118,116642,1,0
183,137,116730,1,0
193,153,116817,1,0
207,167,116904,1,0
221,180,116991,1,0
235,193,117078,1,0
245,210,117166,1,0
252,228,117253,5,4
256,247,117340,1,0
256,266,117427,1,0
252,285,117514,1,0
244,303,117602,1,0
230,317,117689,1,0
213,328,117776,1,0
194,335,117863,1,0
174,336,117950,5,0
153,334,118038,1,0
136,322,118125,1,0
121,308,118212,1,0
110,291,118299,1,0
103,271,118387,1,0
103,251,118474,1,0
106,231,118561,1,0
113,212,118648,5,4
121,193,118735,1,0
129,174,118823,1,0
137,155,118910,1,0
147,138,118997,1,0
161,124,119084,1,0
178,114,119171,1,0
196,106,119259,1,0
216,100,119346,6,0,B|268:80,7,50
280,76,120044,5,4
299,70,120131,1,0
318,65,120218,1,0
337,67,120305,1,0
355,74,120392,1,0
370,87,120480,1,0
381,103,120567,1,0
386,122,120654,1,0
379,140,120741,5,0
366,155,120828,1,0
360,174,120916,1,0
356,193,121003,1,0
357,212,121090,1,0
363,230,121177,1,0
370,248,121264,1,0
373,267,121352,1,0
373,286,121439,5,4
366,304,121526,1,0
356,321,121613,1,0
337,328,121700,1,0
317,330,121788,1,0
297,330,121875,1,0
277,325,121962,1,0
260,314,122049,1,0
250,296,122137,5,0
245,276,122224,1,0
246,256,122311,1,0
251,236,122398,1,0
251,216,122485,1,0
246,196,122573,1,0
239,177,122660,1,0
227,160,122747,1,0
211,147,122834,5,4
193,137,122921,1,0
174,129,123009,1,0
154,124,123096,1,0
134,123,123183,1,0
114,124,123270,1,0
94,129,123357,1,0
76,139,123445,1,0
62,154,123532,5,0
52,171,123619,1,0
48,190,123706,1,0
50,210,123794,1,0
54,229,123881,1,0
61,247,123968,1,0
73,262,124055,1,0
87,275,124142,1,0
102,287,124230,5,4
121,292,124317,1,0
140,294,124404,1,0
159,292,124491,1,0
178,287,124578,1,0
196,279,124666,1,0
214,271,124753,1,0
232,262,124840,1,0
249,252,124927,5,0
265,241,125014,1,0
280,227,125102,1,0
293,212,125189,1,0
304,195,125276,1,0
314,177,125363,1,0
323,159,125450,1,0
331,140,125538,1,0
339,121,125625,5,4
256,192,125712,12,0,131206
