osu file format v9

[General]
AudioFilename: ascension_to_heaven.mp3
AudioLeadIn: 0
PreviewTime: 97229
Countdown: 0
SampleSet: Soft
StackLeniency: 0.7
Mode: 0
LetterboxInBreaks: 0

[Editor]
Bookmarks: 20429,28829,48029,55529,58829,102029,118829,121229,139229,140429
DistanceSpacing: 0.8
BeatDivisor: 2
GridSize: 4

[Metadata]
Title:Stream Practice Maps 2
Artist:Various Artists
Creator:NewRulerNA
Version:Ascension to Heaven BPM200
Source:
Tags:dj amuro dm ashura aaa remix iconoclasm perditus paradisus Beatmania IIDX 18 Resort Anthem dj taka suzaku vs genbu himiko IIDX 16 EMPRESS xi Ascension to Heaven BMS artcore bms of fighters 2009 FREEDOM DiVE parousia

[Difficulty]
HPDrainRate:3
CircleSize:4
OverallDifficulty:8
ApproachRate:9
SliderMultiplier:2.4
SliderTickRate:1

[Events]
//Background and Video events
0,0,"Ascension to Heaven.jpg"
//Break Periods
//Storyboard Layer 0 (Background)
//Storyboard Layer 1 (Fail)
//Storyboard Layer 2 (Pass)
//Storyboard Layer 3 (Foreground)
//Storyboard Sound Samples
//Background Colour Transformations
3,100,0,0,0

[TimingPoints]
1237,300,4,2,0,40,1,0
1237,-200,4,2,1,40,0,0
10837,-100,4,1,1,60,0,0
20137,-100,4,1,1,100,0,0
20212,-100,4,1,1,60,0,0
58837,-200,4,2,1,100,0,0
102037,-100,4,2,1,100,0,0
102112,-100,4,2,1,60,0,0
139237,-100,4,2,1,100,0,0
140587,-200,4,2,1,50,0,0
152437,315.789473684211,4,2,1,50,1,0

[Colours]
Combo1 : 255,255,255
Combo2 : 0,255,255
Combo3 : 0,128,192

[HitObjects]
256,64,1237,5,2
256,72,3637,5,2
256,80,4837,5,4
256,320,6037,5,2
256,312,8437,5,2
256,304,9637,5,4
256,176,9937,1,0
256,176,10237,38,2,B|256:128,2,30
336,160,10537,2,2,B|360:118,2,30
432,176,10837,5,0
420,196,10912,1,0
408,216,10987,1,0
396,236,11062,1,0
384,256,11137,1,0
228,264,11287,5,0
216,284,11362,1,0
204,304,11437,1,0
192,324,11512,1,0
180,344,11587,1,0
148,192,11737,5,0
160,172,11812,1,0
172,152,11887,1,0
184,132,11962,1,0
196,112,12037,1,0
348,144,12187,5,0
360,124,12262,1,0
372,104,12337,1,0
384,84,12412,1,0
396,64,12487,1,0
236,176,12637,5,0
236,176,12712,1,0
236,176,12787,1,0
236,176,12862,1,0
236,176,12937,1,0
236,176,13012,1,0
236,176,13087,1,0
196,88,13237,38,0,B|128:80,3,60
120,152,13537,2,0,B|57:179,3,60
88,244,13837,2,0,B|47:298,3,60
116,324,14137,2,0,B|108:392,3,60
248,384,14437,5,0
248,384,14512,1,0
248,384,14587,1,0
248,384,14662,1,0
248,384,14737,1,0
248,384,14812,1,0
248,384,14887,1,0
248,384,14962,1,0
248,384,15037,5,0
248,384,15112,1,0
248,384,15187,1,0
248,384,15262,1,0
248,384,15337,1,0
248,384,15412,1,0
248,384,15487,1,0
248,384,15562,1,0
248,384,15637,6,0,B|320:280,1,120
224,268,15937,2,0,B|296:164,1,120
300,72,16237,1,0
160,32,16387,1,0
192,172,16537,1,0
52,132,16687,1,0
104,212,16837,6,0,B|104:336,1,120
408,172,17137,2,0,B|408:48,1,120
304,160,17437,5,0
204,108,17587,1,0
208,224,17737,1,0
308,276,17887,1,0
304,160,18037,6,0,B|300:40,1,120
208,224,18337,2,0,B|212:344,1,120
376,276,18637,2,0,B|496:272,1,120
136,108,18937,2,0,B|16:112,1,120
84,252,19237,5,4
84,252,19312,1,0
84,252,19387,1,0
84,252,19462,1,0
84,252,19537,1,0
84,252,19612,1,0
84,252,19687,1,0
84,252,19762,1,0
84,252,19837,5,0
84,252,19912,1,0
84,252,19987,1,0
84,252,20062,1,0
84,252,20137,1,8
84,252,20212,1,0
84,252,20287,1,0
84,252,20362,1,0
92,276,20437,5,0
108,292,20512,1,0
128,304,20587,1,0
148,316,20662,1,0
172,316,20737,1,8
196,316,20812,1,0
220,308,20887,1,0
232,288,20962,1,0
232,264,21037,5,0
236,240,21112,1,0
252,220,21187,1,0
272,208,21262,1,0
296,208,21337,1,8
316,220,21412,1,0
340,228,21487,1,0
364,228,21562,1,0
388,220,21637,5,0
400,200,21712,1,0
412,180,21787,1,0
412,156,21862,1,0
400,136,21937,1,8
380,124,22012,1,0
360,112,22087,1,0
336,116,22162,1,0
316,128,22237,5,0
292,136,22312,1,0
268,144,22387,1,0
244,144,22462,1,0
224,132,22537,1,8
212,112,22612,1,0
212,88,22687,1,0
216,64,22762,1,0
200,44,22837,6,0,B|144:20,3,60
124,32,23137,1,8
108,48,23212,1,0
108,72,23287,1,0
116,96,23362,1,0
124,116,23437,5,0
112,136,23512,1,0
96,152,23587,1,0
84,172,23662,1,0
76,196,23737,1,8
80,220,23812,1,0
100,232,23887,1,0
124,240,23962,1,0
148,232,24037,6,0,B|208:204,3,60
208,232,24337,2,0,B|268:204,3,60,8|0|0|0
268,228,24637,2,0,B|328:200,3,60,0|0|0|0
328,228,24937,2,0,B|388:200,3,60,8|0|0|0
404,188,25237,5,0
420,168,25312,1,0
424,144,25387,1,0
420,120,25462,1,0
400,104,25537,1,8
376,104,25612,1,0
360,120,25687,1,0
348,140,25762,1,0
328,152,25837,5,0
304,160,25912,1,0
284,148,25987,1,0
272,128,26062,1,0
276,104,26137,1,8
272,80,26212,1,0
252,68,26287,1,0
228,60,26362,1,0
204,60,26437,5,0
184,72,26512,1,0
176,96,26587,1,0
180,120,26662,1,0
192,140,26737,1,8
204,160,26812,1,0
208,184,26887,1,0
212,208,26962,1,0
212,232,27037,5,0
204,256,27112,1,0
188,272,27187,1,0
168,284,27262,1,0
144,292,27337,1,8
120,288,27412,1,0
100,276,27487,1,0
88,256,27562,1,0
92,232,27637,5,0
92,208,27712,1,0
88,184,27787,1,0
76,164,27862,1,0
64,144,27937,1,8
64,120,28012,1,0
80,100,28087,1,0
100,88,28162,1,0
120,76,28237,5,0
144,72,28312,1,0
168,80,28387,1,0
192,84,28462,1,0
216,76,28537,1,8
236,68,28612,1,0
260,68,28687,1,0
284,72,28762,1,0
308,76,28837,6,0,B|380:92,1,60
308,132,28987,2,0,B|236:148,1,60
308,188,29137,2,0,B|380:204,1,60,8|0
308,244,29287,2,0,B|236:260,1,60
308,300,29437,2,0,B|380:316,1,60
308,356,29587,2,0,B|236:372,5,60,0|0|8|0|0|0
224,364,30037,5,0
200,360,30112,1,0
184,340,30187,1,0
184,316,30262,1,0
200,300,30337,1,8
212,280,30412,1,0
208,256,30487,1,0
196,236,30562,1,0
176,224,30637,5,0
156,212,30712,1,0
144,192,30787,1,0
152,168,30862,1,0
168,148,30937,1,8
184,128,31012,1,0
192,104,31087,1,0
188,80,31162,1,0
196,44,31237,6,0,B|254:15,3,60
260,39,31537,2,0,B|318:10,3,60,8|0|0|0
329,33,31837,2,0,B|387:4,3,60
398,27,32137,2,0,B|456:-1,3,60,8|0|0|0
472,28,32437,5,0
480,64,32512,1,0
476,100,32587,1,0
452,124,32662,1,0
428,148,32737,1,8
424,184,32812,1,0
436,216,32887,1,0
432,252,32962,1,0
416,284,33037,6,0,B|360:336,3,60
344,304,33337,2,0,B|288:356,3,60,8|0|0|0
264,348,33637,5,0
228,336,33712,1,0
248,308,33787,1,0
212,296,33862,1,0
232,268,33937,1,8
196,256,34012,1,0
216,228,34087,1,0
180,216,34162,1,0
200,188,34237,5,0
164,176,34312,1,0
184,148,34387,1,0
148,136,34462,1,0
168,108,34537,1,8
132,96,34612,1,0
152,68,34687,1,0
116,56,34762,1,0
136,28,34837,6,0,B|196:0,2,60,0|0|0
376,28,35137,2,0,B|316:0,2,60,8|0|0
40,156,35437,2,0,B|104:156,2,60
472,156,35737,2,0,B|408:156,2,60,8|0|0
32,316,36037,5,0
56,316,36112,1,0
68,336,36187,1,0
92,336,36262,1,0
116,328,36337,1,8
140,328,36412,1,0
152,348,36487,1,0
176,348,36562,1,0
200,340,36637,5,0
224,340,36712,1,0
236,320,36787,1,0
260,320,36862,1,0
284,328,36937,1,8
308,328,37012,1,0
320,308,37087,1,0
344,308,37162,1,0
368,308,37237,6,0,B|424:288,3,60
400,280,37537,2,0,B|344:260,3,60,8|0|0|0
368,252,37837,2,0,B|424:232,3,60
400,224,38137,2,0,B|344:204,3,60,8|0|0|0
368,196,38437,5,0
380,164,38512,1,0
369,129,38587,1,0
341,106,38662,1,0
306,116,38737,1,8
292,148,38812,1,0
257,158,38887,1,0
222,147,38962,1,0
212,112,39037,5,8
195,79,39112,1,0
162,62,39187,1,0
132,76,39262,1,0
122,110,39337,1,8
131,144,39412,1,0
144,177,39487,1,0
137,212,39562,1,0
109,235,39637,5,0
73,235,39712,1,0
37,230,39787,1,0
11,255,39862,1,0
19,289,39937,1,8
43,315,40012,1,0
77,325,40087,1,0
109,309,40162,1,0
143,319,40237,5,0
170,341,40312,1,0
205,342,40387,1,0
236,324,40462,1,0
265,303,40537,1,8
300,298,40612,1,0
334,309,40687,1,0
369,304,40762,1,0
392,276,40837,5,0
405,242,40912,1,0
388,209,40987,1,0
353,197,41062,1,0
322,216,41137,1,8
286,221,41212,1,0
263,192,41287,1,0
267,156,41362,1,0
289,128,41437,5,0
275,94,41512,1,0
247,70,41587,1,0
211,70,41662,1,0
184,94,41737,1,8
174,128,41812,1,0
183,162,41887,1,0
188,197,41962,1,0
171,228,42037,5,0
136,237,42112,1,0
100,236,42187,1,0
77,208,42262,1,0
92,175,42337,1,8
108,143,42412,1,0
106,107,42487,1,0
90,74,42562,1,0
58,56,42637,6,0,B|-3:34,2,60,8|0|0
272,32,42937,2,0,B|333:10,2,60,8|0|0
420,188,43237,2,0,B|380:260,2,60,8|0|0
204,160,43537,2,0,B|143:182,2,60,8|0|0
120,324,43837,2,0,B|78:373,2,60,8|0|0
384,96,44137,2,0,B|464:80,2,60,8|0|0
256,216,44437,5,0
256,216,44512,1,0
256,216,44587,1,0
256,216,44662,1,0
256,216,44737,1,8
256,216,44812,1,0
256,216,44887,1,0
256,216,44962,1,0
256,216,45037,5,0
256,216,45112,1,0
256,216,45187,1,0
256,216,45262,1,0
256,216,45337,1,8
256,216,45412,1,0
256,216,45487,1,0
256,216,45562,1,0
256,216,45637,6,0,B|312:248|312:248|376:252,1,120
228,84,45937,2,0,B|172:52|172:52|108:48,1,120,8|0
52,216,46237,1,0
256,288,46387,1,0
460,216,46537,1,8
256,148,46687,1,0
84,116,46837,5,0
84,116,46912,1,0
84,116,46987,1,0
84,116,47062,1,0
84,116,47137,1,8
84,116,47212,1,0
84,116,47287,1,0
84,116,47362,1,0
152,160,47437,5,0
152,160,47512,1,0
152,160,47587,1,0
152,160,47662,1,0
152,160,47737,1,8
152,160,47812,1,0
152,160,47887,1,0
152,160,47962,1,0
196,196,48037,6,0,B|224:256,1,60
224,192,48187,2,0,B|252:132,1,60
248,200,48337,2,0,B|276:260,1,60,8|0
276,196,48487,2,0,B|304:136,1,60
316,208,48637,5,0
328,212,48712,1,0
340,216,48787,1,0
352,220,48862,1,0
364,224,48937,1,8
376,228,49012,1,0
388,232,49087,1,0
400,236,49162,1,0
412,240,49237,6,0,B|472:260|472:260|496:320,1,120
308,356,49537,2,0,B|248:336|248:336|224:276,1,120,8|0
344,132,49837,1,0
172,48,49987,1,0
220,236,50137,1,8
48,152,50287,1,0
100,336,50437,6,0,B|232:340,1,120
400,272,50737,2,0,B|268:276,1,120,8|0
104,200,51037,2,0,B|236:204,1,120
404,136,51337,2,0,B|272:140,1,120,8|0
108,68,51637,5,0
108,68,51712,1,0
108,68,51787,1,0
108,68,51862,1,0
108,68,51937,1,8
108,68,52012,1,0
108,68,52087,1,0
108,68,52162,1,0
108,68,52237,5,0
108,68,52312,1,0
108,68,52387,1,0
108,68,52462,1,0
108,68,52537,1,8
108,68,52612,1,0
108,68,52687,1,0
108,68,52762,1,0
108,68,52837,6,0,B|155:109|155:109|219:100,1,120
404,316,53137,2,0,B|356:274|356:274|292:283,1,120,8|0
108,280,53437,1,0
256,156,53587,1,0
444,192,53737,1,8
444,192,54037,5,0
444,192,54112,1,0
444,192,54187,1,0
444,192,54262,1,0
444,192,54337,1,8
444,192,54412,1,0
444,192,54487,1,0
444,192,54562,1,0
444,192,54637,6,0,B|328:256,1,120
344,156,54937,2,0,B|228:220,1,120,8|0
240,120,55237,2,0,B|124:184,1,120
108,88,55537,5,8
78,109,55612,1,0
69,143,55687,1,0
71,178,55762,1,0
44,202,55837,37,0
28,234,55912,1,0
51,260,55987,1,0
42,295,56062,1,0
60,325,56137,5,8
91,342,56212,1,0
126,338,56287,1,0
143,306,56362,1,0
140,272,56437,6,0,B|228:188,1,120
372,112,56737,2,0,B|284:196,1,120,8|0
256,312,57037,1,0
120,192,57187,1,0
276,104,57337,1,8
412,224,57487,1,0
352,328,57637,5,0
325,352,57712,1,0
293,369,57787,1,0
258,357,57862,1,0
247,322,57937,1,8
220,297,58012,1,0
186,282,58087,1,0
152,294,58162,1,0
124,317,58237,5,8
88,309,58312,1,0
63,282,58387,1,0
55,246,58462,1,0
78,219,58537,1,8
113,217,58612,1,0
146,204,58687,1,0
166,174,58762,1,0
160,138,58837,5,4
144,116,61237,5,2
256,108,63637,5,2
292,112,63787,1,0
328,116,63937,1,2
364,120,64087,1,0
256,264,64537,6,0,B|256:336,1,60,2|0
60,192,66037,5,2
256,28,67237,5,2
452,192,67837,1,2
256,276,68437,5,2
220,272,68587,1,0
184,268,68737,1,2
148,264,68887,1,0
256,132,69337,6,0,B|256:52,1,60,2|0
380,192,70837,5,2
132,192,71437,1,2
256,336,72037,2,0,B|256:84,1,240,2|2
124,104,73237,5,2
180,60,73387,1,0
252,60,73537,1,2
316,92,73687,1,0
196,280,74137,6,0,B|196:200,1,60,2|0
48,192,75637,5,2
464,192,76237,1,2
75,296,76837,1,2
436,88,77437,1,2
256,176,78037,37,2
256,208,78187,5,0
272,192,78337,5,2
240,192,78487,5,0
256,192,79237,5,2
256,40,80437,5,2
184,192,81637,38,0,B|144:152|132:176|120:152|80:192,1,120,2|2
328,192,82237,2,0,B|368:152|380:176|392:152|432:192,1,120,2|2
256,304,82837,5,2
256,272,82987,1,0
256,240,83137,2,0,B|256:160,1,60,2|0
256,56,83737,2,0,B|256:128,1,60,2|0
80,192,85237,5,2
432,192,86437,5,2
256,40,87037,5,2
256,352,87637,6,0,B|256:208,2,120,2|0|2
328,184,88837,37,2
256,24,89287,5,2
184,184,89737,5,2
256,120,90037,6,0,B|256:360,2,240,2|0|2
256,120,91837,5,0
144,96,92437,6,0,B|88:80,3,60,2|0|2|0
368,96,94837,6,0,B|424:80,3,60,2|0|2|0
256,144,96037,5,2
176,280,97237,6,0,B|128:304,2,30
224,256,97537,1,8
336,280,98437,6,0,B|384:304,2,30
288,256,98737,1,8
256,120,99637,6,0,B|256:64,2,30
256,168,99937,1,8
256,344,100837,22,0,B|256:296,15,30
248,288,102037,5,4
240,280,102112,1,0
232,272,102187,1,0
224,260,102262,1,0
216,248,102337,1,8
208,236,102412,1,0
200,224,102487,1,0
192,212,102562,1,0
184,200,102637,5,0
176,192,102712,1,0
172,180,102787,1,0
168,168,102862,1,0
164,156,102937,1,8
164,144,103012,1,0
164,132,103087,1,0
168,120,103162,1,0
176,112,103237,5,0
184,104,103312,1,0
196,100,103387,1,0
208,100,103462,1,0
220,104,103537,1,8
232,108,103612,1,0
244,112,103687,1,0
256,116,103762,1,0
268,120,103837,5,0
280,124,103912,1,0
292,128,103987,1,0
304,132,104062,1,0
316,136,104137,1,8
328,140,104212,1,0
340,144,104287,1,0
352,148,104362,1,0
364,148,104437,5,0
376,144,104512,1,0
384,136,104587,1,0
392,128,104662,1,0
396,116,104737,1,8
404,104,104812,1,0
408,92,104887,1,0
408,80,104962,1,0
404,68,105037,5,0
396,60,105112,1,0
384,56,105187,1,0
372,52,105262,1,0
360,48,105337,1,8
348,44,105412,1,0
336,40,105487,1,0
324,40,105562,1,0
312,40,105637,5,0
300,44,105712,1,0
288,48,105787,1,0
276,52,105862,1,0
264,56,105937,1,8
252,60,106012,1,0
240,64,106087,1,0
228,68,106162,1,0
216,72,106237,5,0
204,76,106312,1,0
192,80,106387,1,0
180,84,106462,1,0
168,88,106537,1,8
156,92,106612,1,0
144,96,106687,1,0
132,100,106762,1,0
120,104,106837,5,0
108,112,106912,1,0
100,120,106987,1,0
92,132,107062,1,0
88,144,107137,1,8
84,156,107212,1,0
88,168,107287,1,0
96,180,107362,1,0
104,188,107437,5,0
112,196,107512,1,0
124,204,107587,1,0
132,212,107662,1,0
136,224,107737,1,8
140,236,107812,1,0
140,248,107887,1,0
136,260,107962,1,0
128,272,108037,5,0
120,284,108112,1,0
120,296,108187,1,0
124,308,108262,1,0
132,316,108337,1,8
144,324,108412,1,0
156,328,108487,1,0
168,332,108562,1,0
180,328,108637,5,0
188,320,108712,1,0
196,312,108787,1,0
204,304,108862,1,0
216,300,108937,1,8
228,300,109012,1,0
240,304,109087,1,0
252,308,109162,1,0
264,308,109237,5,0
276,308,109312,1,0
288,300,109387,1,0
296,292,109462,1,0
300,280,109537,1,8
300,268,109612,1,0
296,256,109687,1,0
292,244,109762,1,0
288,232,109837,5,0
284,220,109912,1,0
284,208,109987,1,0
288,196,110062,1,0
300,192,110137,1,8
312,188,110212,1,0
324,192,110287,1,0
336,196,110362,1,0
348,200,110437,5,0
360,200,110512,1,0
372,196,110587,1,0
380,188,110662,1,0
384,176,110737,1,8
384,164,110812,1,0
384,152,110887,1,0
376,144,110962,1,0
364,136,111037,5,0
352,132,111112,1,0
340,124,111187,1,0
332,116,111262,1,0
324,104,111337,1,8
312,96,111412,1,0
300,96,111487,1,0
288,100,111562,1,0
280,108,111637,5,0
272,116,111712,1,0
264,124,111787,1,0
256,132,111862,1,0
248,140,111937,1,8
240,148,112012,1,0
232,156,112087,1,0
224,164,112162,1,0
188,168,112237,5,0
180,176,112312,1,0
172,184,112387,1,0
164,192,112462,1,0
156,200,112537,1,8
148,208,112612,1,0
140,216,112687,1,0
132,224,112762,1,0
128,260,112837,5,0
136,268,112912,1,0
144,276,112987,1,0
152,284,113062,1,0
160,292,113137,1,8
168,300,113212,1,0
176,308,113287,1,0
184,316,113362,1,0
220,320,113437,5,0
230,317,113512,1,0
241,314,113587,1,0
252,311,113662,1,0
263,308,113737,1,8
274,305,113812,1,0
285,302,113887,1,0
296,299,113962,1,0
312,268,114037,5,0
320,260,114112,1,0
328,252,114187,1,0
332,240,114262,1,0
336,228,114337,1,8
340,216,114412,1,0
340,204,114487,1,0
340,192,114562,1,0
336,180,114637,5,0
336,168,114712,1,0
340,156,114787,1,0
344,144,114862,1,0
348,132,114937,1,8
344,120,115012,1,0
336,112,115087,1,0
328,104,115162,1,0
316,100,115237,5,0
304,100,115312,1,0
292,104,115387,1,0
280,112,115462,1,0
268,116,115537,1,8
256,120,115612,1,0
244,124,115687,1,0
232,124,115762,1,0
220,124,115837,6,0,B|152:136|104:80,1,120,8|0
292,264,116137,2,0,B|360:252|408:308,1,120,8|0
232,364,116437,5,0
224,356,116512,1,0
216,348,116587,1,0
208,340,116662,1,0
196,332,116737,1,8
184,324,116812,1,0
172,316,116887,1,0
160,308,116962,1,0
152,300,117037,5,0
144,292,117112,1,0
140,280,117187,1,0
136,268,117262,1,0
136,256,117337,1,8
136,244,117412,1,0
140,232,117487,1,0
144,220,117562,1,0
148,208,117637,5,0
152,196,117712,1,0
152,184,117787,1,0
156,172,117862,1,0
152,160,117937,1,8
148,148,118012,1,0
144,136,118087,1,0
144,124,118162,1,0
144,112,118237,5,0
152,104,118312,1,0
160,96,118387,1,0
172,92,118462,1,0
184,92,118537,1,8
196,96,118612,1,0
208,96,118687,1,0
220,96,118762,1,0
232,96,118837,6,0,B|296:120,7,60,0|0|0|0|8|0|0|0
288,168,119437,2,0,B|224:192,7,60,0|0|0|0|8|0|0|0
232,240,120037,2,0,B|296:264,7,60,0|0|0|0|8|0|0|0
284,312,120637,2,0,B|220:336,7,60,0|0|0|0|8|0|0|0
204,340,121237,5,0
180,348,121312,1,0
156,348,121387,1,0
136,336,121462,1,0
124,316,121537,1,8
124,292,121612,1,0
132,268,121687,1,0
144,248,121762,1,0
152,228,121837,5,0
148,204,121912,1,0
140,184,121987,1,0
124,164,122062,1,0
104,152,122137,1,8
88,132,122212,1,0
84,108,122287,1,0
92,84,122362,1,0
108,68,122437,5,0
132,60,122512,1,0
156,64,122587,1,0
180,72,122662,1,0
204,76,122737,1,8
228,84,122812,1,0
252,92,122887,1,0
276,100,122962,1,0
300,104,123037,5,0
320,116,123112,1,0
332,136,123187,1,0
324,160,123262,1,0
312,180,123337,1,8
288,188,123412,1,0
264,180,123487,1,0
240,184,123562,1,0
224,200,123637,5,0
216,224,123712,1,0
224,248,123787,1,0
240,264,123862,1,0
256,280,123937,1,8
280,284,124012,1,0
304,276,124087,1,0
324,264,124162,1,0
348,260,124237,5,0
372,264,124312,1,0
392,276,124387,1,0
404,296,124462,1,0
412,320,124537,1,8
400,340,124612,1,0
384,356,124687,1,0
360,364,124762,1,0
340,352,124837,5,0
316,352,124912,1,0
292,360,124987,1,0
272,368,125062,1,0
248,368,125137,1,8
228,352,125212,1,0
216,332,125287,1,0
204,312,125362,1,0
196,288,125437,5,0
192,264,125512,1,0
200,240,125587,1,0
208,216,125662,1,0
208,192,125737,1,8
204,168,125812,1,0
192,148,125887,1,0
176,132,125962,1,0
160,116,126037,6,0,B|112:76,2,60,8|0|0
288,40,126337,2,0,B|336:0,2,60,8|0|0
352,232,126637,2,0,B|400:272,2,60,8|0|0
80,296,126937,2,0,B|40:344,2,60,8|0|0
48,40,127237,6,0,B|0:0,2,60,8|0|0
392,68,127537,2,0,B|432:20,2,60,8|0|0
404,344,127837,2,0,B|452:384,2,60,8|0|0
48,284,128137,2,0,B|0:324,2,60,8|0|0
324,160,128437,5,0
324,160,128512,1,0
324,160,128587,1,0
324,160,128662,1,0
324,160,128737,1,8
324,160,128812,1,0
324,160,128887,1,0
324,160,128962,1,0
324,160,129037,5,0
324,160,129112,1,0
324,160,129187,1,0
324,160,129262,1,0
324,160,129337,1,8
324,160,129412,1,0
324,160,129487,1,0
324,160,129562,1,0
324,160,129637,5,0
324,160,129712,1,0
324,160,129787,1,0
324,160,129862,1,0
324,160,129937,1,8
324,160,130012,1,0
324,160,130087,1,0
324,160,130162,1,0
324,160,130237,5,0
324,160,130312,1,0
324,160,130387,1,0
324,160,130462,1,0
324,160,130537,1,8
324,160,130612,1,0
324,160,130687,1,0
324,160,130762,1,0
324,160,130837,6,0,B|336:228|336:228|392:272,1,120
188,224,131137,2,0,B|176:156|176:156|120:112,1,120,8|0
436,112,131437,1,0
76,272,131587,1,0
471,288,131737,1,8
471,288,131812,1,0
471,288,131887,1,0
40,96,132037,5,8
40,96,132112,1,0
40,96,132187,1,0
92,192,132337,2,0,B|208:168,1,120,8|0
280,292,132637,2,0,B|164:316,1,120,8|0
24,276,132937,2,0,B|140:252,1,120,8|0
260,152,133237,5,0
272,148,133312,1,0
284,144,133387,1,0
292,136,133462,1,0
304,132,133537,1,8
316,128,133612,1,0
328,132,133687,1,0
340,136,133762,1,0
348,144,133837,5,0
356,152,133912,1,0
360,164,133987,1,0
360,176,134062,1,0
360,188,134137,1,8
356,200,134212,1,0
352,212,134287,1,0
344,220,134362,1,0
336,228,134437,5,0
324,236,134512,1,0
312,240,134587,1,0
300,244,134662,1,0
288,248,134737,1,8
276,248,134812,1,0
264,244,134887,1,0
252,240,134962,1,0
240,236,135037,5,0
232,228,135112,1,0
224,220,135187,1,0
212,212,135262,1,0
200,208,135337,1,8
188,204,135412,1,0
176,204,135487,1,0
164,208,135562,1,0
156,216,135637,5,0
148,224,135712,1,0
144,236,135787,1,0
140,248,135862,1,0
140,260,135937,1,8
144,272,136012,1,0
148,284,136087,1,0
156,292,136162,1,0
168,296,136237,5,0
180,300,136312,1,0
192,300,136387,1,0
204,304,136462,1,0
216,308,136537,1,8
228,312,136612,1,0
240,316,136687,1,0
252,320,136762,1,0
264,324,136837,5,0
276,328,136912,1,0
288,332,136987,1,0
300,332,137062,1,0
312,332,137137,1,8
324,332,137212,1,0
336,328,137287,1,0
348,324,137362,1,0
356,316,137437,5,0
364,308,137512,1,0
372,300,137587,1,0
380,292,137662,1,0
388,280,137737,1,8
392,268,137812,1,0
396,256,137887,1,0
400,244,137962,1,0
400,232,138037,6,0,B|408:168,7,60,8|0|0|0|8|0|0|0
388,184,138637,2,0,B|380:120,7,60,8|0|0|0|8|0|0|0
344,92,139237,5,12
300,108,139312,5,0
268,144,139387,37,0
272,192,139462,5,0
284,240,139537,5,12
264,284,139612,5,0
220,304,139687,5,0
172,296,139762,5,0
156,252,139837,5,12
164,204,139912,5,0
196,168,139987,5,0
204,120,140062,5,0
176,80,140137,5,12
128,80,140212,5,0
84,100,140287,5,0
68,144,140362,5,0
84,188,140437,5,12
256,192,140587,12,4,142837
152,80,145237,37,2
360,80,146437,5,2
256,324,147637,5,2
256,176,148837,6,0,B|256:56,2,120,2|0|2
120,212,149737,1,2
392,212,150037,1,6
256,196,152437,5,2
116,60,153700,5,2
140,320,154963,5,4
