osu file format v9

[General]
AudioFilename: AAA.mp3
AudioLeadIn: 2000
PreviewTime: 95250
Countdown: 0
SampleSet: Normal
StackLeniency: 0.7
Mode: 0
LetterboxInBreaks: 0

[Editor]
Bookmarks: 36010,48010,72010,95260,112510,120010,131635,144010,167260,186010,191260
DistanceSpacing: 0.3
BeatDivisor: 4
GridSize: 4

[Metadata]
Title:Stream Practice Maps 2
Artist:Various Artists
Creator:NewRulerNA
Version:AAA BPM160
Source:
Tags:dj amuro dm ashura aaa remix iconoclasm perditus paradisus Beatmania IIDX 18 Resort Anthem dj taka suzaku vs genbu himiko IIDX 16 EMPRESS xi Ascension to Heaven BMS artcore bms of fighters 2009 FREEDOM DiVE parousia

[Difficulty]
HPDrainRate:4
CircleSize:4
OverallDifficulty:8
ApproachRate:8
SliderMultiplier:1.6
SliderTickRate:1

[Events]
//Background and Video events
0,0,"AAA.jpg"
//Break Periods
2,72210,83260
2,120210,130885
//Storyboard Layer 0 (Background)
//Storyboard Layer 1 (Fail)
//Storyboard Layer 2 (Pass)
//Storyboard Layer 3 (Foreground)
//Storyboard Sound Samples
//Background Colour Transformations
3,100,0,0,0

[TimingPoints]
10,375,4,1,0,20,1,0
12010,-100,4,1,0,30,0,0
24010,-100,4,1,0,60,0,0
48103,-100,4,1,0,40,0,0
72010,-100,4,1,0,60,0,0
96760,-100,4,1,0,40,0,0
97510,-100,4,1,0,60,0,0
97603,-100,4,1,0,40,0,0
99010,-100,4,1,0,60,0,0
99103,-100,4,1,0,40,0,0
100510,-100,4,1,0,60,0,0
100603,-100,4,1,0,40,0,0
102010,-100,4,1,0,60,0,0
102103,-100,4,1,0,40,0,0
103510,-100,4,1,0,60,0,0
103603,-100,4,1,0,40,0,0
105010,-100,4,1,0,60,0,0
105103,-100,4,1,0,40,0,0
106510,-100,4,1,0,60,0,0
106603,-100,4,1,0,40,0,0
108010,-100,4,1,0,60,0,0
108103,-100,4,1,0,40,0,0
109510,-100,4,1,0,60,0,0
109603,-100,4,1,0,40,0,0
111010,-100,4,1,0,60,0,0
111103,-100,4,1,0,40,0,0
112510,-100,4,1,0,60,0,0
113260,-100,4,1,0,40,0,0
114010,-100,4,1,0,60,0,0
114103,-100,4,1,0,40,0,0
115510,-100,4,1,0,60,0,0
115603,-100,4,1,0,40,0,0
117010,-100,4,1,0,60,0,0
117103,-100,4,1,0,40,0,0
118510,-100,4,1,0,60,0,0
118603,-100,4,1,0,40,0,0
131635,-100,4,2,0,60,0,0
144010,-100,4,1,0,60,0,0
144103,-100,4,1,0,40,0,0
145510,-100,4,1,0,60,0,0
145603,-100,4,1,0,40,0,0
147010,-100,4,1,0,60,0,0
147103,-100,4,1,0,40,0,0
148510,-100,4,1,0,60,0,0
148603,-100,4,1,0,40,0,0
150010,-100,4,1,0,60,0,0
150103,-100,4,1,0,40,0,0
151510,-100,4,1,0,60,0,0
151603,-100,4,1,0,40,0,0
153010,-100,4,1,0,60,0,0
153103,-100,4,1,0,40,0,0
154510,-100,4,1,0,60,0,0
154603,-100,4,1,0,40,0,0
156010,-100,4,1,0,60,0,0
156103,-100,4,1,0,40,0,0
157510,-100,4,1,0,60,0,0
157603,-100,4,1,0,40,0,0
159010,-100,4,1,0,60,0,0
159103,-100,4,1,0,40,0,0
160510,-100,4,1,0,60,0,0
160603,-100,4,1,0,40,0,0
162010,-100,4,1,0,60,0,0
162103,-100,4,1,0,40,0,0
163510,-100,4,1,0,60,0,0
163603,-100,4,1,0,40,0,0
165010,-100,4,1,0,60,0,0
165103,-100,4,1,0,40,0,0
166510,-100,4,1,0,60,0,0
166603,-100,4,1,0,40,0,0
168010,-100,4,1,0,60,0,0
168103,-100,4,1,0,40,0,0
192010,-100,4,1,0,60,0,0

[Colours]
Combo1 : 157,206,255
Combo2 : 0,0,255

[HitObjects]
140,140,10,5,0
140,140,103,1,0
140,140,197,1,0
140,140,291,1,0
140,140,385,1,0
140,140,478,1,0
140,140,572,1,0
140,140,666,1,0
140,140,760,5,0
140,140,853,1,0
140,140,947,1,0
140,140,1041,1,0
140,140,1135,1,0
140,140,1228,1,0
140,140,1322,1,0
140,140,1416,1,0
212,244,1510,5,0
212,244,1603,1,0
212,244,1697,1,0
212,244,1791,1,0
212,244,1885,1,0
212,244,1978,1,0
212,244,2072,1,0
212,244,2166,1,0
212,244,2260,5,0
212,244,2353,1,0
212,244,2447,1,0
212,244,2541,1,0
212,244,2635,1,0
212,244,2728,1,0
212,244,2822,1,0
212,244,2916,1,0
284,344,3010,5,0
284,344,3103,1,0
284,344,3197,1,0
284,344,3291,1,0
284,344,3385,1,0
284,344,3478,1,0
284,344,3572,1,0
284,344,3666,1,0
284,344,3760,5,0
284,344,3853,1,0
284,344,3947,1,0
284,344,4041,1,0
284,344,4135,1,0
284,344,4228,1,0
284,344,4322,1,0
284,344,4416,1,0
320,368,4510,5,0
332,368,4603,1,0
344,364,4697,1,0
354,357,4791,1,0
364,348,4885,1,0
372,340,4978,1,0
376,328,5072,1,0
384,316,5166,1,0
388,304,5260,5,0
392,292,5353,1,0
396,280,5447,1,0
400,268,5541,1,0
404,256,5635,1,0
408,244,5728,1,0
412,232,5822,1,0
412,220,5916,1,0
412,208,6010,5,0
408,196,6103,1,0
400,188,6197,1,0
392,180,6291,1,0
384,172,6385,1,0
376,164,6478,1,0
364,160,6572,1,0
352,156,6666,1,0
340,152,6760,5,0
328,152,6853,1,0
316,156,6947,1,0
308,164,7041,1,0
300,176,7135,1,0
296,188,7228,1,0
288,200,7322,1,0
280,208,7416,1,0
272,216,7510,5,0
264,224,7603,1,0
252,228,7697,1,0
240,232,7791,1,0
228,236,7885,1,0
216,236,7978,1,0
204,232,8072,1,0
192,228,8166,1,0
180,224,8260,5,0
168,220,8353,1,0
156,216,8447,1,0
148,208,8541,1,0
140,200,8635,1,0
136,188,8728,1,0
132,176,8822,1,0
132,164,8916,1,0
132,152,9010,5,0
136,140,9103,1,0
144,132,9197,1,0
152,124,9291,1,0
164,120,9385,1,0
176,116,9478,1,0
188,116,9572,1,0
200,120,9666,1,0
212,124,9760,5,0
220,132,9853,1,0
228,140,9947,1,0
236,148,10041,1,0
244,156,10135,1,0
252,164,10228,1,0
264,172,10322,1,0
276,176,10416,1,0
288,180,10510,5,0
300,180,10603,1,0
312,180,10697,1,0
324,176,10791,1,0
336,172,10885,1,0
348,164,10978,1,0
356,156,11072,1,0
360,144,11166,1,0
360,132,11260,5,0
356,120,11353,1,0
348,108,11447,1,0
340,100,11541,1,0
328,96,11635,1,0
316,92,11728,1,0
304,88,11822,1,0
292,84,11916,1,0
280,80,12010,5,0
268,76,12103,1,0
256,76,12197,1,0
244,76,12291,1,0
232,76,12385,1,0
220,76,12478,1,0
208,76,12572,1,0
196,80,12666,1,0
184,84,12760,5,0
172,88,12853,1,0
160,92,12947,1,0
152,100,13041,1,0
144,108,13135,1,0
136,116,13228,1,0
128,124,13322,1,0
120,136,13416,1,0
116,148,13510,5,0
112,160,13603,1,0
112,172,13697,1,0
112,184,13791,1,0
112,196,13885,1,0
112,208,13978,1,0
116,220,14072,1,0
120,232,14166,1,0
124,244,14260,5,0
132,256,14353,1,0
140,264,14447,1,0
148,272,14541,1,0
156,280,14635,1,0
164,288,14728,1,0
176,292,14822,1,0
188,296,14916,1,0
200,300,15010,5,0
212,304,15103,1,0
224,304,15197,1,0
236,304,15291,1,0
248,304,15385,1,0
260,304,15478,1,0
272,304,15572,1,0
284,300,15666,1,0
296,296,15760,5,0
308,292,15853,1,0
316,284,15947,1,0
324,276,16041,1,0
332,264,16135,1,0
336,252,16228,1,0
340,240,16322,1,0
344,228,16416,1,0
348,216,16510,5,0
348,204,16603,1,0
344,192,16697,1,0
340,180,16791,1,0
336,168,16885,1,0
332,156,16978,1,0
324,148,17072,1,0
316,140,17166,1,0
308,132,17260,5,0
300,124,17353,1,0
288,116,17447,1,0
276,112,17541,1,0
264,108,17635,1,0
252,104,17728,1,0
240,104,17822,1,0
228,108,17916,1,0
216,112,18010,5,0
208,120,18103,1,0
204,132,18197,1,0
204,144,18291,1,0
204,156,18385,1,0
208,168,18478,1,0
216,176,18572,1,0
224,184,18666,1,0
232,192,18760,5,0
240,200,18853,1,0
244,212,18947,1,0
248,224,19041,1,0
248,236,19135,1,0
244,248,19228,1,0
240,260,19322,1,0
232,268,19416,1,0
224,276,19510,5,0
212,280,19603,1,0
200,284,19697,1,0
188,288,19791,1,0
176,292,19885,1,0
164,292,19978,1,0
152,292,20072,1,0
140,288,20166,1,0
128,284,20260,5,0
116,276,20353,1,0
108,268,20447,1,0
100,260,20541,1,0
96,248,20635,1,0
92,236,20728,1,0
88,224,20822,1,0
88,212,20916,1,0
88,200,21010,5,0
92,188,21103,1,0
96,176,21197,1,0
104,168,21291,1,0
112,160,21385,1,0
120,152,21478,1,0
132,144,21572,1,0
144,140,21666,1,0
156,136,21760,5,0
168,132,21853,1,0
180,128,21947,1,0
192,124,22041,1,0
204,120,22135,1,0
216,116,22228,1,0
228,112,22322,1,0
240,112,22416,1,0
252,112,22510,5,0
264,116,22603,1,0
276,120,22697,1,0
288,124,22791,1,0
300,128,22885,1,0
308,136,22978,1,0
316,144,23072,1,0
324,152,23166,1,0
332,160,23260,6,0,B|339:177|356:188,14,20
352,192,24010,5,0
364,212,24103,1,0
376,232,24197,1,0
388,252,24291,1,0
400,272,24385,2,0,B|448:356,1,80,8|0
272,268,24760,5,0
260,248,24853,1,0
248,228,24947,1,0
236,208,25041,1,0
224,188,25135,2,0,B|176:104,1,80,8|0
316,112,25510,5,0
316,112,25603,1,0
316,112,25697,1,0
316,112,25791,1,0
316,112,25885,1,8
316,112,25978,1,0
316,112,26072,1,0
316,112,26166,1,0
316,112,26260,5,0
316,112,26353,1,0
316,112,26447,1,0
316,112,26541,1,0
316,112,26635,1,8
316,112,26728,1,0
316,112,26822,1,0
316,112,26916,1,0
328,132,27010,5,0
340,152,27103,1,0
352,172,27197,1,0
364,192,27291,1,0
376,212,27385,2,0,B|424:296,1,80,8|0
108,260,27760,5,0
96,240,27853,1,0
84,220,27947,1,0
72,200,28041,1,0
60,180,28135,2,0,B|12:96,1,80,8|0
188,32,28510,5,0
188,44,28603,1,0
188,56,28697,1,0
188,68,28791,1,0
188,80,28885,1,8
188,92,28978,1,0
188,104,29072,1,0
188,116,29166,1,0
188,128,29260,5,0
188,140,29353,1,0
188,152,29447,1,0
188,164,29541,1,0
188,176,29635,1,8
188,188,29728,1,0
188,200,29822,1,0
188,212,29916,1,0
188,224,30010,5,0
192,248,30103,1,0
196,272,30197,1,0
200,296,30291,1,0
204,320,30385,2,0,B|296:348,1,80,8|0
432,288,30760,5,0
428,264,30853,1,0
424,240,30947,1,0
420,216,31041,1,0
416,192,31135,2,0,B|324:164,1,80,8|0
232,48,31510,5,0
244,52,31603,1,0
256,56,31697,1,0
268,60,31791,1,0
280,64,31885,1,8
292,68,31978,1,0
304,72,32072,1,0
316,76,32166,1,0
328,80,32260,5,0
340,84,32353,1,0
352,88,32447,1,0
364,92,32541,1,0
376,96,32635,1,8
388,100,32728,1,0
400,104,32822,1,0
412,108,32916,1,0
424,112,33010,5,0
432,136,33103,1,0
440,160,33197,1,0
448,184,33291,1,0
456,208,33385,2,0,B|392:276,1,80,8|0
176,324,33760,5,0
168,300,33853,1,0
160,276,33947,1,0
152,252,34041,1,0
144,228,34135,2,0,B|208:160,1,80,8|0
192,52,34510,5,0
184,60,34603,1,0
176,68,34697,1,0
168,76,34791,1,0
160,84,34885,1,8
152,92,34978,1,0
144,100,35072,1,0
136,108,35166,1,0
128,116,35260,5,0
120,124,35353,1,0
112,132,35447,1,0
104,140,35541,1,0
96,148,35635,1,8
88,156,35728,1,0
80,164,35822,1,0
72,176,35916,1,0
64,188,36010,6,0,B|56:276,1,80
156,332,36385,2,0,B|163:252,1,80,8|0
256,120,36760,2,0,B|249:200,1,80
364,372,37135,2,0,B|371:292,1,80,8|0
492,84,37510,6,0,B|485:164,1,80
280,344,37885,2,0,B|287:264,1,80,8|0
72,28,38260,2,0,B|65:108,1,80
164,232,38635,2,0,B|171:152,1,80,8|0
170,152,38916,1,0
170,152,39010,1,0
328,64,40041,5,0
328,64,40135,1,8
400,164,40416,1,0
400,164,40510,1,0
320,256,40791,1,0
320,256,40885,1,8
256,152,41166,5,0
256,152,41260,1,0
256,152,41353,1,0
256,152,41447,1,0
256,152,41541,1,0
256,152,41635,1,8
256,152,41728,1,0
256,152,41822,1,0
256,152,41916,1,0
256,152,42010,6,0,B|152:200,1,80
56,128,42385,2,0,B|128:94,1,80,8|0
332,200,42760,2,0,B|228:248,1,80,0|0
0,76,43135,2,0,B|72:42,1,80,8|0
144,164,43510,5,0
144,176,43603,1,0
144,188,43697,1,0
144,200,43791,1,0
144,212,43885,2,0,B|216:245,1,80,8|0
416,260,44260,2,0,B|343:226,1,80
248,40,44635,2,0,B|320:73,1,80,8|0
320,73,44916,1,0
320,73,45010,1,0
180,100,46135,5,8
180,100,46228,1,0
116,224,46510,1,0
116,224,46603,1,0
256,296,46885,1,8
256,296,46978,1,0
320,172,47260,5,0
320,172,47353,1,0
320,172,47447,1,0
320,172,47541,1,0
320,172,47635,1,8
320,172,47728,1,0
320,172,47822,1,0
408,104,48010,5,0
400,100,48103,1,0
392,96,48197,1,0
384,96,48291,1,0
376,96,48385,1,8
368,96,48478,1,0
360,96,48572,1,0
352,96,48666,1,0
344,92,48760,5,0
336,88,48853,1,0
328,84,48947,1,0
320,80,49041,1,0
312,80,49135,1,8
304,80,49228,1,0
296,80,49322,1,0
288,84,49416,1,0
280,88,49510,5,0
272,92,49603,1,0
264,96,49697,1,0
260,104,49791,1,0
256,112,49885,1,8
252,120,49978,1,0
252,128,50072,1,0
252,136,50166,1,0
256,144,50260,5,0
260,152,50353,1,0
264,160,50447,1,0
268,168,50541,1,0
272,176,50635,1,8
272,184,50728,1,0
272,192,50822,1,0
268,200,50916,1,0
264,208,51010,5,0
260,216,51103,1,0
256,224,51197,1,0
252,232,51291,1,0
248,236,51385,1,8
240,240,51478,1,0
232,244,51572,1,0
224,244,51666,1,0
216,244,51760,5,0
208,244,51853,1,0
200,244,51947,1,0
192,240,52041,1,0
184,236,52135,1,8
176,232,52228,1,0
172,228,52322,1,0
168,220,52416,1,0
164,212,52510,5,0
160,204,52603,1,0
156,196,52697,1,0
152,188,52791,1,0
152,176,52885,1,8
156,168,52978,1,0
160,160,53072,1,0
164,152,53166,1,0
172,148,53260,5,0
180,144,53353,1,0
188,140,53447,1,0
196,136,53541,1,0
204,132,53635,1,8
212,128,53728,1,0
220,124,53822,1,0
228,124,53916,1,0
236,124,54010,5,0
244,124,54103,1,0
252,128,54197,1,0
260,132,54291,1,0
268,136,54385,1,8
276,140,54478,1,0
280,144,54572,1,0
284,148,54666,1,0
288,156,54760,5,0
292,164,54853,1,0
292,172,54947,1,0
292,180,55041,1,0
288,188,55135,1,8
284,196,55228,1,0
280,200,55322,1,0
276,208,55416,1,0
272,216,55510,5,0
272,224,55603,1,0
272,232,55697,1,0
276,240,55791,1,0
280,248,55885,1,8
284,256,55978,1,0
288,260,56072,1,0
296,264,56166,1,0
304,268,56260,5,0
312,268,56353,1,0
320,268,56447,1,0
328,264,56541,1,0
336,260,56635,1,8
344,256,56728,1,0
352,252,56822,1,0
356,244,56916,1,0
360,236,57010,5,0
360,228,57103,1,0
360,220,57197,1,0
356,212,57291,1,0
352,204,57385,1,8
348,200,57478,1,0
344,196,57572,1,0
340,192,57666,1,0
336,188,57760,5,0
332,184,57853,1,0
328,180,57947,1,0
324,176,58041,1,0
320,172,58135,1,8
316,168,58228,1,0
312,164,58322,1,0
308,160,58416,1,0
300,156,58510,5,0
292,156,58603,1,0
284,156,58697,1,0
276,156,58791,1,0
268,156,58885,1,8
260,156,58978,1,0
252,156,59072,1,0
244,156,59166,1,0
236,156,59260,5,0
228,156,59353,1,0
220,156,59447,1,0
212,156,59541,1,0
204,156,59635,1,8
196,156,59728,1,0
188,160,59822,1,0
180,164,59916,1,0
176,168,60010,5,0
172,176,60103,1,0
172,184,60197,1,0
172,192,60291,1,0
172,200,60385,1,8
176,208,60478,1,0
180,216,60572,1,0
184,224,60666,1,0
188,232,60760,5,0
192,240,60853,1,0
196,248,60947,1,0
200,256,61041,1,0
200,264,61135,1,8
200,272,61228,1,0
196,280,61322,1,0
192,288,61416,1,0
184,292,61510,5,0
176,296,61603,1,0
168,296,61697,1,0
160,296,61791,1,0
152,296,61885,1,8
144,292,61978,1,0
136,288,62072,1,0
128,284,62166,1,0
120,280,62260,5,0
112,276,62353,1,0
108,272,62447,1,0
104,264,62541,1,0
100,256,62635,1,8
100,248,62728,1,0
100,240,62822,1,0
100,232,62916,1,0
104,224,63010,5,0
108,216,63103,1,0
112,208,63197,1,0
116,200,63291,1,0
120,192,63385,1,8
124,184,63478,1,0
130,178,63572,1,0
137,175,63666,1,0
144,173,63760,5,0
151,171,63853,1,0
158,168,63947,1,0
165,164,64041,1,0
171,159,64135,1,8
177,154,64228,1,0
182,148,64322,1,0
186,141,64416,1,0
190,134,64510,5,0
193,126,64603,1,0
194,118,64697,1,0
194,110,64791,1,0
194,101,64885,1,8
192,93,64978,1,0
189,85,65072,1,0
184,78,65166,1,0
179,71,65260,5,0
173,65,65353,1,0
166,59,65447,1,0
159,54,65541,1,0
151,50,65635,1,8
143,47,65728,1,0
135,44,65822,1,0
127,43,65916,1,0
118,42,66010,5,0
110,42,66103,1,0
102,44,66197,1,0
94,47,66291,1,0
86,50,66385,1,8
80,55,66478,1,0
75,61,66572,1,0
72,68,66666,1,0
70,75,66760,5,0
69,82,66853,1,0
69,90,66947,1,0
70,97,67041,1,0
72,104,67135,1,8
74,111,67228,1,0
77,118,67322,1,0
80,125,67416,1,0
83,132,67510,5,0
86,138,67603,1,0
90,144,67697,1,0
93,150,67791,1,0
96,156,67885,1,8
100,162,67978,1,0
104,168,68072,1,0
108,174,68166,1,0
112,180,68260,5,0
116,186,68353,1,0
121,191,68447,1,0
126,196,68541,1,0
131,201,68635,1,8
137,205,68728,1,0
144,208,68822,1,0
151,209,68916,1,0
158,210,69010,5,0
165,210,69103,1,0
172,208,69197,1,0
179,205,69291,1,0
184,198,69385,1,8
189,191,69478,1,0
194,184,69572,1,0
199,177,69666,1,0
204,170,69760,5,0
209,164,69853,1,0
214,158,69947,1,0
221,155,70041,1,0
228,152,70135,1,8
235,149,70228,1,0
242,147,70322,1,0
249,146,70416,1,0
257,145,70510,5,0
264,145,70603,1,0
271,147,70697,1,0
278,149,70791,1,0
285,152,70885,1,8
292,155,70978,1,0
299,158,71072,1,0
306,161,71166,1,0
312,165,71260,5,0
318,169,71353,1,0
324,173,71447,1,0
330,177,71541,1,0
335,182,71635,1,8
340,187,71728,1,0
345,193,71822,1,0
350,199,71916,1,0
356,204,72010,5,4
176,160,84010,5,0
176,160,84103,1,0
176,160,84197,1,0
140,60,84385,2,0,B|176:28|212:60,1,80,8|0
224,272,84760,5,0
224,272,84853,1,0
224,272,84947,1,0
124,308,85135,2,0,B|92:272|124:236,1,80,8|0
336,224,85510,5,0
336,224,85603,1,0
336,224,85697,1,0
372,324,85885,2,0,B|336:356|300:324,1,80,8|0
288,112,86260,5,0
288,112,86353,1,0
288,112,86447,1,0
388,76,86635,2,0,B|420:112|388:148,1,80,8|0
176,160,87010,5,0
176,160,87103,1,0
176,160,87197,1,0
176,160,87291,1,0
176,160,87385,1,8
176,160,87478,1,0
176,160,87572,1,0
152,64,87760,2,0,B|232:88,1,80
152,256,88135,2,0,B|232:232,1,80,8|0
416,160,88510,5,0
416,164,88603,1,0
416,168,88697,1,0
416,172,88791,1,0
416,176,88885,1,8
416,180,88978,1,0
416,184,89072,1,0
416,188,89166,1,0
416,192,89260,1,0
416,196,89353,1,0
416,200,89447,1,0
416,204,89541,1,0
416,208,89635,6,0,B|416:368,1,160,8|0
344,308,90197,2,0,B|280:256,1,80,0|8
332,176,90572,2,0,B|302:98,1,80
208,101,90947,2,0,B|180:176,1,80,0|8
230,257,91322,2,0,B|168:308,1,80
76,280,91697,5,0
76,280,91791,1,0
76,280,91885,1,8
140,180,92072,1,0
140,180,92166,1,0
140,180,92260,1,0
40,116,92447,5,0
40,116,92541,1,0
40,116,92635,1,8
145,61,92822,1,0
145,61,92916,1,0
145,61,93010,1,0
256,108,93197,5,0
256,108,93291,1,0
256,108,93385,1,8
256,108,93478,1,0
256,108,93572,1,0
436,280,93760,5,0
436,280,93853,1,0
436,280,93947,1,0
372,180,94135,1,8
372,180,94228,1,0
372,180,94322,1,0
472,116,94510,5,0
472,116,94603,1,0
472,116,94697,1,0
367,61,94885,1,8
367,61,94978,1,0
367,61,95072,1,0
256,108,95260,5,0
256,124,95353,1,0
256,140,95447,1,0
256,156,95541,1,0
256,172,95635,1,8
256,188,95728,1,0
256,204,95822,1,0
256,220,95916,1,0
256,236,96010,1,4
176,336,96760,5,0
162,328,96853,1,0
151,315,96947,1,0
142,301,97041,1,0
135,286,97135,1,0
131,270,97228,1,0
130,253,97322,1,0
134,237,97416,1,0
142,223,97510,5,4
152,210,97603,1,0
166,202,97697,1,0
180,196,97791,1,0
195,192,97885,1,0
210,189,97978,1,0
225,186,98072,1,0
240,183,98166,1,0
255,180,98260,5,0
270,177,98353,1,0
285,174,98447,1,0
300,172,98541,1,0
315,169,98635,1,0
330,166,98728,1,0
345,161,98822,1,0
360,155,98916,1,0
373,146,99010,5,4
385,136,99103,1,0
396,125,99197,1,0
407,113,99291,1,0
414,98,99385,1,0
417,82,99478,1,0
417,82,99572,1,0
409,67,99666,1,0
399,53,99760,5,0
387,42,99853,1,0
371,36,99947,1,0
355,32,100041,1,0
339,30,100135,1,0
323,30,100228,1,0
307,33,100322,1,0
291,38,100416,1,0
279,48,100510,5,4
268,60,100603,1,0
259,73,100697,1,0
251,87,100791,1,0
247,102,100885,1,0
247,117,100978,1,0
247,133,101072,1,0
250,148,101166,1,0
258,161,101260,5,0
266,174,101353,1,0
276,186,101447,1,0
287,197,101541,1,0
300,206,101635,1,0
313,213,101728,1,0
326,221,101822,1,0
337,231,101916,1,0
347,243,102010,5,4
355,256,102103,1,0
360,271,102197,1,0
363,286,102291,1,0
363,302,102385,1,0
361,317,102478,1,0
357,332,102572,1,0
346,344,102666,1,0
334,355,102760,5,0
319,361,102853,1,0
303,363,102947,1,0
286,363,103041,1,0
270,361,103135,1,0
254,356,103228,1,0
239,349,103322,1,0
225,340,103416,1,0
216,326,103510,5,4
210,311,103603,1,0
210,294,103697,1,0
214,278,103791,1,0
224,265,103885,1,0
237,256,103978,1,0
251,248,104072,1,0
265,241,104166,1,0
279,234,104260,5,0
293,227,104353,1,0
307,220,104447,1,0
321,213,104541,1,0
335,205,104635,1,0
348,197,104728,1,0
359,186,104822,1,0
368,173,104916,1,0
372,157,105010,5,4
375,141,105103,1,0
369,125,105197,1,0
363,110,105291,1,0
352,100,105385,1,0
339,90,105478,1,0
324,83,105572,1,0
309,76,105666,1,0
294,68,105760,5,0
279,60,105853,1,0
263,55,105947,1,0
246,54,106041,1,0
230,55,106135,1,0
214,57,106228,1,0
198,61,106322,1,0
183,67,106416,1,0
169,75,106510,5,4
157,85,106603,1,0
146,97,106697,1,0
138,111,106791,1,0
130,125,106885,1,0
123,139,106978,1,0
116,153,107072,1,0
110,168,107166,1,0
106,183,107260,5,0
103,198,107353,1,0
104,213,107447,1,0
107,228,107541,1,0
112,242,107635,1,0
122,253,107728,1,0
135,261,107822,1,0
150,264,107916,1,0
165,262,108010,5,4
180,257,108103,1,0
194,250,108197,1,0
208,243,108291,1,0
222,236,108385,1,0
235,227,108478,1,0
249,219,108572,1,0
264,213,108666,1,0
279,208,108760,5,0
294,206,108853,1,0
309,207,108947,1,0
324,211,109041,1,0
337,219,109135,1,0
348,229,109228,1,0
358,241,109322,1,0
362,256,109416,1,0
365,271,109510,5,4
363,286,109603,1,0
358,301,109697,1,0
350,315,109791,1,0
336,324,109885,1,0
323,333,109978,1,0
307,337,110072,1,0
291,339,110166,1,0
275,337,110260,5,0
259,333,110353,1,0
243,328,110447,1,0
228,321,110541,1,0
214,311,110635,1,0
204,298,110728,1,0
195,284,110822,1,0
187,269,110916,1,0
182,253,111010,5,4
178,237,111103,1,0
175,221,111197,1,0
174,204,111291,1,0
177,188,111385,1,0
182,173,111478,1,0
192,161,111572,1,0
205,152,111666,1,0
219,145,111760,5,0
234,142,111853,1,0
250,143,111947,1,0
264,149,112041,1,0
278,155,112135,1,0
292,161,112228,1,0
306,166,112322,1,0
321,169,112416,1,0
336,171,112510,5,4
462,149,113260,5,0
462,133,113353,1,0
455,118,113447,1,0
445,105,113541,1,0
433,93,113635,1,0
421,81,113728,1,0
407,71,113822,1,0
391,65,113916,1,0
375,59,114010,5,4
359,57,114103,1,0
344,64,114197,1,0
331,73,114291,1,0
321,85,114385,1,0
317,100,114478,1,0
321,115,114572,1,0
326,130,114666,1,0
330,145,114760,5,0
332,160,114853,1,0
330,175,114947,1,0
326,190,115041,1,0
317,203,115135,1,0
307,215,115228,1,0
295,225,115322,1,0
281,232,115416,1,0
266,238,115510,5,4
250,242,115603,1,0
233,242,115697,1,0
217,237,115791,1,0
202,230,115885,1,0
189,219,115978,1,0
179,206,116072,1,0
171,191,116166,1,0
167,175,116260,5,0
166,159,116353,1,0
170,143,116447,1,0
178,129,116541,1,0
189,117,116635,1,0
202,108,116728,1,0
216,102,116822,1,0
231,96,116916,1,0
246,91,117010,5,4
261,89,117103,1,0
276,90,117197,1,0
291,93,117291,1,0
306,97,117385,1,0
320,102,117478,1,0
334,109,117572,1,0
347,118,117666,1,0
359,127,117760,5,0
370,138,117853,1,0
380,150,117947,1,0
390,162,118041,1,0
391,177,118135,1,0
391,192,118228,1,0
389,207,118322,1,0
383,221,118416,1,0
375,235,118510,5,4
367,249,118603,1,0
357,261,118697,1,0
344,271,118791,1,0
329,278,118885,1,0
313,282,118978,1,0
297,283,119072,1,0
280,283,119166,1,0
264,281,119260,5,0
248,276,119353,1,0
235,266,119447,1,0
224,253,119541,1,0
218,237,119635,1,0
218,221,119728,1,0
220,205,119822,1,0
228,191,119916,1,0
237,178,120010,5,0
168,72,131635,6,0,B|144:152,1,80
145,148,131916,1,0
145,148,132010,1,2
344,72,133135,6,0,B|368:152,1,80
372,160,133416,1,0
368,172,133510,2,0,B|344:252,1,80,2|0
340,260,133791,1,0
336,272,133885,1,2
256,52,134635,6,0,B|256:148,1,80
256,144,134916,1,0
256,156,135010,1,2
188,256,135385,5,2
324,256,135572,1,0
184,80,135947,6,0,B|256:16|328:80,1,160,0|2
328,304,136697,2,0,B|256:368|184:304,1,160,0|2
360,192,137447,5,0
360,192,137541,1,0
360,192,137635,1,2
152,192,137822,1,0
152,192,137916,1,0
152,192,138010,1,2
272,128,138572,6,0,B|352:128,1,80,0|2
240,256,138947,2,0,B|160:256,1,80,0|2
328,168,139322,2,0,B|397:208,1,80,0|2
184,216,139697,2,0,B|114:176,2,80,0|2|0
64,272,140822,6,0,B|64:192,1,80,0|2
76,192,141103,1,0
88,192,141197,1,0
100,192,141291,1,0
112,192,141385,1,0
124,192,141478,1,0
136,192,141572,1,0
148,192,141666,1,0
160,192,141760,5,2
172,192,141853,1,0
184,192,141947,1,0
196,192,142041,1,0
208,192,142135,1,0
220,192,142228,1,0
232,192,142322,1,0
244,192,142416,1,0
256,192,142510,5,2
268,192,142603,1,0
280,192,142697,1,0
292,192,142791,1,0
304,192,142885,1,0
316,192,142978,1,0
328,192,143072,1,0
340,192,143166,1,0
352,192,143260,5,2
364,192,143353,1,0
376,192,143447,1,0
388,192,143541,1,0
400,192,143635,1,0
412,192,143728,1,0
424,192,143822,1,0
436,192,143916,1,0
448,192,144010,5,4
457,198,144103,1,0
464,207,144197,1,0
470,217,144291,1,0
476,227,144385,1,0
479,238,144478,1,0
478,250,144572,1,0
475,261,144666,1,0
468,271,144760,5,0
458,278,144853,1,0
447,283,144947,1,0
435,284,145041,1,0
423,280,145135,1,0
411,275,145228,1,0
400,268,145322,1,0
391,259,145416,1,0
381,251,145510,5,4
370,245,145603,1,0
358,241,145697,1,0
346,239,145791,1,0
334,240,145885,1,0
323,244,145978,1,0
314,252,146072,1,0
308,262,146166,1,0
303,273,146260,5,0
297,283,146353,1,0
287,290,146447,1,0
275,293,146541,1,0
263,294,146635,1,0
251,292,146728,1,0
239,287,146822,1,0
229,279,146916,1,0
222,269,147010,5,4
216,258,147103,1,0
212,246,147197,1,0
211,233,147291,1,0
213,221,147385,1,0
218,210,147478,1,0
226,201,147572,1,0
235,194,147666,1,0
246,189,147760,5,0
257,186,147853,1,0
268,183,147947,1,0
279,179,148041,1,0
290,175,148135,1,0
301,170,148228,1,0
311,164,148322,1,0
319,155,148416,1,0
325,144,148510,5,4
330,133,148603,1,0
331,121,148697,1,0
331,108,148791,1,0
327,96,148885,1,0
319,86,148978,1,0
309,78,149072,1,0
298,72,149166,1,0
287,66,149260,5,0
275,63,149353,1,0
263,60,149447,1,0
251,58,149541,1,0
238,58,149635,1,0
226,59,149728,1,0
214,61,149822,1,0
203,65,149916,1,0
193,72,150010,5,4
185,80,150103,1,0
178,89,150197,1,0
173,100,150291,1,0
170,111,150385,1,0
169,122,150478,1,0
173,133,150572,1,0
180,142,150666,1,0
189,149,150760,5,0
198,155,150853,1,0
208,161,150947,1,0
218,167,151041,1,0
227,173,151135,1,0
236,180,151228,1,0
244,188,151322,1,0
247,199,151416,1,0
249,210,151510,5,4
250,221,151603,1,0
247,232,151697,1,0
243,243,151791,1,0
235,252,151885,1,0
227,260,151978,1,0
217,266,152072,1,0
206,272,152166,1,0
196,276,152260,5,0
184,276,152353,1,0
172,280,152447,1,0
160,280,152541,1,0
148,276,152635,1,0
136,272,152728,1,0
124,264,152822,1,0
116,256,152916,1,0
108,248,153010,5,4
104,236,153103,1,0
100,224,153197,1,0
100,212,153291,1,0
100,200,153385,1,0
100,188,153478,1,0
104,176,153572,1,0
112,164,153666,1,0
120,156,153760,5,0
132,148,153853,1,0
144,144,153947,1,0
156,140,154041,1,0
168,140,154135,1,0
180,140,154228,1,0
192,144,154322,1,0
204,148,154416,1,0
216,152,154510,5,4
228,156,154603,1,0
240,160,154697,1,0
252,164,154791,1,0
264,172,154885,1,0
272,180,154978,1,0
280,188,155072,1,0
288,196,155166,1,0
296,204,155260,5,0
304,212,155353,1,0
312,220,155447,1,0
320,232,155541,1,0
328,240,155635,1,0
336,248,155728,1,0
344,256,155822,1,0
356,260,155916,1,0
368,264,156010,5,4
380,264,156103,1,0
392,260,156197,1,0
404,256,156291,1,0
412,247,156385,1,8
420,239,156478,1,0
428,230,156572,1,0
433,219,156666,1,0
437,207,156760,5,0
440,195,156853,1,0
442,183,156947,1,0
443,171,157041,1,0
442,158,157135,1,8
439,146,157228,1,0
435,134,157322,1,0
429,123,157416,1,0
421,113,157510,5,4
412,104,157603,1,0
402,96,157697,1,0
391,89,157791,1,0
380,83,157885,1,8
368,78,157978,1,0
356,74,158072,1,0
344,71,158166,1,0
331,70,158260,5,0
319,70,158353,1,0
307,72,158447,1,0
295,75,158541,1,0
283,79,158635,1,8
273,85,158728,1,0
265,94,158822,1,0
258,104,158916,1,0
253,115,159010,5,4
251,126,159103,1,0
252,137,159197,1,0
255,148,159291,1,0
261,158,159385,1,8
268,167,159478,1,0
275,176,159572,1,0
282,185,159666,1,0
289,194,159760,5,0
295,203,159853,1,0
301,213,159947,1,0
305,224,160041,1,0
307,235,160135,1,8
307,246,160228,1,0
304,257,160322,1,0
298,267,160416,1,0
291,276,160510,5,4
281,283,160603,1,0
270,288,160697,1,0
258,292,160791,1,0
246,294,160885,1,8
234,295,160978,1,0
221,294,161072,1,0
209,292,161166,1,0
197,288,161260,5,0
186,282,161353,1,0
176,275,161447,1,0
166,267,161541,1,0
157,258,161635,1,8
149,248,161728,1,0
142,237,161822,1,0
136,226,161916,1,0
133,214,162010,5,4
131,202,162103,1,0
132,190,162197,1,0
135,178,162291,1,0
139,167,162385,1,8
145,156,162478,1,0
153,147,162572,1,0
162,139,162666,1,0
172,132,162760,5,0
182,126,162853,1,0
193,122,162947,1,0
204,119,163041,1,0
216,118,163135,1,8
227,119,163228,1,0
235,120,163322,1,0
246,124,163416,1,0
256,130,163510,5,4
265,137,163603,1,0
273,145,163697,1,0
279,154,163791,1,0
285,164,163885,1,8
290,174,163978,1,0
295,184,164072,1,0
299,194,164166,1,0
304,204,164260,5,0
309,214,164353,1,0
315,224,164447,1,0
323,232,164541,1,0
332,239,164635,1,8
342,244,164728,1,0
353,248,164822,1,0
364,250,164916,1,0
376,249,165010,5,4
387,246,165103,1,0
397,240,165197,1,0
406,232,165291,1,0
413,222,165385,1,8
414,210,165478,1,0
414,197,165572,1,0
411,185,165666,1,0
407,173,165760,5,0
400,163,165853,1,0
391,154,165947,1,0
380,147,166041,1,0
368,144,166135,1,8
356,145,166228,1,0
345,150,166322,1,0
335,157,166416,1,0
326,165,166510,5,4
316,172,166603,1,0
305,178,166697,1,0
294,183,166791,1,0
282,186,166885,1,8
270,187,166978,1,0
257,186,167072,1,0
245,184,167166,1,0
232,180,167260,6,0,B|196:168,14,20
200,168,168010,5,4
189,162,168103,1,0
178,155,168197,1,0
166,152,168291,1,0
153,151,168385,1,8
141,153,168478,1,0
129,157,168572,1,0
119,164,168666,1,0
112,174,168760,5,0
107,185,168853,1,0
106,197,168947,1,0
108,208,169041,1,0
113,218,169135,1,8
119,228,169228,1,0
127,236,169322,1,0
135,244,169416,1,0
143,252,169510,5,0
153,258,169603,1,0
164,261,169697,1,0
176,260,169791,1,0
187,257,169885,1,8
198,254,169978,1,0
209,251,170072,1,0
220,252,170166,1,0
231,254,170260,5,0
240,260,170353,1,0
249,267,170447,1,0
257,275,170541,1,0
266,282,170635,1,8
275,289,170728,1,0
285,294,170822,1,0
296,298,170916,1,0
307,301,171010,5,0
318,301,171103,1,0
330,300,171197,1,0
341,296,171291,1,0
351,289,171385,1,8
360,281,171478,1,0
367,271,171572,1,0
373,260,171666,1,0
377,248,171760,5,0
376,236,171853,1,0
374,224,171947,1,0
369,212,172041,1,0
363,201,172135,1,8
355,191,172228,1,0
343,186,172322,1,0
331,184,172416,1,0
318,184,172510,5,0
306,180,172603,1,0
295,174,172697,1,0
285,166,172791,1,0
279,155,172885,1,8
275,143,172978,1,0
273,131,173072,1,0
274,119,173166,1,0
278,107,173260,5,0
284,97,173353,1,0
293,89,173447,1,0
304,84,173541,1,0
315,80,173635,1,8
326,78,173728,1,0
337,80,173822,1,0
347,85,173916,1,0
356,92,174010,5,0
363,100,174103,1,0
368,110,174197,1,0
370,121,174291,1,0
369,133,174385,1,8
367,144,174478,1,0
363,155,174572,1,0
356,165,174666,1,0
348,174,174760,5,0
337,180,174853,1,0
325,184,174947,1,0
313,186,175041,1,0
300,186,175135,1,8
288,183,175228,1,0
278,176,175322,1,0
269,167,175416,1,0
262,156,175510,5,0
256,145,175603,1,0
248,135,175697,1,0
238,127,175791,1,0
228,119,175885,1,8
216,114,175978,1,0
204,110,176072,1,0
192,107,176166,1,0
179,106,176260,5,0
167,106,176353,1,0
155,108,176447,1,0
143,112,176541,1,0
132,118,176635,1,8
123,126,176728,1,0
115,135,176822,1,0
109,145,176916,1,0
105,156,177010,5,0
103,167,177103,1,0
103,179,177197,1,0
104,190,177291,1,0
106,201,177385,1,8
114,209,177478,1,0
123,216,177572,1,0
133,221,177666,1,0
144,224,177760,5,0
155,225,177853,1,0
167,225,177947,1,0
178,222,178041,1,0
189,218,178135,1,8
200,214,178228,1,0
211,212,178322,1,0
222,210,178416,1,0
234,209,178510,5,0
245,209,178603,1,0
256,210,178697,1,0
267,211,178791,1,0
278,214,178885,1,8
289,218,178978,1,0
299,222,179072,1,0
309,228,179166,1,0
318,235,179260,5,0
327,242,179353,1,0
334,251,179447,1,0
338,262,179541,1,0
335,273,179635,1,8
331,284,179728,1,0
322,292,179822,1,0
312,299,179916,1,0
300,302,180010,5,0
288,303,180103,1,0
276,301,180197,1,0
264,298,180291,1,0
253,292,180385,1,8
243,285,180478,1,0
235,275,180572,1,0
230,263,180666,1,0
226,251,180760,5,0
224,239,180853,1,0
224,226,180947,1,0
225,214,181041,1,0
231,203,181135,1,8
239,194,181228,1,0
249,188,181322,1,0
258,180,181416,1,0
264,169,181510,5,0
266,157,181603,1,0
265,144,181697,1,0
261,132,181791,1,0
255,121,181885,1,8
248,111,181978,1,0
240,101,182072,1,0
230,93,182166,1,0
219,86,182260,5,0
207,82,182353,1,0
195,80,182447,1,0
182,80,182541,1,0
170,82,182635,1,8
158,86,182728,1,0
148,92,182822,1,0
138,99,182916,1,0
130,108,183010,5,0
125,118,183103,1,0
122,129,183197,1,0
120,140,183291,1,0
120,151,183385,1,8
121,162,183478,1,0
124,173,183572,1,0
128,184,183666,1,0
133,194,183760,5,0
139,204,183853,1,0
146,213,183947,1,0
154,221,184041,1,0
163,228,184135,1,8
173,232,184228,1,0
184,234,184322,1,0
195,235,184416,1,0
207,235,184510,5,0
218,233,184603,1,0
229,230,184697,1,0
240,225,184791,1,0
250,219,184885,1,8
260,213,184978,1,0
270,207,185072,1,0
280,201,185166,1,0
291,196,185260,5,0
302,193,185353,1,0
313,191,185447,1,0
325,190,185541,1,0
336,191,185635,1,8
347,194,185728,1,0
358,198,185822,1,0
368,203,185916,1,0
377,210,186010,5,0
385,218,186103,1,0
392,227,186197,1,0
398,236,186291,1,0
403,246,186385,1,8
405,257,186478,1,0
405,269,186572,1,0
403,280,186666,1,0
398,290,186760,5,0
392,300,186853,1,0
385,310,186947,1,0
376,318,187041,1,0
365,323,187135,1,8
353,325,187228,1,0
341,323,187322,1,0
329,318,187416,1,0
319,311,187510,5,0
310,302,187603,1,0
301,293,187697,1,0
293,283,187791,1,0
285,273,187885,1,8
279,262,187978,1,0
273,251,188072,1,0
268,239,188166,1,0
264,227,188260,5,0
260,215,188353,1,0
257,203,188447,1,0
254,191,188541,1,0
251,179,188635,1,8
248,167,188728,1,0
245,155,188822,1,0
243,143,188916,1,0
240,131,189010,5,0
236,119,189103,1,0
229,108,189197,1,0
222,97,189291,1,0
214,87,189385,1,8
205,79,189478,1,0
194,72,189572,1,0
182,67,189666,1,0
170,63,189760,5,0
158,61,189853,1,0
146,59,189947,1,0
133,59,190041,1,0
121,61,190135,1,8
109,64,190228,1,0
98,70,190322,1,0
88,77,190416,1,0
80,86,190510,5,0
73,96,190603,1,0
68,107,190697,1,0
64,118,190791,1,0
64,130,190885,1,8
66,141,190978,1,0
69,152,191072,1,0
75,162,191166,1,0
84,172,191260,6,0,B|100:200,14,20
104,200,192010,5,4
