osu file format v9

[General]
AudioFilename: V2.mp3
AudioLeadIn: 1000
PreviewTime: 1938
Countdown: 0
SampleSet: Soft
StackLeniency: 0.3
Mode: 0
LetterboxInBreaks: 0

[Editor]
Bookmarks: 46738,49938,72338,85138,94738
DistanceSpacing: 0.3
BeatDivisor: 4
GridSize: 4

[Metadata]
Title:Stream Practice Maps
Artist:Various Artists
Creator:NewRulerNA
Version:V2 BPM150
Source:
Tags:electronic instrumental jubeat dance dance revolution x2 ddr beatmania iidx 15 dj troopers 17 sirius うみねこのなく頃に散 umineko no naku koro ni ryu☆ taka tag humanoid galderia shiraishi しらいし 新世界 mutsuhiko izumi xaki 07th expansion

[Difficulty]
HPDrainRate:4
CircleSize:4
OverallDifficulty:8
ApproachRate:8
SliderMultiplier:2.3
SliderTickRate:1

[Events]
//Background and Video events
0,0,"BG4.jpg"
//Break Periods
//Storyboard Layer 0 (Background)
//Storyboard Layer 1 (Fail)
//Storyboard Layer 2 (Pass)
//Storyboard Layer 3 (Foreground)
//Storyboard Sound Samples
//Background Colour Transformations
3,100,163,162,255

[TimingPoints]
338,400,4,2,0,100,1,0
338,-100,4,2,0,30,0,0
1938,-100,4,2,0,80,0,0
53138,-200,4,2,0,80,0,0
54738,-100,4,2,0,80,0,0
123738,-100,4,2,0,5,0,0

[Colours]
Combo1 : 255,0,0
Combo2 : 0,0,0
Combo3 : 0,0,255

[HitObjects]
256,48,338,5,0
256,64,438,1,0
256,80,538,1,0
256,96,638,1,0
256,112,738,1,0
256,128,838,1,0
256,144,938,1,0
256,160,1038,1,0
256,176,1138,1,0
256,192,1238,1,0
256,208,1338,1,0
256,224,1438,1,0
256,240,1538,1,0
256,256,1638,2,0,B|256:296,5,25
256,312,1938,6,0,B|184:312|184:312|152:264,1,115,4|0
152,260,2238,1,0
144,244,2338,1,2
136,228,2438,1,0
128,212,2538,1,0
120,196,2638,1,0
112,180,2738,2,0,B|112:56,1,115,2|0
248,4,3138,2,0,B|248:128,1,115,2|0
16,124,3538,5,6
16,124,3638,1,0
16,124,3738,1,0
40,272,3938,1,2
40,272,4038,1,0
40,272,4138,1,0
172,340,4338,1,2
188,340,4438,1,0
204,340,4538,1,0
220,340,4638,1,0
236,340,4738,2,0,B|300:340,2,57.5,2|0|0
236,76,5138,6,0,B|308:76|308:76|340:124,1,115,4|0
340,128,5438,1,0
348,144,5538,1,2
356,160,5638,1,0
364,176,5738,1,0
372,192,5838,1,0
380,208,5938,2,0,B|380:332,1,115,2|0
244,384,6338,2,0,B|244:260,1,115,2|0
476,264,6738,5,6
476,264,6838,1,0
476,264,6938,1,0
452,116,7138,1,2
452,116,7238,1,0
452,116,7338,1,0
320,48,7538,1,2
304,48,7638,1,0
288,48,7738,1,0
272,48,7838,1,0
256,48,7938,2,0,B|192:48,2,57.5,2|0|0
156,140,8338,5,6
140,140,8438,1,0
124,148,8538,1,0
112,160,8638,1,0
100,172,8738,1,2
88,184,8838,1,0
80,200,8938,1,0
76,216,9038,1,0
72,232,9138,5,2
72,248,9238,1,0
72,264,9338,1,0
72,280,9438,1,0
76,296,9538,1,2
84,312,9638,1,0
92,328,9738,1,0
104,340,9838,1,0
120,348,9938,6,0,B|192:348,2,57.5,6|0|0
156,228,10338,2,0,B|228:228,2,57.5,2|0|0
96,116,10738,2,0,B|24:116,2,57.5,2|0|0
188,28,11138,2,0,B|260:28,2,57.5,2|0|0
356,140,11538,5,6
372,140,11638,1,0
388,148,11738,1,0
400,160,11838,1,0
412,172,11938,1,2
424,184,12038,1,0
432,200,12138,1,0
436,216,12238,1,0
440,232,12338,5,2
440,248,12438,1,0
440,264,12538,1,0
440,280,12638,1,0
436,296,12738,1,2
428,312,12838,1,0
420,328,12938,1,0
408,340,13038,1,0
392,348,13138,6,0,B|320:348,2,57.5,6|0|0
356,228,13538,2,0,B|284:228,2,57.5,2|0|0
416,116,13938,2,0,B|488:116,2,57.5,2|0|0
324,28,14338,2,0,B|252:28,2,57.5,2|0|0
252,132,14738,5,2
236,116,14838,1,0
216,104,14938,1,0
196,96,15038,1,0
172,96,15138,1,2
148,100,15238,1,0
128,112,15338,1,0
116,132,15438,1,0
108,152,15538,5,2
100,172,15638,1,0
92,192,15738,1,0
84,212,15838,1,0
76,232,15938,1,2
68,252,16038,1,0
64,276,16138,1,0
64,300,16238,1,0
72,320,16338,6,0,B|104:372,3,57.5,2|0|0|0
120,316,16738,2,0,B|152:368,3,57.5,2|0|0|0
168,312,17138,2,0,B|200:364,3,57.5,2|0|0|0
216,308,17538,2,0,B|248:360,3,57.5,2|0|0|0
264,304,17938,6,0,B|296:252,3,57.5,2|0|0|0
312,308,18338,2,0,B|344:256,3,57.5,2|0|0|0
360,312,18738,2,0,B|392:260,3,57.5,2|0|0|0
408,316,19138,2,0,B|440:264,3,57.5,2|0|0|0
468,252,19538,5,2
476,232,19638,1,0
476,208,19738,1,0
468,188,19838,1,0
460,168,19938,1,2
444,152,20038,1,0
424,144,20138,1,0
400,140,20238,1,0
376,144,20338,5,2
356,156,20438,1,0
336,164,20538,1,0
312,156,20638,1,0
300,136,20738,1,2
288,116,20838,1,0
272,100,20938,1,0
248,100,21038,1,0
232,116,21138,6,0,B|184:156,7,57.5,2|0|0|0|2|0|0|0
164,156,21938,2,0,B|142:214,7,57.5,2|0|0|0|2|0|0|0
124,220,22738,1,2
112,240,22838,1,0
112,264,22938,1,0
120,284,23038,1,0
136,300,23138,1,2
156,308,23238,1,0
180,308,23338,1,0
200,296,23438,1,0
220,280,23538,5,2
240,268,23638,1,0
260,260,23738,1,0
284,256,23838,1,0
308,260,23938,1,2
328,272,24038,1,0
348,280,24138,1,0
368,292,24238,1,0
388,304,24338,5,2
412,304,24438,1,0
432,296,24538,1,0
448,280,24638,1,0
460,260,24738,1,2
460,236,24838,1,0
448,216,24938,1,0
432,196,25038,1,0
420,176,25138,5,2
408,156,25238,1,0
396,136,25338,1,0
384,116,25438,1,0
372,96,25538,1,2
356,80,25638,1,0
336,68,25738,1,0
312,64,25838,1,0
288,64,25938,5,2
268,76,26038,1,0
256,96,26138,1,0
248,116,26238,1,0
252,140,26338,1,2
260,160,26438,1,0
264,184,26538,1,0
264,208,26638,1,0
252,228,26738,5,2
236,244,26838,1,0
216,252,26938,1,0
192,256,27038,1,0
168,252,27138,1,2
148,240,27238,1,0
132,224,27338,1,0
120,204,27438,1,0
108,184,27538,5,2
100,164,27638,1,0
104,140,27738,1,0
112,116,27838,1,0
128,100,27938,1,2
148,92,28038,1,0
172,88,28138,1,0
196,84,28238,1,0
220,88,28338,5,2
240,96,28438,1,0
260,108,28538,1,0
280,120,28638,1,0
300,132,28738,1,2
320,144,28838,1,0
340,156,28938,1,0
356,172,29038,1,0
364,192,29138,5,2
368,216,29238,1,0
364,240,29338,1,0
352,260,29438,1,0
332,272,29538,1,2
312,280,29638,1,0
288,288,29738,1,0
264,296,29838,1,0
240,304,29938,5,2
220,312,30038,1,0
200,320,30138,1,0
180,328,30238,1,0
156,336,30338,1,2
132,336,30438,1,0
112,328,30538,1,0
96,312,30638,1,0
84,292,30738,5,2
76,272,30838,1,0
72,248,30938,1,0
72,224,31038,1,0
76,200,31138,1,2
84,180,31238,1,0
96,160,31338,1,0
108,140,31438,1,0
120,120,31538,5,2
132,100,31638,1,0
144,80,31738,1,0
160,64,31838,1,0
184,60,31938,1,2
208,60,32038,1,0
232,64,32138,1,0
252,72,32238,1,0
272,80,32338,6,0,B|328:104,15,57.5,2|0|0|0|2|0|0|0|2|0|0|0|2|0|0|0
320,124,33938,2,0,B|264:148,15,57.5,2|0|0|0|2|0|0|0|2|0|0|0|2|0|0|0
276,168,35538,2,0,B|332:192,7,57.5,2|0|0|0|2|0|0|0
328,212,36338,2,0,B|272:236,7,57.5,2|0|0|0|2|0|0|0
232,216,37138,2,0,B|176:240,3,57.5,2|0|0|0
180,284,37538,2,0,B|124:308,3,57.5,2|0|0|0
84,296,37938,6,0,B|24:244,1,57.5,2|0
84,240,38138,2,0,B|144:188,1,57.5
172,192,38338,2,0,B|112:140,1,57.5,2|0
168,132,38538,2,0,B|228:80,1,57.5
224,84,38738,5,2
236,72,38838,1,0
252,64,38938,1,0
268,60,39038,1,0
284,60,39138,1,2
300,64,39238,1,0
316,72,39338,1,0
328,84,39438,1,0
340,96,39538,5,2
344,112,39638,1,0
352,128,39738,1,0
360,144,39838,1,0
368,160,39938,1,2
384,168,40038,1,0
400,176,40138,1,0
416,184,40238,1,0
424,200,40338,6,0,B|404:280,3,57.5,2|0|0|0
396,272,40738,2,0,B|376:192,3,57.5,2|0|0|0
364,220,41138,2,0,B|344:300,3,57.5,2|0|0|0
336,288,41538,2,0,B|316:208,3,57.5,2|0|0|0
304,232,41938,5,2
288,240,42038,1,0
276,252,42138,1,0
260,260,42238,1,0
244,264,42338,1,2
228,260,42438,1,0
212,252,42538,1,0
200,240,42638,1,0
192,224,42738,5,2
184,208,42838,1,0
184,192,42938,1,0
192,176,43038,1,0
204,164,43138,1,2
212,148,43238,1,0
216,132,43338,1,0
212,116,43438,1,0
200,104,43538,6,0,B|180:24,3,57.5,2|0|0|0
172,36,43938,2,0,B|152:116,3,57.5,2|0|0|0
140,88,44338,2,0,B|120:8,3,57.5,2|0|0|0
112,20,44738,2,0,B|92:100,3,57.5,2|0|0|0
92,92,45138,5,2
88,108,45238,1,0
84,124,45338,1,0
84,140,45438,1,0
84,156,45538,1,2
84,172,45638,1,0
84,188,45738,1,0
84,204,45838,1,0
88,220,45938,5,2
96,236,46038,1,0
108,248,46138,1,0
120,260,46238,1,0
136,268,46338,1,2
152,276,46438,1,0
168,276,46538,1,0
184,272,46638,1,0
200,264,46738,6,0,B|220:184,1,57.5,2|0
232,208,46938,2,0,B|252:128,1,57.5,0|0
260,164,47138,2,0,B|280:84,1,57.5,2|0
292,108,47338,2,0,B|312:28,1,57.5,0|0
324,48,47538,2,0,B|344:128,1,57.5,2|0
356,104,47738,2,0,B|376:184,1,57.5,0|0
384,148,47938,2,0,B|404:228,1,57.5,2|0
416,204,48138,2,0,B|436:284,1,57.5,0|0
428,276,48338,5,2
420,292,48438,1,0
408,304,48538,1,0
392,308,48638,1,0
376,304,48738,1,2
360,296,48838,1,0
352,280,48938,1,0
344,264,49038,1,0
336,248,49138,5,2
328,232,49238,1,0
320,216,49338,1,0
304,208,49438,1,0
288,204,49538,1,2
272,208,49638,1,0
260,220,49738,1,0
252,236,49838,1,0
240,248,49938,6,0,B|220:168,1,57.5,2|0
208,192,50138,2,0,B|188:112,1,57.5,0|0
180,148,50338,2,0,B|160:68,1,57.5,2|0
148,92,50538,2,0,B|128:12,1,57.5,0|0
116,32,50738,2,0,B|96:112,1,57.5,2|0
84,88,50938,2,0,B|64:168,1,57.5,0|0
56,132,51138,2,0,B|36:212,1,57.5,2|0
24,188,51338,2,0,B|4:268,1,57.5,0|0
12,260,51538,5,2
16,276,51638,1,0
24,292,51738,1,0
32,308,51838,1,0
44,320,51938,1,2
60,328,52038,1,0
76,332,52138,1,0
92,332,52238,1,0
108,328,52338,5,2
124,320,52438,1,0
136,308,52538,1,0
148,296,52638,1,0
160,280,52738,1,2
168,264,52838,1,0
176,248,52938,1,0
184,232,53038,1,0
192,216,53138,6,0,B|200:72|352:64,1,230,0|2
368,144,54138,1,0
368,144,54238,1,0
368,144,54338,1,2
192,320,54738,5,2
192,320,54838,1,0
192,320,54938,1,0
104,216,55138,1,2
104,216,55238,1,0
104,216,55338,1,0
168,92,55538,1,2
168,92,55638,1,0
168,92,55738,1,0
320,64,55938,5,2
320,64,56038,1,0
320,64,56138,1,0
408,168,56338,1,2
408,168,56438,1,0
408,168,56538,1,0
344,292,56738,1,2
344,292,56838,1,0
344,292,56938,1,0
192,320,57138,5,2
192,320,57238,1,0
192,320,57338,1,0
104,216,57538,1,2
104,216,57638,1,0
104,216,57738,1,0
168,92,57938,1,2
168,92,58038,1,0
168,92,58138,1,0
320,64,58338,5,2
320,64,58438,1,0
320,64,58538,1,0
408,168,58738,1,2
408,168,58838,1,0
408,168,58938,1,0
344,292,59138,1,2
344,292,59238,1,0
344,292,59338,1,0
192,320,59538,5,2
192,320,59638,1,0
192,320,59738,1,0
104,216,59938,1,2
104,216,60038,1,0
104,216,60138,1,0
168,92,60338,1,2
168,92,60438,1,0
168,92,60538,1,0
320,64,60738,5,2
320,64,60838,1,0
320,64,60938,1,0
408,168,61138,1,2
408,168,61238,1,0
408,168,61338,1,0
344,292,61538,1,2
344,292,61638,1,0
344,292,61738,1,0
192,320,61938,5,2
160,304,62038,1,0
128,288,62138,1,0
104,216,62338,1,2
101,180,62438,1,0
99,144,62538,1,0
168,92,62738,5,2
197,71,62838,1,0
227,51,62938,1,0
260,44,63038,1,0
296,48,63138,1,2
328,60,63238,1,0
360,72,63338,1,0
384,96,63438,1,0
404,124,63538,5,2
412,156,63638,1,0
416,192,63738,1,0
408,224,63838,1,0
388,252,63938,1,2
364,276,64038,1,0
332,284,64138,1,0
300,272,64238,1,0
272,248,64338,6,2,B|28:116,1,230
208,124,65138,2,2,B|452:-8,1,230
336,184,65938,6,0,B|324:312,1,115,2|0
176,184,66338,2,0,B|188:312,1,115,2|0
440,156,66738,6,0,B|428:28,1,115,2|0
72,156,67138,2,0,B|84:28,1,115,2|0
256,136,67538,6,2,B|136:172|84:348,1,230
256,136,68338,2,2,B|376:172|428:348,1,230
188,344,69138,6,0,B|72:344,1,115,2|0
324,344,69538,2,0,B|440:344,1,115,2|0
44,64,69938,6,0,B|112:160,1,115,2|0
468,64,70338,2,0,B|400:160,1,115,2|0
192,92,70738,6,2,B|136:124|136:124|84:180|156:244|156:244|216:216,1,230
320,92,71538,2,2,B|376:124|376:124|428:180|356:244|356:244|296:216,1,230
60,300,72338,5,6
56,256,72438,1,0
68,212,72538,1,0
112,196,72638,1,0
156,212,72738,1,2
192,244,72838,1,0
236,228,72938,1,0
264,192,73038,1,0
264,148,73138,5,2
268,104,73238,1,0
304,80,73338,1,0
348,64,73438,1,0
392,64,73538,1,2
432,88,73638,1,0
456,128,73738,1,0
456,176,73838,1,0
440,220,73938,5,6
412,256,74038,1,0
372,280,74138,1,0
328,280,74238,1,0
288,256,74338,1,2
260,220,74438,1,0
220,196,74538,1,0
176,188,74638,1,0
136,208,74738,5,2
112,248,74838,1,0
120,292,74938,1,0
144,332,75038,1,0
188,344,75138,1,2
232,328,75238,1,0
260,292,75338,1,0
288,256,75438,1,0
316,220,75538,5,6
324,176,75638,1,0
312,132,75738,1,0
284,96,75838,1,0
248,68,75938,1,2
204,60,76038,1,0
160,56,76138,1,0
116,64,76238,1,0
76,88,76338,5,2
52,128,76438,1,0
44,172,76538,1,0
48,216,76638,1,0
68,256,76738,1,2
92,296,76838,1,0
136,312,76938,1,0
160,272,77038,1,0
168,228,77138,5,6
212,228,77238,1,0
248,256,77338,1,0
288,280,77438,1,0
332,296,77538,1,2
364,264,77638,1,0
372,220,77738,1,0
368,176,77838,1,0
340,140,77938,5,2
312,104,78038,1,0
312,60,78138,1,0
336,20,78238,1,0
380,12,78338,1,2
424,20,78438,1,0
460,48,78538,1,0
480,88,78638,1,0
480,132,78738,5,6
464,176,78838,1,0
420,192,78938,1,0
376,196,79038,1,0
332,192,79138,1,2
288,180,79238,1,0
248,156,79338,1,0
208,132,79438,1,0
164,120,79538,5,2
124,140,79638,1,0
96,176,79738,1,0
84,220,79838,1,0
96,264,79938,1,2
132,296,80038,1,0
176,308,80138,1,0
220,296,80238,1,0
252,264,80338,5,6
268,220,80438,1,0
280,176,80538,1,0
292,132,80638,1,0
284,88,80738,1,2
304,48,80838,1,0
348,32,80938,1,0
392,48,81038,1,0
424,80,81138,5,2
428,124,81238,1,0
412,168,81338,1,0
376,196,81438,1,0
352,236,81538,1,2
340,280,81638,1,0
324,324,81738,1,0
284,348,81838,1,0
240,352,81938,5,6
196,340,82038,1,0
160,308,82138,1,0
132,272,82238,1,0
140,228,82338,1,2
164,188,82438,1,0
196,156,82538,1,0
240,156,82638,1,0
284,176,82738,5,2
316,212,82838,1,0
300,256,82938,1,0
276,296,83038,1,0
236,316,83138,1,2
192,300,83238,1,0
156,272,83338,1,0
140,228,83438,1,0
124,184,83538,5,6
128,140,83638,1,0
104,100,83738,1,0
60,88,83838,1,0
24,116,83938,1,2
12,160,84038,1,0
28,204,84138,1,0
64,232,84238,1,0
76,276,84338,5,2
68,320,84438,1,0
84,364,84538,1,0
124,384,84638,1,0
168,372,84738,1,2
192,332,84838,1,0
212,292,84938,1,0
252,268,85038,1,0
296,280,85138,5,6
336,304,85238,1,0
380,320,85338,1,0
424,308,85438,1,0
460,280,85538,1,2
464,236,85638,1,0
436,200,85738,1,0
392,184,85838,1,0
352,204,85938,5,2
320,236,86038,1,0
276,220,86138,1,0
256,180,86238,1,0
272,136,86338,1,2
316,124,86438,1,0
360,108,86538,1,0
380,68,86638,1,0
368,24,86738,5,6
324,4,86838,1,0
280,12,86938,1,0
260,52,87038,1,0
236,92,87138,1,2
192,108,87238,1,0
148,100,87338,1,0
124,60,87438,1,0
80,44,87538,5,2
36,52,87638,1,0
16,96,87738,1,0
16,140,87838,1,0
48,172,87938,1,2
92,164,88038,1,0
132,188,88138,1,0
148,232,88238,1,0
192,236,88338,5,6
232,212,88438,1,0
268,184,88538,1,0
312,168,88638,1,0
356,176,88738,1,2
388,208,88838,1,0
408,248,88938,1,0
404,292,89038,1,0
380,332,89138,5,6
336,340,89238,1,0
292,340,89338,1,0
248,332,89438,1,0
204,316,89538,1,2
160,300,89638,1,0
116,280,89738,1,0
76,256,89838,1,0
60,212,89938,5,6
56,168,90038,1,0
88,136,90138,1,0
132,124,90238,1,0
172,148,90338,1,2
216,140,90438,1,0
252,112,90538,1,0
276,72,90638,1,0
308,40,90738,5,6
352,28,90838,1,0
396,28,90938,1,0
440,44,91038,1,0
468,80,91138,1,2
488,120,91238,1,0
496,164,91338,1,0
484,208,91438,1,0
456,244,91538,5,6
456,288,91638,1,0
440,332,91738,1,0
400,356,91838,1,0
356,352,91938,1,2
332,312,92038,1,0
344,268,92138,1,0
368,228,92238,1,0
348,184,92338,5,6
308,160,92438,1,0
264,148,92538,1,0
220,156,92638,1,0
196,196,92738,1,2
192,240,92838,1,0
208,284,92938,1,0
200,328,93038,1,0
156,344,93138,5,6
112,348,93238,1,0
76,320,93338,1,0
76,272,93438,1,0
100,232,93538,1,2
124,192,93638,1,0
148,152,93738,1,0
184,124,93838,1,0
224,104,93938,5,6
268,112,94038,1,0
292,152,94138,1,0
308,196,94238,1,0
336,232,94338,1,2
380,244,94438,1,0
424,224,94538,1,0
448,184,94638,1,0
448,140,94738,6,0,B|432:72,7,57.5,6|0|0|0|2|0|0|0
400,56,95538,2,0,B|384:124,7,57.5,10|0|0|0|2|0|0|0
344,128,96338,2,0,B|328:60,7,57.5,6|0|0|0|2|0|0|0
292,48,97138,2,0,B|276:116,7,57.5,10|0|0|0|2|0|0|0
272,148,97938,6,0,B|256:80,7,57.5,6|0|0|0|2|0|0|0
224,64,98738,2,0,B|208:132,7,57.5,10|0|0|0|2|0|0|0
168,136,99538,2,0,B|152:68,7,57.5,6|0|0|0|2|0|0|0
116,56,100338,2,0,B|100:124,7,57.5,2|0|0|0|2|0|0|0
72,148,101138,6,0,B|12:164,1,57.5,2|0
80,172,101338,2,0,B|140:188,1,57.5
72,196,101538,2,0,B|12:212,1,57.5,2|0
80,220,101738,2,0,B|140:236,1,57.5
72,248,101938,2,0,B|72:332,1,57.5,2|0
124,268,102138,2,0,B|124:352,1,57.5
176,288,102338,2,0,B|176:204,1,57.5,2|0
228,268,102538,2,0,B|228:184,1,57.5
280,244,102738,5,6
284,260,102838,1,0
288,276,102938,1,0
296,292,103038,1,0
308,304,103138,1,2
324,312,103238,1,0
340,320,103338,1,0
356,320,103438,1,0
372,316,103538,5,2
384,304,103638,1,0
392,288,103738,1,0
400,272,103838,1,0
400,256,103938,1,2
400,240,104038,1,0
392,224,104138,1,0
380,212,104238,1,0
368,200,104338,5,6
356,188,104438,1,0
344,176,104538,1,0
332,164,104638,1,0
320,152,104738,1,2
308,140,104838,1,0
296,128,104938,1,0
284,116,105038,1,0
272,104,105138,5,2
256,96,105238,1,0
240,92,105338,1,0
224,88,105438,1,0
208,88,105538,1,2
192,96,105638,1,0
180,108,105738,1,0
172,124,105838,1,0
168,140,105938,5,6
164,156,106038,1,0
164,172,106138,1,0
168,188,106238,1,0
176,204,106338,1,2
188,216,106438,1,0
204,224,106538,1,0
220,228,106638,1,0
236,224,106738,5,2
252,216,106838,1,0
268,208,106938,1,0
280,196,107038,1,0
292,184,107138,1,2
304,172,107238,1,0
316,160,107338,1,0
328,148,107438,1,0
340,136,107538,6,0,B|384:88,2,57.5,6|0|0
172,248,107938,2,0,B|128:296,2,57.5,2|0|0
340,248,108338,2,0,B|384:296,2,57.5,2|0|0
172,136,108738,2,0,B|128:88,2,57.5,2|0|0
132,328,109138,5,6
144,328,109238,1,0
156,328,109338,1,0
168,328,109438,1,0
180,328,109538,1,2
192,328,109638,1,0
204,328,109738,1,0
216,328,109838,1,0
228,328,109938,5,2
240,328,110038,1,0
252,328,110138,1,0
264,328,110238,1,0
276,328,110338,1,2
288,328,110438,1,0
300,328,110538,1,0
312,328,110638,1,0
324,328,110738,6,0,B|388:328,2,57.5,6|0|0
212,228,111138,2,0,B|148:228,2,57.5,2|0|0
324,128,111538,2,0,B|388:128,2,57.5,2|0|0
184,72,111938,2,0,B|120:72,2,57.5,2|0|0
400,64,112338,5,6
408,84,112438,1,0
412,108,112538,1,0
416,132,112638,1,0
412,156,112738,1,2
404,176,112838,1,0
392,196,112938,1,0
380,216,113038,1,0
364,232,113138,5,2
344,240,113238,1,0
320,236,113338,1,0
304,220,113438,1,0
292,200,113538,1,2
276,184,113638,1,0
256,172,113738,1,0
236,164,113838,1,0
212,160,113938,5,6
188,160,114038,1,0
164,164,114138,1,0
144,176,114238,1,0
128,192,114338,1,2
116,212,114438,1,0
108,236,114538,1,0
108,260,114638,1,0
108,284,114738,5,2
120,304,114838,1,0
136,320,114938,1,0
156,332,115038,1,0
180,336,115138,1,2
204,332,115238,1,0
224,324,115338,1,0
244,312,115438,1,0
264,300,115538,5,6
276,280,115638,1,0
280,256,115738,1,0
280,232,115838,1,0
276,208,115938,1,2
268,188,116038,1,0
260,168,116138,1,0
252,148,116238,1,0
244,128,116338,5,2
232,108,116438,1,0
216,92,116538,1,0
200,76,116638,1,0
180,64,116738,1,2
156,60,116838,1,0
132,56,116938,1,0
108,52,117038,1,0
84,56,117138,6,0,B|40:112,3,57.5,6|0|0|0
72,108,117538,2,0,B|116:164,3,57.5,2|0|0|0
128,144,117938,2,0,B|172:200,3,57.5,2|0|0|0
184,184,118338,2,0,B|228:240,3,57.5,2|0|0|0
200,240,118738,5,6
196,264,118838,1,0
196,288,118938,1,0
204,308,119038,1,0
220,324,119138,1,2
240,336,119238,1,0
264,340,119338,1,0
284,328,119438,1,0
304,312,119538,5,2
324,304,119638,1,0
348,304,119738,1,0
368,312,119838,1,0
388,320,119938,1,2
412,320,120038,1,0
432,308,120138,1,0
444,288,120238,1,0
452,264,120338,5,6
448,240,120438,1,0
444,216,120538,1,0
436,192,120638,1,0
432,168,120738,1,2
428,144,120838,1,0
424,120,120938,1,0
420,96,121038,1,0
408,76,121138,5,2
388,64,121238,1,0
368,52,121338,1,0
348,44,121438,1,0
324,36,121538,1,2
300,32,121638,1,0
276,28,121738,1,0
252,28,121838,1,0
232,36,121938,6,0,B|176:92,1,57.5,6|0
200,96,122138,2,0,B|144:152,1,57.5,0|0
176,152,122338,2,0,B|232:208,1,57.5,2|0
208,212,122538,2,0,B|264:268,1,57.5,0|0
248,276,122738,5,2
232,292,122838,1,0
212,304,122938,1,0
192,296,123038,1,0
176,280,123138,1,2
164,260,123238,1,0
148,244,123338,1,0
132,228,123438,1,0
112,216,123538,1,0
256,192,123738,12,0,127538
