osu file format v9

[General]
AudioFilename: Snow Goose [jubeat].mp3
AudioLeadIn: 1000
PreviewTime: 24098
Countdown: 0
SampleSet: Normal
StackLeniency: 0.7
Mode: 0
LetterboxInBreaks: 0

[Editor]
Bookmarks: 8498
DistanceSpacing: 0.1
BeatDivisor: 4
GridSize: 4

[Metadata]
Title:Stream Practice Maps
Artist:Various Artists
Creator:NewRulerNA
Version:Snow Goose BPM200
Source:
Tags:Deathstream Deathstreams Syrsa Speedcore 07th Expansion Umineko no Naku Koro ni Mutsuhiko Izumi jubeat Shiraishi new world Beatmania IIDX 17 Sirius Galdeira dj yoshitaka Humanoid 15 Dance Dance Revolution X2 dj TAKA 16 empress Ryu* TAG Mad Machine rog-limitation Snow Goose Shinsekai Almagest MENDES Theory of Eternity V2 Rondo Alla Turca (Ryu* Remix)

[Difficulty]
HPDrainRate:5
CircleSize:4
OverallDifficulty:7
ApproachRate:9
SliderMultiplier:2
SliderTickRate:1

[Events]
//Background and Video events
0,0,"BG5.jpg"
//Break Periods
2,81898,83498
//Storyboard Layer 0 (Background)
//Storyboard Layer 1 (Fail)
//Storyboard Layer 2 (Pass)
//Storyboard Layer 3 (Foreground)
//Storyboard Sound Samples
//Background Colour Transformations
3,100,163,162,255

[TimingPoints]
2498,300,4,1,0,50,1,0
2498,-133.333333333333,4,1,0,50,0,0
8498,-100,4,1,0,50,0,0
84098,-133.333333333333,4,1,0,50,0,0
87698,-100,4,1,0,50,0,0
96023,-100,4,1,0,5,0,0
96698,-100,4,1,0,50,0,0

[Colours]
Combo1 : 255,0,0
Combo2 : 0,0,0
Combo3 : 0,0,255

[HitObjects]
104,320,2498,2,0,B|152:256|152:256|224:256|224:256|224:152|136:152,1,299.999991059304,0|2
408,320,3698,2,0,B|360:256|360:256|288:256|288:256|288:152|376:152,1,299.999991059304,0|2
256,384,4898,2,0,B|256:56,1,299.999991059304,0|2
192,344,6098,6,0,B|192:248|192:248|136:240|96:176|136:112|208:104,1,299.999991059304,0|2
320,344,7298,2,0,B|320:248|320:248|376:240|416:176|376:112|304:104,1,299.999991059304,0|2
256,40,8498,5,2
236,44,8573,1,0
220,56,8648,1,0
204,68,8723,1,0
192,84,8798,1,2
184,104,8873,1,0
176,124,8948,1,0
172,144,9023,1,0
168,164,9098,1,6
400,100,9398,5,2
280,120,9548,1,0
368,200,9698,1,2
364,220,9773,1,0
360,240,9848,1,0
352,260,9923,1,0
340,276,9998,1,2
324,288,10073,1,0
308,300,10148,1,0
288,308,10223,1,0
268,312,10298,1,6
40,236,10598,5,2
124,152,10748,1,0
168,264,10898,1,2
151,275,10973,1,0
132,281,11048,1,0
112,277,11123,1,0
92,271,11198,1,2
73,264,11273,1,0
56,252,11348,1,0
40,236,11423,1,0
31,218,11498,1,6
247,113,11798,5,2
156,36,11948,1,0
160,156,12098,1,2
168,172,12173,1,0
180,188,12248,1,0
192,204,12323,1,0
208,216,12398,1,2
224,228,12473,1,0
240,240,12548,1,0
256,252,12623,1,0
276,260,12698,6,0,B|308:316,3,50,2|0|0|0
316,268,12998,2,0,B|348:324,3,50,2|0|0|0
356,276,13298,2,0,B|388:332,3,50,2|0|0|0
396,284,13598,2,0,B|428:340,3,50,2|0|0|0
440,292,13898,1,2
464,260,13973,1,0
476,224,14048,1,0
476,184,14123,1,0
472,144,14198,1,2
464,104,14273,1,0
448,68,14348,1,0
420,40,14423,1,0
384,24,14498,6,0,B|340:116,1,100,6|0
216,48,14798,1,2
292,164,14948,1,0
160,120,15098,2,0,B|136:176|196:236,1,100,2|0
264,324,15398,2,0,B|288:268|228:208,1,100,2|0
116,276,15698,5,6
100,264,15773,1,0
88,248,15848,1,0
76,232,15923,1,0
68,212,15998,2,0,B|36:156|68:92,1,100,2|0
168,28,16298,1,2
220,156,16448,1,0
308,48,16598,1,6
308,48,16673,1,0
308,48,16748,1,0
416,136,16898,6,2,B|304:160|272:292,1,200
420,268,17348,1,0
296,336,17498,1,2
296,336,17573,1,0
296,336,17648,1,0
160,312,17798,5,2
132,284,17873,1,0
120,248,17948,1,0
116,208,18023,1,0
116,168,18098,1,6
124,128,18173,1,0
144,92,18248,1,0
172,64,18323,1,0
208,44,18398,1,2
248,36,18473,1,0
288,36,18548,1,0
324,48,18623,1,0
356,72,18698,6,0,B|316:104,2,50,2|0|0
384,100,18923,2,0,B|424:68,2,50,0|2|0
404,136,19148,2,0,B|364:168,2,50,0|0|2
420,148,19373,5,0
436,160,19448,1,0
444,180,19523,1,0
448,200,19598,1,2
444,220,19673,1,0
436,240,19748,1,0
424,256,19823,1,0
408,268,19898,6,0,B|316:316,1,100,2|0
204,280,20198,2,0,B|296:232,2,100,2|0|2
204,280,20573,1,0
204,280,20648,1,0
88,248,20798,1,2
76,232,20873,1,0
68,212,20948,1,0
64,192,21023,1,0
64,172,21098,1,2
68,152,21173,1,0
76,136,21248,1,0
88,120,21323,1,0
104,108,21398,1,2
120,96,21473,1,0
140,88,21548,1,0
160,84,21623,1,0
180,84,21698,6,0,B|288:116,1,100,2|0
416,104,21998,2,0,B|384:212,1,100,2|0
380,340,22298,2,0,B|272:308,1,100,2|0
144,320,22598,2,0,B|176:212,1,100,2|0
256,108,22898,5,2
256,128,22973,1,0
256,148,23048,1,0
256,168,23123,1,0
256,188,23198,1,2
256,208,23273,1,0
256,228,23348,1,0
256,248,23423,1,0
256,268,23498,2,0,B|256:344,7,50,2|0|0|0|2|0|0|0
276,308,24098,6,0,B|340:308|360:228,1,100,2|0
180,196,24398,2,0,B|116:196|96:276,1,100,2|0
244,368,24698,1,2
272,368,24773,1,0
300,364,24848,1,0
324,348,24923,1,0
336,320,24998,1,2
344,292,25073,1,0
352,264,25148,1,0
360,236,25223,1,0
368,208,25298,6,0,B|400:104,1,100,2|0
276,40,25598,2,0,B|244:144,1,100,2|0
132,56,25898,1,2
108,76,25973,1,0
92,104,26048,1,0
84,132,26123,1,0
84,160,26198,1,2
88,188,26273,1,0
96,216,26348,1,0
108,244,26423,1,0
124,268,26498,6,2,B|240:328|308:184,1,200
180,164,26948,1,0
60,144,27098,1,2
48,160,27173,1,0
40,176,27248,1,0
32,196,27323,1,0
28,216,27398,1,2
28,236,27473,1,0
28,256,27548,1,0
32,276,27623,1,0
36,296,27698,6,2,B|56:344|56:344|128:380|212:336,1,200
332,140,28298,2,2,B|312:92|312:92|240:56|156:100,1,200
276,308,28898,5,2
296,320,28973,1,0
320,328,29048,1,0
344,332,29123,1,0
368,324,29198,1,2
388,308,29273,1,0
404,288,29348,1,0
408,264,29423,1,0
408,240,29498,6,0,B|408:136,1,100,2|0
276,96,29798,2,0,B|276:200,1,100,2|0
144,244,30098,1,2
144,220,30173,1,0
144,196,30248,1,0
144,172,30323,1,0
144,148,30398,6,0,B|176:104,3,50,2|0|0|0
148,104,30698,2,0,B|180:60,3,50,2|0|0|0
152,60,30998,2,0,B|184:16,3,50,2|0|0|0
156,20,31298,2,2,B|32:36|24:184,1,200
24,176,31673,1,0
24,200,31748,1,0
28,224,31823,1,0
32,248,31898,1,2
40,272,31973,1,0
56,292,32048,1,0
76,308,32123,1,0
96,320,32198,1,2
116,332,32273,1,0
140,332,32348,6,0,B|172:256,1,50
176,332,32498,2,0,B|208:256,1,50,2|0
212,332,32648,2,0,B|244:256,1,50
248,332,32798,2,0,B|280:256,1,50,2|0
280,336,32948,6,0,B|312:260,1,50
316,336,33098,2,0,B|348:260,1,50,2|0
352,336,33248,2,0,B|384:260,1,50
388,336,33398,1,2
416,328,33473,1,0
440,312,33548,1,0
452,284,33623,1,0
456,256,33698,6,0,B|404:220,3,50,2|0|0|0
444,216,33998,2,0,B|392:180,3,50,2|0|0|0
432,176,34298,2,0,B|380:140,3,50,2|0|0|0
420,136,34598,2,0,B|368:100,3,50,2|0|0|0
404,88,34898,5,2
392,68,34973,1,0
372,52,35048,1,0
348,48,35123,1,0
324,48,35198,1,2
300,52,35273,1,0
280,64,35348,1,0
268,84,35423,1,0
260,108,35498,5,2
260,132,35573,1,0
268,156,35648,1,0
276,180,35723,1,0
284,204,35798,1,2
276,228,35873,1,0
260,244,35948,1,0
236,252,36023,1,0
212,248,36098,5,2
188,236,36173,1,0
168,220,36248,1,0
152,200,36323,1,0
144,176,36398,1,2
144,152,36473,1,0
148,128,36548,1,0
144,104,36623,1,0
132,84,36698,5,2
116,68,36773,1,0
92,56,36848,1,0
68,52,36923,1,0
44,60,36998,1,2
24,76,37073,1,0
16,100,37148,1,0
16,124,37223,1,0
28,144,37298,5,2
44,164,37373,1,0
52,188,37448,1,0
48,212,37523,1,0
44,236,37598,1,2
52,260,37673,1,0
64,280,37748,1,0
80,300,37823,1,0
100,316,37898,5,2
112,340,37973,1,0
132,352,38048,1,0
156,348,38123,1,0
176,332,38198,1,2
192,312,38273,1,0
212,296,38348,1,0
236,288,38423,1,0
260,292,38498,5,2
280,304,38573,1,0
300,320,38648,1,0
324,328,38723,1,0
348,320,38798,1,2
364,300,38873,1,0
376,276,38948,1,0
376,252,39023,1,0
372,228,39098,5,2
364,204,39173,1,0
364,180,39248,1,0
372,156,39323,1,0
388,136,39398,1,2
404,116,39473,1,0
412,92,39548,1,0
408,68,39623,1,0
384,60,39698,6,0,B|332:88,3,50,2|0|0|0
320,72,39998,2,0,B|277:112,3,50,2|0|0|0
260,96,40298,2,0,B|228:146,3,50,2|0|0|0
208,136,40598,2,0,B|191:192,3,50,2|0|0|0
168,184,40898,5,2
152,204,40973,1,0
144,228,41048,1,0
144,252,41123,1,0
144,276,41198,5,2
152,300,41273,1,0
164,320,41348,1,0
184,336,41423,1,0
208,348,41498,5,2
232,352,41573,1,0
252,336,41648,1,0
268,316,41723,1,0
284,296,41798,5,2
308,288,41873,1,0
332,288,41948,1,0
356,300,42023,1,0
376,312,42098,6,0,B|408:260,3,50,2|0|0|0
408,244,42398,2,0,B|372:180,3,50,2|0|0|0
380,176,42698,2,0,B|400:112,3,50,2|0|0|0
412,112,42998,2,0,B|376:64,3,50,2|0|0|0
360,60,43298,5,2
336,52,43373,1,0
312,52,43448,1,0
180,124,43598,1,2
192,144,43673,1,0
212,160,43748,1,0
332,248,43898,5,2
316,268,43973,1,0
296,284,44048,1,0
276,296,44123,1,0
252,308,44198,1,2
228,312,44273,1,0
204,312,44348,1,0
180,312,44423,1,0
156,308,44498,6,2,B|68:248|68:116,1,200
356,76,45098,2,2,B|444:136|444:268,1,200
240,88,45698,5,2
372,180,45848,1,0
212,204,45998,1,2
316,80,46148,1,0
168,24,46298,5,2
144,28,46373,1,0
124,40,46448,1,0
104,56,46523,1,0
88,76,46598,1,2
76,96,46673,1,0
68,120,46748,1,0
60,144,46823,1,0
56,168,46898,6,2,B|76:264|76:264|168:344,1,200
456,216,47498,2,2,B|436:120|436:120|344:40,1,200
164,92,48098,5,2
188,84,48173,1,0
212,80,48248,1,0
236,84,48323,1,0
260,88,48398,1,2
284,96,48473,1,0
304,108,48548,1,0
324,124,48623,1,0
340,144,48698,5,2
352,168,48773,1,0
360,192,48848,1,0
368,216,48923,1,0
372,240,48998,1,2
372,264,49073,1,0
364,288,49148,1,0
348,308,49223,1,0
324,312,49298,6,2,B|176:312|176:312|144:256,1,200
188,72,49898,2,2,B|336:72|336:72|368:128,1,200
212,280,50498,6,0,B|152:280,1,50,2|0
200,240,50648,2,0,B|140:240,1,50
188,200,50798,2,0,B|128:200,1,50,2|0
176,160,50948,2,0,B|116:160,1,50
164,120,51098,6,0,B|224:120,1,50,2|0
240,152,51248,2,0,B|300:152,1,50,0|0
308,188,51398,2,0,B|368:188,1,50,2|0
376,224,51548,2,0,B|436:224,1,50,0|0
388,264,51698,6,0,B|388:324,1,50,2|0
348,276,51848,2,0,B|348:336,1,50
308,288,51998,2,0,B|308:348,1,50,2|0
268,300,52148,2,0,B|268:360,1,50
228,312,52298,6,0,B|228:252,1,50,2|0
188,300,52448,2,0,B|188:240,1,50
148,288,52598,2,0,B|148:228,1,50,2|0
108,276,52748,2,0,B|108:216,1,50
64,260,52898,5,2
40,244,52973,1,0
28,216,53048,1,0
24,188,53123,1,0
24,160,53198,1,2
36,132,53273,1,0
52,108,53348,1,0
72,84,53423,1,0
100,72,53498,6,0,B|128:12,3,50,2|0|0|0
136,64,53798,2,0,B|164:4,3,50,2|0|0|0
172,72,54098,5,2
196,88,54173,1,0
216,112,54248,1,0
240,132,54323,1,0
268,136,54398,1,2
292,116,54473,1,0
316,96,54548,1,0
340,80,54623,1,0
368,72,54698,6,0,B|400:16,3,50,2|0|0|0
396,88,54998,2,0,B|440:56,3,50,2|0|0|0
416,120,55298,5,2
408,148,55373,1,0
388,172,55448,1,0
372,196,55523,1,0
372,224,55598,1,2
360,252,55673,1,0
348,280,55748,1,0
320,284,55823,1,0
292,284,55898,6,0,B|300:344,3,50,2|0|0|0
256,288,56198,2,0,B|240:344,3,50,2|0|0|0
220,280,56498,5,2
192,276,56573,1,0
164,260,56648,1,0
144,236,56723,1,0
136,208,56798,1,2
148,180,56873,1,0
172,164,56948,1,0
200,160,57023,1,0
228,152,57098,6,0,B|264:100,3,50,2|0|0|0
264,144,57398,2,0,B|300:92,3,50,2|0|0|0
292,164,57698,5,2
304,192,57773,1,0
320,220,57848,1,0
344,236,57923,1,0
372,232,57998,1,2
396,212,58073,1,0
424,216,58148,1,0
452,208,58223,1,0
468,180,58298,5,2
468,152,58373,1,0
468,124,58448,1,0
456,96,58523,1,0
436,76,58598,1,2
408,88,58673,1,0
380,96,58748,1,0
352,88,58823,1,0
324,76,58898,6,0,B|296:32,2,50,2|0|0
224,60,59198,1,2
224,60,59273,1,0
224,60,59348,1,0
244,160,59498,1,2
244,160,59573,1,0
244,160,59648,1,0
152,124,59798,1,2
132,136,59873,1,0
120,160,59948,1,0
112,184,60023,1,0
108,208,60098,6,0,B|32:208,1,50,2|0
104,228,60248,2,0,B|29:241,1,50
104,256,60398,2,0,B|32:281,1,50,2|0
108,280,60548,2,0,B|42:318,1,50
116,304,60698,2,0,B|67:362,1,50,2|0
132,324,60848,2,0,B|106:395,1,50
152,340,60998,5,2
172,344,61073,1,0
192,344,61148,1,0
212,340,61223,1,0
228,332,61298,1,2
240,316,61373,1,0
252,300,61448,1,0
264,284,61523,1,0
276,268,61598,5,2
288,252,61673,1,0
292,232,61748,1,0
288,212,61823,1,0
276,196,61898,1,2
264,180,61973,1,0
256,160,62048,1,0
256,140,62123,1,0
260,120,62198,5,2
268,100,62273,1,0
280,84,62348,1,0
296,72,62423,1,0
316,72,62498,6,0,B|368:28,3,50,6|0|0|0
352,84,62798,2,0,B|404:40,3,50,2|0|0|0
388,96,63098,1,2
408,100,63173,1,0
424,112,63248,1,0
432,128,63323,1,0
440,148,63398,1,2
440,168,63473,1,0
436,188,63548,1,0
336,164,63698,5,6
320,172,63773,1,0
304,184,63848,1,0
292,200,63923,1,0
288,220,63998,1,2
296,236,64073,1,0
300,256,64148,1,0
296,276,64223,1,0
284,292,64298,1,2
268,308,64373,1,0
252,320,64448,1,0
236,328,64523,1,0
216,332,64598,1,2
196,328,64673,1,0
176,324,64748,1,0
104,256,64898,6,0,B|56:232,3,50,6|0|0|0
100,212,65198,2,0,B|52:188,3,50,2|0|0|0
72,176,65498,1,2
64,160,65573,1,0
56,140,65648,1,0
56,120,65723,1,0
60,100,65798,1,2
68,84,65873,1,0
84,68,65948,1,0
184,128,66098,5,6
196,112,66173,1,0
208,96,66248,1,0
224,84,66323,1,0
244,80,66398,1,2
264,76,66473,1,0
284,76,66548,1,0
304,76,66623,1,0
324,80,66698,1,2
344,88,66773,1,0
360,100,66848,1,0
376,112,66923,1,0
380,132,66998,1,2
372,148,67073,1,0
368,168,67148,1,0
420,256,67298,6,0,B|376:300,3,50,6|0|0|0
372,264,67598,2,0,B|328:308,3,50,2|0|0|0
328,272,67898,2,0,B|276:316,3,50,2|0|0|0
272,280,68198,2,0,B|228:324,3,50,2|0|0|0
220,300,68498,5,6
180,292,68573,1,0
140,284,68648,1,0
164,208,68798,1,2
124,200,68873,1,0
84,192,68948,1,0
120,120,69098,1,2
80,112,69173,1,0
40,104,69248,1,0
88,40,69398,5,2
116,28,69473,1,0
144,24,69548,1,0
172,20,69623,1,0
200,24,69698,1,6
228,32,69773,1,0
256,44,69848,1,0
276,64,69923,1,0
292,88,69998,6,0,B|352:52,3,50,2|0|0|0
296,108,70298,2,0,B|356:144,3,50,2|0|0|0
280,148,70598,2,0,B|220:112,3,50,2|0|0|0
276,168,70898,6,0,B|216:204,3,50,2|0|0|0
288,220,71198,2,0,B|228:256,3,50,2|0|0|0
304,264,71498,2,0,B|244:300,3,50,2|0|0|0
320,308,71798,2,0,B|260:344,3,50,2|0|0|0
248,340,72098,5,6
140,236,72248,1,0
192,96,72398,1,2
192,96,72473,1,0
192,96,72548,1,0
336,52,72698,2,2,B|400:256,1,200
256,192,73148,1,0
120,132,73298,5,2
120,132,73373,1,0
120,132,73448,2,0,B|120:272,1,100,0|2
392,252,73898,1,2
392,252,73973,1,0
392,252,74048,2,0,B|392:112,1,100,0|2
256,76,74498,5,6
328,208,74648,1,0
248,332,74798,1,2
248,332,74873,1,0
248,332,74948,1,0
144,224,75098,2,2,B|16:240|64:380,1,200
60,368,75548,1,0
196,328,75698,5,2
196,328,75773,1,0
196,328,75848,2,0,B|336:328,1,100,0|2
316,56,76298,1,2
316,56,76373,1,0
316,56,76448,2,0,B|176:56,1,100,0|2
76,316,76898,5,6
44,168,77048,1,0
180,236,77198,1,2
180,236,77273,1,0
180,236,77348,1,0
44,168,77498,2,2,B|80:44|220:36,1,200
256,172,77948,1,0
396,120,78098,5,2
396,120,78173,1,0
396,120,78248,2,0,B|320:44,1,100,0|2
116,264,78698,1,2
116,264,78773,1,0
116,264,78848,2,0,B|192:340,1,100,0|2
256,36,79298,5,6
256,44,79373,1,0
256,52,79448,1,0
256,60,79523,1,0
256,68,79598,1,2
256,76,79673,1,0
256,84,79748,1,0
256,92,79823,1,0
256,100,79898,5,2
256,108,79973,1,0
256,116,80048,1,0
256,124,80123,1,0
256,132,80198,1,2
256,140,80273,1,0
256,148,80348,1,0
256,156,80423,1,0
256,164,80498,5,2
256,172,80573,1,0
256,180,80648,1,0
256,188,80723,1,0
256,196,80798,1,2
256,204,80873,1,0
256,212,80948,1,0
256,220,81023,1,0
256,228,81098,5,2
256,236,81173,1,0
256,244,81248,1,0
256,252,81323,1,0
256,260,81398,1,2
256,268,81473,1,0
256,276,81548,1,0
256,284,81623,1,0
256,292,81698,1,2
80,192,84098,6,4,B|112:72|112:72|256:256|400:72|400:72|432:192,1,599.999982118607
432,192,86498,2,4,B|392:312|392:312|256:120|112:312|112:312|72:176,1,599.999982118607
72,176,87848,1,0
64,160,87998,1,0
56,144,88148,1,0
48,128,88298,5,2
44,120,88373,1,0
48,112,88448,1,0
52,104,88523,1,0
56,96,88598,1,2
64,88,88673,1,0
72,80,88748,1,0
80,76,88823,1,0
88,72,88898,6,0,B|128:16,2,50,2|0|0
204,104,89198,2,0,B|244:160,2,50,2|0|0
316,60,89498,1,2
336,76,89573,1,0
344,100,89648,1,0
348,124,89723,1,0
348,148,89798,1,2
348,172,89873,1,0
340,196,89948,1,0
332,220,90023,1,0
316,240,90098,5,2
300,260,90173,1,0
280,276,90248,1,0
256,284,90323,1,0
232,288,90398,2,0,B|192:356,3,50,2|0|0|0
192,312,90698,2,0,B|152:380,3,50,2|0|0|0
156,332,90998,2,0,B|116:264,3,50,2|0|0|0
116,308,91298,2,0,B|76:240,3,50,2|0|0|0
76,284,91598,5,2
52,284,91673,1,0
28,276,91748,1,0
20,252,91823,1,0
28,228,91898,2,0,B|72:192,3,50,2|0|0|0
44,184,92198,2,0,B|88:148,3,50,2|0|0|0
60,140,92498,5,2
64,116,92573,1,0
80,96,92648,1,0
100,80,92723,1,0
124,72,92798,1,2
148,68,92873,1,0
172,68,92948,1,0
196,68,93023,1,0
220,68,93098,6,0,B|316:24,1,100,2|0
440,100,93398,2,0,B|344:144,1,100,2|0
444,260,93698,1,2
420,272,93773,1,0
396,284,93848,1,0
376,296,93923,1,0
352,308,93998,2,0,B|248:368,1,100,2|0
132,284,94298,2,0,B|236:224,1,100,2|0
68,216,94598,5,2
80,188,94673,1,0
96,164,94748,1,0
116,144,94823,1,0
140,128,94898,1,2
168,120,94973,1,0
196,112,95048,1,0
224,112,95123,1,0
248,132,95198,1,2
268,156,95273,1,0
292,176,95348,1,0
320,176,95423,1,0
348,168,95498,1,2
368,148,95573,1,0
376,120,95648,1,0
400,104,95723,1,0
428,96,95798,1,2
448,120,95873,1,0
460,148,95948,2,0,B|460:264,1,100
256,308,96698,5,0
256,304,96773,1,0
256,300,96848,1,0
256,296,96923,1,0
256,292,96998,1,0
256,288,97073,1,0
256,284,97148,1,0
256,280,97223,1,0
256,256,97598,5,4
