osu file format v9

[General]
AudioFilename: shinsekai.mp3
AudioLeadIn: 1000
PreviewTime: 34829
Countdown: 0
SampleSet: Normal
StackLeniency: 0.7
Mode: 0
LetterboxInBreaks: 0

[Editor]
Bookmarks: 19906,29855,31098,42290
DistanceSpacing: 0.4
BeatDivisor: 4
GridSize: 4

[Metadata]
Title:Stream Practice Maps
Artist:Various Artists
Creator:NewRulerNA
Version:Shinsekai BPM193
Source:
Tags:electronic instrumental jubeat dance dance revolution x2 ddr beatmania iidx 15 dj troopers 17 sirius うみねこのなく頃に散 umineko no naku koro ni ryu☆ taka tag humanoid galderia shiraishi しらいし 新世界 mutsuhiko izumi xaki 07th expansion

[Difficulty]
HPDrainRate:4
CircleSize:4
OverallDifficulty:7
ApproachRate:8
SliderMultiplier:2
SliderTickRate:1

[Events]
//Background and Video events
0,0,"BG1.jpg"
//Break Periods
//Storyboard Layer 0 (Background)
//Storyboard Layer 1 (Fail)
//Storyboard Layer 2 (Pass)
//Storyboard Layer 3 (Foreground)
//Storyboard Sound Samples
//Background Colour Transformations
3,100,163,162,255

[TimingPoints]
1254,310.880829015544,4,1,0,70,1,0
1254,-133.333333333333,4,1,0,30,0,0
9958,-100,4,1,0,70,0,0
28611,-100,4,1,0,50,0,0
67160,-100,4,1,0,45,0,0
76487,-100,4,1,0,50,0,0
77108,-100,4,1,0,55,0,0
77730,-100,4,1,0,60,0,0
78663,-100,4,1,0,70,0,0
89699,-100,4,1,0,5,0,0

[Colours]
Combo1 : 200,0,0
Combo2 : 0,200,0
Combo3 : 170,170,255
Combo4 : 200,0,200
Combo5 : 255,255,0

[HitObjects]
176,80,1254,6,0,B|24:32,1,149.999995529652,4|0
176,192,1875,2,0,B|24:144,2,149.999995529652,0|0|4
56,368,2808,2,0,B|112:288|200:288,1,149.999995529652
336,80,3741,6,0,B|488:32,1,149.999995529652,4|0
336,192,4362,2,0,B|488:144,2,149.999995529652,0|0|4
456,368,5295,2,0,B|400:288|312:288,2,149.999995529652
256,304,6228,5,4
256,64,7160,6,4,B|256:240,1,149.999995529652,0|4
256,320,9026,5,0
256,216,9492,1,4
144,268,9958,5,2
128,256,10036,1,0
116,240,10114,1,0
108,224,10191,1,0
100,204,10269,1,2
96,184,10347,1,0
92,164,10424,1,0
88,144,10502,1,0
88,124,10580,5,2
92,104,10658,1,0
100,84,10735,1,0
112,68,10813,1,0
128,56,10891,1,2
148,48,10969,1,0
168,44,11046,1,0
188,40,11124,1,0
208,40,11202,6,0,B|224:112,3,50,2|0|0|0
252,48,11513,2,0,B|268:120,3,50,2|0|0|0
296,56,11823,2,0,B|312:128,3,50,2|0|0|0
340,64,12134,2,0,B|356:136,3,50,2|0|0|0
388,76,12445,5,2
408,80,12523,1,0
424,92,12601,1,0
436,108,12678,1,0
444,128,12756,1,2
448,148,12834,1,0
452,168,12912,1,0
456,188,12989,1,0
460,208,13067,5,2
456,228,13145,1,0
452,248,13222,1,0
440,264,13300,1,0
428,280,13378,1,2
412,292,13456,1,0
392,300,13533,1,0
372,304,13611,1,0
352,304,13689,6,0,B|328:252,3,50,2|0|0|0
304,300,14000,2,0,B|280:248,3,50,2|0|0|0
252,292,14310,2,0,B|228:240,3,50,2|0|0|0
200,284,14621,2,0,B|176:232,3,50,2|0|0|0
148,280,14932,5,2
128,276,15010,1,0
112,264,15088,1,0
100,248,15165,1,0
88,232,15243,1,2
76,216,15321,1,0
68,196,15399,1,0
68,176,15476,1,0
72,156,15554,5,2
80,136,15632,1,0
92,120,15709,1,0
108,104,15787,1,0
124,92,15865,1,2
140,80,15943,1,0
160,76,16020,1,0
180,72,16098,1,0
200,68,16176,5,2
220,64,16253,1,0
240,60,16331,1,0
260,56,16409,1,0
280,52,16487,1,2
300,52,16564,1,0
320,56,16642,1,0
340,64,16720,1,0
356,76,16798,5,2
372,88,16875,1,0
384,104,16953,1,0
396,120,17031,1,0
404,136,17108,1,2
412,156,17186,1,0
420,176,17264,1,0
428,196,17342,1,0
436,216,17419,6,0,B|460:284,3,50,2|0|0|0
412,244,17730,2,0,B|436:312,3,50,2|0|0|0
388,272,18041,2,0,B|412:340,3,50,2|0|0|0
364,300,18352,2,0,B|388:368,3,50,2|0|0|0
340,328,18663,5,2
320,336,18741,1,0
300,336,18818,1,0
280,332,18896,1,0
264,324,18974,1,2
248,312,19051,1,0
232,300,19129,1,0
216,288,19207,1,0
200,276,19285,5,2
184,264,19362,1,0
168,252,19440,1,0
152,240,19518,1,0
136,228,19595,1,2
120,216,19673,1,0
108,200,19751,1,0
96,184,19829,1,0
88,164,19906,6,0,B|96:100,3,50,6|0|0|0
104,96,20217,2,0,B|144:60,3,50,2|0|0|0
160,60,20528,2,0,B|232:44,3,50,2|0|0|0
228,52,20839,2,0,B|284:60,3,50,2|0|0|0
296,64,21150,5,2
316,68,21228,1,0
332,80,21305,1,0
344,96,21383,1,0
348,116,21461,1,2
348,136,21538,1,0
340,156,21616,1,0
328,172,21694,1,0
312,184,21772,5,2
292,188,21849,1,0
272,184,21927,1,0
256,172,22005,1,0
240,164,22083,1,2
220,164,22160,1,0
200,172,22238,1,0
180,180,22316,1,0
168,196,22393,5,2
156,212,22471,1,0
148,228,22549,1,0
144,248,22627,1,0
144,268,22704,1,2
144,288,22782,1,0
148,308,22860,1,0
156,328,22937,1,0
172,340,23015,5,2
192,348,23093,1,0
212,352,23171,1,0
232,352,23248,1,0
252,348,23326,1,2
268,340,23404,1,0
284,328,23481,1,0
300,316,23559,1,0
316,304,23637,5,2
332,292,23715,1,0
344,276,23792,1,0
356,260,23870,1,0
364,244,23948,1,2
372,228,24026,1,0
380,208,24103,1,0
384,188,24181,1,0
388,168,24259,5,2
388,148,24336,1,0
384,128,24414,1,0
380,108,24492,1,0
372,88,24570,1,2
360,72,24647,1,0
348,56,24725,1,0
332,40,24803,1,0
316,28,24880,6,0,B|264:80,3,50,6|0|0|0
268,76,25191,1,2
256,92,25269,1,0
248,112,25347,1,0
240,132,25424,1,0
232,152,25502,6,0,B|160:124,3,50,6|0|0|0
168,124,25813,1,2
156,108,25891,1,0
144,92,25969,1,0
132,76,26046,1,0
116,68,26124,6,0,B|68:112,3,50,6|0|0|0
68,120,26435,1,2
60,140,26513,1,0
56,160,26590,1,0
52,180,26668,1,0
56,200,26746,5,2
64,220,26823,1,0
72,240,26901,1,0
84,256,26979,1,0
96,272,27057,1,2
112,284,27134,1,0
128,296,27212,1,0
144,308,27290,1,0
160,320,27367,6,0,B|212:336,3,50,2|0|0|0
204,316,27678,2,0,B|256:332,3,50,2|0|0|0
248,312,27989,2,0,B|300:328,3,50,2|0|0|0
288,308,28300,2,0,B|340:324,3,50,2|0|0|0
324,304,28611,5,2
344,296,28689,1,0
360,284,28766,1,0
372,268,28844,1,0
384,252,28922,1,2
392,236,29000,1,0
400,220,29077,1,0
400,200,29155,1,0
392,180,29233,5,2
372,172,29310,1,0
352,168,29388,1,0
336,156,29466,1,0
324,140,29544,1,2
320,120,29621,1,0
324,100,29699,1,0
320,80,29777,1,0
304,68,29855,6,0,B|252:104,15,50,4|0|0|0|2|0|0|0|2|0|0|0|2|0|0|0
252,112,31098,2,0,B|200:76,15,50,4|0|0|0|2|0|0|0|2|0|0|0|2|0|0|0
192,76,32342,2,0,B|140:112,15,50,4|0|0|0|2|0|0|0|2|0|0|0|2|0|0|0
140,88,33585,2,0,B|112:145,15,50,4|0|0|0|2|0|0|0|2|0|0|0|2|0|0|0
104,116,34829,5,4
88,124,34906,1,0
72,136,34984,1,0
64,156,35062,1,0
56,176,35140,1,2
52,196,35217,1,0
56,216,35295,1,0
60,236,35373,1,0
72,252,35450,2,0,B|112:260|120:288,7,50,2|0|0|0|2|0|0|0
128,292,36072,5,4
140,308,36150,1,0
156,320,36228,1,0
176,328,36305,1,0
196,328,36383,1,2
216,324,36461,1,0
232,312,36538,1,0
248,300,36616,1,0
268,292,36694,2,0,B|296:272|296:236,7,50,2|0|0|0|2|0|0|0
284,236,37316,5,4
280,216,37393,1,0
288,196,37471,1,0
304,184,37549,1,0
316,168,37627,1,2
328,152,37704,1,0
340,136,37782,1,0
352,120,37860,1,0
368,108,37937,2,0,B|392:84|424:88,7,50,2|0|0|0|2|0|0|0
432,88,38559,5,4
452,92,38637,1,0
468,104,38715,1,0
484,116,38792,1,0
492,136,38870,1,2
496,156,38948,1,0
492,176,39026,1,0
480,192,39103,1,0
464,204,39181,2,0,B|440:268,7,50,2|0|0|0|2|0|0|0
436,232,39803,5,4
420,244,39880,1,0
400,244,39958,1,0
384,232,40036,1,0
368,220,40114,1,2
348,212,40191,1,0
328,212,40269,1,0
308,216,40347,1,0
292,228,40424,2,0,B|240:288,7,50,2|0|0|0|2|0|0|0
240,272,41046,5,4
224,284,41124,1,0
204,280,41202,1,0
188,268,41280,1,0
176,252,41357,1,2
168,232,41435,1,0
160,216,41513,1,0
148,200,41590,1,0
140,176,41668,2,0,B|168:116,7,50,2|0|0|0|2|0|0|0
176,112,42290,6,0,B|224:84,7,50,4|0|0|0|2|0|0|0
244,84,42912,2,0,B|300:76,7,50,4|0|0|0|2|0|0|0
316,80,43533,2,0,B|380:100,7,50,4|0|0|0|2|0|0|0
384,108,44155,2,0,B|400:172,7,50,4|0|0|0|2|0|0|0
400,180,44777,6,0,B|388:256,3,50,4|0|0|0
372,200,45088,2,0,B|360:276,3,50,4|0|0|0
344,220,45399,2,0,B|332:296,3,50,4|0|0|0
316,240,45709,2,0,B|304:316,3,50,4|0|0|0
288,260,46020,6,0,B|220:260,1,50,2|0
264,236,46176,2,0,B|192:236,1,50
236,208,46331,2,0,B|164:208,1,50,2|0
208,232,46487,2,0,B|140:232,1,50
184,260,46643,6,0,B|112:260,1,50,2|0
156,232,46798,2,0,B|88:232,1,50
132,208,46954,2,0,B|60:208,1,50,2|0
108,232,47108,2,0,B|40:232,1,50
32,256,47264,5,2
28,276,47342,1,0
28,296,47419,1,0
32,316,47497,1,0
44,332,47575,1,2
60,344,47652,1,0
80,348,47730,1,0
100,344,47808,1,0
116,332,47886,5,2
132,320,47963,1,0
148,308,48041,1,0
164,296,48119,1,0
180,284,48197,1,2
200,276,48274,1,0
220,276,48352,1,0
240,280,48430,1,0
260,288,48507,5,2
276,300,48585,1,0
288,316,48663,1,0
300,332,48741,1,0
312,348,48818,1,2
332,356,48896,1,0
352,360,48974,1,0
372,352,49051,1,0
388,340,49129,5,2
400,324,49207,1,0
408,304,49285,1,0
412,284,49362,1,0
416,264,49440,1,2
420,244,49518,1,0
424,224,49595,1,0
424,204,49673,1,0
424,184,49751,5,2
424,164,49829,1,0
420,144,49906,1,0
412,128,49984,1,0
400,112,50062,1,2
388,96,50140,1,0
376,80,50217,1,0
360,68,50295,1,0
344,56,50373,5,2
324,60,50450,1,0
312,76,50528,1,0
300,92,50606,1,0
280,100,50684,1,2
264,88,50761,1,0
252,72,50839,1,0
240,56,50917,1,0
224,48,50994,5,2
204,44,51072,1,0
184,48,51150,1,0
164,56,51228,1,0
144,64,51305,1,2
128,76,51383,1,0
116,92,51461,1,0
104,108,51538,1,0
92,124,51616,5,2
84,144,51694,1,0
80,164,51772,1,0
80,184,51849,1,0
88,204,51927,1,2
100,220,52005,1,0
120,224,52083,1,0
140,216,52160,1,0
160,208,52238,5,2
176,216,52316,1,0
188,232,52393,1,0
192,252,52471,1,0
188,272,52549,1,2
180,292,52627,1,0
184,312,52704,1,0
200,324,52782,1,0
220,332,52860,5,2
240,336,52937,1,0
260,336,53015,1,0
280,336,53093,1,0
300,336,53171,1,2
320,336,53248,1,0
340,332,53326,1,0
356,324,53404,1,0
372,312,53481,5,2
388,300,53559,1,0
400,284,53637,1,0
412,268,53715,1,0
420,248,53792,1,2
428,228,53870,1,0
432,208,53948,1,0
436,188,54026,1,0
432,168,54103,5,2
428,148,54181,1,0
424,128,54259,1,0
416,112,54336,1,0
404,96,54414,1,2
392,80,54492,1,0
376,68,54570,1,0
360,56,54647,1,0
340,48,54725,5,2
320,44,54803,1,0
300,40,54880,1,0
280,36,54958,1,0
260,32,55036,1,2
244,44,55114,1,0
232,60,55191,1,0
216,76,55269,1,0
204,92,55347,5,2
192,108,55424,1,0
176,124,55502,1,0
160,140,55580,1,0
148,156,55658,1,2
136,172,55735,1,0
124,188,55813,1,0
108,204,55891,1,0
96,220,55969,6,0,B|40:292,3,50,2|0|0|0
108,252,56279,2,0,B|52:324,3,50,2|0|0|0
120,284,56590,2,0,B|64:356,3,50,2|0|0|0
132,316,56900,2,0,B|76:388,3,50,2|0|0|0
148,352,57212,6,0,B|232:352|292:256,1,150,2|0
280,316,57523,2,0,B|339:256|313:146,1,150,2|0
352,188,57834,2,0,B|352:104|255:44,1,150,2|0
314,56,58145,2,0,B|254:-3|144:22,1,150,2|0
204,40,58456,6,0,B|120:40|60:136,1,150,2|0
72,76,58767,2,0,B|12:135|38:245,1,150,2|0
0,204,59078,2,0,B|0:287|96:348,1,150,2|0
38,336,59389,2,0,B|97:395|207:369,1,150,2|0
148,352,59699,6,0,B|232:352|292:256,1,150,2|0
280,316,60010,2,0,B|339:256|313:146,1,150,2|0
352,188,60321,2,0,B|352:104|255:44,1,150,2|0
314,56,60632,2,0,B|254:-3|144:22,1,150,2|0
204,40,60943,6,0,B|120:40|60:136,1,150,2|0
72,76,61254,2,0,B|12:135|38:245,1,150,2|0
0,204,61564,2,0,B|0:287|96:348,1,150,2|0
38,336,61876,2,0,B|97:395|207:369,1,150,2|0
164,344,62186,6,0,B|312:344,1,150,2|0
320,308,62497,2,0,B|172:308,1,150,2|0
180,276,62808,2,0,B|328:276,1,150,2|0
336,240,63119,2,0,B|188:240,1,150,2|0
156,224,63430,6,0,B|88:212,2,50,2|0|0
184,160,63741,2,0,B|131:115,2,50,2|0|0
244,124,64051,2,0,B|220:59,2,50,2|0|0
313,116,64362,2,0,B|325:47,2,50,2|0|0
288,236,64673,5,2
288,236,64751,1,0
288,236,64829,1,0
420,192,64984,5,2
420,192,65062,1,0
420,192,65140,1,0
392,328,65295,5,2
392,328,65373,1,0
392,328,65451,1,0
288,236,65606,5,2
288,236,65684,1,0
288,236,65762,1,0
212,352,65917,5,2
196,344,65994,1,0
176,336,66072,1,0
160,324,66150,1,0
148,308,66228,1,2
140,292,66305,1,0
132,272,66383,1,0
128,252,66461,1,0
128,232,66538,5,2
128,212,66616,1,0
132,192,66694,1,0
140,172,66772,1,0
148,152,66849,1,2
156,136,66927,1,0
172,120,67005,1,0
188,112,67083,1,0
204,104,67160,6,0,B|236:40,1,50,2|0
232,104,67316,2,0,B|264:40,1,50,0|0
264,104,67471,2,0,B|296:40,1,50,2|0
292,104,67627,2,0,B|324:40,1,50,0|0
320,104,67782,6,0,B|352:168,1,50,2|0
348,104,67938,2,0,B|380:168,1,50,0|0
380,104,68093,2,0,B|412:168,1,50,2|0
408,104,68249,2,0,B|440:168,1,50,0|0
392,176,68404,6,0,B|360:112,1,50,2|0
364,176,68560,2,0,B|332:112,1,50,0|0
332,176,68715,2,0,B|300:112,1,50,2|0
304,176,68871,2,0,B|272:112,1,50,0|0
272,176,69026,6,0,B|240:240,1,50,2|0
244,176,69182,2,0,B|212:240,1,50,0|0
212,176,69337,2,0,B|180:240,1,50,2|0
184,176,69493,2,0,B|152:240,1,50,0|0
156,176,69647,6,0,B|124:112,1,50,2|0
128,176,69803,2,0,B|96:112,1,50,0|0
96,176,69958,2,0,B|64:112,1,50,2|0
68,176,70114,2,0,B|36:112,1,50,0|0
44,176,70269,6,0,B|-20:208,1,50,2|0
44,204,70425,2,0,B|-20:236,1,50,0|0
44,236,70580,2,0,B|-20:268,1,50,2|0
44,264,70736,2,0,B|-20:296,1,50,0|0
44,292,70891,6,0,B|76:356,1,50,2|0
72,292,71047,2,0,B|104:356,1,50,0|0
104,292,71202,2,0,B|136:356,1,50,2|0
132,292,71358,2,0,B|164:356,1,50,0|0
160,292,71513,6,0,B|192:228,1,50,2|0
188,292,71669,2,0,B|220:228,1,50,0|0
220,292,71824,2,0,B|252:228,1,50,2|0
248,292,71980,2,0,B|280:228,1,50,0|0
276,292,72134,6,2,B|488:292,1,200
432,68,72756,2,2,B|220:68,1,200
216,228,73378,2,2,B|428:228,1,200
420,152,74000,2,2,B|208:152,1,200
80,36,74621,5,2
160,80,74777,1,0
120,160,74932,1,2
60,228,75088,1,0
56,316,75243,1,2
136,360,75399,1,0
224,340,75554,1,2
248,252,75709,1,0
220,164,75865,5,2
240,164,76020,1,0
260,164,76176,1,2
280,164,76331,1,0
300,164,76487,5,2
309,164,76564,1,0
319,164,76642,1,0
329,164,76720,1,0
339,164,76798,1,2
348,164,76875,1,0
358,164,76953,1,0
368,164,77031,1,0
378,164,77108,2,0,B|428:164,31,50,2|0|0|0|2|0|0|0|2|0|0|0|2|0|0|0|2|0|0|0|2|0|0|0|2|0|0|0|2|0|0|0
404,192,79595,5,2
404,212,79673,1,0
400,232,79751,1,0
392,252,79829,1,0
380,268,79906,1,2
368,284,79984,1,0
352,296,80062,1,0
336,308,80140,1,0
316,316,80217,5,2
296,324,80295,1,0
276,328,80373,1,0
256,324,80450,1,0
236,320,80528,1,2
220,312,80606,1,0
204,300,80684,1,0
188,288,80761,1,0
172,276,80839,5,2
156,264,80917,1,0
144,248,80994,1,0
136,232,81072,1,0
128,212,81150,1,2
124,192,81228,1,0
120,172,81305,1,0
116,152,81383,1,0
120,132,81461,5,2
124,112,81538,1,0
136,96,81616,1,0
148,80,81694,1,0
164,64,81772,1,2
180,52,81849,1,0
200,44,81927,1,0
220,36,82005,1,0
240,32,82083,6,0,B|296:16,2,50,2|0|0
288,140,82393,1,2
288,140,82471,1,0
288,140,82549,1,0
336,248,82704,2,0,B|280:264,2,50,2|0|0
408,152,83015,1,2
408,152,83093,1,0
408,152,83171,1,0
456,260,83326,5,2
448,280,83404,1,0
436,296,83481,1,0
420,308,83559,1,0
400,316,83637,1,2
380,320,83715,1,0
360,324,83792,1,0
340,324,83870,1,0
320,324,83948,5,2
300,320,84026,1,0
280,316,84103,1,0
264,308,84181,1,0
248,296,84259,1,2
232,284,84336,1,0
216,272,84414,1,0
200,256,84492,1,0
188,240,84570,5,2
176,224,84647,1,0
164,208,84725,1,0
156,188,84803,1,0
152,168,84880,1,2
148,148,84958,1,0
148,128,85036,1,0
152,108,85114,1,0
160,88,85191,5,2
172,72,85269,1,0
188,60,85347,1,0
208,52,85424,1,0
228,52,85502,1,2
248,56,85580,1,0
268,60,85658,1,0
288,68,85735,1,0
304,80,85813,5,2
316,96,85891,1,0
328,112,85969,1,0
340,128,86046,1,0
352,144,86124,1,2
364,160,86202,1,0
368,180,86279,1,0
372,200,86357,1,0
368,220,86435,5,2
364,240,86513,1,0
360,260,86590,1,0
352,276,86668,1,0
336,292,86746,1,2
320,304,86823,1,0
300,312,86901,1,0
280,316,86979,1,0
260,316,87057,5,2
240,312,87134,1,0
220,304,87212,1,0
204,292,87290,1,0
188,280,87367,1,2
172,268,87445,1,0
160,252,87523,1,0
148,236,87601,1,0
136,220,87678,5,2
132,200,87756,1,0
136,180,87834,1,0
140,160,87912,1,0
152,144,87989,1,2
168,136,88067,1,0
188,132,88145,1,0
208,128,88222,1,0
228,132,88300,5,2
244,144,88378,1,0
260,160,88456,1,0
272,176,88533,1,0
288,188,88611,1,2
308,196,88689,1,0
328,196,88766,1,0
348,192,88844,1,0
368,184,88922,5,2
384,172,89000,1,0
396,156,89077,1,0
408,140,89155,1,0
404,120,89233,1,2
400,100,89310,1,0
388,84,89388,1,0
376,68,89466,1,0
360,60,89544,1,4
256,192,89621,12,0,93274
