osu file format v9

[General]
AudioFilename: 05 Rondo Alla Turca (RyuRemix).mp3
AudioLeadIn: 1000
PreviewTime: 28582
Countdown: 0
SampleSet: Normal
StackLeniency: 0.7
Mode: 0
LetterboxInBreaks: 0

[Editor]
Bookmarks: 28582,45906
DistanceSpacing: 1.2
BeatDivisor: 4
GridSize: 4

[Metadata]
Title:Stream Practice Maps
Artist:Various Artists
Creator:NewRulerNA
Version:Rondo Alla Turca (Ryu* Remix) BPM142
Source:
Tags:Deathstream Deathstreams Syrsa Speedcore 07th Expansion Umineko no Naku Koro ni Mutsuhiko Izumi jubeat Shiraishi new world Beatmania IIDX 17 Sirius Galdeira dj yoshitaka Humanoid 15 Dance Dance Revolution X2 dj TAKA 16 empress Ryu* TAG Mad Machine rog-limitation Snow Goose Shinsekai Almagest MENDES Theory of Eternity V2 Rondo Alla Turca (Ryu* Remix)

[Difficulty]
HPDrainRate:6
CircleSize:4
OverallDifficulty:8
ApproachRate:8
SliderMultiplier:1.5
SliderTickRate:1

[Events]
//Background and Video events
0,0,"BG7.jpg"
//Break Periods
2,27514,27832
2,109487,112339
//Storyboard Layer 0 (Background)
//Storyboard Layer 1 (Fail)
//Storyboard Layer 2 (Pass)
//Storyboard Layer 3 (Foreground)
//Storyboard Sound Samples
//Background Colour Transformations
3,100,163,162,255

[TimingPoints]
273,422.535211267606,4,1,0,75,1,0
1118,-100,4,1,0,5,0,0
1963,-100,4,1,0,75,0,0
154920,422.535211267606,4,1,0,85,1,0

[Colours]
Combo1 : 255,0,0
Combo2 : 0,0,0
Combo3 : 0,0,255

[HitObjects]
256,40,273,6,0,B|256:352,1,299.999991059304,4|0
172,192,1963,6,0,B|8:192,1,149.999995529652
340,192,2808,2,0,B|504:192,1,149.999995529652
183,150,3653,2,0,B|41:68,1,149.999995529652
328,234,4498,2,0,B|470:316,1,149.999995529652
184,234,5343,2,0,B|42:316,1,149.999995529652
329,150,6188,2,0,B|471:68,1,149.999995529652
172,192,7033,2,0,B|8:192,1,149.999995529652
340,192,7878,2,0,B|504:192,1,149.999995529652
256,88,8723,5,0
256,88,8934,1,0
256,296,9146,1,4
355,134,9568,5,0
355,134,9779,1,0
156,249,9991,1,4
364,254,10413,5,0
364,254,10624,1,0
147,129,10836,1,4
256,330,11258,5,0
256,330,11469,1,0
255,53,11681,1,4
124,268,12103,5,0
124,268,12314,1,0
387,115,12526,1,4
110,108,12949,5,0
110,108,13160,1,0
401,275,13372,1,4
256,24,13794,5,0
256,24,14005,1,0
256,359,14217,1,0
256,359,14427,1,0
256,100,14639,5,0
256,100,14850,1,0
256,284,15061,1,0
256,284,15272,1,0
224,192,15484,5,4
256,172,15589,1,0
292,192,15695,1,0
108,100,15906,6,0,B|56:72,2,37.4999988824129
404,100,16329,2,0,B|456:72,2,37.4999988824129
404,284,16751,2,0,B|456:312,2,37.4999988824129,4|0|0
108,284,17174,2,0,B|56:312,2,37.4999988824129
312,192,17596,5,0
328,192,17702,1,0
312,192,17808,1,0
200,192,18019,1,0
184,192,18125,1,0
200,192,18231,1,0
256,64,18442,5,0
256,72,18547,1,0
256,80,18653,1,0
256,88,18758,1,0
256,96,18864,2,0,B|256:256,1,149.999995529652,0|4
192,264,19498,5,0
192,264,19709,2,0,B|224:336|304:320|328:248,1,149.999995529652,0|4
440,136,20554,2,0,B|408:64|328:80|304:152,1,149.999995529652,0|4
368,208,21188,1,0
272,176,21399,1,0
264,176,21505,1,0
256,176,21611,1,0
248,176,21716,1,0
240,176,21822,6,0,B|80:176,1,149.999995529652,4|0
40,264,22456,2,0,B|200:264,1,149.999995529652
248,128,23089,2,0,B|88:128,1,149.999995529652
184,304,23723,2,0,B|344:304,1,149.999995529652
240,80,24357,2,0,B|80:80,1,149.999995529652
120,368,24991,2,0,B|280:368,1,149.999995529652
208,296,25625,6,0,B|296:256,1,74.9999977648259
276,264,25942,1,0
276,264,26047,1,0
240,120,26258,2,0,B|152:160,1,74.9999977648259
171,151,26575,1,0
171,151,26680,1,0
80,280,26892,2,0,B|223:214,1,149.999995529652,0|4
176,132,28582,5,2
204,116,28688,1,0
232,100,28794,1,2
256,84,28899,1,0
284,68,29005,1,2
452,136,29427,5,2
424,152,29533,1,0
396,168,29639,1,2
372,184,29744,1,0
344,200,29850,1,2
172,148,30273,5,2
144,160,30378,1,0
120,176,30484,1,2
100,200,30589,1,0
88,228,30695,1,2
92,256,30801,1,0
108,284,30906,1,2
132,304,31012,1,0
156,324,31118,5,2
184,336,31223,1,0
212,344,31329,1,2
240,348,31434,1,0
268,352,31540,2,0,B|324:308,3,37.4999988824129,2|0|2|0
324,344,31963,5,2
352,340,32068,1,0
372,316,32174,1,2
384,288,32280,1,0
384,260,32385,2,0,B|376:208,3,37.4999988824129,2|0|2|0
368,196,32808,5,2
356,168,32913,1,0
340,140,33019,1,2
324,116,33125,1,0
308,92,33230,2,0,B|272:48,3,37.4999988824129,2|0|2|0
256,72,33653,2,0,B|220:28,3,37.4999988824129,2|0|2|0
216,68,34075,2,0,B|180:112,3,37.4999988824129,2|0|2|0
164,88,34498,2,0,B|128:132,3,37.4999988824129,2|0|2|0
120,140,34920,6,2,B|68:200|112:288,1,149.999995529652
132,300,35449,1,0
156,320,35554,1,2
184,332,35660,1,0
212,336,35765,2,0,B|272:320,1,37.4999988824129,2|0
228,304,35977,2,0,B|288:288,1,37.4999988824129,2|0
248,268,36188,5,2
256,240,36294,1,0
276,216,36399,1,2
300,200,36505,1,0
328,188,36611,2,0,B|364:144,1,37.4999988824129,2|0
380,172,36822,2,0,B|416:128,1,37.4999988824129,2|0
424,164,37033,5,2
452,168,37139,1,0
480,180,37244,1,2
496,208,37350,1,0
484,236,37456,2,0,B|436:264,1,37.4999988824129,2|0
452,284,37667,2,0,B|404:312,1,37.4999988824129,2|0
428,332,37878,6,0,B|380:360,1,37.4999988824129,2|0
368,356,38089,2,0,B|320:328,1,37.4999988824129,2|0
320,364,38301,2,2,B|232:364|184:268,1,149.999995529652
184,264,38829,1,0
172,236,38934,1,2
172,204,39040,1,0
180,176,39146,2,0,B|236:132,3,37.4999988824129,2|0|2|0
216,124,39568,1,2
236,100,39674,1,0
260,84,39780,1,2
284,68,39885,1,0
312,64,39991,5,2
340,64,40096,1,0
372,64,40202,1,2
400,76,40308,1,0
428,92,40413,1,2
452,112,40519,1,0
468,140,40625,1,2
472,168,40730,1,0
472,200,40836,5,2
460,228,40942,1,0
440,252,41047,1,2
416,268,41153,1,0
388,280,41258,1,2
360,288,41364,1,0
332,284,41470,1,2
304,276,41575,1,0
280,256,41681,2,2,B|260:188|192:184,1,112.499996647239,2|0
172,184,42103,5,2
140,180,42209,1,0
112,184,42315,1,2
88,204,42420,1,0
68,228,42526,1,2
56,256,42632,1,0
56,284,42737,1,2
60,312,42843,1,0
76,340,42949,2,0,B|140:324,3,37.4999988824129,2|0|2|0
128,356,43371,6,2,B|260:312,1,112.499996647239,2|0
264,308,43794,1,2
292,300,43899,1,0
324,304,44005,1,2
352,312,44111,1,0
380,320,44216,5,2
408,324,44322,1,0
436,316,44427,1,2
460,300,44533,1,0
476,276,44639,1,2
484,248,44744,1,0
480,220,44850,1,2
464,196,44956,1,0
440,180,45061,5,2
408,180,45167,1,0
376,180,45273,1,2
348,176,45378,1,0
320,168,45484,1,2
292,156,45589,1,0
272,132,45695,1,2
252,108,45801,1,0
228,92,45906,6,0,B|172:56,3,37.4999988824129,2|0|2|0
192,100,46329,2,0,B|125:96,1,37.4999988824129,2|0
160,128,46540,2,0,B|100:158,1,37.4999988824129,2|0
144,168,46751,1,2
136,196,46857,1,0
128,224,46963,1,2
240,264,47174,5,2
232,292,47280,1,0
224,320,47386,1,2
304,96,47596,1,2
312,124,47702,1,0
320,152,47808,1,2
500,140,48019,5,2
476,160,48125,1,0
456,180,48230,1,2
440,204,48336,1,0
428,232,48442,2,2,B|400:296|324:292,1,112.499996647239,2|0
312,292,48864,5,2
284,288,48970,1,0
256,276,49075,1,2
232,256,49181,1,0
212,236,49287,2,0,B|168:192,3,37.4999988824129,2|0|2|0
156,208,49709,5,2
128,200,49815,1,0
104,180,49920,1,2
92,152,50026,1,0
88,124,50132,2,0,B|112:84,3,37.4999988824129,2|0|2|0
132,76,50554,6,0,B|156:36,1,37.4999988824129,2|0
184,76,50765,2,0,B|208:36,1,37.4999988824129,2|0
236,76,50977,2,0,B|260:36,1,37.4999988824129,2|0
288,76,51188,2,0,B|312:36,1,37.4999988824129,2|0
340,76,51399,6,0,B|364:36,3,37.4999988824129,2|0|2|0
392,76,51822,2,0,B|416:36,3,37.4999988824129,2|0|2|0
444,76,52244,5,2
468,92,52350,1,0
484,116,52456,1,2
368,144,52667,1,2
384,172,52773,1,0
384,200,52878,1,2
276,152,53089,1,2
264,180,53195,1,0
244,200,53301,1,2
184,116,53512,5,2
144,140,53618,1,0
108,168,53723,1,2
140,200,53829,1,0
104,228,53934,1,2
136,260,54040,1,0
100,288,54146,1,2
132,320,54251,1,0
148,360,54357,6,2,B|240:368|280:288,1,149.999995529652
236,272,54885,1,0
196,252,54991,1,2
200,208,55096,1,0
228,172,55202,2,2,B|320:180|360:100,1,149.999995529652
354,109,55836,1,2
354,109,56047,6,2,B|408:176,1,74.9999977648259
372,252,56469,2,2,B|318:185,1,74.9999977648259
304,60,56893,1,2
264,44,56998,1,0
220,52,57104,1,2
144,216,57315,2,0,B|116:240|96:196,2,37.4999988824129,2|0|2
292,320,57738,5,2
249,314,57843,1,0
208,334,57949,1,2
76,348,58160,2,2,B|112:280,1,74.9999977648259
88,148,58582,2,2,B|52:216,1,74.9999977648259
180,168,59005,5,2
196,144,59111,1,0
224,128,59216,1,2
252,132,59322,1,0
276,148,59427,2,2,B|364:156|416:76,1,149.999995529652
468,156,60061,2,2,B|468:240,1,74.9999977648259
380,212,60484,1,2
380,212,60589,1,0
380,212,60695,1,2
296,248,60906,5,2
296,248,61012,1,0
296,248,61118,1,2
224,196,61329,1,2
216,196,61434,1,0
208,196,61540,1,2
200,196,61646,1,0
192,196,61751,1,2
184,196,61857,1,0
176,196,61963,2,2,B|72:196,1,74.9999977648259
36,80,62385,6,2,B|68:36|132:32,1,74.9999977648259
184,64,62808,2,2,B|152:108|88:112,1,74.9999977648259
204,148,63230,2,2,B|284:72,1,74.9999977648259
340,56,63653,1,2
340,56,63758,1,0
372,88,63864,1,2
372,88,63970,1,0
392,128,64075,2,2,B|392:288,1,149.999995529652
392,278,64603,1,0
392,278,64709,1,2
272,212,64920,2,2,B|230:211|230:211|176:244,1,74.9999977648259
144,352,65343,2,2,B|185:352|185:352|240:320,1,74.9999977648259
148,276,65765,5,2
128,268,65871,1,0
108,256,65977,1,2
92,240,66082,1,0
76,224,66188,2,0,B|36:172,1,37.4999988824129,2|0
76,192,66399,2,0,B|36:140,1,37.4999988824129,2|0
76,164,66611,6,0,B|116:112,1,37.4999988824129,2|0
76,132,66822,2,0,B|116:80,1,37.4999988824129,2|0
76,96,67033,1,2
72,72,67139,1,0
80,52,67244,1,2
100,40,67350,1,0
124,40,67456,2,2,B|168:64|220:28,1,74.9999977648259
332,48,67878,5,2
428,144,68089,1,0
364,264,68301,1,2
268,168,68512,1,0
332,48,68723,2,2,B|352:164,1,112.499996647239,2|0
352,180,69146,5,2
344,200,69251,1,0
332,220,69357,1,2
320,236,69463,1,0
304,252,69568,1,2
288,268,69674,1,0
268,276,69780,1,2
244,276,69885,1,0
220,272,69991,5,2
200,264,70096,1,0
180,252,70202,1,2
160,240,70308,1,0
144,228,70413,1,2
128,212,70519,1,0
112,196,70625,1,2
100,176,70730,1,0
92,156,70836,1,2
88,132,70942,1,0
88,108,71047,1,2
96,88,71153,1,0
112,72,71258,6,2,B|224:48|224:48|264:88,1,149.999995529652
264,92,71787,1,0
280,108,71892,2,0,B|316:152,1,37.4999988824129,2|0
284,144,72103,2,0,B|320:188,1,37.4999988824129,2|0
288,184,72315,2,0,B|324:228,1,37.4999988824129,2|0
292,224,72526,2,0,B|328:268,1,37.4999988824129,2|0
296,260,72737,2,0,B|332:304,1,37.4999988824129,2|0
296,292,72949,6,0,B|252:328,1,37.4999988824129,2|0
260,296,73160,2,0,B|216:332,1,37.4999988824129,2|0
220,300,73372,2,0,B|176:336,1,37.4999988824129,2|0
180,304,73583,2,0,B|136:340,1,37.4999988824129,2|0
144,308,73794,2,0,B|100:344,1,37.4999988824129,2|0
108,312,74005,6,0,B|72:268,1,37.4999988824129,2|0
104,276,74216,2,0,B|68:232,1,37.4999988824129,2|0
100,236,74428,2,0,B|64:192,1,37.4999988824129,2|0
96,196,74639,2,0,B|60:152,1,37.4999988824129,2|0
92,160,74850,2,0,B|56:116,1,37.4999988824129,2|0
60,108,75061,5,2
60,84,75167,1,0
72,64,75273,1,2
88,52,75378,1,0
108,44,75484,2,2,B|164:88|244:32,1,112.499996647239,2|0
232,64,75906,6,0,B|260:116,1,37.4999988824129,2|0
268,88,76118,2,0,B|296:140,3,37.4999988824129,2|0|2|0
308,112,76540,1,2
328,124,76646,1,0
344,140,76751,1,2
356,160,76857,1,0
364,180,76963,1,2
368,200,77068,1,0
372,224,77174,6,0,B|396:288,3,37.4999988824129,2|0|2|0
364,264,77596,2,0,B|340:328,3,37.4999988824129,2|0|2|0
332,312,78019,1,2
312,324,78125,1,0
292,328,78230,1,2
268,332,78336,1,0
244,328,78442,1,2
224,320,78547,1,0
204,308,78653,1,2
188,292,78758,1,0
172,276,78864,6,0,B|132:224,3,37.4999988824129,2|0|2|0
168,236,79287,2,0,B|208:184,3,37.4999988824129,2|0|2|0
180,188,79709,1,2
184,164,79815,1,0
196,144,79920,1,2
212,128,80026,1,0
228,112,80132,1,2
248,104,80237,1,0
272,100,80343,1,2
296,100,80449,1,0
320,100,80554,5,2
340,104,80660,1,0
360,112,80765,1,2
376,128,80871,1,0
392,144,80977,1,2
404,164,81082,1,0
412,184,81188,1,2
416,208,81294,1,0
416,232,81399,2,0,B|384:280,3,37.4999988824129,2|0|2|0
372,264,81822,2,0,B|340:312,3,37.4999988824129,2|0|2|0
328,296,82244,1,4
264,232,82667,5,2
284,224,82773,1,0
304,212,82878,1,2
320,196,82984,1,0
332,176,83089,2,0,B|352:128,3,37.4999988824129,2|0|2|0
352,120,83512,5,2
352,96,83618,1,0
340,76,83723,1,2
328,56,83829,1,0
308,44,83934,1,2
288,36,84040,1,0
268,32,84146,1,2
244,36,84251,1,0
224,48,84357,1,2
216,68,84463,1,0
204,88,84568,1,2
188,104,84674,1,0
172,120,84780,6,0,B|160:156|112:128,3,37.4999988824129,2|0|2|0
124,144,85202,1,2
104,152,85308,1,0
88,168,85413,1,2
80,188,85519,1,0
80,212,85625,1,2
92,232,85730,1,0
108,248,85836,1,2
128,256,85942,1,0
148,248,86047,1,2
168,236,86153,1,0
188,224,86258,1,2
208,216,86364,1,0
232,216,86470,6,0,B|260:212|280:228,3,37.4999988824129,2|0|2|0
272,244,86892,2,0,B|300:248|320:232,3,37.4999988824129,2|0|2|0
320,260,87315,1,2
340,268,87420,1,0
364,272,87526,1,2
388,268,87632,1,0
408,256,87737,1,2
420,236,87843,1,0
428,216,87949,1,2
432,192,88054,1,0
428,168,88160,6,0,B|412:120,1,37.4999988824129,2|0
412,156,88371,2,0,B|396:108,1,37.4999988824129,2|0
388,140,88582,2,0,B|372:92,1,37.4999988824129,2|0
372,128,88793,2,0,B|356:80,1,37.4999988824129,2|0
356,116,89005,1,2
184,48,89427,5,2
184,48,89533,1,0
184,48,89639,1,2
84,112,89850,1,2
244,192,90061,1,2
180,292,90272,1,2
180,292,90378,1,0
180,292,90483,1,2
300,300,90695,6,2,B|376:172,1,149.999995529652
280,100,91329,1,2
280,100,91434,1,0
280,100,91540,2,2,B|176:100,1,74.9999977648259
116,180,91963,2,2,B|220:180,1,74.9999977648259
300,224,92385,1,2
192,276,92596,1,2
292,344,92808,2,2,B|384:336|412:232,1,149.999995529652
376,140,93442,5,2
376,140,93547,1,0
376,140,93653,1,2
280,68,93864,1,2
192,148,94075,2,2,B|124:72,1,74.9999977648259
196,264,94498,2,2,B|128:188,1,74.9999977648259
324,188,94920,5,2
348,208,95026,1,0
368,232,95131,1,2
380,260,95237,1,0
392,288,95343,1,2
392,316,95449,1,0
380,344,95554,2,0,B|316:376,2,37.4999988824129,2|0|4
268,296,96188,5,2
236,276,96294,1,0
204,256,96399,1,2
280,124,96611,1,2
248,104,96717,1,0
216,84,96822,1,2
72,116,97033,5,2
72,152,97139,1,0
72,188,97244,1,2
72,224,97350,1,0
72,260,97456,2,2,B|108:336|204:348,1,149.999995529652
192,272,98089,2,2,B|256:232,1,74.9999977648259
200,180,98512,2,2,B|264:140,1,74.9999977648259
328,104,98934,1,2
328,104,99040,1,0
328,104,99146,1,2
408,212,99357,5,2
404,248,99463,1,0
392,284,99568,1,2
368,312,99674,1,0
332,328,99780,1,2
288,224,99990,1,2
268,192,100096,1,0
240,168,100202,1,2
152,240,100413,2,2,B|64:184,1,74.9999977648259
196,92,100836,2,2,B|284:36,1,74.9999977648259
352,116,101258,2,0,B|412:128,2,37.4999988824129,2|0|2
312,224,101681,5,2
288,236,101787,1,0
276,260,101892,1,2
272,288,101998,1,0
256,308,102103,1,2
236,324,102209,1,0
212,332,102315,1,2
188,328,102420,1,0
168,312,102526,1,2
72,104,102949,5,2
88,84,103054,1,0
112,76,103160,1,2
140,76,103265,1,0
164,88,103371,5,2
180,108,103477,1,0
192,132,103582,1,2
204,156,103688,1,0
224,172,103794,1,2
248,176,103899,1,0
272,168,104005,1,2
296,160,104111,1,0
320,156,104216,5,2
348,156,104322,1,0
372,168,104427,1,2
388,192,104533,1,0
396,216,104639,1,2
400,240,104744,1,0
392,264,104850,1,2
376,284,104956,1,0
352,292,105061,6,0,B|316:344,3,37.4999988824129,2|0|2|0
316,300,105484,2,0,B|280:248,3,37.4999988824129,2|0|2|0
276,288,105906,5,2
248,288,106012,1,0
224,276,106118,1,2
204,260,106223,1,0
192,236,106329,1,2
188,212,106434,1,0
204,192,106540,1,2
220,172,106646,1,0
236,152,106751,6,0,B|284:120,5,37.4999988824129,2|0|2|0|2|0
292,136,107385,2,0,B|340:104,5,37.4999988824129,2|0|2|0|2|0
348,124,108019,2,0,B|396:92,3,37.4999988824129,2|0|2|0
404,112,108442,6,0,B|452:144,1,37.4999988824129,2|0
420,152,108653,2,0,B|468:184,1,37.4999988824129,2|0
432,192,108864,2,0,B|480:224,1,37.4999988824129,2|0
444,228,109075,2,0,B|492:260,1,37.4999988824129,2|0
456,268,109287,1,4
244,340,113089,5,2
268,324,113195,1,0
288,308,113301,1,2
304,288,113406,1,0
304,260,113512,2,0,B|352:208,3,37.4999988824129,2|0|2|0
308,220,113934,1,2
304,192,114040,1,0
292,168,114146,1,2
280,144,114251,1,0
264,124,114357,5,2
244,108,114463,1,0
220,96,114568,1,2
196,84,114674,1,0
172,80,114780,1,2
148,88,114885,1,0
128,104,114991,1,2
112,124,115096,1,0
104,148,115202,2,0,B|84:216,3,37.4999988824129,2|0|2|0
120,192,115625,2,0,B|140:260,3,37.4999988824129,2|0|2|0
104,232,116047,2,2,B|104:328,1,74.9999977648259
312,284,116470,5,2
312,284,116575,1,0
312,284,116681,1,2
296,152,116892,1,2
40,64,117315,1,2
40,64,117421,1,0
40,64,117526,1,2
20,196,117737,5,2
28,240,117843,1,0
52,280,117949,1,2
80,312,118054,1,0
116,340,118160,2,2,B|224:352,1,74.9999977648259
396,216,118582,5,2
356,192,118688,1,0
328,160,118794,1,2
312,120,118899,1,0
332,80,119005,2,2,B|488:152,1,149.999995529652
468,142,119639,1,2
432,324,119850,5,2
388,316,119956,1,0
348,292,120061,1,2
312,264,120167,1,0
292,224,120273,2,0,B|284:172,3,37.4999988824129,2|0|2|0
248,164,120695,5,2
216,132,120801,1,0
184,100,120906,1,2
144,80,121012,1,0
100,76,121118,1,2
56,88,121223,1,0
32,128,121329,1,2
24,172,121434,1,0
32,216,121540,1,2
52,256,121646,1,0
92,276,121751,1,2
132,256,121857,1,0
172,232,121963,5,2
216,224,122068,1,0
248,256,122174,1,2
272,296,122280,1,0
308,324,122385,1,2
352,324,122491,1,0
392,308,122596,1,2
424,276,122702,1,0
448,236,122808,1,4
376,28,123653,5,2
344,64,123758,1,0
340,112,123864,1,2
328,160,123970,1,0
296,196,124075,1,2
252,216,124181,1,0
204,216,124287,1,2
164,188,124392,1,0
132,152,124498,1,4
4,228,125343,5,2
36,192,125448,1,0
40,144,125554,1,2
52,96,125660,1,0
84,60,125765,1,2
128,40,125871,1,0
176,40,125977,1,2
216,68,126082,1,0
248,104,126188,1,4
424,344,127033,5,2
408,296,127139,1,0
376,260,127244,1,2
328,256,127350,1,0
292,288,127456,1,2
252,316,127561,1,0
208,296,127667,1,2
180,256,127773,1,0
180,208,127878,1,4
168,16,128723,5,2
184,64,128829,1,0
216,100,128934,1,2
264,104,129040,1,0
300,72,129146,1,2
340,44,129251,1,0
384,64,129357,1,2
412,104,129463,1,0
412,152,129568,1,4
420,348,129991,6,2,B|324:312,1,74.9999977648259
356,224,130413,1,2
308,236,130519,1,0
260,232,130625,1,2
220,204,130730,1,0
200,160,130836,2,2,B|112:172|88:280,1,149.999995529652
88,304,131364,1,0
64,344,131470,1,2
16,344,131575,1,0
0,296,131681,1,2
12,248,131787,1,0
32,204,131892,1,2
16,156,131998,1,0
48,120,132103,6,0,B|96:88,3,37.4999988824129,2|0|2|0
120,124,132526,2,0,B|168:92,3,37.4999988824129,2|0|2|0
200,96,132949,1,2
248,92,133054,1,0
268,136,133160,1,2
292,176,133265,1,0
336,196,133371,6,0,B|384:224,1,37.4999988824129,2|0
376,264,133582,2,0,B|424:292,1,37.4999988824129,2|0
424,328,133794,2,2,B|348:384|252:324,1,149.999995529652
216,268,134427,1,2
216,268,134533,1,0
216,268,134639,1,2
152,192,134850,2,2,B|68:256,1,74.9999977648259
84,140,135273,2,2,B|168:76,1,74.9999977648259
228,48,135695,5,2
276,48,135801,1,0
296,92,135906,1,2
308,140,136012,1,0
356,152,136118,1,2
356,200,136223,1,0
396,228,136329,1,2
240,344,136751,5,2
196,328,136857,1,0
160,292,136963,1,2
184,248,137068,1,0
212,208,137174,1,2
184,168,137280,1,0
156,128,137385,1,2
168,80,137491,1,0
212,56,137596,6,2,B|376:16,1,149.999995529652
456,116,138230,2,2,B|292:156,1,149.999995529652
184,204,138864,1,2
144,232,138970,1,0
128,276,139075,1,2
152,320,139181,1,0
192,348,139287,1,2
240,352,139392,1,0
284,328,139498,1,2
328,304,139603,1,0
372,328,139709,2,0,B|440:348,2,37.4999988824129,2|0|2
412,236,140132,5,2
412,188,140237,1,0
392,144,140343,1,2
320,208,140554,2,2,B|176:260,1,149.999995529652
92,212,141188,5,2
60,176,141294,1,0
56,128,141399,1,2
80,84,141505,1,0
124,64,141611,1,2
172,56,141716,1,0
216,76,141822,1,2
236,120,141927,1,0
268,156,142033,1,2
272,204,142139,1,0
304,240,142245,5,2
324,284,142350,1,0
368,304,142456,1,2
416,296,142561,1,0
460,276,142667,1,2
484,232,142773,1,0
480,184,142878,1,2
448,148,142984,1,0
400,132,143089,1,4
