osu file format v14

[General]
AudioFilename: OWSLA Worldwide Broadcast Album Teaser.mp3
AudioLeadIn: 0
PreviewTime: 60560
Countdown: 1
SampleSet: Soft
StackLeniency: 0.7
Mode: 0
LetterboxInBreaks: 1
WidescreenStoryboard: 0

[Editor]
DistanceSpacing: 1
BeatDivisor: 6
GridSize: 4
TimelineZoom: 1

[Metadata]
Title:OWSLA Worldwide Broadcast Album Teaser
TitleUnicode:OWSLA Worldwide Broadcast Album Teaser
Artist:Various Artists
ArtistUnicode:Various Artists
Creator:Cancel
Version:idk
Source:
Tags:red lips skrillex gta sam bruno 666! getter and ghastly rebels wiwek featuring audio bullys middle dj snake bipolar sunshine miija josh pan xian and gaszia platinum flippo boaz van de beatz from here louis the child ain't your girl bixel boys poupon bang wavedash dj sliink nadus manalo rose run ricky run fame school alright san holo yellow claw b.o.b. g.buck dream time princesa alvin risk vips skrillex must die
BeatmapID:944250
BeatmapSetID:438680

[Difficulty]
HPDrainRate:5
CircleSize:4
OverallDifficulty:6
ApproachRate:8.5
SliderMultiplier:2.4
SliderTickRate:1

[Events]
//Background and Video events
0,0,"owsla.jpg",0,0
//Break Periods
//Storyboard Layer 0 (Background)
//Storyboard Layer 1 (Fail)
//Storyboard Layer 2 (Pass)
//Storyboard Layer 3 (Foreground)
//Storyboard Sound Samples

[TimingPoints]
3370,413.793103448276,4,2,1,60,1,0
16625,413.793103448276,4,2,1,60,1,0
23180,483.870967741935,4,2,1,60,1,0
38637,468.75,4,2,1,60,1,0
53637,461.538461538462,4,2,1,60,1,0
68451,476.190476190476,4,2,1,60,1,0
76060,394.736842105263,4,2,1,60,1,0
77638,-125,4,2,1,60,0,0
84095,697.674418604651,4,2,1,60,1,0
95189,500,4,2,1,60,1,0
102945,402.684563758389,4,2,1,60,1,0
115286,447.761194029851,4,2,1,60,1,0
115880,446.096654275093,4,2,1,60,1,0
115888,-100,4,2,1,60,0,0
128370,468.75,4,2,1,60,1,0
137400,410.958904109589,4,2,1,60,1,0
150510,375,4,2,1,60,1,0
168510,468.75,4,2,1,60,1,0
181980,468.75,4,2,1,60,1,0
189480,480,4,2,1,60,1,0

[Colours]
Combo1 : 0,0,160
Combo2 : 255,0,0
Combo3 : 0,255,0
Combo4 : 255,255,0
Combo5 : 0,0,255
Combo6 : 255,0,255

[HitObjects]
104,88,16625,5,4,0:0:0:0:
104,88,17038,2,0,P|96:132|132:200,1,120
304,220,17452,5,8,0:0:0:0:
180,128,17659,1,2,0:0:0:0:
96,280,17866,6,0,L|244:272,1,120
320,76,18280,5,4,0:0:0:0:
180,128,18487,1,0,0:0:0:0:
236,268,18693,1,2,0:0:0:0:
376,216,18900,1,0,0:0:0:0:
248,104,19107,2,0,L|120:100,1,120,8|0,0:0|0:0,0:0:0:0:
20,284,19521,1,0,0:0:0:0:
120,204,19728,1,2,0:0:0:0:
100,360,19935,5,4,0:0:0:0:
100,360,20349,2,0,L|92:276,1,60,2|0,2:0|2:2,0:0:0:0:
178,268,20556,2,0,L|184:328,1,60,2|0,2:0|2:2,0:0:0:0:
120,368,20762,2,0,L|112:284,1,60,2|0,1:2|2:2,0:0:0:0:
198,276,20969,2,0,L|203:335,1,60,2|0,2:0|2:2,0:0:0:0:
144,376,21176,6,0,L|132:256,1,120,2|0,2:2|2:2,0:0:0:0:
172,124,21590,1,0,0:0:0:0:
340,192,21797,6,0,P|288:212|216:188,1,120,0|2,2:0|2:1,0:0:0:0:
192,36,22211,1,0,0:0:0:0:
416,136,22418,1,8,0:0:0:0:
416,136,22521,1,2,2:0:0:0:
416,136,22625,2,0,L|424:260,1,120,2|0,2:0|0:0,0:0:0:0:
76,320,23180,6,0,L|68:196,1,120,2|0,0:0|0:0,0:0:0:0:
140,104,23542,2,0,L|147:223,1,120,2|0,0:0|0:0,0:0:0:0:
200,336,23905,6,0,P|260:344|344:296,1,120
360,208,24268,2,0,P|300:200|216:248,1,120
132,376,24631,5,0,0:0:0:0:
132,376,24873,1,0,0:0:0:0:
132,376,25115,2,0,B|136:340|136:340|128:312|128:312|136:252,1,120
176,176,25478,2,0,P|120:168|64:200,1,120
12,324,25841,2,0,L|136:320,1,120
312,372,26325,5,0,0:0:0:0:
312,372,26446,1,0,0:0:0:0:
312,372,26567,5,0,0:0:0:0:
436,160,26809,1,0,0:0:0:0:
436,160,27050,6,0,P|376:180|304:120,1,120
272,104,27413,6,0,P|332:84|404:144,1,120
452,236,27776,2,0,P|404:252|356:248,1,60
324,288,28018,6,0,L|196:292,1,120
180,216,28381,2,0,L|299:212,1,120
376,352,28744,2,0,P|328:368|280:364,1,60
84,312,28986,5,0,0:0:0:0:
72,296,29107,1,0,0:0:0:0:
64,276,29228,1,0,0:0:0:0:
60,256,29349,1,0,0:0:0:0:
108,188,29470,5,0,0:0:0:0:
120,172,29591,1,0,0:0:0:0:
128,152,29712,1,0,0:0:0:0:
132,132,29833,1,0,0:0:0:0:
180,60,29954,5,0,0:0:0:0:
196,72,30075,1,0,0:0:0:0:
208,88,30196,1,0,0:0:0:0:
216,108,30317,1,0,0:0:0:0:
220,128,30438,6,0,B|212:144|212:144|224:156|224:156|228:260,1,120
72,313,30921,1,0,0:0:0:0:
72,313,31405,2,0,P|60:277|64:229,1,60,8|0,0:0|0:0,0:0:0:0:
132,132,31647,5,2,0:0:0:0:
132,132,31889,2,0,P|120:76|140:8,1,120
212,44,32252,1,0,0:0:0:0:
212,44,32373,2,0,L|292:40,1,60,8|0,0:0|0:0,0:0:0:0:
252,116,32615,2,0,L|332:112,1,60
356,48,32857,2,0,B|352:96|352:96|356:116|356:116|352:176,1,120
380,240,33220,1,0,0:0:0:0:
316,288,33341,2,0,P|272:296|216:272,1,60,8|0,0:0|0:0,0:0:0:0:
220,224,33583,2,0,P|264:216|320:240,1,60
352,356,33825,6,0,B|296:384|228:364,1,120
172,320,34188,1,0,0:0:0:0:
164,156,34309,6,0,L|152:76,1,60,8|0,0:0|0:0,0:0:0:0:
96,216,34550,2,0,L|84:136,1,60
28,276,34792,5,4,0:0:0:0:
28,276,35034,2,0,P|80:304|152:288,1,120,0|8,0:0|0:0,0:0:0:0:
192,236,35397,1,0,0:0:0:0:
248,292,35518,2,0,L|392:280,1,120
388,288,36123,6,0,P|400:272|416:212,1,60,0|8,0:0|0:0,0:0:0:0:
372,128,36365,1,0,0:0:0:0:
352,112,36486,1,0,0:0:0:0:
324,100,36607,1,0,0:0:0:0:
296,96,36728,6,0,L|172:100,1,120
128,36,37091,1,0,0:0:0:0:
56,168,37212,1,8,0:0:0:0:
92,164,37333,1,0,0:0:0:0:
128,176,37454,1,0,0:0:0:0:
152,200,37575,1,0,0:0:0:0:
164,232,37696,6,0,L|168:264,4,30,0|0|0|0|2,0:0|0:0|0:0|0:0|0:0,0:0:0:0:
192,204,38059,1,0,0:0:0:0:
232,196,38180,1,8,0:0:0:0:
252,200,38637,6,0,L|380:184,1,120,8|0,0:0|0:0,0:0:0:0:
408,36,39105,2,0,L|288:50,1,120,8|0,0:0|0:0,0:0:0:0:
232,220,39574,6,0,L|360:204,1,120,8|0,0:0|0:0,0:0:0:0:
388,56,40042,2,0,L|268:70,1,120,8|0,0:0|0:0,0:0:0:0:
268,312,40512,6,0,P|312:280|320:184,1,120,8|0,0:0|0:0,0:0:0:0:
192,128,40980,2,0,P|148:160|140:256,1,120,8|0,0:0|0:0,0:0:0:0:
320,184,41449,6,0,P|288:140|192:132,1,120,8|0,0:0|0:0,0:0:0:0:
136,260,41918,1,8,0:0:0:0:
140,272,42387,5,8,0:0:0:0:
164,288,42504,1,0,0:0:0:0:
192,296,42621,1,0,0:0:0:0:
220,296,42738,1,0,0:0:0:0:
288,264,42855,1,0,0:0:0:0:
316,256,42972,1,0,0:0:0:0:
348,256,43090,1,0,0:0:0:0:
376,264,43207,1,0,0:0:0:0:
444,308,43324,5,0,0:0:0:0:
456,280,43441,1,0,0:0:0:0:
456,252,43558,1,0,0:0:0:0:
448,224,43676,1,0,0:0:0:0:
376,172,43793,1,0,0:0:0:0:
356,148,43910,1,0,0:0:0:0:
344,120,44027,1,0,0:0:0:0:
340,92,44144,1,0,0:0:0:0:
344,64,44262,6,0,L|464:68,1,120
256,168,44730,2,0,L|376:172,2,120,0|0|8,0:0|0:0|0:0,0:0:0:0:
256,168,45668,5,0,0:0:0:0:
108,336,45902,1,8,0:0:0:0:
328,200,46137,6,0,P|328:132|228:92,1,180,4|8,0:0|0:0,0:0:0:0:
184,144,46605,2,0,P|192:216|276:240,1,120,4|8,0:0|0:0,0:0:0:0:
320,304,47074,6,0,L|512:288,1,180,4|8,0:0|0:0,0:0:0:0:
472,212,47543,2,0,L|336:224,1,120,4|8,0:0|0:0,0:0:0:0:
256,104,48012,6,0,P|252:68|272:12,1,60,4|0,0:0|0:0,0:0:0:0:
192,172,48246,2,0,P|196:208|176:264,1,60,0|8,0:0|0:0,0:0:0:0:
244,92,48480,6,0,P|240:56|260:0,1,60,4|0,0:0|0:0,0:0:0:0:
180,160,48714,2,0,P|184:196|164:252,1,60,8|0,0:0|0:0,0:0:0:0:
108,268,48949,2,0,B|-16:256|-16:256|36:236,1,180
184,300,49418,5,10,0:0:0:0:
48,336,49652,1,10,0:0:0:0:
88,164,49887,2,0,B|156:124|192:196|268:160,1,180,4|2,0:0|0:0,0:0:0:0:
312,100,50355,2,0,P|260:32|188:44,1,120,4|8,0:0|0:0,0:0:0:0:
96,176,50824,6,0,B|164:136|200:208|276:172,1,180,4|2,0:0|0:0,0:0:0:0:
320,112,51292,2,0,P|268:44|196:56,1,120,4|8,0:0|0:0,0:0:0:0:
140,248,51762,5,8,0:0:0:0:
360,296,51996,1,8,0:0:0:0:
60,248,52230,5,8,0:0:0:0:
280,296,52464,1,8,0:0:0:0:
100,316,52699,2,0,B|96:284|112:260|112:260|108:228|108:228|136:183|120:120,1,180,8|4,0:0|0:0,0:0:0:0:
80,76,53168,1,8,0:0:0:0:
232,44,53402,1,0,0:0:0:0:
212,256,53637,6,0,P|200:300|244:368,1,120,4|0,0:0|0:0,0:0:0:0:
392,372,54098,1,8,0:0:0:0:
496,164,54329,2,0,L|220:176,1,240,4|0,0:0|0:0,0:0:0:0:
69,180,55021,2,0,P|125:144|212:256,1,240,8|4,0:0|0:0,0:0:0:0:
72,320,55713,5,0,0:0:0:0:
8,112,55944,1,8,0:0:0:0:
20,376,56175,1,0,0:0:0:0:
20,376,56406,2,0,L|208:360,2,180
52,296,57329,5,4,0:0:0:0:
16,36,57790,1,8,0:0:0:0:
272,0,58252,5,4,0:0:0:0:
308,260,58713,1,8,0:0:0:0:
108,20,59175,5,8,0:0:0:0:
116,40,59637,1,8,0:0:0:0:
124,60,60098,1,8,0:0:0:0:
132,84,60560,2,8,B|128:136|128:136|140:164|140:164|136:232,1,120
56,288,61021,1,0,0:0:0:0:
8,116,61367,1,0,0:0:0:0:
8,116,61483,2,0,L|144:128,1,120
232,68,61944,1,0,0:0:0:0:
232,68,62060,2,0,P|232:120|260:196,1,120
320,252,62406,2,0,L|472:244,1,120
364,344,62867,6,0,B|304:360|264:332|264:332|232:280|156:288,1,180,8|0,0:0|0:0,0:0:0:0:
120,300,63329,1,0,0:0:0:0:
24,100,63560,1,0,0:0:0:0:
24,100,63675,1,0,0:0:0:0:
40,208,63906,1,0,0:0:0:0:
40,208,64021,2,0,L|176:212,2,120,0|8|0,0:0|0:0|0:0,0:0:0:0:
16,92,64713,1,0,0:0:0:0:
132,116,64944,1,0,0:0:0:0:
128,104,65060,1,0,0:0:0:0:
124,92,65175,1,8,0:0:0:0:
236,136,65406,1,0,0:0:0:0:
232,124,65522,1,0,0:0:0:0:
228,112,65637,6,0,L|364:116,1,120,8|0,0:0|0:0,0:0:0:0:
408,164,65983,2,0,P|424:216|392:280,1,120
324,304,66329,2,0,B|256:296|280:252|216:240,1,120,0|8,0:0|0:0,0:0:0:0:
256,192,66790,12,0,67944,0:0:0:0:
436,192,68451,5,0,0:0:0:0:
416,204,69165,1,0,0:0:0:0:
348,132,69403,6,0,L|344:92,2,40,2|0|0,0:0|0:0|0:0,0:0:0:0:
316,108,69641,2,0,L|312:148,2,40,2|0|0,0:0|0:0|0:0,0:0:0:0:
288,140,69879,2,0,L|284:100,2,40,2|0|0,0:0|0:0|0:0,0:0:0:0:
256,116,70117,2,0,L|252:156,2,40,2|0|0,0:0|0:0|0:0,0:0:0:0:
228,148,70355,2,0,L|224:108,2,40,2|0|0,0:0|0:0|0:0,0:0:0:0:
196,124,70593,2,0,L|192:164,2,40,2|0|0,0:0|0:0|0:0,0:0:0:0:
168,156,70831,2,0,L|164:116,2,40,2|0|0,0:0|0:0|0:0,0:0:0:0:
136,132,71069,2,0,L|132:172,2,40,2|0|0,0:0|0:0|0:0,0:0:0:0:
112,164,71308,6,0,L|116:300,2,120,8|4|4,0:0|0:0|0:0,0:0:0:0:
28,32,72260,5,0,0:0:0:0:
48,20,72974,1,0,0:0:0:0:
116,92,73212,6,0,L|120:132,2,40,2|0|0,0:0|0:0|0:0,0:0:0:0:
148,116,73450,2,0,L|152:76,2,40,2|0|0,0:0|0:0|0:0,0:0:0:0:
176,84,73688,2,0,L|180:124,2,40,2|0|0,0:0|0:0|0:0,0:0:0:0:
208,108,73926,2,0,L|212:68,2,40,2|0|0,0:0|0:0|0:0,0:0:0:0:
236,76,74164,2,0,L|240:116,2,40,2|0|0,0:0|0:0|0:0,0:0:0:0:
268,100,74402,2,0,L|272:60,2,40,2|0|0,0:0|0:0|0:0,0:0:0:0:
296,72,74641,1,0,0:0:0:0:
316,64,74760,1,0,0:0:0:0:
336,60,74879,1,0,0:0:0:0:
356,60,74998,1,0,0:0:0:0:
376,64,75117,5,8,0:0:0:0:
472,148,75355,1,0,0:0:0:0:
432,272,75593,1,0,0:0:0:0:
304,220,75831,1,0,0:0:0:0:
296,204,75951,1,0,0:0:0:0:
292,188,76070,1,4,0:0:0:0:
292,188,76849,6,0,L|296:64,1,120,2|0,0:0|0:0,0:0:0:0:
204,148,77244,2,0,L|216:260,2,80,2|2|2,0:0|0:0|0:0,0:0:0:0:
148,88,77638,5,4,0:0:0:0:
100,312,77836,1,0,0:0:0:0:
20,0,78033,2,0,L|136:8,1,96,0|2,0:0|0:0,0:0:0:0:
204,148,78428,2,0,P|168:168|100:152,1,96,8|0,0:0|0:0,0:0:0:0:
32,84,78823,1,2,0:0:0:0:
320,8,79020,6,0,L|324:116,1,96,4|0,0:0|0:0,0:0:0:0:
416,268,79415,2,0,L|412:172,2,96,0|4|0,0:0|0:0|0:0,0:0:0:0:
288,340,80007,2,0,L|176:332,1,96,8|0,0:0|0:0,0:0:0:0:
64,368,80402,1,0,0:0:0:0:
80,356,80796,6,0,P|88:328|80:256,1,96,4|0,0:0|0:0,0:0:0:0:
