osu file format v14

[General]
AudioFilename: All Mario Party Title Screens Music (1 - 9, Advance, DS).mp3
AudioLeadIn: 0
PreviewTime: -1
Countdown: 0
SampleSet: Normal
StackLeniency: 0.7
Mode: 1
LetterboxInBreaks: 0
WidescreenStoryboard: 0

[Editor]
Bookmarks: 390,35601,73573,99228,121355,147516,178119,203374,233225,310804,339866
DistanceSpacing: 1.6
BeatDivisor: 4
GridSize: 4
TimelineZoom: 1.9

[Metadata]
Title:Mario Party Title Screen Compilation
TitleUnicode:Mario Party Title Screen Compilation
Artist:Various Artists
ArtistUnicode:Various Artists
Creator:Niko-nyan
Version:Oni
Source:マリオパーティ
Tags:大峠進也 Hudson Soft series Nwolf Gero xtrem3x Hanjamon nintendo opening 俊樹アイーダ 涼介麻美 Shohei 任天堂 Go Lucky 山本裕直 坂東章平 澤口和彦 げんきにいこう! 光田康典 大峠進也 田中彩 八幡浩暢 塚原義弘 アドバンス Ntiger Frans_Niko マリオパーティのテーマ Mario Party no Theme Dream Party Time Welcome to Grand Opening 夢のパーティ パーティタイム マリオパーティへようこようこそ グランドオープニング Party on the GO! 64 DS GBA Gameboy Advance
BeatmapID:348640
BeatmapSetID:139578

[Difficulty]
HPDrainRate:6
CircleSize:4
OverallDifficulty:5.5
ApproachRate:7
SliderMultiplier:1.4
SliderTickRate:1

[Events]
//Background and Video events
0,0,"bgmario.jpg",0,-130
//Break Periods
2,115819,120455
2,226685,232325
//Storyboard Layer 0 (Background)
//Storyboard Layer 1 (Fail)
//Storyboard Layer 2 (Pass)
//Storyboard Layer 3 (Foreground)
//Storyboard Sound Samples

[TimingPoints]
2177,446.561476629949,4,1,0,65,1,0
23611,-83.3333333333333,4,1,0,65,0,1
34329,446.561476629949,4,1,0,65,1,8
35601,300,4,1,0,70,1,0
54801,-100,4,1,0,70,0,1
64401,-100,4,1,0,70,0,0
71601,300,4,1,0,70,1,0
73573,370.37037037037,4,1,0,50,1,0
98758,370.37037037037,4,1,0,65,1,8
99228,364.245647264515,6,1,0,70,1,0
121082,364.245647264515,4,1,0,65,1,8
121358,376.175548589342,4,1,0,60,1,0
146937,376.175548589342,4,1,0,65,1,8
147516,416.666666666667,4,1,0,70,1,0
177516,416.666666666667,4,1,0,65,1,8
178119,404.083941704157,4,1,0,50,1,0
202364,404.083941704157,4,1,0,50,1,8
203374,444.444444444444,4,1,0,70,1,0
206929,-90.9090909090909,4,1,0,70,0,0
231818,444.444444444444,4,1,0,65,1,8
233225,382.165605095541,4,1,0,70,1,0
263798,-83.3333333333333,4,1,0,70,0,1
274881,-83.3333333333333,4,1,0,30,0,0
276027,-100,4,1,0,70,0,0
309658,382.165605095541,4,1,0,65,1,8
310804,430.039706999613,4,1,0,60,1,0
338326,430.039706999613,4,1,0,60,1,8
339866,370.37037037037,4,1,0,50,1,0
396162,-100,4,1,0,40,0,0

[HitObjects]
208,152,390,5,4,0:0:0:0:
216,156,1730,1,12,0:0:0:0:
216,156,2177,1,12,0:0:0:0:
224,152,2511,1,8,0:0:0:0:
224,152,2623,1,0,0:0:0:0:
224,152,2846,1,8,0:0:0:0:
224,152,3293,1,0,0:0:0:0:
224,152,3516,1,0,0:0:0:0:
224,152,3628,1,8,0:0:0:0:
224,152,3739,1,0,0:0:0:0:
220,152,3963,1,0,0:0:0:0:
224,152,4298,1,0,0:0:0:0:
224,152,4409,1,8,0:0:0:0:
224,152,4633,1,4,0:0:0:0:
224,152,5302,1,0,0:0:0:0:
220,152,5749,1,4,0:0:0:0:
224,152,6084,1,8,0:0:0:0:
224,152,6196,1,0,0:0:0:0:
224,152,6419,1,8,0:0:0:0:
224,152,6865,1,0,0:0:0:0:
224,152,7089,1,0,0:0:0:0:
220,152,7200,1,8,0:0:0:0:
220,152,7312,1,8,0:0:0:0:
220,152,7535,1,0,0:0:0:0:
224,152,7870,1,0,0:0:0:0:
224,152,7982,1,8,0:0:0:0:
224,152,8205,1,12,0:0:0:0:
224,152,8875,1,0,0:0:0:0:
220,152,9321,1,4,0:0:0:0:
224,152,9656,1,8,0:0:0:0:
224,152,9768,1,0,0:0:0:0:
224,152,9991,1,8,0:0:0:0:
224,152,10438,1,0,0:0:0:0:
224,152,10661,1,8,0:0:0:0:
220,152,10773,1,0,0:0:0:0:
220,152,10884,1,0,0:0:0:0:
220,152,11108,1,0,0:0:0:0:
224,152,11443,1,0,0:0:0:0:
224,152,11554,1,8,0:0:0:0:
224,152,11778,1,4,0:0:0:0:
220,152,12894,1,12,0:0:0:0:
224,152,13229,1,0,0:0:0:0:
224,152,13341,1,0,0:0:0:0:
224,152,13564,1,8,0:0:0:0:
220,152,13899,1,0,0:0:0:0:
220,152,14010,1,0,0:0:0:0:
220,152,14234,1,12,0:0:0:0:
220,152,14569,1,0,0:0:0:0:
220,152,14680,1,0,0:0:0:0:
224,160,14904,1,8,0:0:0:0:
224,160,15238,1,0,0:0:0:0:
224,160,15350,1,0,0:0:0:0:
224,160,15573,1,8,0:0:0:0:
220,152,15685,1,0,0:0:0:0:
220,156,15797,1,0,0:0:0:0:
220,156,16020,1,0,0:0:0:0:
220,156,16243,1,8,0:0:0:0:
220,156,16466,1,4,0:0:0:0:
224,160,16690,1,8,0:0:0:0:
224,160,16913,1,8,0:0:0:0:
224,160,17136,1,0,0:0:0:0:
224,160,17360,1,8,0:0:0:0:
220,156,17806,1,0,0:0:0:0:
220,156,18029,1,8,0:0:0:0:
220,156,18253,1,8,0:0:0:0:
224,160,18364,1,8,0:0:0:0:
224,160,18476,1,0,0:0:0:0:
224,160,18699,1,8,0:0:0:0:
224,160,18923,1,0,0:0:0:0:
224,160,19146,1,8,0:0:0:0:
220,156,19369,1,8,0:0:0:0:
220,156,19592,1,0,0:0:0:0:
220,156,20039,1,8,0:0:0:0:
224,160,20262,1,8,0:0:0:0:
224,160,20486,1,0,0:0:0:0:
224,160,20709,1,0,0:0:0:0:
224,160,20932,1,8,0:0:0:0:
220,156,21379,1,0,0:0:0:0:
220,156,21602,1,8,0:0:0:0:
220,156,21825,1,8,0:0:0:0:
224,160,21937,1,8,0:0:0:0:
224,160,22048,1,0,0:0:0:0:
224,160,22272,1,0,0:0:0:0:
224,160,22383,1,8,0:0:0:0:
224,160,22495,1,0,0:0:0:0:
224,160,22718,1,0,0:0:0:0:
220,156,22942,1,0,0:0:0:0:
220,156,23165,1,2,0:0:0:0:
220,156,23611,1,8,0:0:0:0:
220,160,23946,1,0,0:0:0:0:
220,160,24281,1,0,0:0:0:0:
220,160,24616,1,0,0:0:0:0:
220,160,24839,1,8,0:0:0:0:
220,160,25063,1,8,0:0:0:0:
220,160,25174,1,0,0:0:0:0:
224,152,25398,1,0,0:0:0:0:
224,152,25509,1,8,0:0:0:0:
224,152,25733,1,8,0:0:0:0:
224,152,25844,1,8,0:0:0:0:
224,152,26068,1,8,0:0:0:0:
224,152,26179,1,0,0:0:0:0:
224,152,26402,1,0,0:0:0:0:
224,152,26626,1,0,0:0:0:0:
224,152,26737,1,8,0:0:0:0:
224,152,26849,1,0,0:0:0:0:
224,152,27184,1,8,0:0:0:0:
224,152,27519,1,0,0:0:0:0:
224,152,27854,1,0,0:0:0:0:
224,152,28189,1,0,0:0:0:0:
224,152,28412,1,8,0:0:0:0:
224,152,28635,1,8,0:0:0:0:
224,152,28747,1,0,0:0:0:0:
224,152,28970,1,0,0:0:0:0:
224,152,29082,1,8,0:0:0:0:
224,144,29305,1,8,0:0:0:0:
224,144,29417,1,8,0:0:0:0:
224,144,29640,1,8,0:0:0:0:
224,144,29752,1,0,0:0:0:0:
224,144,29975,1,0,0:0:0:0:
224,144,30198,1,0,0:0:0:0:
224,152,30310,1,8,0:0:0:0:
224,152,30422,1,0,0:0:0:0:
224,152,30756,1,0,0:0:0:0:
224,144,30980,1,0,0:0:0:0:
224,144,31091,1,8,0:0:0:0:
224,144,31203,1,8,0:0:0:0:
232,152,31315,1,0,0:0:0:0:
232,152,31538,1,0,0:0:0:0:
232,152,31761,1,0,0:0:0:0:
232,152,31873,1,8,0:0:0:0:
232,152,31984,1,0,0:0:0:0:
232,152,32208,1,8,0:0:0:0:
232,152,32319,1,0,0:0:0:0:
232,152,32431,1,8,0:0:0:0:
232,152,32766,1,8,0:0:0:0:
240,148,32878,1,8,0:0:0:0:
232,152,32989,1,0,0:0:0:0:
232,152,33101,1,8,0:0:0:0:
232,152,33324,1,0,0:0:0:0:
236,156,33771,1,8,0:0:0:0:
228,152,33882,1,8,0:0:0:0:
248,188,35601,5,8,0:0:0:0:
244,180,35901,1,0,0:0:0:0:
244,180,36101,1,0,0:0:0:0:
244,180,36201,1,8,0:0:0:0:
244,180,36401,1,8,0:0:0:0:
244,180,36701,1,0,0:0:0:0:
244,180,37001,1,0,0:0:0:0:
240,180,37101,1,8,0:0:0:0:
244,180,37401,1,8,0:0:0:0:
244,180,37701,1,0,0:0:0:0:
244,180,38001,1,12,0:0:0:0:
244,180,38501,1,4,0:0:0:0:
244,180,39201,1,4,0:0:0:0:
244,180,39701,1,12,0:0:0:0:
244,180,40001,1,8,0:0:0:0:
244,180,40101,1,0,0:0:0:0:
244,180,40401,1,8,0:0:0:0:
244,180,40701,1,0,0:0:0:0:
244,180,40901,1,0,0:0:0:0:
244,180,41001,1,8,0:0:0:0:
244,180,41226,1,8,0:0:0:0:
244,180,41501,1,0,0:0:0:0:
244,180,41801,1,0,0:0:0:0:
244,180,41901,1,8,0:0:0:0:
244,180,42201,1,8,0:0:0:0:
244,180,42501,1,0,0:0:0:0:
244,180,42801,1,12,0:0:0:0:
244,180,43301,1,4,0:0:0:0:
244,180,44001,1,12,0:0:0:0:
244,180,44501,1,4,0:0:0:0:
248,192,44901,1,0,0:0:0:0:
244,180,45201,1,0,0:0:0:0:
244,180,45501,1,0,0:0:0:0:
244,180,45701,1,0,0:0:0:0:
244,180,45801,1,8,0:0:0:0:
244,180,46001,1,8,0:0:0:0:
244,180,46301,1,0,0:0:0:0:
244,180,46601,1,0,0:0:0:0:
244,180,46701,1,0,0:0:0:0:
244,180,47001,1,8,0:0:0:0:
244,180,47301,1,0,0:0:0:0:
244,180,47601,1,8,0:0:0:0:
244,180,48101,1,8,0:0:0:0:
244,180,48501,1,0,0:0:0:0:
248,188,48801,1,8,0:0:0:0:
248,188,49101,1,0,0:0:0:0:
244,180,49401,1,8,0:0:0:0:
248,188,49701,1,8,0:0:0:0:
244,180,50001,1,0,0:0:0:0:
244,180,50301,1,8,0:0:0:0:
244,180,50501,1,0,0:0:0:0:
244,180,50601,1,8,0:0:0:0:
244,180,50801,1,8,0:0:0:0:
244,180,51101,1,8,0:0:0:0:
244,180,51401,1,0,0:0:0:0:
244,180,51501,1,8,0:0:0:0:
244,180,51801,1,8,0:0:0:0:
244,180,52101,1,0,0:0:0:0:
244,180,52401,1,12,0:0:0:0:
244,180,52901,1,4,0:0:0:0:
248,192,53301,1,0,0:0:0:0:
244,180,53601,1,12,0:0:0:0:
244,180,54126,1,12,0:0:0:0:
244,180,54401,1,0,0:0:0:0:
244,184,54451,1,0,0:0:0:0:
244,180,54501,1,0,0:0:0:0:
244,180,54801,1,8,0:0:0:0:
244,180,55101,1,0,0:0:0:0:
244,180,55301,1,0,0:0:0:0:
244,180,55401,1,8,0:0:0:0:
244,180,55601,1,8,0:0:0:0:
244,180,55901,1,0,0:0:0:0:
256,184,56201,1,0,0:0:0:0:
244,180,56301,1,8,0:0:0:0:
244,180,56601,1,8,0:0:0:0:
244,180,56901,1,0,0:0:0:0:
244,180,57201,1,12,0:0:0:0:
244,180,57701,1,4,0:0:0:0:
244,180,58401,1,4,0:0:0:0:
244,180,58901,1,12,0:0:0:0:
244,180,59201,1,8,0:0:0:0:
244,180,59301,1,0,0:0:0:0:
244,180,59601,1,8,0:0:0:0:
244,180,59901,1,0,0:0:0:0:
244,180,60101,1,0,0:0:0:0:
244,180,60201,1,8,0:0:0:0:
244,180,60401,1,8,0:0:0:0:
244,180,60701,1,0,0:0:0:0:
244,180,61001,1,0,0:0:0:0:
244,180,61101,1,8,0:0:0:0:
244,180,61401,1,8,0:0:0:0:
244,180,61701,1,0,0:0:0:0:
244,180,62001,1,12,0:0:0:0:
244,180,62501,1,4,0:0:0:0:
244,180,63201,1,12,0:0:0:0:
244,180,63701,1,12,0:0:0:0:
244,180,64101,1,0,0:0:0:0:
244,180,64401,1,8,0:0:0:0:
244,180,64701,1,0,0:0:0:0:
244,180,65301,1,0,0:0:0:0:
244,180,65601,1,8,0:0:0:0:
244,180,65901,1,0,0:0:0:0:
244,180,66101,1,0,0:0:0:0:
244,180,66201,1,0,0:0:0:0:
244,180,66501,1,0,0:0:0:0:
244,180,66801,1,8,0:0:0:0:
244,180,67101,1,0,0:0:0:0:
244,180,67301,1,8,0:0:0:0:
244,180,67601,1,8,0:0:0:0:
244,180,67701,1,0,0:0:0:0:
244,180,68001,1,0,0:0:0:0:
244,180,68601,1,12,0:0:0:0:
256,208,73573,1,0,0:0:0:0:
256,208,73943,1,8,0:0:0:0:
256,208,74128,1,8,0:0:0:0:
256,208,74313,1,0,0:0:0:0:
256,208,74498,1,8,0:0:0:0:
256,208,74684,1,8,0:0:0:0:
256,208,74869,1,0,0:0:0:0:
256,208,75424,1,8,0:0:0:0:
256,208,75795,1,8,0:0:0:0:
256,208,76165,1,0,0:0:0:0:
256,208,76535,1,0,0:0:0:0:
256,208,77091,1,8,0:0:0:0:
256,208,77276,1,0,0:0:0:0:
256,208,77461,1,8,0:0:0:0:
256,208,77554,1,0,0:0:0:0:
256,208,77647,1,0,0:0:0:0:
256,208,77832,1,8,0:0:0:0:
256,208,78387,1,8,0:0:0:0:
256,208,78758,1,0,0:0:0:0:
256,208,79128,1,8,0:0:0:0:
256,208,79498,1,0,0:0:0:0:
256,208,79869,1,8,0:0:0:0:
256,208,80054,1,0,0:0:0:0:
256,208,80424,1,0,0:0:0:0:
256,208,80610,1,8,0:0:0:0:
256,208,81165,1,8,0:0:0:0:
256,208,81721,1,8,0:0:0:0:
256,208,82091,1,0,0:0:0:0:
256,208,82461,1,8,0:0:0:0:
256,208,82647,1,0,0:0:0:0:
256,208,82832,1,8,0:0:0:0:
256,208,83017,1,0,0:0:0:0:
268,208,83110,1,0,0:0:0:0:
256,208,83202,1,0,0:0:0:0:
256,208,83387,1,8,0:0:0:0:
256,208,83758,1,4,0:0:0:0:
256,208,84128,1,12,0:0:0:0:
256,208,84313,1,12,0:0:0:0:
256,208,84498,1,12,0:0:0:0:
256,208,84684,1,4,0:0:0:0:
256,208,85054,1,8,0:0:0:0:
256,208,85239,1,0,0:0:0:0:
256,208,85332,1,0,0:0:0:0:
256,208,85424,1,8,0:0:0:0:
256,208,85795,1,0,0:0:0:0:
256,208,85980,1,8,0:0:0:0:
256,208,86165,1,0,0:0:0:0:
256,208,86350,1,0,0:0:0:0:
256,208,86535,1,8,0:0:0:0:
256,208,86721,1,8,0:0:0:0:
256,208,87276,1,8,0:0:0:0:
256,208,87647,1,0,0:0:0:0:
256,208,88017,1,0,0:0:0:0:
256,208,88387,1,8,0:0:0:0:
256,208,88943,1,0,0:0:0:0:
256,208,89498,1,0,0:0:0:0:
256,208,89869,1,8,0:0:0:0:
256,208,90610,1,0,0:0:0:0:
256,208,91165,1,8,0:0:0:0:
256,208,91258,1,8,0:0:0:0:
256,208,91350,1,0,0:0:0:0:
256,208,91906,1,8,0:0:0:0:
256,208,92461,1,0,0:0:0:0:
256,208,92832,1,8,0:0:0:0:
256,208,93017,1,0,0:0:0:0:
256,208,93202,1,0,0:0:0:0:
256,208,93387,1,8,0:0:0:0:
256,208,93572,1,8,0:0:0:0:
256,208,93758,1,8,0:0:0:0:
256,208,93850,1,8,0:0:0:0:
256,208,93943,1,8,0:0:0:0:
256,208,94313,1,4,0:0:0:0:
256,208,94498,1,4,0:0:0:0:
256,208,94684,1,4,0:0:0:0:
256,208,94869,1,12,0:0:0:0:
256,208,95239,1,4,0:0:0:0:
256,208,95610,1,12,0:0:0:0:
256,208,95795,1,12,0:0:0:0:
256,208,96535,1,0,0:0:0:0:
264,204,99228,1,8,0:0:0:0:
264,204,99592,1,8,0:0:0:0:
256,204,99774,1,0,0:0:0:0:
264,204,99956,1,0,0:0:0:0:
264,204,100138,1,8,0:0:0:0:
264,204,100320,1,8,0:0:0:0:
264,204,100684,1,0,0:0:0:0:
264,204,101049,1,8,0:0:0:0:
264,204,101413,1,0,0:0:0:0:
264,204,102141,1,0,0:0:0:0:
264,204,102506,1,8,0:0:0:0:
264,204,102870,1,8,0:0:0:0:
264,204,103234,1,0,0:0:0:0:
264,204,103416,1,0,0:0:0:0:
264,204,103598,1,8,0:0:0:0:
264,204,103963,1,0,0:0:0:0:
264,204,104145,1,0,0:0:0:0:
264,204,104327,1,8,0:0:0:0:
264,204,104509,1,0,0:0:0:0:
264,204,104691,1,8,0:0:0:0:
264,204,105055,1,0,0:0:0:0:
264,204,105420,1,8,0:0:0:0:
264,204,105784,1,8,0:0:0:0:
264,204,106877,1,0,0:0:0:0:
264,204,107969,1,8,0:0:0:0:
264,204,108334,1,0,0:0:0:0:
264,204,108516,1,8,0:0:0:0:
264,204,108698,1,8,0:0:0:0:
264,204,108880,1,0,0:0:0:0:
264,204,109062,1,8,0:0:0:0:
264,204,109426,1,0,0:0:0:0:
264,204,109791,1,8,0:0:0:0:
264,204,110155,1,0,0:0:0:0:
264,204,110701,1,8,0:0:0:0:
264,204,110883,1,0,0:0:0:0:
264,204,111065,1,0,0:0:0:0:
264,204,111248,1,8,0:0:0:0:
264,204,111612,1,8,0:0:0:0:
264,204,111794,1,0,0:0:0:0:
264,204,111976,1,0,0:0:0:0:
264,204,112158,1,8,0:0:0:0:
264,204,112340,1,0,0:0:0:0:
264,204,112705,1,8,0:0:0:0:
264,204,113251,1,0,0:0:0:0:
264,204,113433,1,8,0:0:0:0:
264,204,114162,1,8,0:0:0:0:
264,204,114253,1,0,0:0:0:0:
264,204,114344,1,0,0:0:0:0:
264,204,114526,1,12,0:0:0:0:
264,204,115254,1,0,0:0:0:0:
264,204,115619,1,8,0:0:0:0:
268,208,121355,5,8,0:0:0:0:
264,208,121546,1,0,0:0:0:0:
264,208,121922,1,0,0:0:0:0:
264,208,122110,1,8,0:0:0:0:
264,208,122486,1,8,0:0:0:0:
264,208,122862,1,8,0:0:0:0:
264,208,123050,1,0,0:0:0:0:
264,208,123426,1,0,0:0:0:0:
264,208,123803,1,0,0:0:0:0:
264,208,123991,1,8,0:0:0:0:
264,208,124273,1,8,0:0:0:0:
264,208,124555,1,0,0:0:0:0:
264,208,124837,1,0,0:0:0:0:
264,208,124931,1,8,0:0:0:0:
264,208,125119,1,8,0:0:0:0:
264,208,125495,1,8,0:0:0:0:
264,208,125872,1,8,0:0:0:0:
264,208,126060,1,0,0:0:0:0:
264,208,126154,1,0,0:0:0:0:
264,208,126248,1,8,0:0:0:0:
264,208,126342,1,8,0:0:0:0:
264,208,126436,1,0,0:0:0:0:
264,208,126530,1,0,0:0:0:0:
264,208,126624,1,8,0:0:0:0:
264,208,126718,1,8,0:0:0:0:
264,208,126812,1,0,0:0:0:0:
264,208,126906,1,0,0:0:0:0:
264,208,127000,1,0,0:0:0:0:
264,208,127188,1,0,0:0:0:0:
264,208,127564,1,8,0:0:0:0:
264,208,127847,1,0,0:0:0:0:
264,208,127941,1,8,0:0:0:0:
264,208,128129,1,8,0:0:0:0:
264,208,128881,1,0,0:0:0:0:
264,208,128975,1,0,0:0:0:0:
264,208,129069,1,8,0:0:0:0:
256,212,129351,1,0,0:0:0:0:
264,208,129445,1,8,0:0:0:0:
264,208,129633,1,8,0:0:0:0:
264,208,130386,1,8,0:0:0:0:
264,208,130480,1,8,0:0:0:0:
264,208,130574,1,8,0:0:0:0:
264,208,130856,1,0,0:0:0:0:
264,208,130950,1,8,0:0:0:0:
264,208,131138,1,8,0:0:0:0:
264,208,131514,1,8,0:0:0:0:
264,208,131890,1,8,0:0:0:0:
264,208,132079,1,0,0:0:0:0:
256,212,132173,1,0,0:0:0:0:
264,208,132267,1,8,0:0:0:0:
264,216,132361,1,8,0:0:0:0:
264,216,132455,1,0,0:0:0:0:
264,216,132549,1,0,0:0:0:0:
268,208,132643,1,8,0:0:0:0:
276,208,133207,1,0,0:0:0:0:
276,208,133583,1,8,0:0:0:0:
264,208,133771,1,0,0:0:0:0:
264,208,133865,1,0,0:0:0:0:
260,200,133959,1,8,0:0:0:0:
264,212,134147,1,8,0:0:0:0:
264,208,134524,1,8,0:0:0:0:
264,208,134900,1,8,0:0:0:0:
264,208,135088,1,0,0:0:0:0:
264,208,136216,1,8,0:0:0:0:
264,208,136593,1,8,0:0:0:0:
256,208,136875,1,0,0:0:0:0:
264,208,136969,1,8,0:0:0:0:
264,208,137157,1,8,0:0:0:0:
264,208,137533,1,8,0:0:0:0:
264,208,137909,1,8,0:0:0:0:
264,208,138097,1,0,0:0:0:0:
268,212,139226,1,0,0:0:0:0:
264,208,139320,1,8,0:0:0:0:
264,208,139414,1,0,0:0:0:0:
264,208,139508,1,0,0:0:0:0:
264,208,139602,1,8,0:0:0:0:
264,208,139884,1,8,0:0:0:0:
264,208,139978,1,8,0:0:0:0:
264,208,140166,1,0,0:0:0:0:
268,212,140448,1,0,0:0:0:0:
264,208,140542,1,0,0:0:0:0:
264,208,140731,1,8,0:0:0:0:
264,208,141013,1,8,0:0:0:0:
264,208,141107,1,0,0:0:0:0:
264,208,141295,1,0,0:0:0:0:
264,208,141577,1,0,0:0:0:0:
264,208,141671,1,0,0:0:0:0:
264,208,141859,1,8,0:0:0:0:
264,208,141953,1,0,0:0:0:0:
264,208,142047,1,0,0:0:0:0:
264,208,142141,1,0,0:0:0:0:
256,200,142235,1,8,0:0:0:0:
264,208,142329,1,0,0:0:0:0:
248,208,142423,1,0,0:0:0:0:
248,204,142517,1,0,0:0:0:0:
264,208,142611,1,8,0:0:0:0:
264,208,142705,1,8,0:0:0:0:
264,208,142800,1,8,0:0:0:0:
264,208,142894,1,8,0:0:0:0:
264,208,142988,1,0,0:0:0:0:
264,208,143082,1,0,0:0:0:0:
264,208,143176,1,0,0:0:0:0:
264,208,143270,1,0,0:0:0:0:
264,208,143364,1,8,0:0:0:0:
264,208,143458,1,8,0:0:0:0:
264,208,143552,1,0,0:0:0:0:
264,208,143646,1,0,0:0:0:0:
264,208,143740,1,0,0:0:0:0:
264,208,143834,1,8,0:0:0:0:
264,208,143928,1,8,0:0:0:0:
264,208,144304,1,8,0:0:0:0:
264,208,144680,1,8,0:0:0:0:
264,208,144868,1,8,0:0:0:0:
264,208,145245,1,4,0:0:0:0:
280,228,147516,1,0,0:0:0:0:
276,228,147828,1,8,0:0:0:0:
276,228,147932,1,0,0:0:0:0:
252,112,148141,1,0,0:0:0:0:
252,112,148557,1,8,0:0:0:0:
252,112,148974,1,8,0:0:0:0:
252,112,149182,1,0,0:0:0:0:
252,112,149599,1,8,0:0:0:0:
252,112,149703,1,0,0:0:0:0:
252,112,149807,1,8,0:0:0:0:
260,108,149911,1,8,0:0:0:0:
252,112,150016,1,0,0:0:0:0:
252,112,150224,1,0,0:0:0:0:
252,112,150328,1,0,0:0:0:0:
252,112,150432,1,8,0:0:0:0:
252,112,150641,1,0,0:0:0:0:
252,112,150745,1,0,0:0:0:0:
252,112,150849,1,8,0:0:0:0:
252,112,151057,1,8,0:0:0:0:
252,112,151266,1,0,0:0:0:0:
252,112,151370,1,0,0:0:0:0:
252,112,151474,1,8,0:0:0:0:
252,112,151891,1,8,0:0:0:0:
252,112,152307,1,8,0:0:0:0:
252,112,152516,1,8,0:0:0:0:
252,112,152932,1,8,0:0:0:0:
252,112,153141,1,0,0:0:0:0:
252,112,153349,1,8,0:0:0:0:
252,112,153766,1,0,0:0:0:0:
252,112,154182,1,4,0:0:0:0:
252,112,154391,1,8,0:0:0:0:
252,112,154495,1,0,0:0:0:0:
252,112,154599,1,8,0:0:0:0:
244,108,154703,1,8,0:0:0:0:
252,112,154807,1,0,0:0:0:0:
252,112,155224,1,0,0:0:0:0:
252,112,155849,1,8,0:0:0:0:
252,112,156057,1,8,0:0:0:0:
252,112,156161,1,0,0:0:0:0:
252,112,156266,1,8,0:0:0:0:
240,112,156370,1,8,0:0:0:0:
252,112,156474,1,8,0:0:0:0:
252,112,156891,1,0,0:0:0:0:
252,112,157307,1,8,0:0:0:0:
252,112,157411,1,8,0:0:0:0:
252,112,157516,1,0,0:0:0:0:
252,112,157932,1,0,0:0:0:0:
252,112,158349,1,8,0:0:0:0:
252,112,158661,1,0,0:0:0:0:
252,112,158974,1,0,0:0:0:0:
252,112,159182,1,8,0:0:0:0:
252,112,159286,1,0,0:0:0:0:
252,112,159391,1,0,0:0:0:0:
252,112,159495,1,0,0:0:0:0:
252,112,159599,1,8,0:0:0:0:
252,112,159703,1,0,0:0:0:0:
252,112,159807,1,0,0:0:0:0:
252,112,159911,1,0,0:0:0:0:
252,112,160016,1,8,0:0:0:0:
252,112,160120,1,0,0:0:0:0:
252,112,160224,1,0,0:0:0:0:
252,112,160328,1,0,0:0:0:0:
252,112,160432,1,8,0:0:0:0:
252,112,160641,1,0,0:0:0:0:
252,112,160745,1,0,0:0:0:0:
252,112,160849,1,8,0:0:0:0:
252,112,161161,1,0,0:0:0:0:
252,112,161266,1,8,0:0:0:0:
252,112,161474,1,8,0:0:0:0:
252,112,161891,1,8,0:0:0:0:
252,112,162307,1,0,0:0:0:0:
252,112,162516,1,8,0:0:0:0:
252,112,162620,1,0,0:0:0:0:
252,112,162724,1,8,0:0:0:0:
252,112,162828,1,8,0:0:0:0:
252,112,162932,1,0,0:0:0:0:
240,116,163036,1,0,0:0:0:0:
252,112,163141,1,8,0:0:0:0:
252,112,163245,1,8,0:0:0:0:
252,112,163349,1,0,0:0:0:0:
252,112,163453,1,0,0:0:0:0:
252,112,163557,1,0,0:0:0:0:
244,116,163661,1,8,0:0:0:0:
252,112,163766,1,0,0:0:0:0:
252,112,163974,1,0,0:0:0:0:
252,112,164078,1,0,0:0:0:0:
252,112,164182,1,8,0:0:0:0:
252,112,164495,1,0,0:0:0:0:
252,112,164599,1,8,0:0:0:0:
252,112,164807,1,8,0:0:0:0:
252,112,165224,1,8,0:0:0:0:
252,112,165641,1,8,0:0:0:0:
252,112,165745,1,0,0:0:0:0:
252,112,165849,1,8,0:0:0:0:
260,112,165953,1,8,0:0:0:0:
252,112,166057,1,0,0:0:0:0:
252,112,166266,1,8,0:0:0:0:
252,112,166474,1,0,0:0:0:0:
252,112,166578,1,8,0:0:0:0:
252,112,166786,1,8,0:0:0:0:
252,112,166891,1,0,0:0:0:0:
252,112,167099,1,0,0:0:0:0:
252,112,167516,1,0,0:0:0:0:
252,112,167724,1,0,0:0:0:0:
252,112,167828,1,0,0:0:0:0:
252,112,167932,1,8,0:0:0:0:
252,112,168141,1,8,0:0:0:0:
252,112,168557,1,0,0:0:0:0:
252,112,168974,1,0,0:0:0:0:
252,112,169078,1,0,0:0:0:0:
252,112,169182,1,8,0:0:0:0:
252,112,169391,1,8,0:0:0:0:
252,112,169495,1,8,0:0:0:0:
252,112,169599,1,0,0:0:0:0:
252,112,169807,1,8,0:0:0:0:
252,112,170224,1,8,0:0:0:0:
252,112,170328,1,8,0:0:0:0:
252,112,170432,1,0,0:0:0:0:
252,112,170641,1,0,0:0:0:0:
252,112,170849,1,0,0:0:0:0:
252,112,170953,1,8,0:0:0:0:
252,112,171057,1,8,0:0:0:0:
252,112,171266,1,0,0:0:0:0:
252,112,171370,1,8,0:0:0:0:
252,112,171578,1,8,0:0:0:0:
252,112,171682,1,0,0:0:0:0:
252,112,171891,1,0,0:0:0:0:
252,112,171995,1,0,0:0:0:0:
252,112,172099,1,8,0:0:0:0:
252,112,172203,1,0,0:0:0:0:
252,112,172307,1,0,0:0:0:0:
252,112,172411,1,0,0:0:0:0:
252,112,172516,1,8,0:0:0:0:
252,112,172620,1,8,0:0:0:0:
252,112,172724,1,0,0:0:0:0:
252,112,172828,1,0,0:0:0:0:
252,112,172932,1,8,0:0:0:0:
252,112,173036,1,8,0:0:0:0:
252,112,173141,1,0,0:0:0:0:
252,112,173245,1,0,0:0:0:0:
252,112,173349,1,8,0:0:0:0:
256,120,173766,1,12,0:0:0:0:
256,120,174182,1,12,0:0:0:0:
256,120,174391,1,12,0:0:0:0:
256,120,174807,1,4,0:0:0:0:
244,168,178119,1,8,0:0:0:0:
244,168,178725,1,0,0:0:0:0:
244,168,178826,1,0,0:0:0:0:
244,168,178927,1,8,0:0:0:0:
244,168,179533,1,0,0:0:0:0:
244,168,179634,1,0,0:0:0:0:
244,168,179735,1,8,0:0:0:0:
244,168,180139,1,0,0:0:0:0:
244,168,180240,1,0,0:0:0:0:
244,168,180341,1,8,0:0:0:0:
244,168,180543,1,0,0:0:0:0:
244,168,180745,1,8,0:0:0:0:
244,168,181149,1,8,0:0:0:0:
244,168,181351,1,8,0:0:0:0:
244,168,181755,1,8,0:0:0:0:
244,168,181957,1,0,0:0:0:0:
244,168,182159,1,8,0:0:0:0:
244,168,182361,1,0,0:0:0:0:
244,168,182765,1,0,0:0:0:0:
244,168,182968,1,8,0:0:0:0:
244,168,183170,1,0,0:0:0:0:
244,168,183372,1,8,0:0:0:0:
244,168,183574,1,8,0:0:0:0:
244,168,183776,1,0,0:0:0:0:
244,168,184180,1,0,0:0:0:0:
244,168,184382,1,0,0:0:0:0:
244,168,184584,1,8,0:0:0:0:
244,168,185190,1,8,0:0:0:0:
244,168,185392,1,8,0:0:0:0:
244,168,185796,1,0,0:0:0:0:
244,168,186200,1,0,0:0:0:0:
244,168,187008,1,0,0:0:0:0:
244,168,187412,1,0,0:0:0:0:
244,168,187817,1,8,0:0:0:0:
244,168,188221,1,8,0:0:0:0:
244,168,188423,1,0,0:0:0:0:
244,168,188827,1,0,0:0:0:0:
244,168,188928,1,0,0:0:0:0:
244,168,189029,1,8,0:0:0:0:
244,168,189231,1,8,0:0:0:0:
244,168,189433,1,0,0:0:0:0:
244,168,189837,1,0,0:0:0:0:
244,168,190039,1,0,0:0:0:0:
244,168,190241,1,8,0:0:0:0:
244,168,190443,1,0,0:0:0:0:
244,168,190645,1,8,0:0:0:0:
244,168,191049,1,0,0:0:0:0:
244,168,191150,1,0,0:0:0:0:
244,168,191251,1,8,0:0:0:0:
244,168,191655,1,0,0:0:0:0:
244,168,191756,1,0,0:0:0:0:
244,168,191857,1,8,0:0:0:0:
244,168,192261,1,8,0:0:0:0:
244,168,192463,1,0,0:0:0:0:
244,168,192565,1,0,0:0:0:0:
244,168,192666,1,8,0:0:0:0:
244,168,193070,1,0,0:0:0:0:
244,168,193171,1,0,0:0:0:0:
244,168,193272,1,8,0:0:0:0:
244,168,193474,1,0,0:0:0:0:
244,168,193676,1,8,0:0:0:0:
244,168,194080,1,0,0:0:0:0:
244,168,194282,1,8,0:0:0:0:
244,168,194686,1,8,0:0:0:0:
244,168,195090,1,8,0:0:0:0:
244,168,195494,1,8,0:0:0:0:
244,168,195898,1,8,0:0:0:0:
244,168,196302,1,8,0:0:0:0:
244,168,196504,1,0,0:0:0:0:
244,168,196908,1,0,0:0:0:0:
244,168,197110,1,8,0:0:0:0:
244,168,197312,1,0,0:0:0:0:
244,168,197515,1,8,0:0:0:0:
244,168,197919,1,8,0:0:0:0:
244,168,198121,1,0,0:0:0:0:
244,168,199131,1,0,0:0:0:0:
244,168,199333,1,0,0:0:0:0:
244,168,199535,1,8,0:0:0:0:
244,168,199737,1,0,0:0:0:0:
244,168,199939,1,0,0:0:0:0:
244,168,200141,1,0,0:0:0:0:
244,168,200343,1,8,0:0:0:0:
448,320,200747,2,0,B|440:140|368:32|44:56,1,560
216,196,203374,1,8,0:0:0:0:
216,196,203596,1,0,0:0:0:0:
216,196,203818,1,8,0:0:0:0:
216,196,203929,1,0,0:0:0:0:
216,196,204151,1,8,0:0:0:0:
216,196,204374,1,0,0:0:0:0:
216,196,204485,1,8,0:0:0:0:
216,196,204707,1,0,0:0:0:0:
216,196,204929,1,8,0:0:0:0:
216,196,205151,1,4,0:0:0:0:
216,196,205485,1,4,0:0:0:0:
216,196,205818,1,4,0:0:0:0:
248,200,206929,1,0,0:0:0:0:
216,196,207151,1,0,0:0:0:0:
248,200,207373,1,8,0:0:0:0:
248,200,207485,1,0,0:0:0:0:
248,200,207707,1,0,0:0:0:0:
248,200,207818,1,8,0:0:0:0:
248,200,208040,1,0,0:0:0:0:
248,200,208151,1,0,0:0:0:0:
248,200,208262,1,8,0:0:0:0:
248,200,208485,1,0,0:0:0:0:
248,200,208707,1,8,0:0:0:0:
248,200,208818,1,0,0:0:0:0:
248,200,208929,1,8,0:0:0:0:
248,200,209040,1,0,0:0:0:0:
248,200,209373,1,0,0:0:0:0:
248,200,209596,1,8,0:0:0:0:
248,200,209707,1,0,0:0:0:0:
248,200,209818,1,8,0:0:0:0:
248,200,209929,1,8,0:0:0:0:
248,200,210040,1,8,0:0:0:0:
248,200,210262,1,0,0:0:0:0:
248,200,210485,1,8,0:0:0:0:
248,200,210707,1,0,0:0:0:0:
248,200,210929,1,8,0:0:0:0:
248,200,211040,1,0,0:0:0:0:
248,200,211262,1,0,0:0:0:0:
248,200,211373,1,8,0:0:0:0:
248,200,211596,1,8,0:0:0:0:
248,200,211707,1,0,0:0:0:0:
248,200,211818,1,0,0:0:0:0:
248,200,212040,1,0,0:0:0:0:
248,200,212262,1,8,0:0:0:0:
248,200,212373,1,8,0:0:0:0:
248,200,212485,1,0,0:0:0:0:
248,200,212596,1,8,0:0:0:0:
248,200,212707,1,0,0:0:0:0:
248,200,212929,1,0,0:0:0:0:
248,200,213151,1,12,0:0:0:0:
248,200,213374,1,12,0:0:0:0:
248,200,213596,1,12,0:0:0:0:
248,200,214040,1,0,0:0:0:0:
248,200,214262,1,8,0:0:0:0:
248,200,214485,1,0,0:0:0:0:
248,200,214707,1,8,0:0:0:0:
248,200,214818,1,0,0:0:0:0:
248,200,215040,1,0,0:0:0:0:
248,200,215151,1,8,0:0:0:0:
248,200,215374,1,0,0:0:0:0:
248,200,215485,1,0,0:0:0:0:
248,200,215596,1,8,0:0:0:0:
248,200,215818,1,8,0:0:0:0:
248,200,216040,1,0,0:0:0:0:
248,200,216262,1,8,0:0:0:0:
248,200,216485,1,0,0:0:0:0:
248,200,216596,1,8,0:0:0:0:
248,200,216818,1,8,0:0:0:0:
248,200,216929,1,0,0:0:0:0:
248,200,217151,1,8,0:0:0:0:
248,200,217596,1,8,0:0:0:0:
248,200,217818,1,0,0:0:0:0:
248,200,218040,1,8,0:0:0:0:
248,200,218262,1,8,0:0:0:0:
248,200,218374,1,0,0:0:0:0:
248,200,218596,1,0,0:0:0:0:
248,200,218707,1,8,0:0:0:0:
248,200,218929,1,8,0:0:0:0:
248,200,219374,1,0,0:0:0:0:
248,200,219596,1,8,0:0:0:0:
248,200,219818,1,0,0:0:0:0:
248,200,220040,1,0,0:0:0:0:
248,200,220151,1,8,0:0:0:0:
248,200,220374,1,8,0:0:0:0:
248,200,220485,1,0,0:0:0:0:
248,200,220707,1,8,0:0:0:0:
248,200,221151,1,0,0:0:0:0:
248,200,221374,1,0,0:0:0:0:
248,200,221596,1,8,0:0:0:0:
248,200,221818,1,0,0:0:0:0:
248,200,221929,1,8,0:0:0:0:
248,200,222151,1,8,0:0:0:0:
248,200,222262,1,0,0:0:0:0:
248,200,222485,1,0,0:0:0:0:
248,200,222929,1,4,0:0:0:0:
248,200,223151,1,4,0:0:0:0:
248,200,223374,1,4,0:0:0:0:
248,200,223596,1,8,0:0:0:0:
248,200,223707,1,0,0:0:0:0:
248,200,223929,1,8,0:0:0:0:
248,200,224040,1,0,0:0:0:0:
248,200,224262,1,8,0:0:0:0:
248,200,224707,1,4,0:0:0:0:
248,200,225818,1,12,0:0:0:0:
248,200,226151,1,4,0:0:0:0:
248,200,226485,1,12,0:0:0:0:
244,192,233225,5,0,0:0:0:0:
244,192,233416,1,0,0:0:0:0:
244,192,233607,1,8,0:0:0:0:
244,192,233798,1,0,0:0:0:0:
244,192,234180,1,8,0:0:0:0:
244,192,234371,1,0,0:0:0:0:
244,192,234753,1,8,0:0:0:0:
244,192,234944,1,8,0:0:0:0:
244,192,235135,1,0,0:0:0:0:
244,192,235326,1,8,0:0:0:0:
244,192,235709,1,0,0:0:0:0:
244,192,235900,1,8,0:0:0:0:
244,192,235995,1,8,0:0:0:0:
244,192,236091,1,0,0:0:0:0:
244,192,236186,1,0,0:0:0:0:
244,192,236282,1,8,0:0:0:0:
244,192,236473,1,0,0:0:0:0:
244,192,236664,1,0,0:0:0:0:
244,192,236855,1,8,0:0:0:0:
244,192,237046,1,0,0:0:0:0:
244,192,237237,1,0,0:0:0:0:
244,192,237428,1,8,0:0:0:0:
244,192,237619,1,0,0:0:0:0:
244,192,237715,1,0,0:0:0:0:
244,192,237810,1,8,0:0:0:0:
244,192,238002,1,0,0:0:0:0:
244,192,238097,1,0,0:0:0:0:
244,192,238193,1,8,0:0:0:0:
244,192,238384,1,8,0:0:0:0:
244,192,238575,1,0,0:0:0:0:
244,192,238766,1,0,0:0:0:0:
244,192,238861,1,0,0:0:0:0:
244,192,238957,1,8,0:0:0:0:
244,192,239053,1,0,0:0:0:0:
244,192,239148,1,8,0:0:0:0:
416,64,239339,5,12,0:0:0:0:
416,64,239530,1,0,0:0:0:0:
416,64,239721,1,0,0:0:0:0:
416,64,239912,1,8,0:0:0:0:
416,64,240295,1,8,0:0:0:0:
416,64,240486,1,0,0:0:0:0:
415,64,240677,1,8,0:0:0:0:
416,64,240772,1,8,0:0:0:0:
416,64,240868,1,0,0:0:0:0:
416,64,241441,1,0,0:0:0:0:
415,64,241823,1,8,0:0:0:0:
415,64,241919,1,8,0:0:0:0:
416,64,242014,1,0,0:0:0:0:
416,64,242205,1,0,0:0:0:0:
416,64,242396,1,8,0:0:0:0:
416,64,242588,1,0,0:0:0:0:
416,64,242779,1,0,0:0:0:0:
416,64,242970,1,8,0:0:0:0:
416,64,243352,1,8,0:0:0:0:
416,64,243543,1,0,0:0:0:0:
416,64,243734,1,8,0:0:0:0:
416,64,243830,1,8,0:0:0:0:
416,64,243925,1,0,0:0:0:0:
416,64,244116,1,8,0:0:0:0:
416,64,244307,1,0,0:0:0:0:
416,64,244498,1,8,0:0:0:0:
415,64,244594,1,8,0:0:0:0:
416,64,244689,1,0,0:0:0:0:
415,64,244976,1,8,0:0:0:0:
416,64,245072,1,0,0:0:0:0:
415,64,245263,1,8,0:0:0:0:
415,64,245358,1,8,0:0:0:0:
416,64,245454,5,0,0:0:0:0:
224,160,245645,1,0,0:0:0:0:
224,160,245836,1,0,0:0:0:0:
288,160,246027,1,8,0:0:0:0:
288,160,246123,1,8,0:0:0:0:
224,160,246218,1,0,0:0:0:0:
288,160,246409,1,8,0:0:0:0:
280,168,246600,1,8,0:0:0:0:
288,160,246791,1,8,0:0:0:0:
224,224,246982,1,4,0:0:0:0:
288,160,247174,1,8,0:0:0:0:
224,160,247365,1,0,0:0:0:0:
288,224,247556,1,12,0:0:0:0:
224,160,247938,1,0,0:0:0:0:
288,224,248511,1,12,0:0:0:0:
288,160,249467,1,8,0:0:0:0:
288,160,249658,1,8,0:0:0:0:
288,160,249849,1,8,0:0:0:0:
288,160,249944,1,8,0:0:0:0:
224,160,250040,1,0,0:0:0:0:
216,160,250231,1,0,0:0:0:0:
224,160,250422,1,0,0:0:0:0:
288,160,250613,1,8,0:0:0:0:
224,160,250804,1,0,0:0:0:0:
288,160,250995,5,8,0:0:0:0:
288,160,251186,1,8,0:0:0:0:
256,188,251568,5,12,0:0:0:0:
256,188,251760,1,0,0:0:0:0:
256,188,251951,1,0,0:0:0:0:
256,188,252142,1,8,0:0:0:0:
276,188,252524,1,2,0:0:0:0:
276,188,252715,1,0,0:0:0:0:
256,188,252906,1,2,0:0:0:0:
256,188,253002,1,2,0:0:0:0:
256,188,253097,1,2,0:0:0:0:
256,188,253479,1,0,0:0:0:0:
256,188,253670,1,2,0:0:0:0:
256,188,254053,1,2,0:0:0:0:
256,188,254148,1,2,0:0:0:0:
256,188,254244,1,2,0:0:0:0:
256,188,254435,1,2,0:0:0:0:
256,188,254626,1,8,0:0:0:0:
256,188,254817,1,0,0:0:0:0:
256,188,255008,1,0,0:0:0:0:
256,188,255199,1,8,0:0:0:0:
256,188,255581,1,0,0:0:0:0:
256,188,255772,1,8,0:0:0:0:
256,188,255963,1,8,0:0:0:0:
256,188,256059,1,8,0:0:0:0:
256,188,256154,1,8,0:0:0:0:
256,188,256346,1,0,0:0:0:0:
256,188,256537,1,0,0:0:0:0:
256,188,256728,1,8,0:0:0:0:
256,188,256823,1,8,0:0:0:0:
256,188,256919,1,0,0:0:0:0:
256,188,257205,1,8,0:0:0:0:
256,188,257492,1,8,0:0:0:0:
256,188,257588,1,8,0:0:0:0:
256,188,257683,1,8,0:0:0:0:
224,160,257874,1,0,0:0:0:0:
224,160,258065,1,0,0:0:0:0:
288,160,258256,1,8,0:0:0:0:
288,160,258352,1,8,0:0:0:0:
224,160,258447,1,0,0:0:0:0:
288,160,258639,1,8,0:0:0:0:
224,160,258830,1,0,0:0:0:0:
288,160,259021,1,8,0:0:0:0:
224,224,259212,1,4,0:0:0:0:
224,160,259403,1,0,0:0:0:0:
288,160,259594,1,8,0:0:0:0:
288,224,259785,1,12,0:0:0:0:
288,224,260167,1,12,0:0:0:0:
224,160,260549,1,0,0:0:0:0:
288,224,260740,1,12,0:0:0:0:
288,160,261314,1,8,0:0:0:0:
288,160,261409,1,8,0:0:0:0:
288,160,261505,1,8,0:0:0:0:
224,160,261887,1,0,0:0:0:0:
288,224,262269,1,12,0:0:0:0:
224,160,262842,1,0,0:0:0:0:
224,160,263033,1,8,0:0:0:0:
224,160,263225,1,0,0:0:0:0:
224,160,263416,1,8,0:0:0:0:
224,160,263511,1,0,0:0:0:0:
224,160,263607,1,8,0:0:0:0:
416,64,263798,5,4,0:0:0:0:
416,64,263989,1,8,0:0:0:0:
416,64,264084,1,8,0:0:0:0:
416,64,264180,1,0,0:0:0:0:
416,64,264371,1,8,0:0:0:0:
416,64,264562,1,0,0:0:0:0:
416,64,264658,1,0,0:0:0:0:
416,64,264753,1,8,0:0:0:0:
416,64,264944,1,0,0:0:0:0:
416,64,265135,1,8,0:0:0:0:
416,64,265231,1,8,0:0:0:0:
416,64,265326,1,0,0:0:0:0:
416,64,265517,1,8,0:0:0:0:
416,64,265709,1,0,0:0:0:0:
416,64,265804,1,0,0:0:0:0:
416,64,265900,1,8,0:0:0:0:
416,64,266091,1,0,0:0:0:0:
416,64,266282,1,8,0:0:0:0:
416,64,266377,1,8,0:0:0:0:
416,64,266473,1,0,0:0:0:0:
416,64,266568,1,0,0:0:0:0:
416,64,266664,1,8,0:0:0:0:
416,64,266855,1,0,0:0:0:0:
416,64,267046,1,8,0:0:0:0:
416,64,267237,1,0,0:0:0:0:
416,64,267333,1,0,0:0:0:0:
416,64,267428,1,8,0:0:0:0:
416,64,267524,1,8,0:0:0:0:
416,64,267619,1,0,0:0:0:0:
416,64,267810,1,8,0:0:0:0:
416,64,268002,1,0,0:0:0:0:
416,64,268193,1,8,0:0:0:0:
416,64,268288,1,8,0:0:0:0:
416,64,268384,1,0,0:0:0:0:
416,64,268575,1,8,0:0:0:0:
416,64,268766,1,0,0:0:0:0:
416,64,268861,1,8,0:0:0:0:
416,64,268957,1,0,0:0:0:0:
416,64,269053,1,0,0:0:0:0:
415,64,269148,1,8,0:0:0:0:
416,64,269339,1,8,0:0:0:0:
416,64,269435,1,8,0:0:0:0:
416,64,269530,1,0,0:0:0:0:
416,64,269626,1,8,0:0:0:0:
416,64,269721,1,0,0:0:0:0:
416,64,269912,5,4,0:0:0:0:
256,192,270103,1,0,0:0:0:0:
256,192,270295,1,8,0:0:0:0:
256,192,270486,1,0,0:0:0:0:
256,192,270581,1,0,0:0:0:0:
256,192,270677,1,8,0:0:0:0:
256,192,270868,1,8,0:0:0:0:
256,192,271059,1,8,0:0:0:0:
256,192,271250,1,0,0:0:0:0:
256,192,271346,1,0,0:0:0:0:
256,192,271441,1,8,0:0:0:0:
256,192,271632,1,0,0:0:0:0:
256,192,271823,1,8,0:0:0:0:
256,192,272014,1,8,0:0:0:0:
256,192,272205,1,0,0:0:0:0:
256,192,272301,1,2,0:0:0:0:
256,192,272396,1,2,0:0:0:0:
256,192,272492,1,0,0:0:0:0:
256,192,272588,1,2,0:0:0:0:
256,192,272683,1,2,0:0:0:0:
256,192,272779,1,0,0:0:0:0:
256,192,272970,1,12,0:0:0:0:
256,192,273161,1,4,0:0:0:0:
256,192,273543,1,4,0:0:0:0:
256,192,273925,1,4,0:0:0:0:
256,192,274116,1,12,0:0:0:0:
256,192,274498,1,8,0:0:0:0:
256,192,275135,1,8,0:0:0:0:
256,192,275199,1,8,0:0:0:0:
260,196,275263,1,8,0:0:0:0:
340,160,276027,5,4,0:0:0:0:
236,212,276218,1,0,0:0:0:0:
300,232,276314,1,0,0:0:0:0:
340,160,276409,1,8,0:0:0:0:
232,212,276600,1,8,0:0:0:0:
436,116,276982,1,0,0:0:0:0:
340,160,277174,1,8,0:0:0:0:
232,212,277365,1,0,0:0:0:0:
288,184,277460,1,0,0:0:0:0:
340,164,277556,1,8,0:0:0:0:
152,308,277938,1,0,0:0:0:0:
244,240,278129,1,8,0:0:0:0:
420,100,278511,1,0,0:0:0:0:
380,132,278607,1,0,0:0:0:0:
352,152,278702,1,8,0:0:0:0:
272,216,278893,1,8,0:0:0:0:
356,152,279084,1,4,0:0:0:0:
272,216,279275,1,0,0:0:0:0:
280,272,279371,1,8,0:0:0:0:
356,152,279467,1,8,0:0:0:0:
268,216,279658,1,0,0:0:0:0:
452,88,280040,1,8,0:0:0:0:
396,188,280231,1,0,0:0:0:0:
264,220,280422,1,8,0:0:0:0:
308,188,280517,1,8,0:0:0:0:
348,220,280613,1,8,0:0:0:0:
372,256,281282,1,8,0:0:0:0:
348,232,281377,1,0,0:0:0:0:
212,108,281664,1,8,0:0:0:0:
344,232,281951,1,8,0:0:0:0:
300,192,282046,1,8,0:0:0:0:
504,384,282142,1,0,0:0:0:0:
132,172,282333,1,8,0:0:0:0:
248,160,282524,1,0,0:0:0:0:
180,164,282619,1,0,0:0:0:0:
128,168,282715,1,0,0:0:0:0:
236,160,282810,1,0,0:0:0:0:
236,160,282906,1,8,0:0:0:0:
236,160,283097,1,8,0:0:0:0:
236,160,283288,1,0,0:0:0:0:
236,160,283479,1,0,0:0:0:0:
236,160,283575,1,8,0:0:0:0:
236,160,283670,1,8,0:0:0:0:
236,160,283861,1,8,0:0:0:0:
236,160,284053,1,0,0:0:0:0:
236,160,284148,1,0,0:0:0:0:
236,160,284244,1,8,0:0:0:0:
236,160,284626,1,8,0:0:0:0:
236,160,285008,1,8,0:0:0:0:
236,160,285103,5,0,0:0:0:0:
236,160,285199,1,8,0:0:0:0:
236,160,285390,1,0,0:0:0:0:
236,160,285581,1,8,0:0:0:0:
236,160,285677,1,0,0:0:0:0:
236,160,285772,1,8,0:0:0:0:
236,160,285868,1,8,0:0:0:0:
236,160,285963,1,0,0:0:0:0:
236,160,286346,1,0,0:0:0:0:
236,160,286537,1,0,0:0:0:0:
236,160,286728,1,12,0:0:0:0:
420,292,287110,1,0,0:0:0:0:
328,228,287301,1,0,0:0:0:0:
284,208,287396,1,0,0:0:0:0:
328,228,287492,1,8,0:0:0:0:
328,228,287683,5,8,0:0:0:0:
328,228,287874,1,0,0:0:0:0:
328,228,287970,1,0,0:0:0:0:
328,228,288065,1,0,0:0:0:0:
328,228,288161,1,0,0:0:0:0:
328,228,288256,5,8,0:0:0:0:
316,224,288447,1,0,0:0:0:0:
316,224,288639,1,0,0:0:0:0:
316,224,288830,1,8,0:0:0:0:
316,224,289212,1,0,0:0:0:0:
316,224,289403,1,8,0:0:0:0:
316,224,289498,1,0,0:0:0:0:
316,224,289594,1,0,0:0:0:0:
316,224,289689,1,0,0:0:0:0:
316,224,289785,1,8,0:0:0:0:
316,224,289976,1,0,0:0:0:0:
316,224,290167,1,8,0:0:0:0:
316,224,290358,1,8,0:0:0:0:
328,216,290740,1,8,0:0:0:0:
328,216,291123,1,0,0:0:0:0:
328,216,291314,1,8,0:0:0:0:
328,216,291887,1,8,0:0:0:0:
328,216,291982,1,8,0:0:0:0:
328,216,292078,1,0,0:0:0:0:
328,216,292460,1,0,0:0:0:0:
328,216,292842,1,8,0:0:0:0:
328,216,294371,1,8,0:0:0:0:
328,216,294562,1,0,0:0:0:0:
328,216,294753,1,0,0:0:0:0:
328,216,294944,1,8,0:0:0:0:
328,216,295326,1,0,0:0:0:0:
328,216,295517,1,8,0:0:0:0:
328,216,295613,1,0,0:0:0:0:
328,216,295709,1,0,0:0:0:0:
328,216,295900,1,8,0:0:0:0:
328,216,296091,1,0,0:0:0:0:
328,216,296282,1,8,0:0:0:0:
328,216,296473,1,8,0:0:0:0:
328,216,296855,1,8,0:0:0:0:
328,216,297237,1,0,0:0:0:0:
328,216,297428,1,8,0:0:0:0:
328,216,298575,1,8,0:0:0:0:
328,216,298766,1,0,0:0:0:0:
320,236,298957,1,0,0:0:0:0:
320,224,299721,1,0,0:0:0:0:
212,180,300486,5,0,0:0:0:0:
212,180,300677,1,0,0:0:0:0:
212,180,300868,1,8,0:0:0:0:
212,180,301059,1,0,0:0:0:0:
212,180,301441,1,8,0:0:0:0:
212,180,301632,1,0,0:0:0:0:
212,180,302014,1,8,0:0:0:0:
212,180,302205,1,8,0:0:0:0:
212,180,302396,1,0,0:0:0:0:
212,180,302588,1,8,0:0:0:0:
212,180,302970,1,0,0:0:0:0:
212,180,303161,1,8,0:0:0:0:
212,180,303256,1,8,0:0:0:0:
216,184,303352,1,0,0:0:0:0:
212,180,303447,1,0,0:0:0:0:
212,180,303543,1,8,0:0:0:0:
212,180,303734,1,0,0:0:0:0:
212,180,303925,1,0,0:0:0:0:
212,180,304116,1,8,0:0:0:0:
212,180,304307,1,0,0:0:0:0:
212,180,304498,1,0,0:0:0:0:
212,180,304689,1,8,0:0:0:0:
212,180,304881,1,0,0:0:0:0:
204,184,304976,1,0,0:0:0:0:
212,180,305072,1,8,0:0:0:0:
212,180,305263,1,0,0:0:0:0:
204,184,305358,1,0,0:0:0:0:
212,180,305454,1,8,0:0:0:0:
212,180,305645,1,8,0:0:0:0:
212,180,305836,1,0,0:0:0:0:
204,184,306027,1,0,0:0:0:0:
204,184,306123,1,0,0:0:0:0:
212,180,306218,1,8,0:0:0:0:
204,184,306314,1,0,0:0:0:0:
204,184,306409,1,8,0:0:0:0:
212,180,306600,1,4,0:0:0:0:
264,192,310804,5,8,0:0:0:0:
268,192,311234,1,8,0:0:0:0:
260,192,311664,1,0,0:0:0:0:
260,192,312094,1,0,0:0:0:0:
260,192,312524,1,8,0:0:0:0:
260,192,312954,1,0,0:0:0:0:
260,192,313169,1,8,0:0:0:0:
260,192,313670,1,0,0:0:0:0:
260,192,313814,1,0,0:0:0:0:
260,192,313957,1,0,0:0:0:0:
260,192,314100,1,8,0:0:0:0:
260,192,314244,1,8,0:0:0:0:
260,192,314674,1,0,0:0:0:0:
260,192,315104,1,0,0:0:0:0:
260,192,315534,1,0,0:0:0:0:
260,192,315821,1,8,0:0:0:0:
260,192,316394,1,8,0:0:0:0:
260,192,316681,1,0,0:0:0:0:
260,192,317111,1,0,0:0:0:0:
260,192,317254,1,8,0:0:0:0:
260,192,317397,1,0,0:0:0:0:
260,192,317541,1,0,0:0:0:0:
260,192,317684,1,8,0:0:0:0:
260,192,318114,1,8,0:0:0:0:
260,192,318544,1,0,0:0:0:0:
260,192,318831,1,0,0:0:0:0:
260,192,319261,1,8,0:0:0:0:
260,192,319691,1,8,0:0:0:0:
260,192,319834,1,0,0:0:0:0:
260,192,320121,1,0,0:0:0:0:
260,192,320551,1,0,0:0:0:0:
260,192,320694,1,0,0:0:0:0:
260,192,320981,1,8,0:0:0:0:
260,192,321124,1,0,0:0:0:0:
260,192,321411,1,0,0:0:0:0:
260,192,321554,1,8,0:0:0:0:
260,192,321985,1,0,0:0:0:0:
260,192,322271,1,0,0:0:0:0:
260,192,322415,1,8,0:0:0:0:
260,192,322701,1,0,0:0:0:0:
260,192,323131,1,0,0:0:0:0:
260,192,323275,1,0,0:0:0:0:
260,192,323561,1,8,0:0:0:0:
260,192,323991,1,8,0:0:0:0:
260,192,324135,1,0,0:0:0:0:
260,192,324565,1,8,0:0:0:0:
260,192,324995,1,0,0:0:0:0:
260,192,325425,1,8,0:0:0:0:
260,192,325712,1,0,0:0:0:0:
260,192,325855,1,0,0:0:0:0:
260,192,326142,1,8,0:0:0:0:
260,192,326572,1,8,0:0:0:0:
260,192,326715,1,0,0:0:0:0:
260,192,327037,1,8,0:0:0:0:
260,192,327432,1,8,0:0:0:0:
260,192,327575,1,8,0:0:0:0:
260,192,327718,1,0,0:0:0:0:
260,192,327862,1,0,0:0:0:0:
260,192,328005,1,8,0:0:0:0:
260,192,328435,1,0,0:0:0:0:
260,192,328865,1,0,0:0:0:0:
260,192,329152,1,0,0:0:0:0:
260,192,329295,1,8,0:0:0:0:
260,192,329582,1,8,0:0:0:0:
260,192,330012,1,2,0:0:0:0:
260,192,330585,1,0,0:0:0:0:
260,192,330872,1,8,0:0:0:0:
260,192,331302,1,8,0:0:0:0:
260,192,331732,1,8,0:0:0:0:
260,192,331875,1,8,0:0:0:0:
260,192,332019,1,0,0:0:0:0:
260,192,332162,1,0,0:0:0:0:
260,192,332305,1,8,0:0:0:0:
256,192,333058,1,8,0:0:0:0:
260,192,333452,1,8,0:0:0:0:
260,192,333596,1,8,0:0:0:0:
260,192,333739,1,0,0:0:0:0:
256,192,333882,1,0,0:0:0:0:
256,192,334026,1,8,0:0:0:0:
256,192,334456,1,8,0:0:0:0:
256,192,334599,1,0,0:0:0:0:
256,192,334742,1,8,0:0:0:0:
260,192,335244,1,0,0:0:0:0:
256,192,335316,1,8,0:0:0:0:
256,192,335746,1,0,0:0:0:0:
256,192,336104,1,8,0:0:0:0:
256,192,336176,1,0,0:0:0:0:
256,192,336463,1,0,0:0:0:0:
256,192,337036,1,4,0:0:0:0:
244,192,339866,1,12,0:0:0:0:
244,192,340236,1,12,0:0:0:0:
244,192,340606,1,12,0:0:0:0:
244,192,340791,1,0,0:0:0:0:
244,192,340977,1,8,0:0:0:0:
244,192,341162,1,0,0:0:0:0:
244,192,341347,1,8,0:0:0:0:
244,192,341532,1,8,0:0:0:0:
244,192,341717,1,0,0:0:0:0:
244,192,341903,1,8,0:0:0:0:
244,192,342273,1,0,0:0:0:0:
244,192,342366,1,0,0:0:0:0:
244,192,342458,1,8,0:0:0:0:
244,192,342551,1,0,0:0:0:0:
244,192,342643,1,8,0:0:0:0:
244,192,342828,1,4,0:0:0:0:
244,192,343199,1,4,0:0:0:0:
244,192,343569,1,4,0:0:0:0:
244,192,343754,1,8,0:0:0:0:
244,192,343940,1,0,0:0:0:0:
244,192,344125,1,0,0:0:0:0:
244,192,344310,1,8,0:0:0:0:
244,192,344495,1,8,0:0:0:0:
244,192,344680,1,0,0:0:0:0:
244,192,344866,1,8,0:0:0:0:
244,192,345236,1,0,0:0:0:0:
244,192,345791,1,12,0:0:0:0:
244,192,346162,1,0,0:0:0:0:
244,192,346532,1,8,0:0:0:0:
244,192,346717,1,0,0:0:0:0:
244,192,346903,1,0,0:0:0:0:
244,192,347088,1,8,0:0:0:0:
244,192,347273,1,8,0:0:0:0:
244,192,347458,1,0,0:0:0:0:
244,192,347643,1,8,0:0:0:0:
244,192,347828,1,8,0:0:0:0:
244,192,348199,1,0,0:0:0:0:
244,192,348384,1,8,0:0:0:0:
244,192,348569,1,0,0:0:0:0:
244,192,348754,1,8,0:0:0:0:
244,192,348940,1,8,0:0:0:0:
244,192,349125,1,0,0:0:0:0:
244,192,349310,1,0,0:0:0:0:
244,192,349680,1,0,0:0:0:0:
244,192,349866,1,0,0:0:0:0:
244,192,350051,1,8,0:0:0:0:
244,192,350236,1,0,0:0:0:0:
244,192,350791,1,8,0:0:0:0:
244,192,351347,1,0,0:0:0:0:
244,192,351717,1,8,0:0:0:0:
244,192,352273,1,0,0:0:0:0:
244,192,352828,1,0,0:0:0:0:
244,192,353014,1,8,0:0:0:0:
244,192,353199,1,4,0:0:0:0:
244,192,353569,1,4,0:0:0:0:
244,192,353940,1,4,0:0:0:0:
244,192,354125,1,8,0:0:0:0:
244,192,354310,1,0,0:0:0:0:
244,192,354495,1,8,0:0:0:0:
244,192,354680,1,8,0:0:0:0:
244,192,354866,1,0,0:0:0:0:
244,192,355051,1,0,0:0:0:0:
244,192,355236,1,8,0:0:0:0:
244,192,355606,1,0,0:0:0:0:
244,192,355791,1,0,0:0:0:0:
244,192,355977,1,0,0:0:0:0:
244,192,356162,1,12,0:0:0:0:
244,192,356532,1,8,0:0:0:0:
244,192,356717,1,0,0:0:0:0:
248,192,356810,1,0,0:0:0:0:
244,192,356903,1,8,0:0:0:0:
244,192,357088,1,0,0:0:0:0:
244,192,357273,1,8,0:0:0:0:
244,192,357643,1,0,0:0:0:0:
244,192,357828,1,0,0:0:0:0:
244,192,358014,1,8,0:0:0:0:
244,192,358199,1,0,0:0:0:0:
248,184,358569,1,0,0:0:0:0:
248,184,358754,1,8,0:0:0:0:
248,184,358940,1,0,0:0:0:0:
244,192,359125,1,8,0:0:0:0:
244,192,359495,1,8,0:0:0:0:
244,192,359866,1,0,0:0:0:0:
244,192,360051,1,0,0:0:0:0:
244,192,360236,1,8,0:0:0:0:
244,192,360606,1,0,0:0:0:0:
244,192,360791,1,0,0:0:0:0:
244,192,360977,1,8,0:0:0:0:
244,192,361162,1,0,0:0:0:0:
244,192,361347,1,0,0:0:0:0:
244,192,361532,1,0,0:0:0:0:
240,196,361625,1,0,0:0:0:0:
244,192,361717,1,8,0:0:0:0:
240,196,361903,1,0,0:0:0:0:
244,192,362088,1,8,0:0:0:0:
244,192,362458,1,8,0:0:0:0:
244,192,362643,1,0,0:0:0:0:
244,192,362828,1,8,0:0:0:0:
240,196,363199,1,0,0:0:0:0:
244,192,363569,1,8,0:0:0:0:
240,196,363754,1,8,0:0:0:0:
244,196,363940,1,8,0:0:0:0:
244,200,364125,1,0,0:0:0:0:
240,196,364495,1,8,0:0:0:0:
240,196,364680,1,0,0:0:0:0:
244,192,364866,1,0,0:0:0:0:
244,192,365051,1,8,0:0:0:0:
244,192,365421,1,8,0:0:0:0:
240,196,365606,1,0,0:0:0:0:
236,188,365791,1,8,0:0:0:0:
236,188,366162,1,0,0:0:0:0:
244,192,366532,1,8,0:0:0:0:
236,188,366717,1,0,0:0:0:0:
236,188,366903,1,0,0:0:0:0:
244,192,367088,1,8,0:0:0:0:
236,188,367458,1,8,0:0:0:0:
244,192,367643,1,8,0:0:0:0:
236,188,367828,1,0,0:0:0:0:
244,192,368014,1,12,0:0:0:0:
240,196,368384,1,8,0:0:0:0:
244,192,368569,1,0,0:0:0:0:
240,196,368754,1,8,0:0:0:0:
244,192,369125,1,0,0:0:0:0:
244,192,369495,1,8,0:0:0:0:
244,192,369680,1,8,0:0:0:0:
244,192,369865,1,0,0:0:0:0:
244,192,370051,1,8,0:0:0:0:
244,192,370421,1,8,0:0:0:0:
244,192,370606,1,0,0:0:0:0:
244,192,370977,1,8,0:0:0:0:
240,200,371347,1,8,0:0:0:0:
240,200,371532,1,0,0:0:0:0:
240,200,371717,1,8,0:0:0:0:
240,200,372088,1,0,0:0:0:0:
244,192,372458,1,8,0:0:0:0:
244,192,372643,1,0,0:0:0:0:
244,192,372828,1,8,0:0:0:0:
244,192,373014,1,8,0:0:0:0:
244,192,373384,1,8,0:0:0:0:
244,192,373569,1,8,0:0:0:0:
240,200,373754,1,0,0:0:0:0:
244,192,373940,1,12,0:0:0:0:
256,200,374310,1,8,0:0:0:0:
256,200,374495,1,0,0:0:0:0:
244,192,374680,1,0,0:0:0:0:
256,200,375051,1,8,0:0:0:0:
244,192,375421,1,8,0:0:0:0:
244,192,375606,1,0,0:0:0:0:
244,192,375791,1,8,0:0:0:0:
244,192,375977,1,0,0:0:0:0:
244,192,376347,1,0,0:0:0:0:
244,192,376532,1,8,0:0:0:0:
244,192,376903,1,0,0:0:0:0:
256,204,377273,1,8,0:0:0:0:
244,200,377458,1,0,0:0:0:0:
244,192,377643,1,0,0:0:0:0:
256,204,378014,1,8,0:0:0:0:
244,192,378384,1,8,0:0:0:0:
244,192,378569,1,0,0:0:0:0:
244,192,378754,1,0,0:0:0:0:
244,192,378940,1,8,0:0:0:0:
244,192,379310,1,0,0:0:0:0:
244,192,379495,1,8,0:0:0:0:
244,192,379865,1,0,0:0:0:0:
256,204,380236,1,8,0:0:0:0:
248,200,380421,1,0,0:0:0:0:
244,192,380606,1,8,0:0:0:0:
256,204,380977,1,8,0:0:0:0:
244,192,381347,1,8,0:0:0:0:
244,192,381532,1,8,0:0:0:0:
244,192,381717,1,0,0:0:0:0:
244,192,381903,1,8,0:0:0:0:
244,192,382273,1,8,0:0:0:0:
244,192,382458,1,0,0:0:0:0:
244,192,382828,1,0,0:0:0:0:
256,204,383199,1,8,0:0:0:0:
240,196,383384,1,0,0:0:0:0:
244,192,383569,1,8,0:0:0:0:
256,204,383940,1,8,0:0:0:0:
244,192,384310,1,8,0:0:0:0:
244,192,384495,1,0,0:0:0:0:
244,192,384680,1,8,0:0:0:0:
244,192,384865,1,8,0:0:0:0:
244,192,385236,1,8,0:0:0:0:
244,192,385421,1,0,0:0:0:0:
244,192,385791,1,12,0:0:0:0:
256,204,386162,1,8,0:0:0:0:
224,204,386347,1,0,0:0:0:0:
244,192,386532,1,8,0:0:0:0:
256,204,386903,1,8,0:0:0:0:
244,192,387273,1,8,0:0:0:0:
244,192,387458,1,8,0:0:0:0:
244,192,387643,1,0,0:0:0:0:
244,192,387828,1,8,0:0:0:0:
244,192,388199,1,8,0:0:0:0:
244,192,388384,1,0,0:0:0:0:
244,192,388754,1,0,0:0:0:0:
256,204,389125,1,8,0:0:0:0:
256,200,389310,1,0,0:0:0:0:
244,192,389495,1,8,0:0:0:0:
256,204,389865,1,8,0:0:0:0:
244,192,390236,1,8,0:0:0:0:
244,192,390421,1,0,0:0:0:0:
244,192,390606,1,0,0:0:0:0:
244,192,390791,1,8,0:0:0:0:
244,192,391162,1,8,0:0:0:0:
244,192,391347,1,0,0:0:0:0:
244,192,391717,1,4,0:0:0:0:
256,204,392088,1,8,0:0:0:0:
244,192,392458,1,0,0:0:0:0:
244,192,392643,1,0,0:0:0:0:
256,204,392828,1,8,0:0:0:0:
244,192,393199,1,8,0:0:0:0:
256,204,393569,1,8,0:0:0:0:
244,192,393940,1,0,0:0:0:0:
244,192,394125,1,0,0:0:0:0:
256,204,394310,1,8,0:0:0:0:
244,192,394680,1,0,0:0:0:0:
256,204,395051,1,8,0:0:0:0:
244,192,395421,1,0,0:0:0:0:
244,192,395606,1,0,0:0:0:0:
256,204,395791,1,8,0:0:0:0:
244,192,396162,1,0,0:0:0:0:
244,192,396347,1,0,0:0:0:0:
256,204,396532,1,8,0:0:0:0:
244,192,396717,1,0,0:0:0:0:
244,192,397088,1,8,0:0:0:0:
244,192,397273,1,0,0:0:0:0:
244,192,397643,1,0,0:0:0:0:
