osu file format v14

[General]
AudioFilename: MBC Sports ____ _____.mp3
AudioLeadIn: 0
PreviewTime: 1838
Countdown: 1
SampleSet: Normal
StackLeniency: 0.7
Mode: 0
LetterboxInBreaks: 1
WidescreenStoryboard: 1

[Editor]
DistanceSpacing: 1.3
BeatDivisor: 4
GridSize: 8
TimelineZoom: 1

[Metadata]
Title:MBC ESPN Proyagu Highlight
TitleUnicode:MBC ESPN 프로야구 하이라이트
Artist:Various Artists
ArtistUnicode:Various Artists
Creator:Doyak
Version:3 Out, Change!
Source:
Tags:
BeatmapID:894673
BeatmapSetID:412419

[Difficulty]
HPDrainRate:7
CircleSize:4
OverallDifficulty:7
ApproachRate:8
SliderMultiplier:1.8
SliderTickRate:1

[Events]
//Background and Video events
0,0,"maxresdefault.jpg",0,0
//Break Periods
//Storyboard Layer 0 (Background)
//Storyboard Layer 1 (Fail)
//Storyboard Layer 2 (Pass)
//Storyboard Layer 3 (Foreground)
//Storyboard Sound Samples

[TimingPoints]
1005,476.190476190476,4,1,0,50,1,0
1957,476.190476190476,4,1,0,50,1,1
2076,-100,4,1,0,50,0,0
24814,-100,4,1,0,50,0,1
24933,-100,4,1,0,50,0,0

[HitObjects]
141,306,1005,6,0,L|161:170,1,135
201,131,1481,2,0,L|214:220,1,90
413,319,1957,5,0,0:0:0:0:
413,129,2195,1,0,0:0:0:0:
301,282,2433,1,0,0:0:0:0:
481,224,2671,1,0,0:0:0:0:
301,165,2909,6,0,P|309:72|385:14,1,180
481,224,3623,2,0,P|478:270|471:326,1,90
292,254,4099,2,0,P|294:209|300:164,1,90
360,349,4576,1,0,0:0:0:0:
412,131,4814,5,0,0:0:0:0:
188,200,5052,1,0,0:0:0:0:
262,337,5290,2,0,P|286:287|292:241,1,90
188,10,5766,5,0,0:0:0:0:
76,163,6004,1,0,0:0:0:0:
256,105,6242,1,0,0:0:0:0:
76,46,6480,1,0,0:0:0:0:
188,200,6718,6,0,P|279:219|356:163,1,180
444,107,7433,2,0,P|464:148|459:206,1,90
323,313,7909,1,0,0:0:0:0:
256,105,8147,1,0,0:0:0:0:
189,313,8385,5,0,0:0:0:0:
365,184,8623,1,0,0:0:0:0:
147,184,8861,1,0,0:0:0:0:
189,313,9099,2,0,P|229:294|258:260,1,90
420,61,9576,5,0,0:0:0:0:
241,131,9814,1,0,0:0:0:0:
365,184,10052,1,0,0:0:0:0:
296,6,10290,1,0,0:0:0:0:
228,210,10528,6,0,P|160:146|195:62,1,180
345,217,11242,2,0,P|341:262|335:307,1,90
450,183,11718,2,0,P|443:138|439:93,1,90
430,312,12195,1,0,0:0:0:0:
327,115,12433,6,0,P|286:115|240:131,1,90
315,300,12909,2,0,P|335:264|344:216,1,90
165,205,13385,5,0,0:0:0:0:
0,304,13623,1,0,0:0:0:0:
32,171,13861,1,0,0:0:0:0:
131,335,14099,1,0,0:0:0:0:
188,120,14337,6,0,P|261:107|243:187,1,180
109,88,15052,2,0,P|134:46|179:19,1,90
272,267,15528,2,0,P|223:266|177:240,1,90
391,116,16004,5,0,0:0:0:0:
474,310,16242,1,0,0:0:0:0:
280,151,16480,1,0,0:0:0:0:
435,42,16718,2,0,P|466:73|477:124,1,90
319,232,17195,2,0,B|269:251|226:223|226:223|198:250,2,135
361,122,18147,6,0,P|316:127|278:152,1,90
323,259,18623,2,0,P|368:254|406:229,1,90
212,239,19099,2,0,B|159:244|127:278|127:278|81:266,1,135
38,236,19576,2,0,P|38:281|47:325,1,90
113,148,20052,2,0,P|113:103|104:59,1,90
212,239,20528,1,0,0:0:0:0:
346,71,20766,1,0,0:0:0:0:
438,272,21004,6,0,P|359:339|292:307,1,180
249,133,21718,1,0,0:0:0:0:
424,161,21956,1,0,0:0:0:0:
171,285,22314,1,0,0:0:0:0:
346,71,22671,1,0,0:0:0:0:
165,105,22909,6,0,P|181:190|262:220,1,180
512,159,23861,2,0,L|492:295,1,135
452,334,24337,2,0,L|439:245,1,90
316,90,24814,5,0,0:0:0:0:
