osu file format v14

[General]
AudioFilename: The Memories of Phantasm.mp3
AudioLeadIn: 0
PreviewTime: 61008
Countdown: 1
SampleSet: Normal
StackLeniency: 0.7
Mode: 3
LetterboxInBreaks: 1
SpecialStyle: 0
WidescreenStoryboard: 0

[Editor]
DistanceSpacing: 2
BeatDivisor: 8
GridSize: 8
TimelineZoom: 1.6

[Metadata]
Title:Hestia's 1st Pack
TitleUnicode:Hestia's 1st Pack
Artist:Various Artists
ArtistUnicode:Various Artists
Creator:Hestiaaa
Version:Though the Scent Lingers, the Flower Scattered[7]
Source:
Tags:
BeatmapID:893790
BeatmapSetID:411939

[Difficulty]
HPDrainRate:8
CircleSize:4
OverallDifficulty:8
ApproachRate:5
SliderMultiplier:1.4
SliderTickRate:1

[Events]
//Background and Video events
0,0,"beautiful_frendship_nice_cute_girls_touhou_hd-wallpaper-1587098.jpg",0,0
//Break Periods
//Storyboard Layer 0 (Background)
//Storyboard Layer 1 (Fail)
//Storyboard Layer 2 (Pass)
//Storyboard Layer 3 (Foreground)
//Storyboard Sound Samples

[TimingPoints]
139,434.782608695652,4,1,0,13,1,0

[HitObjects]
448,192,1443,5,0,0:0:0:0:
320,192,1660,1,0,0:0:0:0:
64,192,1878,1,0,0:0:0:0:
448,192,1878,1,0,0:0:0:0:
448,192,2965,1,0,0:0:0:0:
64,192,3073,1,0,0:0:0:0:
320,192,3182,1,0,0:0:0:0:
192,192,3399,1,0,0:0:0:0:
448,192,3617,1,0,0:0:0:0:
320,192,3617,1,0,0:0:0:0:
448,192,4921,1,0,0:0:0:0:
192,192,5138,1,0,0:0:0:0:
320,192,5356,1,0,0:0:0:0:
448,192,5356,1,0,0:0:0:0:
192,192,6225,1,0,0:0:0:0:
320,192,6443,1,0,0:0:0:0:
448,192,6660,1,0,0:0:0:0:
320,192,6878,1,0,0:0:0:0:
448,192,7095,1,0,0:0:0:0:
192,192,7095,1,0,0:0:0:0:
448,192,8182,1,0,0:0:0:0:
320,192,8399,1,0,0:0:0:0:
192,192,8617,1,0,0:0:0:0:
320,192,8834,1,0,0:0:0:0:
448,192,8834,1,0,0:0:0:0:
64,192,9052,128,0,9269:0:0:0:0:
192,192,9269,128,0,9486:0:0:0:0:
320,192,9486,128,0,9704:0:0:0:0:
448,192,9704,128,0,9921:0:0:0:0:
64,192,9921,1,0,0:0:0:0:
192,192,10138,1,0,0:0:0:0:
320,192,10356,1,0,0:0:0:0:
64,192,10573,1,0,0:0:0:0:
320,192,10573,1,0,0:0:0:0:
448,192,10791,128,0,11008:0:0:0:0:
320,192,11008,128,0,11225:0:0:0:0:
192,192,11225,128,0,11443:0:0:0:0:
64,192,11443,128,0,11660:0:0:0:0:
192,192,11878,1,0,0:0:0:0:
320,192,12095,1,0,0:0:0:0:
448,192,12312,1,0,0:0:0:0:
192,192,12312,1,0,0:0:0:0:
64,192,12965,1,0,0:0:0:0:
320,192,13291,128,0,14052:0:0:0:0:
192,192,14052,128,0,17312:0:0:0:0:
448,192,17965,1,0,0:0:0:0:
320,192,17965,1,0,0:0:0:0:
192,192,17965,1,0,0:0:0:0:
448,192,18073,1,0,0:0:0:0:
64,192,18073,1,0,0:0:0:0:
320,192,18182,1,0,0:0:0:0:
192,192,18182,1,0,0:0:0:0:
64,192,18291,1,0,0:0:0:0:
448,192,18399,1,0,0:0:0:0:
320,192,18399,1,0,0:0:0:0:
192,192,18399,1,0,0:0:0:0:
64,192,18399,1,0,0:0:0:0:
448,192,18508,1,0,0:0:0:0:
192,192,18617,1,0,0:0:0:0:
64,192,18617,1,0,0:0:0:0:
64,192,18725,1,0,0:0:0:0:
320,192,18725,1,0,0:0:0:0:
320,192,18834,1,0,0:0:0:0:
448,192,18834,1,0,0:0:0:0:
192,192,18834,1,0,0:0:0:0:
448,192,18943,1,0,0:0:0:0:
320,192,19052,1,0,0:0:0:0:
192,192,19052,1,0,0:0:0:0:
448,192,19160,1,0,0:0:0:0:
64,192,19269,1,0,0:0:0:0:
192,192,19269,1,0,0:0:0:0:
320,192,19269,1,0,0:0:0:0:
448,192,19269,1,0,0:0:0:0:
320,192,19378,1,0,0:0:0:0:
192,192,19486,1,0,0:0:0:0:
64,192,19486,1,0,0:0:0:0:
192,192,19595,1,0,0:0:0:0:
448,192,19595,1,0,0:0:0:0:
320,192,19704,1,0,0:0:0:0:
448,192,19704,1,0,0:0:0:0:
64,192,19704,1,0,0:0:0:0:
320,192,19812,1,0,0:0:0:0:
64,192,19921,1,0,0:0:0:0:
192,192,19921,1,0,0:0:0:0:
320,192,20030,1,0,0:0:0:0:
64,192,20138,1,0,0:0:0:0:
192,192,20138,1,0,0:0:0:0:
320,192,20138,1,0,0:0:0:0:
448,192,20138,1,0,0:0:0:0:
192,192,20247,1,0,0:0:0:0:
448,192,20356,1,0,0:0:0:0:
64,192,20356,1,0,0:0:0:0:
448,192,20465,1,0,0:0:0:0:
192,192,20465,1,0,0:0:0:0:
192,192,20573,1,0,0:0:0:0:
320,192,20573,1,0,0:0:0:0:
64,192,20573,1,0,0:0:0:0:
320,192,20682,1,0,0:0:0:0:
448,192,20791,1,0,0:0:0:0:
192,192,20791,1,0,0:0:0:0:
64,192,20899,1,0,0:0:0:0:
448,192,21008,1,0,0:0:0:0:
320,192,21008,1,0,0:0:0:0:
192,192,21008,1,0,0:0:0:0:
64,192,21008,1,0,0:0:0:0:
320,192,21117,1,0,0:0:0:0:
192,192,21225,1,0,0:0:0:0:
64,192,21225,1,0,0:0:0:0:
448,192,21334,1,0,0:0:0:0:
64,192,21443,1,0,0:0:0:0:
192,192,21443,1,0,0:0:0:0:
448,192,21443,1,0,0:0:0:0:
320,192,21443,1,0,0:0:0:0:
64,192,21552,1,0,0:0:0:0:
320,192,21660,1,0,0:0:0:0:
192,192,21660,1,0,0:0:0:0:
192,192,21769,1,0,0:0:0:0:
448,192,21769,1,0,0:0:0:0:
320,192,21878,1,0,0:0:0:0:
448,192,21878,1,0,0:0:0:0:
64,192,21878,1,0,0:0:0:0:
320,192,21986,1,0,0:0:0:0:
192,192,22095,1,0,0:0:0:0:
64,192,22095,1,0,0:0:0:0:
448,192,22204,1,0,0:0:0:0:
64,192,22312,1,0,0:0:0:0:
192,192,22312,1,0,0:0:0:0:
320,192,22312,1,0,0:0:0:0:
448,192,22312,1,0,0:0:0:0:
192,192,22421,1,0,0:0:0:0:
64,192,22530,1,0,0:0:0:0:
448,192,22530,1,0,0:0:0:0:
320,192,22638,1,0,0:0:0:0:
320,192,22747,1,0,0:0:0:0:
448,192,22747,1,0,0:0:0:0:
192,192,22747,1,0,0:0:0:0:
64,192,22747,1,0,0:0:0:0:
64,192,22856,1,0,0:0:0:0:
448,192,22965,1,0,0:0:0:0:
320,192,22965,1,0,0:0:0:0:
448,192,23073,1,0,0:0:0:0:
192,192,23073,1,0,0:0:0:0:
192,192,23182,1,0,0:0:0:0:
64,192,23182,1,0,0:0:0:0:
320,192,23182,1,0,0:0:0:0:
64,192,23291,1,0,0:0:0:0:
448,192,23399,1,0,0:0:0:0:
320,192,23399,1,0,0:0:0:0:
192,192,23508,1,0,0:0:0:0:
448,192,23617,1,0,0:0:0:0:
320,192,23617,1,0,0:0:0:0:
192,192,23617,1,0,0:0:0:0:
64,192,23617,1,0,0:0:0:0:
448,192,23725,1,0,0:0:0:0:
192,192,23834,1,0,0:0:0:0:
64,192,23834,1,0,0:0:0:0:
64,192,23943,1,0,0:0:0:0:
320,192,23943,1,0,0:0:0:0:
448,192,24052,1,0,0:0:0:0:
320,192,24052,1,0,0:0:0:0:
192,192,24052,1,0,0:0:0:0:
448,192,24160,1,0,0:0:0:0:
192,192,24269,1,0,0:0:0:0:
64,192,24269,1,0,0:0:0:0:
320,192,24378,1,0,0:0:0:0:
64,192,24486,1,0,0:0:0:0:
192,192,24486,1,0,0:0:0:0:
320,192,24486,1,0,0:0:0:0:
448,192,24486,1,0,0:0:0:0:
192,192,24595,1,0,0:0:0:0:
448,192,24704,1,0,0:0:0:0:
64,192,24704,1,0,0:0:0:0:
320,192,24704,1,0,0:0:0:0:
192,192,24812,1,0,0:0:0:0:
320,192,24921,1,0,0:0:0:0:
448,192,24921,1,0,0:0:0:0:
192,192,24921,1,0,0:0:0:0:
64,192,24921,1,0,0:0:0:0:
320,192,25030,1,0,0:0:0:0:
192,192,25138,1,0,0:0:0:0:
64,192,25138,1,0,0:0:0:0:
64,192,25247,1,0,0:0:0:0:
320,192,25247,1,0,0:0:0:0:
192,192,25356,1,0,0:0:0:0:
320,192,25356,1,0,0:0:0:0:
448,192,25356,1,0,0:0:0:0:
192,192,25465,1,0,0:0:0:0:
448,192,25573,1,0,0:0:0:0:
320,192,25573,1,0,0:0:0:0:
64,192,25682,1,0,0:0:0:0:
448,192,25791,1,0,0:0:0:0:
320,192,25791,1,0,0:0:0:0:
192,192,25791,1,0,0:0:0:0:
64,192,25791,1,0,0:0:0:0:
448,192,25899,1,0,0:0:0:0:
320,192,26008,1,0,0:0:0:0:
192,192,26008,1,0,0:0:0:0:
192,192,26117,1,0,0:0:0:0:
320,192,26225,1,0,0:0:0:0:
64,192,26225,1,0,0:0:0:0:
448,192,26225,1,0,0:0:0:0:
448,192,26334,1,0,0:0:0:0:
192,192,26443,1,0,0:0:0:0:
64,192,26443,1,0,0:0:0:0:
320,192,26443,1,0,0:0:0:0:
448,192,26552,1,0,0:0:0:0:
448,192,26660,1,0,0:0:0:0:
320,192,26660,1,0,0:0:0:0:
192,192,26660,1,0,0:0:0:0:
64,192,26660,1,0,0:0:0:0:
64,192,26769,1,0,0:0:0:0:
320,192,26878,1,0,0:0:0:0:
192,192,26878,1,0,0:0:0:0:
448,192,26986,1,0,0:0:0:0:
320,192,27095,1,0,0:0:0:0:
448,192,27095,1,0,0:0:0:0:
192,192,27095,1,0,0:0:0:0:
64,192,27095,1,0,0:0:0:0:
192,192,27204,1,0,0:0:0:0:
448,192,27312,1,0,0:0:0:0:
320,192,27312,1,0,0:0:0:0:
64,192,27312,1,0,0:0:0:0:
448,192,27421,1,0,0:0:0:0:
192,192,27421,1,0,0:0:0:0:
64,192,27530,1,0,0:0:0:0:
192,192,27530,1,0,0:0:0:0:
320,192,27530,1,0,0:0:0:0:
448,192,27638,1,0,0:0:0:0:
320,192,27747,1,0,0:0:0:0:
448,192,27747,1,0,0:0:0:0:
192,192,27856,1,0,0:0:0:0:
448,192,27965,1,0,0:0:0:0:
320,192,27965,1,0,0:0:0:0:
192,192,27965,1,0,0:0:0:0:
64,192,27965,1,0,0:0:0:0:
320,192,28073,1,0,0:0:0:0:
192,192,28182,1,0,0:0:0:0:
64,192,28182,1,0,0:0:0:0:
64,192,28291,1,0,0:0:0:0:
448,192,28291,1,0,0:0:0:0:
192,192,28399,1,0,0:0:0:0:
320,192,28399,1,0,0:0:0:0:
448,192,28399,1,0,0:0:0:0:
192,192,28508,1,0,0:0:0:0:
320,192,28617,1,0,0:0:0:0:
64,192,28617,1,0,0:0:0:0:
448,192,28617,1,0,0:0:0:0:
192,192,28725,1,0,0:0:0:0:
320,192,28834,1,0,0:0:0:0:
192,192,28834,1,0,0:0:0:0:
64,192,28834,1,0,0:0:0:0:
448,192,28834,1,0,0:0:0:0:
448,192,28943,1,0,0:0:0:0:
192,192,29052,1,0,0:0:0:0:
320,192,29052,1,0,0:0:0:0:
320,192,29160,1,0,0:0:0:0:
64,192,29160,1,0,0:0:0:0:
192,192,29269,1,0,0:0:0:0:
64,192,29269,1,0,0:0:0:0:
448,192,29269,1,0,0:0:0:0:
192,192,29378,1,0,0:0:0:0:
448,192,29486,1,0,0:0:0:0:
320,192,29486,1,0,0:0:0:0:
448,192,29595,1,0,0:0:0:0:
64,192,29595,1,0,0:0:0:0:
320,192,29704,1,0,0:0:0:0:
192,192,29704,1,0,0:0:0:0:
64,192,29704,1,0,0:0:0:0:
320,192,29812,1,0,0:0:0:0:
448,192,29921,1,0,0:0:0:0:
64,192,29921,1,0,0:0:0:0:
192,192,30030,1,0,0:0:0:0:
448,192,30138,1,0,0:0:0:0:
320,192,30138,1,0,0:0:0:0:
192,192,30138,1,0,0:0:0:0:
64,192,30138,1,0,0:0:0:0:
448,192,30247,1,0,0:0:0:0:
320,192,30247,1,0,0:0:0:0:
64,192,30356,1,0,0:0:0:0:
320,192,30356,1,0,0:0:0:0:
192,192,30465,1,0,0:0:0:0:
448,192,30465,1,0,0:0:0:0:
192,192,30573,1,0,0:0:0:0:
64,192,30573,1,0,0:0:0:0:
320,192,30573,1,0,0:0:0:0:
192,192,30682,1,0,0:0:0:0:
64,192,30791,1,0,0:0:0:0:
448,192,30791,1,0,0:0:0:0:
64,192,30899,1,0,0:0:0:0:
192,192,30899,1,0,0:0:0:0:
64,192,31008,1,0,0:0:0:0:
320,192,31008,1,0,0:0:0:0:
448,192,31008,1,0,0:0:0:0:
192,192,31117,1,0,0:0:0:0:
320,192,31225,1,0,0:0:0:0:
64,192,31225,1,0,0:0:0:0:
192,192,31225,1,0,0:0:0:0:
320,192,31334,1,0,0:0:0:0:
448,192,31443,1,0,0:0:0:0:
320,192,31443,1,0,0:0:0:0:
64,192,31443,1,0,0:0:0:0:
448,192,31552,1,0,0:0:0:0:
192,192,31552,1,0,0:0:0:0:
64,192,31552,1,0,0:0:0:0:
448,192,31660,1,0,0:0:0:0:
320,192,31660,1,0,0:0:0:0:
192,192,31660,1,0,0:0:0:0:
192,192,31769,1,0,0:0:0:0:
64,192,31769,1,0,0:0:0:0:
320,192,31878,1,0,0:0:0:0:
192,192,31878,1,0,0:0:0:0:
64,192,31878,1,0,0:0:0:0:
448,192,31878,1,0,0:0:0:0:
448,192,32530,128,0,32747:0:0:0:0:
320,192,32747,128,0,33073:0:0:0:0:
192,192,33073,128,0,33399:0:0:0:0:
64,192,33399,128,0,33617:0:0:0:0:
320,192,33617,1,0,0:0:0:0:
448,192,33617,1,0,0:0:0:0:
192,192,33617,128,0,34269:0:0:0:0:
448,192,34269,128,0,34486:0:0:0:0:
320,192,34486,128,0,34812:0:0:0:0:
192,192,34812,128,0,35138:0:0:0:0:
320,192,35138,128,0,35356:0:0:0:0:
448,192,35356,128,0,37095:0:0:0:0:
320,192,37095,1,0,0:0:0:0:
64,192,37095,1,0,0:0:0:0:
448,192,37965,128,0,38399:0:0:0:0:
320,192,38399,128,0,38834:0:0:0:0:
64,192,38834,1,0,0:0:0:0:
448,192,38834,128,0,39704:0:0:0:0:
320,192,39052,1,0,0:0:0:0:
64,192,39269,1,0,0:0:0:0:
192,192,39269,1,0,0:0:0:0:
192,192,39486,1,0,0:0:0:0:
320,192,39704,1,0,0:0:0:0:
64,192,39704,128,0,40030:0:0:0:0:
192,192,39704,1,0,0:0:0:0:
192,192,39921,1,0,0:0:0:0:
320,192,40030,128,0,40356:0:0:0:0:
448,192,40138,1,0,0:0:0:0:
192,192,40356,128,0,40573:0:0:0:0:
64,192,40356,1,0,0:0:0:0:
448,192,40573,128,0,41117:0:0:0:0:
320,192,40573,1,0,0:0:0:0:
64,192,40573,1,0,0:0:0:0:
320,192,40791,1,0,0:0:0:0:
64,192,41008,1,0,0:0:0:0:
320,192,41225,1,0,0:0:0:0:
192,192,41443,128,0,41769:0:0:0:0:
448,192,41443,1,0,0:0:0:0:
64,192,41660,1,0,0:0:0:0:
320,192,41769,128,0,42095:0:0:0:0:
448,192,41878,1,0,0:0:0:0:
448,192,42095,128,0,42747:0:0:0:0:
64,192,42095,1,0,0:0:0:0:
192,192,42312,1,0,0:0:0:0:
320,192,42530,1,0,0:0:0:0:
64,192,42747,128,0,43182:0:0:0:0:
192,192,42747,1,0,0:0:0:0:
320,192,42747,1,0,0:0:0:0:
320,192,42965,1,0,0:0:0:0:
320,192,43182,128,0,43617:0:0:0:0:
192,192,43182,1,0,0:0:0:0:
448,192,43182,1,0,0:0:0:0:
64,192,43399,1,0,0:0:0:0:
448,192,43617,128,0,44052:0:0:0:0:
192,192,43617,1,0,0:0:0:0:
64,192,43617,1,0,0:0:0:0:
320,192,43834,1,0,0:0:0:0:
192,192,44052,128,0,44704:0:0:0:0:
64,192,44052,1,0,0:0:0:0:
320,192,44052,1,0,0:0:0:0:
448,192,44269,1,0,0:0:0:0:
64,192,44486,1,0,0:0:0:0:
320,192,44486,1,0,0:0:0:0:
320,192,44704,128,0,44921:0:0:0:0:
448,192,44704,1,0,0:0:0:0:
192,192,44921,1,0,0:0:0:0:
64,192,44921,1,0,0:0:0:0:
448,192,44921,128,0,45573:0:0:0:0:
64,192,45791,1,0,0:0:0:0:
192,192,45791,1,0,0:0:0:0:
320,192,45791,1,0,0:0:0:0:
448,192,45845,1,0,0:0:0:0:
320,192,45899,1,0,0:0:0:0:
64,192,45954,1,0,0:0:0:0:
192,192,46008,1,0,0:0:0:0:
320,192,46062,1,0,0:0:0:0:
448,192,46117,1,0,0:0:0:0:
64,192,46117,1,0,0:0:0:0:
192,192,46171,1,0,0:0:0:0:
448,192,46225,1,0,0:0:0:0:
320,192,46280,1,0,0:0:0:0:
192,192,46334,1,0,0:0:0:0:
64,192,46388,1,0,0:0:0:0:
320,192,46443,1,0,0:0:0:0:
448,192,46497,1,0,0:0:0:0:
64,192,46552,1,0,0:0:0:0:
192,192,46606,1,0,0:0:0:0:
448,192,46660,1,0,0:0:0:0:
320,192,46715,1,0,0:0:0:0:
192,192,46769,1,0,0:0:0:0:
64,192,46823,1,0,0:0:0:0:
448,192,46878,1,0,0:0:0:0:
320,192,46932,1,0,0:0:0:0:
64,192,46986,1,0,0:0:0:0:
448,192,47041,1,0,0:0:0:0:
192,192,47095,1,0,0:0:0:0:
64,192,47149,1,0,0:0:0:0:
448,192,47204,1,0,0:0:0:0:
320,192,47258,1,0,0:0:0:0:
192,192,47312,1,0,0:0:0:0:
64,192,47367,1,0,0:0:0:0:
320,192,47421,1,0,0:0:0:0:
448,192,47475,1,0,0:0:0:0:
64,192,47530,1,0,0:0:0:0:
192,192,47584,1,0,0:0:0:0:
320,192,47638,1,0,0:0:0:0:
448,192,47693,1,0,0:0:0:0:
64,192,47747,1,0,0:0:0:0:
192,192,47802,1,0,0:0:0:0:
448,192,47856,1,0,0:0:0:0:
320,192,47910,1,0,0:0:0:0:
192,192,47965,1,0,0:0:0:0:
64,192,48019,1,0,0:0:0:0:
320,192,48073,1,0,0:0:0:0:
448,192,48128,1,0,0:0:0:0:
192,192,48182,1,0,0:0:0:0:
64,192,48236,1,0,0:0:0:0:
448,192,48291,1,0,0:0:0:0:
320,192,48345,1,0,0:0:0:0:
192,192,48399,1,0,0:0:0:0:
64,192,48454,1,0,0:0:0:0:
320,192,48508,1,0,0:0:0:0:
448,192,48562,1,0,0:0:0:0:
320,192,48617,1,0,0:0:0:0:
64,192,48671,1,0,0:0:0:0:
448,192,48725,1,0,0:0:0:0:
192,192,48780,1,0,0:0:0:0:
320,192,48834,1,0,0:0:0:0:
448,192,48888,1,0,0:0:0:0:
64,192,48943,1,0,0:0:0:0:
192,192,48997,1,0,0:0:0:0:
448,192,49052,1,0,0:0:0:0:
320,192,49106,1,0,0:0:0:0:
192,192,49160,1,0,0:0:0:0:
64,192,49215,1,0,0:0:0:0:
448,192,49269,1,0,0:0:0:0:
320,192,49323,1,0,0:0:0:0:
64,192,49378,1,0,0:0:0:0:
192,192,49432,1,0,0:0:0:0:
448,192,49486,1,0,0:0:0:0:
320,192,49541,1,0,0:0:0:0:
192,192,49595,1,0,0:0:0:0:
64,192,49649,1,0,0:0:0:0:
320,192,49704,1,0,0:0:0:0:
448,192,49758,1,0,0:0:0:0:
192,192,49812,1,0,0:0:0:0:
64,192,49867,1,0,0:0:0:0:
448,192,49921,1,0,0:0:0:0:
320,192,49975,1,0,0:0:0:0:
192,192,50030,1,0,0:0:0:0:
64,192,50084,1,0,0:0:0:0:
320,192,50138,1,0,0:0:0:0:
448,192,50193,1,0,0:0:0:0:
64,192,50247,1,0,0:0:0:0:
192,192,50302,1,0,0:0:0:0:
320,192,50356,1,0,0:0:0:0:
448,192,50410,1,0,0:0:0:0:
64,192,50465,1,0,0:0:0:0:
192,192,50519,1,0,0:0:0:0:
448,192,50573,1,0,0:0:0:0:
320,192,50628,1,0,0:0:0:0:
64,192,50682,1,0,0:0:0:0:
192,192,50736,1,0,0:0:0:0:
320,192,50791,1,0,0:0:0:0:
448,192,50845,1,0,0:0:0:0:
64,192,50899,1,0,0:0:0:0:
192,192,50954,1,0,0:0:0:0:
320,192,51008,1,0,0:0:0:0:
448,192,51062,1,0,0:0:0:0:
192,192,51117,1,0,0:0:0:0:
64,192,51171,1,0,0:0:0:0:
320,192,51225,1,0,0:0:0:0:
448,192,51280,1,0,0:0:0:0:
192,192,51334,1,0,0:0:0:0:
64,192,51388,1,0,0:0:0:0:
448,192,51443,1,0,0:0:0:0:
320,192,51497,1,0,0:0:0:0:
192,192,51552,1,0,0:0:0:0:
64,192,51606,1,0,0:0:0:0:
448,192,51660,1,0,0:0:0:0:
320,192,51715,1,0,0:0:0:0:
64,192,51769,1,0,0:0:0:0:
192,192,51823,1,0,0:0:0:0:
448,192,51878,1,0,0:0:0:0:
64,192,51932,1,0,0:0:0:0:
320,192,51986,1,0,0:0:0:0:
192,192,52041,1,0,0:0:0:0:
64,192,52095,1,0,0:0:0:0:
320,192,52149,1,0,0:0:0:0:
448,192,52204,1,0,0:0:0:0:
64,192,52258,1,0,0:0:0:0:
192,192,52312,1,0,0:0:0:0:
320,192,52367,1,0,0:0:0:0:
448,192,52421,1,0,0:0:0:0:
64,192,52475,1,0,0:0:0:0:
192,192,52530,1,0,0:0:0:0:
320,192,52584,1,0,0:0:0:0:
448,192,52638,1,0,0:0:0:0:
64,192,52747,1,0,0:0:0:0:
192,192,52747,1,0,0:0:0:0:
320,192,52747,1,0,0:0:0:0:
448,192,52747,1,0,0:0:0:0:
192,192,52856,1,0,0:0:0:0:
448,192,52965,1,0,0:0:0:0:
320,192,52965,1,0,0:0:0:0:
64,192,53073,1,0,0:0:0:0:
320,192,53073,1,0,0:0:0:0:
192,192,53182,1,0,0:0:0:0:
64,192,53182,1,0,0:0:0:0:
448,192,53182,1,0,0:0:0:0:
192,192,53291,1,0,0:0:0:0:
320,192,53399,1,0,0:0:0:0:
448,192,53399,1,0,0:0:0:0:
64,192,53399,1,0,0:0:0:0:
192,192,53508,1,0,0:0:0:0:
448,192,53617,1,0,0:0:0:0:
320,192,53617,1,0,0:0:0:0:
192,192,53617,1,0,0:0:0:0:
64,192,53617,1,0,0:0:0:0:
448,192,53725,1,0,0:0:0:0:
320,192,53834,1,0,0:0:0:0:
192,192,53834,1,0,0:0:0:0:
192,192,53943,1,0,0:0:0:0:
448,192,53943,1,0,0:0:0:0:
64,192,54052,1,0,0:0:0:0:
320,192,54052,1,0,0:0:0:0:
448,192,54052,1,0,0:0:0:0:
64,192,54160,1,0,0:0:0:0:
448,192,54269,1,0,0:0:0:0:
320,192,54269,1,0,0:0:0:0:
192,192,54378,1,0,0:0:0:0:
64,192,54486,1,0,0:0:0:0:
192,192,54486,1,0,0:0:0:0:
448,192,54486,1,0,0:0:0:0:
320,192,54486,1,0,0:0:0:0:
320,192,54595,1,0,0:0:0:0:
64,192,54704,1,0,0:0:0:0:
192,192,54704,1,0,0:0:0:0:
64,192,54812,1,0,0:0:0:0:
448,192,54812,1,0,0:0:0:0:
192,192,54921,1,0,0:0:0:0:
320,192,54921,1,0,0:0:0:0:
448,192,54921,1,0,0:0:0:0:
192,192,55030,1,0,0:0:0:0:
448,192,55138,1,0,0:0:0:0:
320,192,55138,1,0,0:0:0:0:
64,192,55247,1,0,0:0:0:0:
448,192,55356,1,0,0:0:0:0:
320,192,55356,1,0,0:0:0:0:
192,192,55356,1,0,0:0:0:0:
64,192,55356,1,0,0:0:0:0:
448,192,55465,1,0,0:0:0:0:
320,192,55573,1,0,0:0:0:0:
192,192,55573,1,0,0:0:0:0:
64,192,55682,1,0,0:0:0:0:
448,192,55791,1,0,0:0:0:0:
320,192,55791,1,0,0:0:0:0:
192,192,55791,1,0,0:0:0:0:
64,192,55791,1,0,0:0:0:0:
448,192,55899,1,0,0:0:0:0:
320,192,56008,1,0,0:0:0:0:
192,192,56008,1,0,0:0:0:0:
64,192,56008,1,0,0:0:0:0:
448,192,56117,1,0,0:0:0:0:
448,192,56225,1,0,0:0:0:0:
320,192,56225,1,0,0:0:0:0:
192,192,56225,1,0,0:0:0:0:
64,192,56225,1,0,0:0:0:0:
192,192,56334,1,0,0:0:0:0:
448,192,56443,1,0,0:0:0:0:
320,192,56443,1,0,0:0:0:0:
64,192,56443,1,0,0:0:0:0:
192,192,56552,1,0,0:0:0:0:
448,192,56552,1,0,0:0:0:0:
320,192,56660,1,0,0:0:0:0:
192,192,56769,1,0,0:0:0:0:
64,192,56769,1,0,0:0:0:0:
448,192,56769,1,0,0:0:0:0:
64,192,56878,1,0,0:0:0:0:
448,192,56986,1,0,0:0:0:0:
448,192,57095,1,0,0:0:0:0:
192,192,57095,1,0,0:0:0:0:
320,192,57095,1,0,0:0:0:0:
192,192,57204,1,0,0:0:0:0:
448,192,57312,1,0,0:0:0:0:
448,192,57421,1,0,0:0:0:0:
320,192,57421,1,0,0:0:0:0:
64,192,57421,1,0,0:0:0:0:
192,192,57530,1,0,0:0:0:0:
64,192,57638,1,0,0:0:0:0:
320,192,57638,1,0,0:0:0:0:
448,192,57638,1,0,0:0:0:0:
320,192,57747,1,0,0:0:0:0:
448,192,57856,1,0,0:0:0:0:
448,192,57965,1,0,0:0:0:0:
320,192,57965,1,0,0:0:0:0:
192,192,57965,1,0,0:0:0:0:
64,192,57965,1,0,0:0:0:0:
192,192,58073,1,0,0:0:0:0:
448,192,58182,1,0,0:0:0:0:
320,192,58182,1,0,0:0:0:0:
64,192,58182,1,0,0:0:0:0:
448,192,58291,1,0,0:0:0:0:
192,192,58291,1,0,0:0:0:0:
320,192,58291,1,0,0:0:0:0:
64,192,58399,1,0,0:0:0:0:
64,192,58508,1,0,0:0:0:0:
192,192,58508,1,0,0:0:0:0:
448,192,58508,1,0,0:0:0:0:
320,192,58508,1,0,0:0:0:0:
448,192,58617,1,0,0:0:0:0:
320,192,58725,1,0,0:0:0:0:
192,192,58725,1,0,0:0:0:0:
64,192,58725,1,0,0:0:0:0:
64,192,58834,1,0,0:0:0:0:
448,192,58834,1,0,0:0:0:0:
320,192,58834,1,0,0:0:0:0:
448,192,59704,1,0,0:0:0:0:
320,192,59704,1,0,0:0:0:0:
192,192,60138,1,0,0:0:0:0:
320,192,60138,1,0,0:0:0:0:
448,192,60573,1,0,0:0:0:0:
64,192,60573,1,0,0:0:0:0:
192,192,60682,1,0,0:0:0:0:
320,192,60736,1,0,0:0:0:0:
64,192,60791,1,0,0:0:0:0:
192,192,60845,1,0,0:0:0:0:
320,192,60899,1,0,0:0:0:0:
448,192,61008,1,0,0:0:0:0:
320,192,61008,1,0,0:0:0:0:
192,192,61008,1,0,0:0:0:0:
64,192,61008,1,0,0:0:0:0:
448,192,61225,1,0,0:0:0:0:
192,192,61225,1,0,0:0:0:0:
64,192,61225,1,0,0:0:0:0:
320,192,61443,1,0,0:0:0:0:
448,192,61443,1,0,0:0:0:0:
192,192,61443,1,0,0:0:0:0:
64,192,61443,1,0,0:0:0:0:
448,192,61552,1,0,0:0:0:0:
320,192,61660,1,0,0:0:0:0:
192,192,61660,1,0,0:0:0:0:
320,192,61769,1,0,0:0:0:0:
64,192,61769,1,0,0:0:0:0:
64,192,61878,1,0,0:0:0:0:
192,192,61878,1,0,0:0:0:0:
448,192,61878,1,0,0:0:0:0:
192,192,61986,1,0,0:0:0:0:
448,192,62095,1,0,0:0:0:0:
320,192,62095,1,0,0:0:0:0:
64,192,62204,1,0,0:0:0:0:
64,192,62312,1,0,0:0:0:0:
192,192,62312,1,0,0:0:0:0:
320,192,62312,1,0,0:0:0:0:
448,192,62312,1,0,0:0:0:0:
448,192,62421,1,0,0:0:0:0:
192,192,62530,1,0,0:0:0:0:
64,192,62530,1,0,0:0:0:0:
64,192,62638,1,0,0:0:0:0:
320,192,62638,1,0,0:0:0:0:
192,192,62747,1,0,0:0:0:0:
320,192,62747,1,0,0:0:0:0:
448,192,62747,1,0,0:0:0:0:
448,192,62856,1,0,0:0:0:0:
192,192,62965,1,0,0:0:0:0:
64,192,62965,1,0,0:0:0:0:
320,192,63073,1,0,0:0:0:0:
64,192,63182,1,0,0:0:0:0:
192,192,63182,1,0,0:0:0:0:
320,192,63182,1,0,0:0:0:0:
448,192,63182,1,0,0:0:0:0:
64,192,63291,1,0,0:0:0:0:
320,192,63399,1,0,0:0:0:0:
192,192,63399,1,0,0:0:0:0:
448,192,63508,1,0,0:0:0:0:
192,192,63617,1,0,0:0:0:0:
320,192,63617,1,0,0:0:0:0:
448,192,63617,1,0,0:0:0:0:
64,192,63617,1,0,0:0:0:0:
192,192,63725,1,0,0:0:0:0:
448,192,63834,1,0,0:0:0:0:
320,192,63834,1,0,0:0:0:0:
64,192,63943,1,0,0:0:0:0:
320,192,63943,1,0,0:0:0:0:
448,192,64052,1,0,0:0:0:0:
192,192,64052,1,0,0:0:0:0:
64,192,64052,1,0,0:0:0:0:
448,192,64160,1,0,0:0:0:0:
192,192,64269,1,0,0:0:0:0:
320,192,64269,1,0,0:0:0:0:
64,192,64378,1,0,0:0:0:0:
448,192,64486,1,0,0:0:0:0:
320,192,64486,1,0,0:0:0:0:
192,192,64486,1,0,0:0:0:0:
64,192,64486,1,0,0:0:0:0:
448,192,64595,1,0,0:0:0:0:
192,192,64704,1,0,0:0:0:0:
64,192,64704,1,0,0:0:0:0:
64,192,64812,1,0,0:0:0:0:
320,192,64812,1,0,0:0:0:0:
320,192,64921,1,0,0:0:0:0:
448,192,64921,1,0,0:0:0:0:
192,192,64921,1,0,0:0:0:0:
192,192,65030,1,0,0:0:0:0:
448,192,65138,1,0,0:0:0:0:
64,192,65138,1,0,0:0:0:0:
320,192,65138,1,0,0:0:0:0:
192,192,65247,1,0,0:0:0:0:
64,192,65356,1,0,0:0:0:0:
192,192,65356,1,0,0:0:0:0:
320,192,65356,1,0,0:0:0:0:
448,192,65356,1,0,0:0:0:0:
448,192,65465,1,0,0:0:0:0:
320,192,65573,1,0,0:0:0:0:
192,192,65573,1,0,0:0:0:0:
320,192,65682,1,0,0:0:0:0:
64,192,65682,1,0,0:0:0:0:
192,192,65791,1,0,0:0:0:0:
64,192,65791,1,0,0:0:0:0:
448,192,65791,1,0,0:0:0:0:
448,192,65899,1,0,0:0:0:0:
64,192,66008,1,0,0:0:0:0:
320,192,66008,1,0,0:0:0:0:
192,192,66117,1,0,0:0:0:0:
448,192,66225,1,0,0:0:0:0:
320,192,66225,1,0,0:0:0:0:
192,192,66225,1,0,0:0:0:0:
64,192,66225,1,0,0:0:0:0:
320,192,66334,1,0,0:0:0:0:
192,192,66443,1,0,0:0:0:0:
448,192,66443,1,0,0:0:0:0:
448,192,66552,1,0,0:0:0:0:
64,192,66552,1,0,0:0:0:0:
320,192,66660,1,0,0:0:0:0:
192,192,66660,1,0,0:0:0:0:
64,192,66660,1,0,0:0:0:0:
320,192,66769,1,0,0:0:0:0:
448,192,66878,1,0,0:0:0:0:
64,192,66878,1,0,0:0:0:0:
192,192,66986,1,0,0:0:0:0:
64,192,67095,1,0,0:0:0:0:
192,192,67095,1,0,0:0:0:0:
320,192,67095,1,0,0:0:0:0:
448,192,67095,1,0,0:0:0:0:
448,192,67204,1,0,0:0:0:0:
192,192,67312,1,0,0:0:0:0:
64,192,67312,1,0,0:0:0:0:
64,192,67421,1,0,0:0:0:0:
320,192,67421,1,0,0:0:0:0:
192,192,67530,1,0,0:0:0:0:
448,192,67530,1,0,0:0:0:0:
320,192,67530,1,0,0:0:0:0:
192,192,67638,1,0,0:0:0:0:
448,192,67747,1,0,0:0:0:0:
320,192,67747,1,0,0:0:0:0:
64,192,67856,1,0,0:0:0:0:
448,192,67965,1,0,0:0:0:0:
320,192,67965,1,0,0:0:0:0:
192,192,67965,1,0,0:0:0:0:
64,192,67965,1,0,0:0:0:0:
320,192,68073,1,0,0:0:0:0:
192,192,68182,1,0,0:0:0:0:
64,192,68182,1,0,0:0:0:0:
448,192,68291,1,0,0:0:0:0:
320,192,68399,1,0,0:0:0:0:
448,192,68399,1,0,0:0:0:0:
192,192,68399,1,0,0:0:0:0:
64,192,68399,1,0,0:0:0:0:
64,192,68508,1,0,0:0:0:0:
448,192,68617,1,0,0:0:0:0:
320,192,68617,1,0,0:0:0:0:
448,192,68725,1,0,0:0:0:0:
192,192,68725,1,0,0:0:0:0:
320,192,68834,1,0,0:0:0:0:
192,192,68834,1,0,0:0:0:0:
64,192,68834,1,0,0:0:0:0:
64,192,68943,1,0,0:0:0:0:
448,192,69052,1,0,0:0:0:0:
320,192,69052,1,0,0:0:0:0:
192,192,69160,1,0,0:0:0:0:
448,192,69269,1,0,0:0:0:0:
320,192,69269,1,0,0:0:0:0:
192,192,69269,1,0,0:0:0:0:
64,192,69269,1,0,0:0:0:0:
320,192,69378,1,0,0:0:0:0:
64,192,69486,1,0,0:0:0:0:
192,192,69486,1,0,0:0:0:0:
64,192,69595,1,0,0:0:0:0:
448,192,69595,1,0,0:0:0:0:
448,192,69704,1,0,0:0:0:0:
320,192,69704,1,0,0:0:0:0:
192,192,69704,1,0,0:0:0:0:
320,192,69812,1,0,0:0:0:0:
64,192,69921,1,0,0:0:0:0:
192,192,69921,1,0,0:0:0:0:
448,192,69921,1,0,0:0:0:0:
320,192,70030,1,0,0:0:0:0:
64,192,70138,1,0,0:0:0:0:
192,192,70138,1,0,0:0:0:0:
320,192,70138,1,0,0:0:0:0:
448,192,70138,1,0,0:0:0:0:
192,192,70247,1,0,0:0:0:0:
448,192,70356,1,0,0:0:0:0:
320,192,70356,1,0,0:0:0:0:
64,192,70356,1,0,0:0:0:0:
192,192,70465,1,0,0:0:0:0:
320,192,70573,1,0,0:0:0:0:
448,192,70573,1,0,0:0:0:0:
192,192,70573,1,0,0:0:0:0:
64,192,70573,1,0,0:0:0:0:
448,192,70682,1,0,0:0:0:0:
192,192,70791,1,0,0:0:0:0:
64,192,70791,1,0,0:0:0:0:
192,192,70899,1,0,0:0:0:0:
448,192,70899,1,0,0:0:0:0:
320,192,71008,1,0,0:0:0:0:
448,192,71008,1,0,0:0:0:0:
64,192,71008,1,0,0:0:0:0:
320,192,71117,1,0,0:0:0:0:
192,192,71225,1,0,0:0:0:0:
64,192,71225,1,0,0:0:0:0:
448,192,71334,1,0,0:0:0:0:
64,192,71443,1,0,0:0:0:0:
192,192,71443,1,0,0:0:0:0:
320,192,71443,1,0,0:0:0:0:
448,192,71443,1,0,0:0:0:0:
64,192,71552,1,0,0:0:0:0:
448,192,71660,1,0,0:0:0:0:
320,192,71660,1,0,0:0:0:0:
192,192,71660,1,0,0:0:0:0:
64,192,71769,1,0,0:0:0:0:
448,192,71878,1,0,0:0:0:0:
320,192,71878,1,0,0:0:0:0:
192,192,71878,1,0,0:0:0:0:
64,192,71878,1,0,0:0:0:0:
320,192,71986,1,0,0:0:0:0:
64,192,72095,1,0,0:0:0:0:
448,192,72095,1,0,0:0:0:0:
448,192,72204,1,0,0:0:0:0:
192,192,72204,1,0,0:0:0:0:
320,192,72312,1,0,0:0:0:0:
192,192,72312,1,0,0:0:0:0:
64,192,72312,1,0,0:0:0:0:
320,192,72421,1,0,0:0:0:0:
192,192,72530,1,0,0:0:0:0:
64,192,72530,1,0,0:0:0:0:
448,192,72638,1,0,0:0:0:0:
64,192,72747,1,0,0:0:0:0:
192,192,72747,1,0,0:0:0:0:
320,192,72747,1,0,0:0:0:0:
448,192,72747,1,0,0:0:0:0:
64,192,72856,1,0,0:0:0:0:
448,192,72965,1,0,0:0:0:0:
320,192,72965,1,0,0:0:0:0:
448,192,73073,1,0,0:0:0:0:
192,192,73073,1,0,0:0:0:0:
320,192,73182,1,0,0:0:0:0:
192,192,73182,1,0,0:0:0:0:
64,192,73182,1,0,0:0:0:0:
320,192,73291,1,0,0:0:0:0:
448,192,73399,1,0,0:0:0:0:
64,192,73399,1,0,0:0:0:0:
192,192,73508,1,0,0:0:0:0:
192,192,73617,1,0,0:0:0:0:
320,192,73617,1,0,0:0:0:0:
448,192,73617,1,0,0:0:0:0:
64,192,73617,1,0,0:0:0:0:
448,192,73725,1,0,0:0:0:0:
320,192,73834,1,0,0:0:0:0:
192,192,73834,1,0,0:0:0:0:
64,192,73834,1,0,0:0:0:0:
448,192,73943,1,0,0:0:0:0:
448,192,74052,1,0,0:0:0:0:
320,192,74052,1,0,0:0:0:0:
192,192,74052,1,0,0:0:0:0:
64,192,74052,1,0,0:0:0:0:
64,192,74160,1,0,0:0:0:0:
320,192,74269,1,0,0:0:0:0:
192,192,74269,1,0,0:0:0:0:
448,192,74378,1,0,0:0:0:0:
192,192,74378,1,0,0:0:0:0:
64,192,74378,1,0,0:0:0:0:
320,192,74486,1,0,0:0:0:0:
448,192,74486,1,0,0:0:0:0:
64,192,74486,1,0,0:0:0:0:
192,192,74595,1,0,0:0:0:0:
320,192,74704,1,0,0:0:0:0:
448,192,74704,1,0,0:0:0:0:
64,192,74704,1,0,0:0:0:0:
192,192,74812,1,0,0:0:0:0:
320,192,74921,1,0,0:0:0:0:
448,192,74921,1,0,0:0:0:0:
64,192,74921,1,0,0:0:0:0:
448,192,75030,1,0,0:0:0:0:
320,192,75138,1,0,0:0:0:0:
192,192,75138,1,0,0:0:0:0:
64,192,75138,1,0,0:0:0:0:
64,192,75247,1,0,0:0:0:0:
192,192,75247,1,0,0:0:0:0:
320,192,75247,1,0,0:0:0:0:
448,192,75356,1,0,0:0:0:0:
320,192,75356,1,0,0:0:0:0:
192,192,75356,1,0,0:0:0:0:
64,192,75356,1,0,0:0:0:0:
448,192,75465,1,0,0:0:0:0:
64,192,75573,1,0,0:0:0:0:
192,192,75573,1,0,0:0:0:0:
448,192,75682,1,0,0:0:0:0:
192,192,75791,1,0,0:0:0:0:
320,192,75791,1,0,0:0:0:0:
448,192,75791,1,0,0:0:0:0:
64,192,75791,1,0,0:0:0:0:
192,192,75899,1,0,0:0:0:0:
448,192,76008,1,0,0:0:0:0:
320,192,76008,1,0,0:0:0:0:
448,192,76117,1,0,0:0:0:0:
192,192,76117,1,0,0:0:0:0:
320,192,76225,1,0,0:0:0:0:
64,192,76225,1,0,0:0:0:0:
192,192,76225,1,0,0:0:0:0:
64,192,76334,1,0,0:0:0:0:
448,192,76443,1,0,0:0:0:0:
320,192,76443,1,0,0:0:0:0:
192,192,76552,1,0,0:0:0:0:
64,192,76660,1,0,0:0:0:0:
192,192,76660,1,0,0:0:0:0:
320,192,76660,1,0,0:0:0:0:
448,192,76660,1,0,0:0:0:0:
448,192,76769,1,0,0:0:0:0:
320,192,76878,1,0,0:0:0:0:
192,192,76878,1,0,0:0:0:0:
320,192,76986,1,0,0:0:0:0:
64,192,76986,1,0,0:0:0:0:
192,192,77095,1,0,0:0:0:0:
64,192,77095,1,0,0:0:0:0:
448,192,77095,1,0,0:0:0:0:
448,192,77204,1,0,0:0:0:0:
320,192,77312,1,0,0:0:0:0:
64,192,77312,1,0,0:0:0:0:
192,192,77421,1,0,0:0:0:0:
448,192,77530,1,0,0:0:0:0:
320,192,77530,1,0,0:0:0:0:
192,192,77530,1,0,0:0:0:0:
64,192,77530,1,0,0:0:0:0:
320,192,77638,1,0,0:0:0:0:
192,192,77747,1,0,0:0:0:0:
64,192,77747,1,0,0:0:0:0:
192,192,77856,1,0,0:0:0:0:
448,192,77856,1,0,0:0:0:0:
448,192,77965,1,0,0:0:0:0:
320,192,77965,1,0,0:0:0:0:
64,192,77965,1,0,0:0:0:0:
320,192,78073,1,0,0:0:0:0:
64,192,78182,1,0,0:0:0:0:
192,192,78182,1,0,0:0:0:0:
448,192,78291,1,0,0:0:0:0:
320,192,78399,1,0,0:0:0:0:
448,192,78399,1,0,0:0:0:0:
192,192,78399,1,0,0:0:0:0:
64,192,78399,1,0,0:0:0:0:
192,192,78508,1,0,0:0:0:0:
448,192,78617,1,0,0:0:0:0:
320,192,78617,1,0,0:0:0:0:
320,192,78725,1,0,0:0:0:0:
64,192,78725,1,0,0:0:0:0:
448,192,78834,1,0,0:0:0:0:
64,192,78834,1,0,0:0:0:0:
192,192,78834,1,0,0:0:0:0:
192,192,78943,1,0,0:0:0:0:
320,192,79052,1,0,0:0:0:0:
448,192,79052,1,0,0:0:0:0:
64,192,79052,1,0,0:0:0:0:
192,192,79160,1,0,0:0:0:0:
192,192,79269,1,0,0:0:0:0:
64,192,79269,1,0,0:0:0:0:
320,192,79269,1,0,0:0:0:0:
448,192,79269,1,0,0:0:0:0:
448,192,79378,1,0,0:0:0:0:
192,192,79486,1,0,0:0:0:0:
64,192,79486,1,0,0:0:0:0:
64,192,79595,1,0,0:0:0:0:
320,192,79595,1,0,0:0:0:0:
192,192,79704,1,0,0:0:0:0:
320,192,79704,1,0,0:0:0:0:
448,192,79704,1,0,0:0:0:0:
192,192,79812,1,0,0:0:0:0:
448,192,79921,1,0,0:0:0:0:
64,192,79921,1,0,0:0:0:0:
320,192,80030,1,0,0:0:0:0:
448,192,80138,1,0,0:0:0:0:
320,192,80138,1,0,0:0:0:0:
64,192,80138,1,0,0:0:0:0:
192,192,80138,1,0,0:0:0:0:
64,192,80247,1,0,0:0:0:0:
448,192,80356,1,0,0:0:0:0:
320,192,80356,1,0,0:0:0:0:
192,192,80465,1,0,0:0:0:0:
448,192,80465,1,0,0:0:0:0:
64,192,80573,1,0,0:0:0:0:
192,192,80573,1,0,0:0:0:0:
320,192,80573,1,0,0:0:0:0:
64,192,80682,1,0,0:0:0:0:
448,192,80791,1,0,0:0:0:0:
320,192,80791,1,0,0:0:0:0:
192,192,80899,1,0,0:0:0:0:
448,192,81008,1,0,0:0:0:0:
320,192,81008,1,0,0:0:0:0:
192,192,81008,1,0,0:0:0:0:
64,192,81008,1,0,0:0:0:0:
448,192,81117,1,0,0:0:0:0:
192,192,81225,1,0,0:0:0:0:
64,192,81225,1,0,0:0:0:0:
192,192,81334,1,0,0:0:0:0:
448,192,81334,1,0,0:0:0:0:
320,192,81443,1,0,0:0:0:0:
448,192,81443,1,0,0:0:0:0:
64,192,81443,1,0,0:0:0:0:
64,192,81552,1,0,0:0:0:0:
448,192,81660,1,0,0:0:0:0:
320,192,81660,1,0,0:0:0:0:
192,192,81769,1,0,0:0:0:0:
448,192,81878,1,0,0:0:0:0:
320,192,81878,1,0,0:0:0:0:
192,192,81878,1,0,0:0:0:0:
64,192,81878,1,0,0:0:0:0:
320,192,81986,1,0,0:0:0:0:
192,192,82095,1,0,0:0:0:0:
64,192,82095,1,0,0:0:0:0:
64,192,82204,1,0,0:0:0:0:
448,192,82204,1,0,0:0:0:0:
192,192,82312,1,0,0:0:0:0:
320,192,82312,1,0,0:0:0:0:
448,192,82312,1,0,0:0:0:0:
192,192,82421,1,0,0:0:0:0:
448,192,82530,1,0,0:0:0:0:
64,192,82530,1,0,0:0:0:0:
320,192,82638,1,0,0:0:0:0:
448,192,82747,1,0,0:0:0:0:
320,192,82747,1,0,0:0:0:0:
192,192,82747,1,0,0:0:0:0:
64,192,82747,1,0,0:0:0:0:
64,192,82856,1,0,0:0:0:0:
448,192,82965,1,0,0:0:0:0:
320,192,82965,1,0,0:0:0:0:
192,192,83073,1,0,0:0:0:0:
448,192,83182,1,0,0:0:0:0:
320,192,83182,1,0,0:0:0:0:
192,192,83182,1,0,0:0:0:0:
64,192,83182,1,0,0:0:0:0:
320,192,83291,1,0,0:0:0:0:
192,192,83399,1,0,0:0:0:0:
64,192,83399,1,0,0:0:0:0:
448,192,83399,1,0,0:0:0:0:
320,192,83508,1,0,0:0:0:0:
192,192,83617,1,0,0:0:0:0:
448,192,83617,1,0,0:0:0:0:
64,192,83617,1,0,0:0:0:0:
320,192,83617,1,0,0:0:0:0:
64,192,83725,1,0,0:0:0:0:
448,192,83834,1,0,0:0:0:0:
320,192,83834,1,0,0:0:0:0:
448,192,83943,1,0,0:0:0:0:
192,192,83943,1,0,0:0:0:0:
320,192,84052,1,0,0:0:0:0:
192,192,84052,1,0,0:0:0:0:
64,192,84052,1,0,0:0:0:0:
320,192,84160,1,0,0:0:0:0:
448,192,84269,1,0,0:0:0:0:
64,192,84269,1,0,0:0:0:0:
192,192,84378,1,0,0:0:0:0:
192,192,84486,1,0,0:0:0:0:
448,192,84486,1,0,0:0:0:0:
320,192,84486,1,0,0:0:0:0:
64,192,84486,1,0,0:0:0:0:
448,192,84595,1,0,0:0:0:0:
320,192,84704,1,0,0:0:0:0:
192,192,84704,1,0,0:0:0:0:
192,192,84812,1,0,0:0:0:0:
448,192,84812,1,0,0:0:0:0:
320,192,84921,1,0,0:0:0:0:
448,192,84921,1,0,0:0:0:0:
64,192,84921,1,0,0:0:0:0:
64,192,85030,1,0,0:0:0:0:
192,192,85138,1,0,0:0:0:0:
448,192,85138,1,0,0:0:0:0:
320,192,85247,1,0,0:0:0:0:
64,192,85356,1,0,0:0:0:0:
192,192,85356,1,0,0:0:0:0:
320,192,85356,1,0,0:0:0:0:
448,192,85356,1,0,0:0:0:0:
64,192,85465,1,0,0:0:0:0:
320,192,85573,1,0,0:0:0:0:
192,192,85573,1,0,0:0:0:0:
192,192,85682,1,0,0:0:0:0:
448,192,85682,1,0,0:0:0:0:
320,192,85791,1,0,0:0:0:0:
448,192,85791,1,0,0:0:0:0:
64,192,85791,1,0,0:0:0:0:
320,192,85899,1,0,0:0:0:0:
192,192,86008,1,0,0:0:0:0:
64,192,86008,1,0,0:0:0:0:
448,192,86008,1,0,0:0:0:0:
192,192,86117,1,0,0:0:0:0:
64,192,86225,1,0,0:0:0:0:
320,192,86225,1,0,0:0:0:0:
448,192,86225,1,0,0:0:0:0:
448,192,86334,1,0,0:0:0:0:
320,192,86443,1,0,0:0:0:0:
64,192,86443,1,0,0:0:0:0:
192,192,86443,1,0,0:0:0:0:
320,192,86552,1,0,0:0:0:0:
448,192,86552,1,0,0:0:0:0:
448,192,86660,1,0,0:0:0:0:
64,192,86660,1,0,0:0:0:0:
192,192,86660,1,0,0:0:0:0:
64,192,86769,1,0,0:0:0:0:
448,192,86878,1,0,0:0:0:0:
192,192,86878,1,0,0:0:0:0:
320,192,86878,1,0,0:0:0:0:
320,192,86986,1,0,0:0:0:0:
64,192,87095,1,0,0:0:0:0:
192,192,87095,1,0,0:0:0:0:
448,192,87095,1,0,0:0:0:0:
192,192,87204,1,0,0:0:0:0:
448,192,87312,1,0,0:0:0:0:
320,192,87312,1,0,0:0:0:0:
64,192,87312,1,0,0:0:0:0:
448,192,87421,1,0,0:0:0:0:
192,192,87421,1,0,0:0:0:0:
192,192,87530,1,0,0:0:0:0:
64,192,87530,1,0,0:0:0:0:
320,192,87530,1,0,0:0:0:0:
448,192,87584,1,0,0:0:0:0:
320,192,87638,1,0,0:0:0:0:
192,192,87693,1,0,0:0:0:0:
64,192,87747,1,0,0:0:0:0:
192,192,87802,1,0,0:0:0:0:
320,192,87856,1,0,0:0:0:0:
448,192,87910,1,0,0:0:0:0:
320,192,87965,1,0,0:0:0:0:
192,192,88019,1,0,0:0:0:0:
64,192,88073,1,0,0:0:0:0:
192,192,88128,1,0,0:0:0:0:
320,192,88182,1,0,0:0:0:0:
448,192,88236,1,0,0:0:0:0:
320,192,88291,1,0,0:0:0:0:
192,192,88345,1,0,0:0:0:0:
64,192,88399,1,0,0:0:0:0:
192,192,88454,1,0,0:0:0:0:
320,192,88508,1,0,0:0:0:0:
448,192,88562,1,0,0:0:0:0:
320,192,88617,1,0,0:0:0:0:
192,192,88671,1,0,0:0:0:0:
64,192,88725,1,0,0:0:0:0:
192,192,88780,1,0,0:0:0:0:
320,192,88834,1,0,0:0:0:0:
448,192,88888,1,0,0:0:0:0:
320,192,88943,1,0,0:0:0:0:
192,192,88997,1,0,0:0:0:0:
64,192,89052,1,0,0:0:0:0:
192,192,89106,1,0,0:0:0:0:
320,192,89160,1,0,0:0:0:0:
448,192,89215,1,0,0:0:0:0:
320,192,89269,1,0,0:0:0:0:
192,192,89323,1,0,0:0:0:0:
64,192,89378,1,0,0:0:0:0:
192,192,89432,1,0,0:0:0:0:
320,192,89486,1,0,0:0:0:0:
448,192,89541,1,0,0:0:0:0:
320,192,89595,1,0,0:0:0:0:
192,192,89649,1,0,0:0:0:0:
64,192,89704,1,0,0:0:0:0:
192,192,89758,1,0,0:0:0:0:
320,192,89812,1,0,0:0:0:0:
448,192,89867,1,0,0:0:0:0:
320,192,89921,1,0,0:0:0:0:
192,192,89975,1,0,0:0:0:0:
64,192,90030,1,0,0:0:0:0:
192,192,90084,1,0,0:0:0:0:
320,192,90138,1,0,0:0:0:0:
448,192,90193,1,0,0:0:0:0:
320,192,90247,1,0,0:0:0:0:
192,192,90302,1,0,0:0:0:0:
64,192,90356,1,0,0:0:0:0:
192,192,90410,1,0,0:0:0:0:
320,192,90465,1,0,0:0:0:0:
448,192,90519,1,0,0:0:0:0:
320,192,90573,1,0,0:0:0:0:
192,192,90628,1,0,0:0:0:0:
64,192,90682,1,0,0:0:0:0:
192,192,90736,1,0,0:0:0:0:
320,192,90791,1,0,0:0:0:0:
448,192,90845,1,0,0:0:0:0:
320,192,90899,1,0,0:0:0:0:
192,192,90954,1,0,0:0:0:0:
64,192,91008,1,0,0:0:0:0:
