osu file format v14

[General]
AudioFilename: highscore.mp3
AudioLeadIn: 0
PreviewTime: 133455
Countdown: 1
SampleSet: Normal
StackLeniency: 0.7
Mode: 3
LetterboxInBreaks: 1
SpecialStyle: 0
WidescreenStoryboard: 0

[Editor]
DistanceSpacing: 1
BeatDivisor: 4
GridSize: 8
TimelineZoom: 2.1

[Metadata]
Title:Hestia's 1st Pack
TitleUnicode:Hestia's 1st Pack
Artist:Various Artists
ArtistUnicode:Various Artists
Creator:Hestiaaa
Version:Highscore[10]
Source:
Tags:
BeatmapID:893890
BeatmapSetID:411939

[Difficulty]
HPDrainRate:8
CircleSize:4
OverallDifficulty:8
ApproachRate:5
SliderMultiplier:1.4
SliderTickRate:1

[Events]
//Background and Video events
0,0,"5355.jpg",0,0
//Break Periods
//Storyboard Layer 0 (Background)
//Storyboard Layer 1 (Fail)
//Storyboard Layer 2 (Pass)
//Storyboard Layer 3 (Foreground)
//Storyboard Sound Samples

[TimingPoints]
365,545.454545454546,4,1,0,10,1,0

[HitObjects]
448,192,4728,5,0,0:0:0:0:
320,192,5001,1,0,0:0:0:0:
320,192,9092,1,0,0:0:0:0:
192,192,9092,1,0,0:0:0:0:
64,192,11274,1,0,0:0:0:0:
448,192,11274,1,0,0:0:0:0:
448,192,11819,128,0,11955:0:0:0:0:
320,192,11955,128,0,12092:0:0:0:0:
192,192,12092,128,0,12228:0:0:0:0:
64,192,12228,128,0,12365:0:0:0:0:
448,192,12365,128,0,12637:0:0:0:0:
320,192,12637,128,0,12910:0:0:0:0:
192,192,12910,128,0,13183:0:0:0:0:
64,192,13183,128,0,13455:0:0:0:0:
448,192,13455,1,0,0:0:0:0:
320,192,13455,1,0,0:0:0:0:
64,192,14001,128,0,14137:0:0:0:0:
320,192,14137,128,0,14274:0:0:0:0:
192,192,14274,128,0,14410:0:0:0:0:
64,192,14410,128,0,14546:0:0:0:0:
448,192,14546,128,0,14819:0:0:0:0:
320,192,14819,128,0,15092:0:0:0:0:
192,192,15092,128,0,15365:0:0:0:0:
64,192,15365,128,0,15637:0:0:0:0:
448,192,15637,1,0,0:0:0:0:
192,192,15637,1,0,0:0:0:0:
192,192,16183,128,0,16319:0:0:0:0:
320,192,16319,128,0,16455:0:0:0:0:
448,192,16455,128,0,16592:0:0:0:0:
64,192,16592,128,0,16728:0:0:0:0:
320,192,16728,128,0,17001:0:0:0:0:
448,192,17001,128,0,17274:0:0:0:0:
192,192,17274,1,0,0:0:0:0:
64,192,17274,1,0,0:0:0:0:
320,192,17274,128,0,17546:0:0:0:0:
64,192,17546,128,0,17819:0:0:0:0:
192,192,17819,1,0,0:0:0:0:
320,192,17819,1,0,0:0:0:0:
448,192,18501,128,0,18637:0:0:0:0:
320,192,18637,128,0,18774:0:0:0:0:
64,192,18774,128,0,18910:0:0:0:0:
192,192,18910,128,0,19455:0:0:0:0:
64,192,19455,128,0,20001:0:0:0:0:
192,192,20001,1,0,0:0:0:0:
320,192,20001,1,0,0:0:0:0:
448,192,20001,1,0,0:0:0:0:
192,192,20683,128,0,20819:0:0:0:0:
320,192,20819,128,0,20955:0:0:0:0:
64,192,20955,128,0,21092:0:0:0:0:
448,192,21092,128,0,21637:0:0:0:0:
192,192,21637,128,0,22183:0:0:0:0:
448,192,22183,1,0,0:0:0:0:
320,192,22183,1,0,0:0:0:0:
64,192,22183,1,0,0:0:0:0:
320,192,22865,128,0,23001:0:0:0:0:
192,192,23001,128,0,23137:0:0:0:0:
64,192,23137,128,0,23274:0:0:0:0:
320,192,23274,128,0,23819:0:0:0:0:
448,192,23819,128,0,24365:0:0:0:0:
64,192,24365,1,0,0:0:0:0:
320,192,24365,1,0,0:0:0:0:
192,192,24365,1,0,0:0:0:0:
64,192,25046,128,0,25183:0:0:0:0:
192,192,25183,128,0,25319:0:0:0:0:
448,192,25319,128,0,25455:0:0:0:0:
320,192,25455,128,0,26001:0:0:0:0:
192,192,26001,128,0,26546:0:0:0:0:
320,192,26546,1,0,0:0:0:0:
448,192,26546,1,0,0:0:0:0:
64,192,26546,1,0,0:0:0:0:
448,192,27092,128,0,27365:0:0:0:0:
320,192,27365,128,0,27637:0:0:0:0:
192,192,27637,128,0,27910:0:0:0:0:
64,192,27910,128,0,28183:0:0:0:0:
192,192,28183,128,0,28455:0:0:0:0:
320,192,28455,128,0,28728:0:0:0:0:
448,192,28728,1,0,0:0:0:0:
64,192,28728,1,0,0:0:0:0:
192,192,28728,128,0,29274:0:0:0:0:
64,192,29274,128,0,29410:0:0:0:0:
192,192,29410,128,0,29546:0:0:0:0:
320,192,29546,128,0,29683:0:0:0:0:
448,192,29683,128,0,29819:0:0:0:0:
64,192,29819,128,0,30092:0:0:0:0:
192,192,30092,128,0,30365:0:0:0:0:
320,192,30365,128,0,30637:0:0:0:0:
448,192,30637,128,0,30910:0:0:0:0:
64,192,30910,1,0,0:0:0:0:
192,192,30910,1,0,0:0:0:0:
320,192,30910,128,0,31455:0:0:0:0:
448,192,31455,128,0,31592:0:0:0:0:
192,192,31592,128,0,31728:0:0:0:0:
64,192,31728,128,0,31865:0:0:0:0:
320,192,31865,128,0,32001:0:0:0:0:
448,192,32001,128,0,32274:0:0:0:0:
192,192,32274,128,0,32546:0:0:0:0:
320,192,32546,128,0,32819:0:0:0:0:
192,192,32819,128,0,33092:0:0:0:0:
448,192,33092,1,0,0:0:0:0:
64,192,33092,1,0,0:0:0:0:
320,192,33092,128,0,33637:0:0:0:0:
64,192,33637,128,0,33774:0:0:0:0:
192,192,33774,128,0,33910:0:0:0:0:
320,192,33910,128,0,34046:0:0:0:0:
448,192,34046,128,0,34183:0:0:0:0:
192,192,34183,128,0,34455:0:0:0:0:
448,192,34455,128,0,34728:0:0:0:0:
320,192,34728,1,0,0:0:0:0:
192,192,34728,1,0,0:0:0:0:
64,192,34728,128,0,35001:0:0:0:0:
320,192,35001,128,0,35274:0:0:0:0:
192,192,35274,1,0,0:0:0:0:
64,192,35274,1,0,0:0:0:0:
448,192,35955,128,0,36092:0:0:0:0:
320,192,36092,128,0,36228:0:0:0:0:
192,192,36228,128,0,36365:0:0:0:0:
64,192,36365,128,0,36910:0:0:0:0:
192,192,36910,128,0,37455:0:0:0:0:
320,192,37455,1,0,0:0:0:0:
448,192,37455,1,0,0:0:0:0:
64,192,37455,1,0,0:0:0:0:
192,192,38137,128,0,38274:0:0:0:0:
448,192,38274,128,0,38410:0:0:0:0:
64,192,38410,128,0,38546:0:0:0:0:
320,192,38546,128,0,39092:0:0:0:0:
192,192,39092,128,0,39637:0:0:0:0:
448,192,39637,1,0,0:0:0:0:
64,192,39637,1,0,0:0:0:0:
320,192,39637,128,0,40183:0:0:0:0:
448,192,40319,128,0,40455:0:0:0:0:
192,192,40455,128,0,40592:0:0:0:0:
64,192,40592,128,0,40728:0:0:0:0:
320,192,40728,128,0,41274:0:0:0:0:
64,192,41274,128,0,41819:0:0:0:0:
448,192,41819,1,0,0:0:0:0:
192,192,41819,1,0,0:0:0:0:
320,192,41819,128,0,42365:0:0:0:0:
64,192,42501,128,0,42637:0:0:0:0:
448,192,42637,128,0,42774:0:0:0:0:
192,192,42774,128,0,42910:0:0:0:0:
320,192,42910,128,0,43455:0:0:0:0:
192,192,43455,1,0,0:0:0:0:
64,192,43455,1,0,0:0:0:0:
448,192,43455,128,0,44001:0:0:0:0:
320,192,44001,1,0,0:0:0:0:
192,192,44001,1,0,0:0:0:0:
64,192,44069,1,0,0:0:0:0:
192,192,44137,1,0,0:0:0:0:
320,192,44205,1,0,0:0:0:0:
448,192,44274,1,0,0:0:0:0:
192,192,44546,1,0,0:0:0:0:
64,192,44546,1,0,0:0:0:0:
448,192,44546,1,0,0:0:0:0:
320,192,44546,1,0,0:0:0:0:
192,192,44683,1,0,0:0:0:0:
64,192,44683,1,0,0:0:0:0:
448,192,44683,1,0,0:0:0:0:
192,192,44819,1,0,0:0:0:0:
320,192,44819,1,0,0:0:0:0:
448,192,44819,1,0,0:0:0:0:
64,192,44955,1,0,0:0:0:0:
448,192,44955,1,0,0:0:0:0:
320,192,44955,1,0,0:0:0:0:
192,192,45092,1,0,0:0:0:0:
320,192,45092,1,0,0:0:0:0:
64,192,45092,1,0,0:0:0:0:
448,192,45092,1,0,0:0:0:0:
448,192,45228,1,0,0:0:0:0:
320,192,45228,1,0,0:0:0:0:
192,192,45228,1,0,0:0:0:0:
64,192,45365,1,0,0:0:0:0:
448,192,45365,1,0,0:0:0:0:
192,192,45365,1,0,0:0:0:0:
192,192,45501,1,0,0:0:0:0:
448,192,45501,1,0,0:0:0:0:
320,192,45501,1,0,0:0:0:0:
320,192,45637,1,0,0:0:0:0:
192,192,45637,1,0,0:0:0:0:
448,192,45637,1,0,0:0:0:0:
64,192,45637,1,0,0:0:0:0:
64,192,45774,1,0,0:0:0:0:
448,192,45774,1,0,0:0:0:0:
192,192,45774,1,0,0:0:0:0:
192,192,45910,1,0,0:0:0:0:
64,192,45910,1,0,0:0:0:0:
320,192,45910,1,0,0:0:0:0:
448,192,46046,1,0,0:0:0:0:
320,192,46046,1,0,0:0:0:0:
192,192,46046,1,0,0:0:0:0:
64,192,46183,128,0,46592:0:0:0:0:
192,192,46183,128,0,46592:0:0:0:0:
320,192,46183,128,0,46592:0:0:0:0:
448,192,46183,128,0,46592:0:0:0:0:
448,192,46728,1,0,0:0:0:0:
320,192,46728,1,0,0:0:0:0:
192,192,46728,1,0,0:0:0:0:
64,192,46728,1,0,0:0:0:0:
320,192,46865,1,0,0:0:0:0:
64,192,46865,1,0,0:0:0:0:
448,192,46865,1,0,0:0:0:0:
192,192,47001,1,0,0:0:0:0:
320,192,47001,1,0,0:0:0:0:
64,192,47001,1,0,0:0:0:0:
448,192,47137,1,0,0:0:0:0:
192,192,47137,1,0,0:0:0:0:
320,192,47137,1,0,0:0:0:0:
192,192,47274,1,0,0:0:0:0:
64,192,47274,1,0,0:0:0:0:
448,192,47274,1,0,0:0:0:0:
192,192,47410,1,0,0:0:0:0:
64,192,47410,1,0,0:0:0:0:
448,192,47410,1,0,0:0:0:0:
320,192,47546,1,0,0:0:0:0:
192,192,47546,1,0,0:0:0:0:
448,192,47546,1,0,0:0:0:0:
448,192,47683,1,0,0:0:0:0:
64,192,47683,1,0,0:0:0:0:
320,192,47683,1,0,0:0:0:0:
192,192,47819,1,0,0:0:0:0:
448,192,47819,1,0,0:0:0:0:
320,192,47819,1,0,0:0:0:0:
64,192,47819,1,0,0:0:0:0:
448,192,47955,1,0,0:0:0:0:
64,192,47955,1,0,0:0:0:0:
320,192,47955,1,0,0:0:0:0:
192,192,48092,1,0,0:0:0:0:
320,192,48092,1,0,0:0:0:0:
64,192,48092,1,0,0:0:0:0:
192,192,48228,1,0,0:0:0:0:
320,192,48228,1,0,0:0:0:0:
448,192,48228,1,0,0:0:0:0:
64,192,48365,128,0,48774:0:0:0:0:
192,192,48365,128,0,48774:0:0:0:0:
320,192,48365,128,0,48774:0:0:0:0:
448,192,48365,128,0,48774:0:0:0:0:
320,192,48910,1,0,0:0:0:0:
448,192,48910,1,0,0:0:0:0:
192,192,48910,1,0,0:0:0:0:
64,192,48910,1,0,0:0:0:0:
64,192,49046,1,0,0:0:0:0:
448,192,49046,1,0,0:0:0:0:
320,192,49046,1,0,0:0:0:0:
192,192,49183,1,0,0:0:0:0:
320,192,49183,1,0,0:0:0:0:
448,192,49183,1,0,0:0:0:0:
320,192,49319,1,0,0:0:0:0:
192,192,49319,1,0,0:0:0:0:
64,192,49319,1,0,0:0:0:0:
64,192,49455,1,0,0:0:0:0:
192,192,49455,1,0,0:0:0:0:
320,192,49455,1,0,0:0:0:0:
448,192,49455,1,0,0:0:0:0:
448,192,49592,1,0,0:0:0:0:
64,192,49592,1,0,0:0:0:0:
192,192,49592,1,0,0:0:0:0:
320,192,49728,1,0,0:0:0:0:
192,192,49728,1,0,0:0:0:0:
448,192,49728,1,0,0:0:0:0:
320,192,49865,1,0,0:0:0:0:
448,192,49865,1,0,0:0:0:0:
192,192,49865,1,0,0:0:0:0:
64,192,50001,1,0,0:0:0:0:
192,192,50001,1,0,0:0:0:0:
320,192,50001,1,0,0:0:0:0:
448,192,50001,1,0,0:0:0:0:
320,192,50137,1,0,0:0:0:0:
192,192,50137,1,0,0:0:0:0:
64,192,50137,1,0,0:0:0:0:
448,192,50274,1,0,0:0:0:0:
320,192,50274,1,0,0:0:0:0:
64,192,50274,1,0,0:0:0:0:
192,192,50410,1,0,0:0:0:0:
320,192,50410,1,0,0:0:0:0:
448,192,50410,1,0,0:0:0:0:
64,192,50410,1,0,0:0:0:0:
64,192,50546,128,0,50955:0:0:0:0:
192,192,50546,128,0,50955:0:0:0:0:
320,192,50546,128,0,50955:0:0:0:0:
448,192,50546,128,0,50955:0:0:0:0:
448,192,51092,1,0,0:0:0:0:
320,192,51092,1,0,0:0:0:0:
192,192,51092,1,0,0:0:0:0:
64,192,51092,1,0,0:0:0:0:
64,192,51228,1,0,0:0:0:0:
192,192,51228,1,0,0:0:0:0:
320,192,51228,1,0,0:0:0:0:
320,192,51365,1,0,0:0:0:0:
192,192,51365,1,0,0:0:0:0:
64,192,51365,1,0,0:0:0:0:
448,192,51501,1,0,0:0:0:0:
320,192,51501,1,0,0:0:0:0:
192,192,51501,1,0,0:0:0:0:
320,192,51637,1,0,0:0:0:0:
448,192,51637,1,0,0:0:0:0:
192,192,51637,1,0,0:0:0:0:
64,192,51637,1,0,0:0:0:0:
64,192,51774,1,0,0:0:0:0:
448,192,51774,1,0,0:0:0:0:
320,192,51774,1,0,0:0:0:0:
320,192,51910,1,0,0:0:0:0:
192,192,51910,1,0,0:0:0:0:
64,192,51910,1,0,0:0:0:0:
192,192,52046,1,0,0:0:0:0:
320,192,52046,1,0,0:0:0:0:
448,192,52046,1,0,0:0:0:0:
320,192,52183,1,0,0:0:0:0:
192,192,52183,1,0,0:0:0:0:
64,192,52183,1,0,0:0:0:0:
448,192,52183,1,0,0:0:0:0:
64,192,52319,1,0,0:0:0:0:
448,192,52319,1,0,0:0:0:0:
320,192,52319,1,0,0:0:0:0:
64,192,52455,1,0,0:0:0:0:
320,192,52455,1,0,0:0:0:0:
448,192,52455,1,0,0:0:0:0:
448,192,52592,1,0,0:0:0:0:
64,192,52592,1,0,0:0:0:0:
192,192,52592,1,0,0:0:0:0:
320,192,52728,128,0,53137:0:0:0:0:
192,192,52728,128,0,53137:0:0:0:0:
64,192,52728,128,0,53137:0:0:0:0:
448,192,52728,128,0,53137:0:0:0:0:
448,192,53274,1,0,0:0:0:0:
320,192,53274,1,0,0:0:0:0:
192,192,53274,1,0,0:0:0:0:
64,192,53274,1,0,0:0:0:0:
320,192,53410,1,0,0:0:0:0:
448,192,53410,1,0,0:0:0:0:
64,192,53410,1,0,0:0:0:0:
320,192,53546,1,0,0:0:0:0:
448,192,53546,1,0,0:0:0:0:
64,192,53546,1,0,0:0:0:0:
192,192,53683,1,0,0:0:0:0:
320,192,53683,1,0,0:0:0:0:
64,192,53683,1,0,0:0:0:0:
64,192,53819,1,0,0:0:0:0:
192,192,53819,1,0,0:0:0:0:
320,192,53819,1,0,0:0:0:0:
448,192,53819,1,0,0:0:0:0:
448,192,53955,1,0,0:0:0:0:
192,192,53955,1,0,0:0:0:0:
320,192,53955,1,0,0:0:0:0:
192,192,54092,1,0,0:0:0:0:
320,192,54092,1,0,0:0:0:0:
448,192,54092,1,0,0:0:0:0:
320,192,54228,1,0,0:0:0:0:
448,192,54228,1,0,0:0:0:0:
192,192,54228,1,0,0:0:0:0:
64,192,54365,1,0,0:0:0:0:
192,192,54365,1,0,0:0:0:0:
320,192,54365,1,0,0:0:0:0:
448,192,54365,1,0,0:0:0:0:
320,192,54501,1,0,0:0:0:0:
192,192,54501,1,0,0:0:0:0:
64,192,54501,1,0,0:0:0:0:
64,192,54637,1,0,0:0:0:0:
192,192,54637,1,0,0:0:0:0:
320,192,54637,1,0,0:0:0:0:
320,192,54774,1,0,0:0:0:0:
192,192,54774,1,0,0:0:0:0:
64,192,54774,1,0,0:0:0:0:
64,192,54910,128,0,55319:0:0:0:0:
192,192,54910,128,0,55319:0:0:0:0:
320,192,54910,128,0,55319:0:0:0:0:
448,192,54910,128,0,55319:0:0:0:0:
448,192,55455,1,0,0:0:0:0:
320,192,55455,1,0,0:0:0:0:
192,192,55455,1,0,0:0:0:0:
64,192,55455,1,0,0:0:0:0:
64,192,55592,1,0,0:0:0:0:
320,192,55592,1,0,0:0:0:0:
448,192,55592,1,0,0:0:0:0:
448,192,55728,1,0,0:0:0:0:
320,192,55728,1,0,0:0:0:0:
64,192,55728,1,0,0:0:0:0:
320,192,55865,1,0,0:0:0:0:
448,192,55865,1,0,0:0:0:0:
64,192,55865,1,0,0:0:0:0:
64,192,56001,1,0,0:0:0:0:
192,192,56001,1,0,0:0:0:0:
320,192,56001,1,0,0:0:0:0:
448,192,56001,1,0,0:0:0:0:
320,192,56137,1,0,0:0:0:0:
448,192,56137,1,0,0:0:0:0:
64,192,56137,1,0,0:0:0:0:
320,192,56274,1,0,0:0:0:0:
192,192,56274,1,0,0:0:0:0:
64,192,56274,1,0,0:0:0:0:
192,192,56410,1,0,0:0:0:0:
320,192,56410,1,0,0:0:0:0:
448,192,56410,1,0,0:0:0:0:
320,192,56546,1,0,0:0:0:0:
448,192,56546,1,0,0:0:0:0:
192,192,56546,1,0,0:0:0:0:
64,192,56546,1,0,0:0:0:0:
320,192,56683,1,0,0:0:0:0:
192,192,56683,1,0,0:0:0:0:
64,192,56683,1,0,0:0:0:0:
192,192,56819,1,0,0:0:0:0:
320,192,56819,1,0,0:0:0:0:
448,192,56819,1,0,0:0:0:0:
320,192,56955,1,0,0:0:0:0:
192,192,56955,1,0,0:0:0:0:
64,192,56955,1,0,0:0:0:0:
64,192,57092,128,0,57501:0:0:0:0:
192,192,57092,128,0,57501:0:0:0:0:
320,192,57092,128,0,57501:0:0:0:0:
448,192,57092,128,0,57501:0:0:0:0:
320,192,57637,1,0,0:0:0:0:
448,192,57637,1,0,0:0:0:0:
192,192,57637,1,0,0:0:0:0:
64,192,57637,1,0,0:0:0:0:
64,192,57774,1,0,0:0:0:0:
192,192,57774,1,0,0:0:0:0:
448,192,57774,1,0,0:0:0:0:
320,192,57910,1,0,0:0:0:0:
192,192,57910,1,0,0:0:0:0:
64,192,57910,1,0,0:0:0:0:
448,192,58046,1,0,0:0:0:0:
320,192,58046,1,0,0:0:0:0:
192,192,58046,1,0,0:0:0:0:
320,192,58183,1,0,0:0:0:0:
448,192,58183,1,0,0:0:0:0:
192,192,58183,1,0,0:0:0:0:
64,192,58183,1,0,0:0:0:0:
192,192,58319,1,0,0:0:0:0:
64,192,58319,1,0,0:0:0:0:
320,192,58319,1,0,0:0:0:0:
320,192,58455,1,0,0:0:0:0:
192,192,58455,1,0,0:0:0:0:
64,192,58455,1,0,0:0:0:0:
64,192,58592,1,0,0:0:0:0:
192,192,58592,1,0,0:0:0:0:
320,192,58592,1,0,0:0:0:0:
448,192,58728,1,0,0:0:0:0:
320,192,58728,1,0,0:0:0:0:
192,192,58728,1,0,0:0:0:0:
64,192,58728,1,0,0:0:0:0:
448,192,58865,1,0,0:0:0:0:
320,192,58865,1,0,0:0:0:0:
192,192,58865,1,0,0:0:0:0:
320,192,59001,1,0,0:0:0:0:
448,192,59001,1,0,0:0:0:0:
192,192,59001,1,0,0:0:0:0:
192,192,59137,1,0,0:0:0:0:
320,192,59137,1,0,0:0:0:0:
448,192,59137,1,0,0:0:0:0:
320,192,59274,128,0,59683:0:0:0:0:
448,192,59274,128,0,59683:0:0:0:0:
64,192,59274,128,0,59683:0:0:0:0:
192,192,59274,128,0,59683:0:0:0:0:
320,192,59819,1,0,0:0:0:0:
448,192,59819,1,0,0:0:0:0:
192,192,59819,1,0,0:0:0:0:
64,192,59819,1,0,0:0:0:0:
448,192,59955,1,0,0:0:0:0:
64,192,59955,1,0,0:0:0:0:
448,192,60092,1,0,0:0:0:0:
192,192,60092,1,0,0:0:0:0:
448,192,60228,1,0,0:0:0:0:
320,192,60228,1,0,0:0:0:0:
448,192,60365,1,0,0:0:0:0:
64,192,60365,1,0,0:0:0:0:
192,192,60365,1,0,0:0:0:0:
320,192,60501,1,0,0:0:0:0:
64,192,60637,1,0,0:0:0:0:
192,192,60637,1,0,0:0:0:0:
320,192,60774,1,0,0:0:0:0:
448,192,60774,1,0,0:0:0:0:
192,192,60910,1,0,0:0:0:0:
64,192,60910,1,0,0:0:0:0:
320,192,61046,1,0,0:0:0:0:
448,192,61046,1,0,0:0:0:0:
192,192,61046,1,0,0:0:0:0:
64,192,61183,1,0,0:0:0:0:
320,192,61183,1,0,0:0:0:0:
448,192,61183,1,0,0:0:0:0:
192,192,61319,1,0,0:0:0:0:
320,192,61319,1,0,0:0:0:0:
64,192,61319,1,0,0:0:0:0:
320,192,61455,1,0,0:0:0:0:
192,192,61455,1,0,0:0:0:0:
64,192,61455,1,0,0:0:0:0:
448,192,61455,128,0,62001:0:0:0:0:
64,192,61592,1,0,0:0:0:0:
192,192,61660,1,0,0:0:0:0:
320,192,61728,1,0,0:0:0:0:
64,192,61796,1,0,0:0:0:0:
192,192,61865,1,0,0:0:0:0:
320,192,61865,1,0,0:0:0:0:
320,192,62001,1,0,0:0:0:0:
192,192,62001,1,0,0:0:0:0:
64,192,62001,1,0,0:0:0:0:
192,192,62137,1,0,0:0:0:0:
320,192,62137,1,0,0:0:0:0:
320,192,62274,1,0,0:0:0:0:
448,192,62274,1,0,0:0:0:0:
64,192,62410,1,0,0:0:0:0:
192,192,62410,1,0,0:0:0:0:
192,192,62546,1,0,0:0:0:0:
320,192,62546,1,0,0:0:0:0:
64,192,62546,1,0,0:0:0:0:
448,192,62546,1,0,0:0:0:0:
320,192,62683,1,0,0:0:0:0:
448,192,62683,1,0,0:0:0:0:
64,192,62819,1,0,0:0:0:0:
192,192,62819,1,0,0:0:0:0:
320,192,62955,1,0,0:0:0:0:
448,192,62955,1,0,0:0:0:0:
320,192,63092,1,0,0:0:0:0:
448,192,63092,1,0,0:0:0:0:
192,192,63092,1,0,0:0:0:0:
64,192,63092,1,0,0:0:0:0:
192,192,63228,1,0,0:0:0:0:
320,192,63228,1,0,0:0:0:0:
64,192,63228,1,0,0:0:0:0:
448,192,63365,1,0,0:0:0:0:
320,192,63365,1,0,0:0:0:0:
192,192,63365,1,0,0:0:0:0:
320,192,63501,1,0,0:0:0:0:
192,192,63501,1,0,0:0:0:0:
64,192,63501,1,0,0:0:0:0:
192,192,63637,1,0,0:0:0:0:
320,192,63637,1,0,0:0:0:0:
448,192,63637,1,0,0:0:0:0:
64,192,63637,128,0,64183:0:0:0:0:
192,192,63774,1,0,0:0:0:0:
320,192,63842,1,0,0:0:0:0:
448,192,63910,1,0,0:0:0:0:
192,192,63978,1,0,0:0:0:0:
320,192,64046,1,0,0:0:0:0:
448,192,64046,1,0,0:0:0:0:
448,192,64183,1,0,0:0:0:0:
192,192,64183,1,0,0:0:0:0:
320,192,64319,1,0,0:0:0:0:
64,192,64319,1,0,0:0:0:0:
192,192,64455,1,0,0:0:0:0:
448,192,64455,1,0,0:0:0:0:
320,192,64592,1,0,0:0:0:0:
64,192,64592,1,0,0:0:0:0:
192,192,64728,1,0,0:0:0:0:
448,192,64728,1,0,0:0:0:0:
64,192,64728,1,0,0:0:0:0:
320,192,64728,1,0,0:0:0:0:
448,192,64865,1,0,0:0:0:0:
192,192,64865,1,0,0:0:0:0:
320,192,65001,1,0,0:0:0:0:
64,192,65001,1,0,0:0:0:0:
192,192,65137,1,0,0:0:0:0:
448,192,65137,1,0,0:0:0:0:
448,192,65274,1,0,0:0:0:0:
320,192,65274,1,0,0:0:0:0:
192,192,65274,1,0,0:0:0:0:
64,192,65274,1,0,0:0:0:0:
320,192,65410,1,0,0:0:0:0:
192,192,65410,1,0,0:0:0:0:
64,192,65410,1,0,0:0:0:0:
192,192,65546,1,0,0:0:0:0:
320,192,65546,1,0,0:0:0:0:
448,192,65546,1,0,0:0:0:0:
320,192,65683,1,0,0:0:0:0:
448,192,65683,1,0,0:0:0:0:
192,192,65683,1,0,0:0:0:0:
448,192,65819,1,0,0:0:0:0:
192,192,65819,1,0,0:0:0:0:
64,192,65819,1,0,0:0:0:0:
320,192,65819,128,0,66228:0:0:0:0:
64,192,65955,1,0,0:0:0:0:
192,192,66024,1,0,0:0:0:0:
448,192,66092,1,0,0:0:0:0:
64,192,66160,1,0,0:0:0:0:
192,192,66228,1,0,0:0:0:0:
448,192,66228,1,0,0:0:0:0:
192,192,66365,1,0,0:0:0:0:
320,192,66365,1,0,0:0:0:0:
448,192,66365,1,0,0:0:0:0:
64,192,66365,1,0,0:0:0:0:
448,192,66501,1,0,0:0:0:0:
64,192,66501,1,0,0:0:0:0:
320,192,66637,1,0,0:0:0:0:
192,192,66637,1,0,0:0:0:0:
64,192,66774,1,0,0:0:0:0:
448,192,66774,1,0,0:0:0:0:
320,192,66910,1,0,0:0:0:0:
192,192,66910,1,0,0:0:0:0:
448,192,66910,1,0,0:0:0:0:
64,192,66910,1,0,0:0:0:0:
64,192,67046,1,0,0:0:0:0:
448,192,67046,1,0,0:0:0:0:
320,192,67183,1,0,0:0:0:0:
192,192,67183,1,0,0:0:0:0:
64,192,67319,1,0,0:0:0:0:
448,192,67319,1,0,0:0:0:0:
320,192,67455,1,0,0:0:0:0:
448,192,67455,1,0,0:0:0:0:
192,192,67455,1,0,0:0:0:0:
64,192,67455,1,0,0:0:0:0:
64,192,67592,1,0,0:0:0:0:
192,192,67592,1,0,0:0:0:0:
320,192,67592,1,0,0:0:0:0:
448,192,67728,1,0,0:0:0:0:
64,192,67728,1,0,0:0:0:0:
192,192,67728,1,0,0:0:0:0:
320,192,67865,1,0,0:0:0:0:
448,192,67865,1,0,0:0:0:0:
192,192,67865,1,0,0:0:0:0:
64,192,68001,1,0,0:0:0:0:
192,192,68001,1,0,0:0:0:0:
320,192,68001,1,0,0:0:0:0:
448,192,68001,128,0,68546:0:0:0:0:
64,192,68137,1,0,0:0:0:0:
192,192,68205,1,0,0:0:0:0:
320,192,68274,1,0,0:0:0:0:
64,192,68342,1,0,0:0:0:0:
192,192,68410,1,0,0:0:0:0:
320,192,68478,1,0,0:0:0:0:
64,192,68546,128,0,69092:0:0:0:0:
448,192,68615,1,0,0:0:0:0:
320,192,68683,1,0,0:0:0:0:
192,192,68751,1,0,0:0:0:0:
448,192,68819,1,0,0:0:0:0:
320,192,68887,1,0,0:0:0:0:
192,192,68955,1,0,0:0:0:0:
320,192,69092,128,0,69637:0:0:0:0:
448,192,69092,1,0,0:0:0:0:
192,192,69160,1,0,0:0:0:0:
64,192,69228,1,0,0:0:0:0:
448,192,69296,1,0,0:0:0:0:
192,192,69365,1,0,0:0:0:0:
64,192,69433,1,0,0:0:0:0:
448,192,69501,1,0,0:0:0:0:
192,192,69569,1,0,0:0:0:0:
64,192,69637,128,0,70183:0:0:0:0:
448,192,69637,1,0,0:0:0:0:
192,192,69705,1,0,0:0:0:0:
320,192,69774,1,0,0:0:0:0:
448,192,69842,1,0,0:0:0:0:
192,192,69910,1,0,0:0:0:0:
320,192,69978,1,0,0:0:0:0:
448,192,70046,1,0,0:0:0:0:
320,192,70183,1,0,0:0:0:0:
448,192,70183,1,0,0:0:0:0:
192,192,70183,128,0,70728:0:0:0:0:
64,192,70319,1,0,0:0:0:0:
448,192,70387,1,0,0:0:0:0:
320,192,70455,1,0,0:0:0:0:
64,192,70524,1,0,0:0:0:0:
448,192,70592,1,0,0:0:0:0:
320,192,70660,1,0,0:0:0:0:
64,192,70728,1,0,0:0:0:0:
448,192,70728,1,0,0:0:0:0:
320,192,70865,1,0,0:0:0:0:
192,192,70865,1,0,0:0:0:0:
64,192,71001,1,0,0:0:0:0:
192,192,71001,1,0,0:0:0:0:
448,192,71137,1,0,0:0:0:0:
320,192,71137,1,0,0:0:0:0:
192,192,71274,1,0,0:0:0:0:
320,192,71274,1,0,0:0:0:0:
64,192,71274,1,0,0:0:0:0:
448,192,71274,1,0,0:0:0:0:
192,192,71410,1,0,0:0:0:0:
64,192,71410,1,0,0:0:0:0:
320,192,71546,1,0,0:0:0:0:
64,192,71546,1,0,0:0:0:0:
320,192,71819,1,0,0:0:0:0:
448,192,71819,1,0,0:0:0:0:
192,192,71819,1,0,0:0:0:0:
64,192,71819,1,0,0:0:0:0:
64,192,71955,1,0,0:0:0:0:
192,192,71955,1,0,0:0:0:0:
320,192,71955,1,0,0:0:0:0:
320,192,72092,1,0,0:0:0:0:
192,192,72092,1,0,0:0:0:0:
64,192,72092,1,0,0:0:0:0:
192,192,72228,1,0,0:0:0:0:
320,192,72228,1,0,0:0:0:0:
64,192,72228,1,0,0:0:0:0:
64,192,72365,128,0,72774:0:0:0:0:
448,192,72365,128,0,72774:0:0:0:0:
64,192,72910,1,0,0:0:0:0:
192,192,72910,1,0,0:0:0:0:
448,192,72910,1,0,0:0:0:0:
320,192,72910,1,0,0:0:0:0:
448,192,73183,1,0,0:0:0:0:
192,192,73183,1,0,0:0:0:0:
64,192,73183,1,0,0:0:0:0:
320,192,73319,1,0,0:0:0:0:
448,192,73319,1,0,0:0:0:0:
192,192,73319,1,0,0:0:0:0:
320,192,73455,1,0,0:0:0:0:
192,192,73455,1,0,0:0:0:0:
64,192,73455,1,0,0:0:0:0:
448,192,73455,1,0,0:0:0:0:
64,192,73592,1,0,0:0:0:0:
192,192,73592,1,0,0:0:0:0:
448,192,73592,1,0,0:0:0:0:
320,192,73728,1,0,0:0:0:0:
192,192,74001,1,0,0:0:0:0:
320,192,74001,1,0,0:0:0:0:
448,192,74001,1,0,0:0:0:0:
64,192,74001,1,0,0:0:0:0:
192,192,74137,1,0,0:0:0:0:
320,192,74137,1,0,0:0:0:0:
448,192,74137,1,0,0:0:0:0:
320,192,74274,1,0,0:0:0:0:
192,192,74274,1,0,0:0:0:0:
64,192,74274,1,0,0:0:0:0:
192,192,74410,1,0,0:0:0:0:
320,192,74410,1,0,0:0:0:0:
448,192,74410,1,0,0:0:0:0:
448,192,74546,1,0,0:0:0:0:
64,192,74546,1,0,0:0:0:0:
192,192,74546,128,0,74955:0:0:0:0:
320,192,74546,128,0,74955:0:0:0:0:
320,192,75092,1,0,0:0:0:0:
448,192,75092,1,0,0:0:0:0:
192,192,75092,1,0,0:0:0:0:
64,192,75092,1,0,0:0:0:0:
448,192,75365,1,0,0:0:0:0:
320,192,75365,1,0,0:0:0:0:
64,192,75365,1,0,0:0:0:0:
320,192,75501,1,0,0:0:0:0:
448,192,75501,1,0,0:0:0:0:
192,192,75501,1,0,0:0:0:0:
64,192,75637,1,0,0:0:0:0:
320,192,75637,1,0,0:0:0:0:
448,192,75637,1,0,0:0:0:0:
320,192,75774,1,0,0:0:0:0:
448,192,75774,1,0,0:0:0:0:
192,192,75774,1,0,0:0:0:0:
64,192,75910,1,0,0:0:0:0:
448,192,76183,1,0,0:0:0:0:
320,192,76183,1,0,0:0:0:0:
192,192,76183,1,0,0:0:0:0:
64,192,76183,1,0,0:0:0:0:
64,192,76319,1,0,0:0:0:0:
192,192,76319,1,0,0:0:0:0:
320,192,76319,1,0,0:0:0:0:
64,192,76455,1,0,0:0:0:0:
320,192,76455,1,0,0:0:0:0:
192,192,76455,1,0,0:0:0:0:
192,192,76592,1,0,0:0:0:0:
448,192,76592,1,0,0:0:0:0:
320,192,76592,1,0,0:0:0:0:
448,192,76728,1,0,0:0:0:0:
320,192,76728,1,0,0:0:0:0:
192,192,76728,1,0,0:0:0:0:
64,192,76728,128,0,77274:0:0:0:0:
448,192,76865,1,0,0:0:0:0:
320,192,76933,1,0,0:0:0:0:
192,192,77001,1,0,0:0:0:0:
448,192,77069,1,0,0:0:0:0:
320,192,77137,1,0,0:0:0:0:
192,192,77205,1,0,0:0:0:0:
448,192,77274,128,0,77819:0:0:0:0:
64,192,77342,1,0,0:0:0:0:
192,192,77410,1,0,0:0:0:0:
320,192,77478,1,0,0:0:0:0:
64,192,77546,1,0,0:0:0:0:
192,192,77615,1,0,0:0:0:0:
320,192,77683,1,0,0:0:0:0:
64,192,77819,128,0,78365:0:0:0:0:
448,192,77887,1,0,0:0:0:0:
320,192,77955,1,0,0:0:0:0:
192,192,78024,1,0,0:0:0:0:
448,192,78092,1,0,0:0:0:0:
320,192,78160,1,0,0:0:0:0:
192,192,78228,1,0,0:0:0:0:
320,192,78365,128,0,78501:0:0:0:0:
448,192,78501,128,0,78637:0:0:0:0:
192,192,78637,128,0,78774:0:0:0:0:
64,192,78774,128,0,78910:0:0:0:0:
192,192,78910,1,0,0:0:0:0:
320,192,78910,128,0,79319:0:0:0:0:
448,192,78910,128,0,79319:0:0:0:0:
320,192,79455,1,0,0:0:0:0:
448,192,79455,1,0,0:0:0:0:
64,192,79455,1,0,0:0:0:0:
192,192,79455,1,0,0:0:0:0:
64,192,79592,1,0,0:0:0:0:
448,192,79728,1,0,0:0:0:0:
320,192,79728,1,0,0:0:0:0:
192,192,79728,1,0,0:0:0:0:
64,192,79865,1,0,0:0:0:0:
320,192,80001,1,0,0:0:0:0:
192,192,80001,1,0,0:0:0:0:
64,192,80001,1,0,0:0:0:0:
448,192,80001,1,0,0:0:0:0:
64,192,80137,1,0,0:0:0:0:
448,192,80274,1,0,0:0:0:0:
320,192,80410,1,0,0:0:0:0:
448,192,80410,1,0,0:0:0:0:
192,192,80410,1,0,0:0:0:0:
64,192,80546,1,0,0:0:0:0:
192,192,80546,1,0,0:0:0:0:
320,192,80546,1,0,0:0:0:0:
448,192,80546,1,0,0:0:0:0:
64,192,80683,1,0,0:0:0:0:
448,192,80819,1,0,0:0:0:0:
320,192,80819,1,0,0:0:0:0:
192,192,80819,1,0,0:0:0:0:
448,192,80955,1,0,0:0:0:0:
448,192,81092,1,0,0:0:0:0:
320,192,81092,1,0,0:0:0:0:
192,192,81092,1,0,0:0:0:0:
64,192,81092,128,0,81501:0:0:0:0:
448,192,81637,1,0,0:0:0:0:
320,192,81637,1,0,0:0:0:0:
192,192,81637,1,0,0:0:0:0:
64,192,81637,1,0,0:0:0:0:
448,192,81774,1,0,0:0:0:0:
320,192,81910,1,0,0:0:0:0:
192,192,81910,1,0,0:0:0:0:
64,192,82046,1,0,0:0:0:0:
192,192,82046,1,0,0:0:0:0:
320,192,82046,1,0,0:0:0:0:
448,192,82183,1,0,0:0:0:0:
320,192,82183,1,0,0:0:0:0:
192,192,82183,1,0,0:0:0:0:
64,192,82183,1,0,0:0:0:0:
448,192,82319,1,0,0:0:0:0:
320,192,82455,1,0,0:0:0:0:
192,192,82455,1,0,0:0:0:0:
64,192,82455,1,0,0:0:0:0:
64,192,82592,1,0,0:0:0:0:
448,192,82728,1,0,0:0:0:0:
320,192,82728,1,0,0:0:0:0:
192,192,82728,1,0,0:0:0:0:
64,192,82728,1,0,0:0:0:0:
448,192,82865,1,0,0:0:0:0:
64,192,83001,1,0,0:0:0:0:
192,192,83001,1,0,0:0:0:0:
320,192,83001,1,0,0:0:0:0:
192,192,83137,1,0,0:0:0:0:
64,192,83274,1,0,0:0:0:0:
320,192,83274,1,0,0:0:0:0:
448,192,83274,1,0,0:0:0:0:
192,192,83274,128,0,83683:0:0:0:0:
448,192,83819,1,0,0:0:0:0:
320,192,83819,1,0,0:0:0:0:
192,192,83819,1,0,0:0:0:0:
64,192,83819,1,0,0:0:0:0:
64,192,83955,1,0,0:0:0:0:
448,192,84092,1,0,0:0:0:0:
320,192,84092,1,0,0:0:0:0:
192,192,84092,1,0,0:0:0:0:
192,192,84228,1,0,0:0:0:0:
320,192,84365,1,0,0:0:0:0:
448,192,84365,1,0,0:0:0:0:
192,192,84365,1,0,0:0:0:0:
64,192,84365,1,0,0:0:0:0:
448,192,84501,1,0,0:0:0:0:
64,192,84637,1,0,0:0:0:0:
192,192,84637,1,0,0:0:0:0:
320,192,84637,1,0,0:0:0:0:
320,192,84774,1,0,0:0:0:0:
320,192,84910,1,0,0:0:0:0:
448,192,84910,1,0,0:0:0:0:
192,192,84910,1,0,0:0:0:0:
64,192,84910,1,0,0:0:0:0:
64,192,85046,1,0,0:0:0:0:
448,192,85183,1,0,0:0:0:0:
320,192,85183,1,0,0:0:0:0:
192,192,85183,1,0,0:0:0:0:
448,192,85319,1,0,0:0:0:0:
320,192,85455,1,0,0:0:0:0:
192,192,85455,1,0,0:0:0:0:
64,192,85455,1,0,0:0:0:0:
448,192,85455,128,0,86001:0:0:0:0:
64,192,85592,1,0,0:0:0:0:
320,192,85660,1,0,0:0:0:0:
192,192,85728,1,0,0:0:0:0:
64,192,85796,1,0,0:0:0:0:
320,192,85865,1,0,0:0:0:0:
192,192,85933,1,0,0:0:0:0:
64,192,86001,128,0,86546:0:0:0:0:
320,192,86069,1,0,0:0:0:0:
448,192,86137,1,0,0:0:0:0:
192,192,86205,1,0,0:0:0:0:
320,192,86274,1,0,0:0:0:0:
448,192,86342,1,0,0:0:0:0:
192,192,86410,1,0,0:0:0:0:
320,192,86546,128,0,87092:0:0:0:0:
448,192,86546,1,0,0:0:0:0:
192,192,86615,1,0,0:0:0:0:
64,192,86683,1,0,0:0:0:0:
448,192,86751,1,0,0:0:0:0:
192,192,86819,1,0,0:0:0:0:
64,192,86887,1,0,0:0:0:0:
448,192,86955,1,0,0:0:0:0:
192,192,87092,128,0,87637:0:0:0:0:
64,192,87092,1,0,0:0:0:0:
448,192,87092,1,0,0:0:0:0:
320,192,87228,1,0,0:0:0:0:
448,192,87296,1,0,0:0:0:0:
64,192,87365,1,0,0:0:0:0:
320,192,87433,1,0,0:0:0:0:
448,192,87501,1,0,0:0:0:0:
320,192,87637,1,0,0:0:0:0:
64,192,87637,1,0,0:0:0:0:
448,192,87637,128,0,88046:0:0:0:0:
192,192,88183,1,0,0:0:0:0:
320,192,88183,1,0,0:0:0:0:
64,192,88183,1,0,0:0:0:0:
448,192,88183,1,0,0:0:0:0:
64,192,88319,1,0,0:0:0:0:
448,192,88455,1,0,0:0:0:0:
320,192,88455,1,0,0:0:0:0:
192,192,88455,1,0,0:0:0:0:
448,192,88592,1,0,0:0:0:0:
320,192,88728,1,0,0:0:0:0:
448,192,88728,1,0,0:0:0:0:
192,192,88728,1,0,0:0:0:0:
64,192,88728,1,0,0:0:0:0:
192,192,88865,1,0,0:0:0:0:
448,192,89001,1,0,0:0:0:0:
320,192,89001,1,0,0:0:0:0:
64,192,89001,1,0,0:0:0:0:
320,192,89137,1,0,0:0:0:0:
448,192,89274,1,0,0:0:0:0:
192,192,89274,1,0,0:0:0:0:
320,192,89274,1,0,0:0:0:0:
64,192,89274,1,0,0:0:0:0:
448,192,89410,1,0,0:0:0:0:
64,192,89546,1,0,0:0:0:0:
192,192,89546,1,0,0:0:0:0:
320,192,89546,1,0,0:0:0:0:
64,192,89683,1,0,0:0:0:0:
448,192,89819,1,0,0:0:0:0:
320,192,89819,1,0,0:0:0:0:
192,192,89819,1,0,0:0:0:0:
64,192,89819,128,0,90228:0:0:0:0:
448,192,90365,1,0,0:0:0:0:
192,192,90365,1,0,0:0:0:0:
320,192,90365,1,0,0:0:0:0:
64,192,90365,1,0,0:0:0:0:
320,192,90501,1,0,0:0:0:0:
192,192,90637,1,0,0:0:0:0:
448,192,90637,1,0,0:0:0:0:
64,192,90637,1,0,0:0:0:0:
448,192,90774,1,0,0:0:0:0:
320,192,90910,1,0,0:0:0:0:
448,192,90910,1,0,0:0:0:0:
192,192,90910,1,0,0:0:0:0:
64,192,90910,1,0,0:0:0:0:
192,192,91046,1,0,0:0:0:0:
448,192,91183,1,0,0:0:0:0:
320,192,91183,1,0,0:0:0:0:
64,192,91183,1,0,0:0:0:0:
320,192,91319,1,0,0:0:0:0:
192,192,91455,1,0,0:0:0:0:
320,192,91455,1,0,0:0:0:0:
448,192,91455,1,0,0:0:0:0:
64,192,91455,1,0,0:0:0:0:
192,192,91592,1,0,0:0:0:0:
448,192,91728,1,0,0:0:0:0:
320,192,91728,1,0,0:0:0:0:
64,192,91728,1,0,0:0:0:0:
64,192,91865,1,0,0:0:0:0:
192,192,91865,1,0,0:0:0:0:
320,192,91865,1,0,0:0:0:0:
320,192,92001,1,0,0:0:0:0:
192,192,92001,1,0,0:0:0:0:
64,192,92001,1,0,0:0:0:0:
448,192,92001,128,0,92410:0:0:0:0:
64,192,92546,1,0,0:0:0:0:
320,192,92546,1,0,0:0:0:0:
448,192,92546,1,0,0:0:0:0:
192,192,92546,1,0,0:0:0:0:
320,192,92683,1,0,0:0:0:0:
64,192,92819,1,0,0:0:0:0:
192,192,92819,1,0,0:0:0:0:
448,192,92819,1,0,0:0:0:0:
64,192,92955,1,0,0:0:0:0:
192,192,93092,1,0,0:0:0:0:
320,192,93092,1,0,0:0:0:0:
448,192,93092,1,0,0:0:0:0:
64,192,93092,1,0,0:0:0:0:
448,192,93228,1,0,0:0:0:0:
320,192,93365,1,0,0:0:0:0:
192,192,93365,1,0,0:0:0:0:
64,192,93365,1,0,0:0:0:0:
192,192,93501,1,0,0:0:0:0:
320,192,93637,1,0,0:0:0:0:
448,192,93637,1,0,0:0:0:0:
64,192,93637,1,0,0:0:0:0:
192,192,93637,1,0,0:0:0:0:
448,192,93774,1,0,0:0:0:0:
320,192,93774,1,0,0:0:0:0:
64,192,93774,1,0,0:0:0:0:
320,192,93910,1,0,0:0:0:0:
448,192,93910,1,0,0:0:0:0:
64,192,93910,1,0,0:0:0:0:
192,192,94046,1,0,0:0:0:0:
64,192,94046,1,0,0:0:0:0:
320,192,94046,1,0,0:0:0:0:
320,192,94183,1,0,0:0:0:0:
192,192,94183,1,0,0:0:0:0:
64,192,94183,1,0,0:0:0:0:
448,192,94183,128,0,94728:0:0:0:0:
320,192,94728,1,0,0:0:0:0:
64,192,94728,1,0,0:0:0:0:
192,192,94728,128,0,95274:0:0:0:0:
320,192,95274,128,0,95546:0:0:0:0:
448,192,95274,1,0,0:0:0:0:
64,192,95274,1,0,0:0:0:0:
192,192,95546,128,0,95819:0:0:0:0:
64,192,95819,128,0,96092:0:0:0:0:
448,192,96092,128,0,96365:0:0:0:0:
64,192,96365,128,0,96910:0:0:0:0:
320,192,96365,1,0,0:0:0:0:
192,192,96365,1,0,0:0:0:0:
448,192,96910,128,0,97455:0:0:0:0:
320,192,96910,1,0,0:0:0:0:
192,192,96910,1,0,0:0:0:0:
64,192,97455,128,0,97728:0:0:0:0:
192,192,97455,1,0,0:0:0:0:
320,192,97455,1,0,0:0:0:0:
192,192,97728,128,0,98001:0:0:0:0:
320,192,98001,128,0,98274:0:0:0:0:
448,192,98001,1,0,0:0:0:0:
64,192,98001,1,0,0:0:0:0:
448,192,98274,128,0,98546:0:0:0:0:
64,192,98546,128,0,98819:0:0:0:0:
320,192,98546,1,0,0:0:0:0:
192,192,98546,1,0,0:0:0:0:
192,192,98819,128,0,99092:0:0:0:0:
320,192,99092,128,0,99365:0:0:0:0:
448,192,99092,1,0,0:0:0:0:
64,192,99092,1,0,0:0:0:0:
64,192,99365,128,0,99637:0:0:0:0:
448,192,99637,128,0,99910:0:0:0:0:
192,192,99637,1,0,0:0:0:0:
320,192,99637,1,0,0:0:0:0:
192,192,99910,128,0,100183:0:0:0:0:
320,192,100183,128,0,100728:0:0:0:0:
64,192,100183,1,0,0:0:0:0:
448,192,100183,1,0,0:0:0:0:
64,192,100728,128,0,101274:0:0:0:0:
448,192,100728,1,0,0:0:0:0:
192,192,100728,1,0,0:0:0:0:
448,192,101274,128,0,101819:0:0:0:0:
320,192,101274,1,0,0:0:0:0:
192,192,101274,1,0,0:0:0:0:
192,192,101819,128,0,102092:0:0:0:0:
320,192,101819,1,0,0:0:0:0:
64,192,101819,1,0,0:0:0:0:
320,192,102092,128,0,102365:0:0:0:0:
448,192,102365,128,0,102910:0:0:0:0:
192,192,102365,1,0,0:0:0:0:
64,192,102365,1,0,0:0:0:0:
64,192,102910,128,0,103183:0:0:0:0:
192,192,102910,1,0,0:0:0:0:
320,192,102910,1,0,0:0:0:0:
192,192,103183,128,0,103455:0:0:0:0:
320,192,103455,1,0,0:0:0:0:
64,192,103455,1,0,0:0:0:0:
448,192,103455,128,0,103728:0:0:0:0:
192,192,103728,128,0,104001:0:0:0:0:
64,192,104001,128,0,104274:0:0:0:0:
320,192,104001,1,0,0:0:0:0:
448,192,104001,1,0,0:0:0:0:
320,192,104274,128,0,104546:0:0:0:0:
192,192,104546,1,0,0:0:0:0:
64,192,104546,1,0,0:0:0:0:
448,192,104546,128,0,105092:0:0:0:0:
192,192,105092,128,0,105637:0:0:0:0:
320,192,105092,1,0,0:0:0:0:
64,192,105092,1,0,0:0:0:0:
448,192,105637,128,0,106183:0:0:0:0:
320,192,105637,1,0,0:0:0:0:
64,192,105637,1,0,0:0:0:0:
64,192,106183,128,0,106455:0:0:0:0:
192,192,106183,1,0,0:0:0:0:
320,192,106183,1,0,0:0:0:0:
320,192,106455,128,0,106728:0:0:0:0:
192,192,106728,1,0,0:0:0:0:
64,192,106728,1,0,0:0:0:0:
448,192,106728,128,0,107274:0:0:0:0:
192,192,107274,128,0,107546:0:0:0:0:
64,192,107274,1,0,0:0:0:0:
320,192,107274,1,0,0:0:0:0:
320,192,107546,128,0,107819:0:0:0:0:
64,192,107819,128,0,108092:0:0:0:0:
192,192,107819,1,0,0:0:0:0:
448,192,107819,1,0,0:0:0:0:
448,192,108092,128,0,108365:0:0:0:0:
320,192,108365,128,0,108637:0:0:0:0:
192,192,108365,1,0,0:0:0:0:
64,192,108365,1,0,0:0:0:0:
192,192,108637,128,0,108910:0:0:0:0:
320,192,108910,1,0,0:0:0:0:
448,192,108910,1,0,0:0:0:0:
64,192,108910,128,0,109455:0:0:0:0:
320,192,109455,128,0,110001:0:0:0:0:
192,192,109455,1,0,0:0:0:0:
448,192,109455,1,0,0:0:0:0:
64,192,110001,128,0,110546:0:0:0:0:
192,192,110001,1,0,0:0:0:0:
448,192,110001,1,0,0:0:0:0:
448,192,110546,128,0,110819:0:0:0:0:
320,192,110546,1,0,0:0:0:0:
192,192,110546,1,0,0:0:0:0:
320,192,110819,128,0,111092:0:0:0:0:
192,192,111092,1,0,0:0:0:0:
448,192,111092,1,0,0:0:0:0:
64,192,111092,128,0,111637:0:0:0:0:
320,192,111637,128,0,111910:0:0:0:0:
192,192,111637,1,0,0:0:0:0:
448,192,111637,1,0,0:0:0:0:
192,192,111910,128,0,112183:0:0:0:0:
448,192,112183,128,0,112455:0:0:0:0:
320,192,112183,1,0,0:0:0:0:
64,192,112183,1,0,0:0:0:0:
320,192,112455,128,0,112728:0:0:0:0:
64,192,112728,1,0,0:0:0:0:
448,192,112728,1,0,0:0:0:0:
192,192,112728,128,0,113001:0:0:0:0:
64,192,113001,128,0,113274:0:0:0:0:
192,192,113274,1,0,0:0:0:0:
320,192,113274,1,0,0:0:0:0:
448,192,113274,128,0,113683:0:0:0:0:
64,192,113819,1,0,0:0:0:0:
320,192,113819,1,0,0:0:0:0:
192,192,113819,1,0,0:0:0:0:
192,192,113955,1,0,0:0:0:0:
448,192,113955,1,0,0:0:0:0:
320,192,114092,1,0,0:0:0:0:
64,192,114092,1,0,0:0:0:0:
448,192,114228,1,0,0:0:0:0:
192,192,114228,1,0,0:0:0:0:
320,192,114365,1,0,0:0:0:0:
448,192,114365,1,0,0:0:0:0:
192,192,114365,1,0,0:0:0:0:
64,192,114365,1,0,0:0:0:0:
320,192,114501,1,0,0:0:0:0:
64,192,114501,1,0,0:0:0:0:
192,192,114637,1,0,0:0:0:0:
448,192,114637,1,0,0:0:0:0:
320,192,114774,1,0,0:0:0:0:
64,192,114774,1,0,0:0:0:0:
64,192,114910,1,0,0:0:0:0:
192,192,114910,1,0,0:0:0:0:
320,192,114910,1,0,0:0:0:0:
448,192,114910,1,0,0:0:0:0:
448,192,115046,1,0,0:0:0:0:
192,192,115046,1,0,0:0:0:0:
320,192,115183,1,0,0:0:0:0:
64,192,115183,1,0,0:0:0:0:
64,192,115319,1,0,0:0:0:0:
320,192,115319,1,0,0:0:0:0:
320,192,115455,1,0,0:0:0:0:
192,192,115455,1,0,0:0:0:0:
64,192,115455,1,0,0:0:0:0:
448,192,115455,128,0,115728:0:0:0:0:
320,192,115728,1,0,0:0:0:0:
192,192,115728,1,0,0:0:0:0:
64,192,115728,1,0,0:0:0:0:
64,192,115865,1,0,0:0:0:0:
320,192,115865,1,0,0:0:0:0:
320,192,116001,1,0,0:0:0:0:
448,192,116001,1,0,0:0:0:0:
64,192,116001,1,0,0:0:0:0:
192,192,116001,1,0,0:0:0:0:
448,192,116137,1,0,0:0:0:0:
192,192,116137,1,0,0:0:0:0:
320,192,116274,1,0,0:0:0:0:
64,192,116274,1,0,0:0:0:0:
448,192,116410,1,0,0:0:0:0:
192,192,116410,1,0,0:0:0:0:
320,192,116546,1,0,0:0:0:0:
448,192,116546,1,0,0:0:0:0:
192,192,116546,1,0,0:0:0:0:
64,192,116546,128,0,116819:0:0:0:0:
448,192,116819,1,0,0:0:0:0:
320,192,116819,1,0,0:0:0:0:
192,192,116819,1,0,0:0:0:0:
192,192,116955,1,0,0:0:0:0:
448,192,116955,1,0,0:0:0:0:
192,192,117092,1,0,0:0:0:0:
448,192,117092,1,0,0:0:0:0:
320,192,117092,128,0,117365:0:0:0:0:
64,192,117092,128,0,117365:0:0:0:0:
192,192,117365,1,0,0:0:0:0:
448,192,117365,1,0,0:0:0:0:
320,192,117501,1,0,0:0:0:0:
64,192,117501,1,0,0:0:0:0:
192,192,117637,1,0,0:0:0:0:
448,192,117637,1,0,0:0:0:0:
320,192,117637,1,0,0:0:0:0:
64,192,117637,1,0,0:0:0:0:
448,192,117774,1,0,0:0:0:0:
192,192,117774,1,0,0:0:0:0:
320,192,117910,1,0,0:0:0:0:
64,192,117910,1,0,0:0:0:0:
192,192,118046,1,0,0:0:0:0:
448,192,118046,1,0,0:0:0:0:
448,192,118183,1,0,0:0:0:0:
320,192,118183,1,0,0:0:0:0:
192,192,118183,1,0,0:0:0:0:
64,192,118183,1,0,0:0:0:0:
320,192,118319,1,0,0:0:0:0:
64,192,118319,1,0,0:0:0:0:
192,192,118455,1,0,0:0:0:0:
448,192,118455,1,0,0:0:0:0:
320,192,118592,1,0,0:0:0:0:
64,192,118592,1,0,0:0:0:0:
192,192,118728,1,0,0:0:0:0:
320,192,118728,1,0,0:0:0:0:
448,192,118728,1,0,0:0:0:0:
64,192,118728,1,0,0:0:0:0:
448,192,118865,1,0,0:0:0:0:
192,192,118865,1,0,0:0:0:0:
320,192,119001,1,0,0:0:0:0:
64,192,119001,1,0,0:0:0:0:
192,192,119137,1,0,0:0:0:0:
448,192,119137,1,0,0:0:0:0:
448,192,119274,1,0,0:0:0:0:
320,192,119274,1,0,0:0:0:0:
192,192,119274,1,0,0:0:0:0:
64,192,119274,1,0,0:0:0:0:
320,192,119410,1,0,0:0:0:0:
64,192,119410,1,0,0:0:0:0:
192,192,119546,1,0,0:0:0:0:
448,192,119546,1,0,0:0:0:0:
320,192,119683,1,0,0:0:0:0:
64,192,119683,1,0,0:0:0:0:
64,192,119819,1,0,0:0:0:0:
192,192,119819,1,0,0:0:0:0:
320,192,119819,1,0,0:0:0:0:
448,192,119819,1,0,0:0:0:0:
448,192,119955,1,0,0:0:0:0:
192,192,119955,1,0,0:0:0:0:
448,192,120092,128,0,120365:0:0:0:0:
192,192,120092,128,0,120365:0:0:0:0:
64,192,120092,1,0,0:0:0:0:
320,192,120092,1,0,0:0:0:0:
320,192,120365,1,0,0:0:0:0:
64,192,120365,1,0,0:0:0:0:
320,192,120501,1,0,0:0:0:0:
192,192,120501,1,0,0:0:0:0:
448,192,120637,1,0,0:0:0:0:
64,192,120637,1,0,0:0:0:0:
192,192,120774,1,0,0:0:0:0:
320,192,120774,1,0,0:0:0:0:
192,192,120910,1,0,0:0:0:0:
320,192,120910,1,0,0:0:0:0:
448,192,120910,1,0,0:0:0:0:
64,192,120910,1,0,0:0:0:0:
448,192,121046,1,0,0:0:0:0:
64,192,121046,1,0,0:0:0:0:
320,192,121183,1,0,0:0:0:0:
192,192,121183,1,0,0:0:0:0:
64,192,121319,1,0,0:0:0:0:
192,192,121319,1,0,0:0:0:0:
320,192,121455,1,0,0:0:0:0:
192,192,121455,1,0,0:0:0:0:
64,192,121455,1,0,0:0:0:0:
448,192,121455,128,0,121728:0:0:0:0:
64,192,121728,1,0,0:0:0:0:
192,192,121796,1,0,0:0:0:0:
320,192,121865,1,0,0:0:0:0:
448,192,121933,1,0,0:0:0:0:
64,192,122001,1,0,0:0:0:0:
192,192,122001,1,0,0:0:0:0:
320,192,122069,1,0,0:0:0:0:
448,192,122137,1,0,0:0:0:0:
192,192,122205,1,0,0:0:0:0:
64,192,122274,1,0,0:0:0:0:
448,192,122342,1,0,0:0:0:0:
320,192,122410,1,0,0:0:0:0:
192,192,122478,1,0,0:0:0:0:
64,192,122546,1,0,0:0:0:0:
320,192,122546,1,0,0:0:0:0:
448,192,122546,128,0,122819:0:0:0:0:
192,192,122683,1,0,0:0:0:0:
320,192,122819,1,0,0:0:0:0:
64,192,122819,1,0,0:0:0:0:
192,192,122955,1,0,0:0:0:0:
448,192,123092,1,0,0:0:0:0:
320,192,123092,1,0,0:0:0:0:
192,192,123092,1,0,0:0:0:0:
64,192,123092,1,0,0:0:0:0:
448,192,123228,1,0,0:0:0:0:
320,192,123228,1,0,0:0:0:0:
192,192,123365,1,0,0:0:0:0:
64,192,123365,1,0,0:0:0:0:
192,192,123501,1,0,0:0:0:0:
320,192,123501,1,0,0:0:0:0:
320,192,123637,1,0,0:0:0:0:
448,192,123637,1,0,0:0:0:0:
192,192,123637,1,0,0:0:0:0:
64,192,123637,1,0,0:0:0:0:
320,192,123910,1,0,0:0:0:0:
448,192,124183,1,0,0:0:0:0:
320,192,124183,1,0,0:0:0:0:
192,192,124183,1,0,0:0:0:0:
64,192,124183,128,0,124592:0:0:0:0:
320,192,124728,1,0,0:0:0:0:
64,192,124728,1,0,0:0:0:0:
192,192,124728,1,0,0:0:0:0:
448,192,124728,128,0,125137:0:0:0:0:
320,192,125274,1,0,0:0:0:0:
192,192,125274,1,0,0:0:0:0:
64,192,125274,1,0,0:0:0:0:
320,192,125410,1,0,0:0:0:0:
64,192,125410,1,0,0:0:0:0:
448,192,125410,1,0,0:0:0:0:
192,192,125546,1,0,0:0:0:0:
320,192,125546,1,0,0:0:0:0:
448,192,125546,1,0,0:0:0:0:
320,192,125683,1,0,0:0:0:0:
192,192,125683,1,0,0:0:0:0:
64,192,125683,1,0,0:0:0:0:
448,192,125819,1,0,0:0:0:0:
320,192,125819,1,0,0:0:0:0:
64,192,125819,1,0,0:0:0:0:
192,192,125819,128,0,126228:0:0:0:0:
64,192,126365,1,0,0:0:0:0:
192,192,126365,1,0,0:0:0:0:
448,192,126365,1,0,0:0:0:0:
320,192,126365,128,0,126774:0:0:0:0:
192,192,126910,1,0,0:0:0:0:
320,192,126910,1,0,0:0:0:0:
448,192,126910,1,0,0:0:0:0:
64,192,126910,128,0,127319:0:0:0:0:
448,192,127455,1,0,0:0:0:0:
320,192,127455,1,0,0:0:0:0:
64,192,127455,1,0,0:0:0:0:
192,192,127455,1,0,0:0:0:0:
448,192,127592,1,0,0:0:0:0:
320,192,127592,1,0,0:0:0:0:
64,192,127592,1,0,0:0:0:0:
192,192,127728,1,0,0:0:0:0:
320,192,127728,1,0,0:0:0:0:
64,192,127728,1,0,0:0:0:0:
64,192,127865,1,0,0:0:0:0:
192,192,127865,1,0,0:0:0:0:
320,192,127865,1,0,0:0:0:0:
448,192,128001,1,0,0:0:0:0:
64,192,128001,1,0,0:0:0:0:
192,192,128001,1,0,0:0:0:0:
320,192,128001,128,0,128410:0:0:0:0:
320,192,128546,1,0,0:0:0:0:
448,192,128546,1,0,0:0:0:0:
192,192,128546,1,0,0:0:0:0:
64,192,128546,128,0,128955:0:0:0:0:
320,192,129092,1,0,0:0:0:0:
448,192,129092,1,0,0:0:0:0:
192,192,129092,1,0,0:0:0:0:
64,192,129092,1,0,0:0:0:0:
448,192,129637,1,0,0:0:0:0:
320,192,129637,1,0,0:0:0:0:
192,192,129637,1,0,0:0:0:0:
64,192,129637,1,0,0:0:0:0:
320,192,130183,1,0,0:0:0:0:
448,192,130183,1,0,0:0:0:0:
192,192,130183,1,0,0:0:0:0:
64,192,130183,1,0,0:0:0:0:
320,192,130728,1,0,0:0:0:0:
448,192,130728,1,0,0:0:0:0:
192,192,130728,1,0,0:0:0:0:
64,192,130728,1,0,0:0:0:0:
448,192,131274,1,0,0:0:0:0:
320,192,131274,1,0,0:0:0:0:
192,192,131274,1,0,0:0:0:0:
64,192,131274,1,0,0:0:0:0:
192,192,131410,1,0,0:0:0:0:
448,192,131410,1,0,0:0:0:0:
320,192,131546,1,0,0:0:0:0:
64,192,131546,1,0,0:0:0:0:
192,192,131683,1,0,0:0:0:0:
448,192,131683,1,0,0:0:0:0:
320,192,131819,1,0,0:0:0:0:
64,192,131819,1,0,0:0:0:0:
448,192,131955,1,0,0:0:0:0:
192,192,131955,1,0,0:0:0:0:
320,192,132092,1,0,0:0:0:0:
64,192,132092,1,0,0:0:0:0:
192,192,132228,1,0,0:0:0:0:
448,192,132228,1,0,0:0:0:0:
320,192,132365,1,0,0:0:0:0:
64,192,132365,1,0,0:0:0:0:
448,192,132501,1,0,0:0:0:0:
320,192,132501,1,0,0:0:0:0:
192,192,132501,1,0,0:0:0:0:
64,192,132637,1,0,0:0:0:0:
192,192,132637,1,0,0:0:0:0:
320,192,132637,1,0,0:0:0:0:
320,192,132774,1,0,0:0:0:0:
448,192,132774,1,0,0:0:0:0:
192,192,132774,1,0,0:0:0:0:
320,192,132910,1,0,0:0:0:0:
192,192,132910,1,0,0:0:0:0:
64,192,132910,1,0,0:0:0:0:
448,192,132910,128,0,133046:0:0:0:0:
192,192,133046,1,0,0:0:0:0:
64,192,133046,1,0,0:0:0:0:
320,192,133183,1,0,0:0:0:0:
192,192,133183,1,0,0:0:0:0:
448,192,133183,1,0,0:0:0:0:
64,192,133319,1,0,0:0:0:0:
192,192,133319,1,0,0:0:0:0:
320,192,133319,1,0,0:0:0:0:
64,192,133455,128,0,133865:0:0:0:0:
192,192,133455,128,0,133865:0:0:0:0:
320,192,133455,128,0,133865:0:0:0:0:
448,192,133455,128,0,133865:0:0:0:0:
448,192,134001,1,0,0:0:0:0:
320,192,134001,1,0,0:0:0:0:
192,192,134001,1,0,0:0:0:0:
64,192,134001,1,0,0:0:0:0:
320,192,134137,1,0,0:0:0:0:
448,192,134137,1,0,0:0:0:0:
64,192,134137,1,0,0:0:0:0:
192,192,134274,1,0,0:0:0:0:
320,192,134274,1,0,0:0:0:0:
448,192,134274,1,0,0:0:0:0:
192,192,134410,1,0,0:0:0:0:
320,192,134410,1,0,0:0:0:0:
448,192,134410,1,0,0:0:0:0:
320,192,134546,1,0,0:0:0:0:
192,192,134546,1,0,0:0:0:0:
64,192,134546,1,0,0:0:0:0:
448,192,134546,1,0,0:0:0:0:
320,192,134683,1,0,0:0:0:0:
64,192,134683,1,0,0:0:0:0:
192,192,134683,1,0,0:0:0:0:
320,192,134819,1,0,0:0:0:0:
64,192,134819,1,0,0:0:0:0:
448,192,134819,1,0,0:0:0:0:
320,192,134955,1,0,0:0:0:0:
192,192,134955,1,0,0:0:0:0:
64,192,134955,1,0,0:0:0:0:
448,192,135092,1,0,0:0:0:0:
320,192,135092,1,0,0:0:0:0:
192,192,135092,1,0,0:0:0:0:
64,192,135092,1,0,0:0:0:0:
448,192,135228,1,0,0:0:0:0:
64,192,135228,1,0,0:0:0:0:
192,192,135228,1,0,0:0:0:0:
320,192,135365,1,0,0:0:0:0:
448,192,135365,1,0,0:0:0:0:
192,192,135365,1,0,0:0:0:0:
320,192,135501,1,0,0:0:0:0:
64,192,135501,1,0,0:0:0:0:
448,192,135501,1,0,0:0:0:0:
64,192,135637,128,0,136046:0:0:0:0:
192,192,135637,128,0,136046:0:0:0:0:
320,192,135637,128,0,136046:0:0:0:0:
448,192,135637,128,0,136046:0:0:0:0:
448,192,136183,1,0,0:0:0:0:
320,192,136183,1,0,0:0:0:0:
64,192,136183,1,0,0:0:0:0:
192,192,136183,1,0,0:0:0:0:
64,192,136319,1,0,0:0:0:0:
192,192,136319,1,0,0:0:0:0:
320,192,136319,1,0,0:0:0:0:
192,192,136455,1,0,0:0:0:0:
64,192,136455,1,0,0:0:0:0:
448,192,136455,1,0,0:0:0:0:
192,192,136592,1,0,0:0:0:0:
64,192,136592,1,0,0:0:0:0:
320,192,136592,1,0,0:0:0:0:
192,192,136728,1,0,0:0:0:0:
448,192,136728,1,0,0:0:0:0:
320,192,136728,1,0,0:0:0:0:
64,192,136728,1,0,0:0:0:0:
448,192,136865,1,0,0:0:0:0:
320,192,136865,1,0,0:0:0:0:
64,192,136865,1,0,0:0:0:0:
448,192,137001,1,0,0:0:0:0:
320,192,137001,1,0,0:0:0:0:
192,192,137001,1,0,0:0:0:0:
448,192,137137,1,0,0:0:0:0:
320,192,137137,1,0,0:0:0:0:
64,192,137137,1,0,0:0:0:0:
64,192,137274,1,0,0:0:0:0:
192,192,137274,1,0,0:0:0:0:
320,192,137274,1,0,0:0:0:0:
448,192,137274,1,0,0:0:0:0:
64,192,137410,1,0,0:0:0:0:
320,192,137410,1,0,0:0:0:0:
448,192,137410,1,0,0:0:0:0:
192,192,137546,1,0,0:0:0:0:
64,192,137546,1,0,0:0:0:0:
320,192,137546,1,0,0:0:0:0:
448,192,137683,1,0,0:0:0:0:
320,192,137683,1,0,0:0:0:0:
192,192,137683,1,0,0:0:0:0:
64,192,137819,128,0,138228:0:0:0:0:
192,192,137819,128,0,138228:0:0:0:0:
320,192,137819,128,0,138228:0:0:0:0:
448,192,137819,128,0,138228:0:0:0:0:
448,192,138365,1,0,0:0:0:0:
320,192,138365,1,0,0:0:0:0:
192,192,138365,1,0,0:0:0:0:
64,192,138365,1,0,0:0:0:0:
64,192,138501,1,0,0:0:0:0:
448,192,138501,1,0,0:0:0:0:
192,192,138501,1,0,0:0:0:0:
320,192,138637,1,0,0:0:0:0:
448,192,138637,1,0,0:0:0:0:
192,192,138637,1,0,0:0:0:0:
448,192,138774,1,0,0:0:0:0:
320,192,138774,1,0,0:0:0:0:
64,192,138774,1,0,0:0:0:0:
192,192,138910,1,0,0:0:0:0:
64,192,138910,1,0,0:0:0:0:
320,192,138910,1,0,0:0:0:0:
448,192,138910,1,0,0:0:0:0:
320,192,139046,1,0,0:0:0:0:
192,192,139046,1,0,0:0:0:0:
64,192,139046,1,0,0:0:0:0:
64,192,139183,1,0,0:0:0:0:
192,192,139183,1,0,0:0:0:0:
320,192,139183,1,0,0:0:0:0:
192,192,139319,1,0,0:0:0:0:
64,192,139319,1,0,0:0:0:0:
448,192,139319,1,0,0:0:0:0:
448,192,139455,1,0,0:0:0:0:
320,192,139455,1,0,0:0:0:0:
192,192,139455,1,0,0:0:0:0:
64,192,139455,1,0,0:0:0:0:
448,192,139592,1,0,0:0:0:0:
320,192,139592,1,0,0:0:0:0:
192,192,139592,1,0,0:0:0:0:
192,192,139728,1,0,0:0:0:0:
448,192,139728,1,0,0:0:0:0:
64,192,139728,1,0,0:0:0:0:
448,192,139865,1,0,0:0:0:0:
320,192,139865,1,0,0:0:0:0:
64,192,139865,1,0,0:0:0:0:
64,192,140001,128,0,140410:0:0:0:0:
192,192,140001,128,0,140410:0:0:0:0:
320,192,140001,128,0,140410:0:0:0:0:
448,192,140001,128,0,140410:0:0:0:0:
448,192,140546,1,0,0:0:0:0:
320,192,140546,1,0,0:0:0:0:
192,192,140546,1,0,0:0:0:0:
64,192,140546,1,0,0:0:0:0:
320,192,140683,1,0,0:0:0:0:
64,192,140683,1,0,0:0:0:0:
448,192,140683,1,0,0:0:0:0:
320,192,140819,1,0,0:0:0:0:
448,192,140819,1,0,0:0:0:0:
64,192,140819,1,0,0:0:0:0:
192,192,140955,1,0,0:0:0:0:
320,192,140955,1,0,0:0:0:0:
448,192,140955,1,0,0:0:0:0:
320,192,141092,1,0,0:0:0:0:
448,192,141092,1,0,0:0:0:0:
192,192,141092,1,0,0:0:0:0:
64,192,141092,1,0,0:0:0:0:
320,192,141228,1,0,0:0:0:0:
192,192,141228,1,0,0:0:0:0:
64,192,141228,1,0,0:0:0:0:
64,192,141365,1,0,0:0:0:0:
448,192,141365,1,0,0:0:0:0:
320,192,141365,1,0,0:0:0:0:
320,192,141501,1,0,0:0:0:0:
448,192,141501,1,0,0:0:0:0:
192,192,141501,1,0,0:0:0:0:
64,192,141637,1,0,0:0:0:0:
192,192,141637,1,0,0:0:0:0:
320,192,141637,1,0,0:0:0:0:
448,192,141637,1,0,0:0:0:0:
320,192,141774,1,0,0:0:0:0:
192,192,141774,1,0,0:0:0:0:
64,192,141774,1,0,0:0:0:0:
64,192,141910,1,0,0:0:0:0:
448,192,141910,1,0,0:0:0:0:
320,192,141910,1,0,0:0:0:0:
320,192,142046,1,0,0:0:0:0:
448,192,142046,1,0,0:0:0:0:
64,192,142046,1,0,0:0:0:0:
192,192,142183,128,0,142592:0:0:0:0:
64,192,142183,128,0,142592:0:0:0:0:
320,192,142183,128,0,142592:0:0:0:0:
448,192,142183,128,0,142592:0:0:0:0:
448,192,142728,1,0,0:0:0:0:
320,192,142728,1,0,0:0:0:0:
192,192,142728,1,0,0:0:0:0:
64,192,142728,1,0,0:0:0:0:
448,192,142865,1,0,0:0:0:0:
320,192,142865,1,0,0:0:0:0:
192,192,142865,1,0,0:0:0:0:
192,192,143001,1,0,0:0:0:0:
320,192,143001,1,0,0:0:0:0:
448,192,143001,1,0,0:0:0:0:
448,192,143137,1,0,0:0:0:0:
320,192,143137,1,0,0:0:0:0:
192,192,143137,1,0,0:0:0:0:
192,192,143274,1,0,0:0:0:0:
320,192,143274,1,0,0:0:0:0:
448,192,143274,1,0,0:0:0:0:
64,192,143274,1,0,0:0:0:0:
320,192,143410,1,0,0:0:0:0:
192,192,143410,1,0,0:0:0:0:
64,192,143410,1,0,0:0:0:0:
64,192,143546,1,0,0:0:0:0:
192,192,143546,1,0,0:0:0:0:
320,192,143546,1,0,0:0:0:0:
320,192,143683,1,0,0:0:0:0:
192,192,143683,1,0,0:0:0:0:
64,192,143683,1,0,0:0:0:0:
64,192,143819,1,0,0:0:0:0:
192,192,143819,1,0,0:0:0:0:
320,192,143819,1,0,0:0:0:0:
448,192,143819,1,0,0:0:0:0:
192,192,143955,1,0,0:0:0:0:
448,192,143955,1,0,0:0:0:0:
64,192,143955,1,0,0:0:0:0:
192,192,144092,1,0,0:0:0:0:
64,192,144092,1,0,0:0:0:0:
320,192,144092,1,0,0:0:0:0:
192,192,144228,1,0,0:0:0:0:
64,192,144228,1,0,0:0:0:0:
448,192,144228,1,0,0:0:0:0:
64,192,144365,128,0,144774:0:0:0:0:
192,192,144365,128,0,144774:0:0:0:0:
320,192,144365,128,0,144774:0:0:0:0:
448,192,144365,128,0,144774:0:0:0:0:
448,192,144910,1,0,0:0:0:0:
320,192,144910,1,0,0:0:0:0:
64,192,144910,1,0,0:0:0:0:
192,192,144910,1,0,0:0:0:0:
64,192,145046,1,0,0:0:0:0:
448,192,145046,1,0,0:0:0:0:
320,192,145046,1,0,0:0:0:0:
192,192,145183,1,0,0:0:0:0:
64,192,145183,1,0,0:0:0:0:
448,192,145183,1,0,0:0:0:0:
192,192,145319,1,0,0:0:0:0:
64,192,145319,1,0,0:0:0:0:
320,192,145319,1,0,0:0:0:0:
448,192,145455,1,0,0:0:0:0:
320,192,145455,1,0,0:0:0:0:
192,192,145455,1,0,0:0:0:0:
64,192,145455,1,0,0:0:0:0:
448,192,145592,1,0,0:0:0:0:
320,192,145592,1,0,0:0:0:0:
64,192,145592,1,0,0:0:0:0:
192,192,145728,1,0,0:0:0:0:
320,192,145728,1,0,0:0:0:0:
448,192,145728,1,0,0:0:0:0:
448,192,145865,1,0,0:0:0:0:
320,192,145865,1,0,0:0:0:0:
192,192,145865,1,0,0:0:0:0:
64,192,146001,1,0,0:0:0:0:
192,192,146001,1,0,0:0:0:0:
320,192,146001,1,0,0:0:0:0:
448,192,146001,1,0,0:0:0:0:
64,192,146137,1,0,0:0:0:0:
448,192,146137,1,0,0:0:0:0:
320,192,146137,1,0,0:0:0:0:
192,192,146274,1,0,0:0:0:0:
320,192,146274,1,0,0:0:0:0:
448,192,146274,1,0,0:0:0:0:
64,192,146410,1,0,0:0:0:0:
192,192,146410,1,0,0:0:0:0:
320,192,146410,1,0,0:0:0:0:
448,192,146546,128,0,146955:0:0:0:0:
320,192,146546,128,0,146955:0:0:0:0:
192,192,146546,128,0,146955:0:0:0:0:
64,192,146546,128,0,146955:0:0:0:0:
64,192,147092,1,0,0:0:0:0:
192,192,147092,1,0,0:0:0:0:
320,192,147092,1,0,0:0:0:0:
448,192,147092,1,0,0:0:0:0:
192,192,147228,1,0,0:0:0:0:
448,192,147228,1,0,0:0:0:0:
64,192,147228,1,0,0:0:0:0:
320,192,147365,1,0,0:0:0:0:
192,192,147365,1,0,0:0:0:0:
448,192,147365,1,0,0:0:0:0:
64,192,147501,1,0,0:0:0:0:
192,192,147501,1,0,0:0:0:0:
320,192,147501,1,0,0:0:0:0:
448,192,147637,1,0,0:0:0:0:
320,192,147637,1,0,0:0:0:0:
192,192,147637,1,0,0:0:0:0:
64,192,147637,1,0,0:0:0:0:
448,192,147774,1,0,0:0:0:0:
320,192,147774,1,0,0:0:0:0:
192,192,147774,1,0,0:0:0:0:
64,192,147910,1,0,0:0:0:0:
192,192,147910,1,0,0:0:0:0:
320,192,147910,1,0,0:0:0:0:
448,192,148046,1,0,0:0:0:0:
320,192,148046,1,0,0:0:0:0:
192,192,148046,1,0,0:0:0:0:
448,192,148183,1,0,0:0:0:0:
320,192,148183,1,0,0:0:0:0:
192,192,148183,1,0,0:0:0:0:
64,192,148183,1,0,0:0:0:0:
448,192,148319,1,0,0:0:0:0:
64,192,148319,1,0,0:0:0:0:
192,192,148319,1,0,0:0:0:0:
64,192,148455,1,0,0:0:0:0:
192,192,148455,1,0,0:0:0:0:
320,192,148455,1,0,0:0:0:0:
64,192,148592,1,0,0:0:0:0:
192,192,148592,1,0,0:0:0:0:
448,192,148592,1,0,0:0:0:0:
320,192,148728,128,0,149137:0:0:0:0:
192,192,148728,128,0,149137:0:0:0:0:
64,192,148728,128,0,149137:0:0:0:0:
448,192,148728,128,0,149137:0:0:0:0:
448,192,149274,1,0,0:0:0:0:
320,192,149274,1,0,0:0:0:0:
64,192,149274,1,0,0:0:0:0:
192,192,149274,1,0,0:0:0:0:
320,192,149410,1,0,0:0:0:0:
64,192,149410,1,0,0:0:0:0:
192,192,149546,1,0,0:0:0:0:
448,192,149546,1,0,0:0:0:0:
320,192,149683,1,0,0:0:0:0:
64,192,149683,1,0,0:0:0:0:
448,192,149819,1,0,0:0:0:0:
320,192,149819,1,0,0:0:0:0:
192,192,149819,1,0,0:0:0:0:
64,192,149819,1,0,0:0:0:0:
448,192,149955,1,0,0:0:0:0:
448,192,150092,1,0,0:0:0:0:
448,192,150228,1,0,0:0:0:0:
320,192,150365,1,0,0:0:0:0:
192,192,150365,1,0,0:0:0:0:
64,192,150501,1,0,0:0:0:0:
192,192,150501,1,0,0:0:0:0:
320,192,150637,1,0,0:0:0:0:
448,192,150637,1,0,0:0:0:0:
320,192,150774,1,0,0:0:0:0:
192,192,150774,1,0,0:0:0:0:
448,192,150910,1,0,0:0:0:0:
320,192,150910,1,0,0:0:0:0:
192,192,150910,1,0,0:0:0:0:
64,192,150955,1,0,0:0:0:0:
192,192,151001,1,0,0:0:0:0:
320,192,151046,1,0,0:0:0:0:
448,192,151092,1,0,0:0:0:0:
64,192,151137,1,0,0:0:0:0:
192,192,151183,1,0,0:0:0:0:
320,192,151228,1,0,0:0:0:0:
448,192,151274,1,0,0:0:0:0:
64,192,151319,1,0,0:0:0:0:
192,192,151365,1,0,0:0:0:0:
320,192,151410,1,0,0:0:0:0:
448,192,151455,1,0,0:0:0:0:
64,192,151455,1,0,0:0:0:0:
192,192,151455,1,0,0:0:0:0:
320,192,151592,1,0,0:0:0:0:
64,192,151592,1,0,0:0:0:0:
192,192,151728,1,0,0:0:0:0:
320,192,151728,1,0,0:0:0:0:
448,192,151728,1,0,0:0:0:0:
64,192,151865,1,0,0:0:0:0:
192,192,151865,1,0,0:0:0:0:
192,192,152001,1,0,0:0:0:0:
320,192,152001,1,0,0:0:0:0:
448,192,152001,1,0,0:0:0:0:
64,192,152001,1,0,0:0:0:0:
448,192,152137,1,0,0:0:0:0:
320,192,152137,1,0,0:0:0:0:
192,192,152274,1,0,0:0:0:0:
64,192,152274,1,0,0:0:0:0:
320,192,152410,1,0,0:0:0:0:
448,192,152410,1,0,0:0:0:0:
320,192,152546,1,0,0:0:0:0:
448,192,152546,1,0,0:0:0:0:
192,192,152546,1,0,0:0:0:0:
64,192,152546,1,0,0:0:0:0:
64,192,152683,1,0,0:0:0:0:
320,192,152683,1,0,0:0:0:0:
192,192,152819,1,0,0:0:0:0:
448,192,152819,1,0,0:0:0:0:
320,192,152955,1,0,0:0:0:0:
64,192,152955,1,0,0:0:0:0:
64,192,153092,1,0,0:0:0:0:
192,192,153092,1,0,0:0:0:0:
320,192,153092,1,0,0:0:0:0:
448,192,153137,1,0,0:0:0:0:
320,192,153183,1,0,0:0:0:0:
192,192,153228,1,0,0:0:0:0:
64,192,153274,1,0,0:0:0:0:
448,192,153365,1,0,0:0:0:0:
320,192,153365,1,0,0:0:0:0:
192,192,153365,1,0,0:0:0:0:
64,192,153365,1,0,0:0:0:0:
448,192,153501,1,0,0:0:0:0:
320,192,153501,1,0,0:0:0:0:
64,192,153501,1,0,0:0:0:0:
320,192,153637,1,0,0:0:0:0:
448,192,153637,1,0,0:0:0:0:
192,192,153637,1,0,0:0:0:0:
64,192,153637,1,0,0:0:0:0:
320,192,153774,1,0,0:0:0:0:
448,192,153774,1,0,0:0:0:0:
64,192,153774,1,0,0:0:0:0:
320,192,153910,1,0,0:0:0:0:
448,192,153910,1,0,0:0:0:0:
192,192,153910,1,0,0:0:0:0:
320,192,154046,1,0,0:0:0:0:
448,192,154046,1,0,0:0:0:0:
64,192,154046,1,0,0:0:0:0:
320,192,154183,1,0,0:0:0:0:
448,192,154183,1,0,0:0:0:0:
64,192,154183,128,0,154592:0:0:0:0:
192,192,154183,128,0,154592:0:0:0:0:
320,192,154455,1,0,0:0:0:0:
448,192,154455,1,0,0:0:0:0:
320,192,154592,1,0,0:0:0:0:
448,192,154592,1,0,0:0:0:0:
192,192,154728,1,0,0:0:0:0:
64,192,154728,1,0,0:0:0:0:
320,192,154728,128,0,155001:0:0:0:0:
448,192,154728,128,0,155001:0:0:0:0:
64,192,155001,128,0,155137:0:0:0:0:
192,192,155001,128,0,155137:0:0:0:0:
192,192,155274,1,0,0:0:0:0:
64,192,155274,1,0,0:0:0:0:
320,192,155274,1,0,0:0:0:0:
448,192,155319,1,0,0:0:0:0:
320,192,155365,1,0,0:0:0:0:
192,192,155410,1,0,0:0:0:0:
64,192,155455,1,0,0:0:0:0:
448,192,155501,1,0,0:0:0:0:
320,192,155546,1,0,0:0:0:0:
192,192,155592,1,0,0:0:0:0:
64,192,155637,1,0,0:0:0:0:
448,192,155683,1,0,0:0:0:0:
320,192,155728,1,0,0:0:0:0:
192,192,155774,1,0,0:0:0:0:
448,192,155819,1,0,0:0:0:0:
320,192,155819,1,0,0:0:0:0:
64,192,155819,1,0,0:0:0:0:
448,192,155955,1,0,0:0:0:0:
192,192,155955,1,0,0:0:0:0:
320,192,156092,1,0,0:0:0:0:
64,192,156092,1,0,0:0:0:0:
192,192,156228,1,0,0:0:0:0:
448,192,156228,1,0,0:0:0:0:
448,192,156365,1,0,0:0:0:0:
320,192,156365,1,0,0:0:0:0:
192,192,156365,1,0,0:0:0:0:
64,192,156365,1,0,0:0:0:0:
320,192,156501,1,0,0:0:0:0:
192,192,156501,1,0,0:0:0:0:
64,192,156637,1,0,0:0:0:0:
448,192,156637,1,0,0:0:0:0:
64,192,156774,1,0,0:0:0:0:
192,192,156774,1,0,0:0:0:0:
448,192,156910,1,0,0:0:0:0:
320,192,156910,1,0,0:0:0:0:
64,192,156910,1,0,0:0:0:0:
192,192,156910,1,0,0:0:0:0:
192,192,157046,1,0,0:0:0:0:
448,192,157046,1,0,0:0:0:0:
320,192,157183,1,0,0:0:0:0:
64,192,157183,1,0,0:0:0:0:
192,192,157319,1,0,0:0:0:0:
448,192,157319,1,0,0:0:0:0:
448,192,157455,1,0,0:0:0:0:
320,192,157455,1,0,0:0:0:0:
192,192,157455,1,0,0:0:0:0:
64,192,157546,1,0,0:0:0:0:
192,192,157592,1,0,0:0:0:0:
320,192,157637,1,0,0:0:0:0:
448,192,157683,1,0,0:0:0:0:
320,192,157728,1,0,0:0:0:0:
64,192,157728,1,0,0:0:0:0:
192,192,157865,1,0,0:0:0:0:
448,192,157865,1,0,0:0:0:0:
64,192,157865,1,0,0:0:0:0:
448,192,158001,1,0,0:0:0:0:
192,192,158001,1,0,0:0:0:0:
320,192,158001,1,0,0:0:0:0:
64,192,158001,1,0,0:0:0:0:
320,192,158137,1,0,0:0:0:0:
448,192,158137,1,0,0:0:0:0:
192,192,158137,1,0,0:0:0:0:
320,192,158274,1,0,0:0:0:0:
192,192,158274,1,0,0:0:0:0:
64,192,158274,1,0,0:0:0:0:
320,192,158410,1,0,0:0:0:0:
192,192,158410,1,0,0:0:0:0:
64,192,158410,1,0,0:0:0:0:
192,192,158546,1,0,0:0:0:0:
320,192,158546,1,0,0:0:0:0:
448,192,158546,1,0,0:0:0:0:
64,192,158546,128,0,158819:0:0:0:0:
448,192,158819,128,0,158955:0:0:0:0:
320,192,158955,128,0,159092:0:0:0:0:
64,192,159092,1,0,0:0:0:0:
192,192,159092,1,0,0:0:0:0:
448,192,159092,1,0,0:0:0:0:
64,192,159228,1,0,0:0:0:0:
192,192,159228,1,0,0:0:0:0:
320,192,159365,128,0,159501:0:0:0:0:
448,192,159365,128,0,159501:0:0:0:0:
64,192,159637,1,0,0:0:0:0:
192,192,159637,1,0,0:0:0:0:
320,192,159637,1,0,0:0:0:0:
448,192,159683,1,0,0:0:0:0:
320,192,159728,1,0,0:0:0:0:
192,192,159774,1,0,0:0:0:0:
64,192,159819,1,0,0:0:0:0:
320,192,159865,1,0,0:0:0:0:
448,192,159910,1,0,0:0:0:0:
64,192,159955,1,0,0:0:0:0:
192,192,160001,1,0,0:0:0:0:
320,192,160046,1,0,0:0:0:0:
448,192,160092,1,0,0:0:0:0:
64,192,160183,1,0,0:0:0:0:
192,192,160183,1,0,0:0:0:0:
320,192,160183,1,0,0:0:0:0:
192,192,160319,1,0,0:0:0:0:
448,192,160319,1,0,0:0:0:0:
320,192,160455,1,0,0:0:0:0:
64,192,160455,1,0,0:0:0:0:
192,192,160592,1,0,0:0:0:0:
448,192,160592,1,0,0:0:0:0:
448,192,160728,1,0,0:0:0:0:
320,192,160728,1,0,0:0:0:0:
192,192,160728,1,0,0:0:0:0:
64,192,160728,1,0,0:0:0:0:
320,192,160865,1,0,0:0:0:0:
192,192,160865,1,0,0:0:0:0:
64,192,161001,1,0,0:0:0:0:
448,192,161001,1,0,0:0:0:0:
320,192,161137,1,0,0:0:0:0:
448,192,161137,1,0,0:0:0:0:
64,192,161274,1,0,0:0:0:0:
192,192,161274,1,0,0:0:0:0:
320,192,161274,1,0,0:0:0:0:
448,192,161274,1,0,0:0:0:0:
192,192,161410,1,0,0:0:0:0:
64,192,161410,1,0,0:0:0:0:
192,192,161546,1,0,0:0:0:0:
320,192,161546,1,0,0:0:0:0:
320,192,161683,1,0,0:0:0:0:
448,192,161683,1,0,0:0:0:0:
448,192,161819,1,0,0:0:0:0:
320,192,161819,1,0,0:0:0:0:
64,192,161865,1,0,0:0:0:0:
192,192,161910,1,0,0:0:0:0:
320,192,161955,1,0,0:0:0:0:
448,192,162001,1,0,0:0:0:0:
64,192,162092,1,0,0:0:0:0:
192,192,162092,1,0,0:0:0:0:
320,192,162092,1,0,0:0:0:0:
192,192,162228,1,0,0:0:0:0:
320,192,162228,1,0,0:0:0:0:
64,192,162228,1,0,0:0:0:0:
448,192,162365,1,0,0:0:0:0:
320,192,162365,1,0,0:0:0:0:
192,192,162365,1,0,0:0:0:0:
64,192,162365,1,0,0:0:0:0:
448,192,162501,1,0,0:0:0:0:
320,192,162501,1,0,0:0:0:0:
192,192,162501,1,0,0:0:0:0:
448,192,162637,1,0,0:0:0:0:
320,192,162637,1,0,0:0:0:0:
192,192,162637,1,0,0:0:0:0:
448,192,162774,1,0,0:0:0:0:
320,192,162774,1,0,0:0:0:0:
192,192,162774,1,0,0:0:0:0:
448,192,162910,1,0,0:0:0:0:
320,192,162910,1,0,0:0:0:0:
192,192,162910,1,0,0:0:0:0:
64,192,162910,128,0,163183:0:0:0:0:
448,192,163183,128,0,163319:0:0:0:0:
192,192,163319,128,0,163455:0:0:0:0:
320,192,163455,1,0,0:0:0:0:
64,192,163455,1,0,0:0:0:0:
448,192,163455,128,0,163728:0:0:0:0:
192,192,163728,128,0,163865:0:0:0:0:
64,192,163728,128,0,163865:0:0:0:0:
448,192,164001,1,0,0:0:0:0:
320,192,164001,1,0,0:0:0:0:
192,192,164001,1,0,0:0:0:0:
64,192,164046,1,0,0:0:0:0:
192,192,164092,1,0,0:0:0:0:
320,192,164137,1,0,0:0:0:0:
448,192,164183,1,0,0:0:0:0:
64,192,164228,1,0,0:0:0:0:
192,192,164274,1,0,0:0:0:0:
448,192,164319,1,0,0:0:0:0:
320,192,164365,1,0,0:0:0:0:
192,192,164410,1,0,0:0:0:0:
64,192,164455,1,0,0:0:0:0:
448,192,164546,1,0,0:0:0:0:
320,192,164546,1,0,0:0:0:0:
192,192,164546,1,0,0:0:0:0:
64,192,164683,1,0,0:0:0:0:
320,192,164683,1,0,0:0:0:0:
192,192,164819,1,0,0:0:0:0:
320,192,164819,1,0,0:0:0:0:
64,192,164955,1,0,0:0:0:0:
448,192,164955,1,0,0:0:0:0:
320,192,165092,1,0,0:0:0:0:
448,192,165092,1,0,0:0:0:0:
192,192,165092,1,0,0:0:0:0:
64,192,165092,1,0,0:0:0:0:
320,192,165228,1,0,0:0:0:0:
192,192,165228,1,0,0:0:0:0:
192,192,165365,1,0,0:0:0:0:
320,192,165365,1,0,0:0:0:0:
448,192,165501,1,0,0:0:0:0:
64,192,165501,1,0,0:0:0:0:
64,192,165637,1,0,0:0:0:0:
192,192,165637,1,0,0:0:0:0:
320,192,165637,1,0,0:0:0:0:
448,192,165637,1,0,0:0:0:0:
448,192,165774,1,0,0:0:0:0:
192,192,165774,1,0,0:0:0:0:
320,192,165910,1,0,0:0:0:0:
64,192,165910,1,0,0:0:0:0:
192,192,166046,1,0,0:0:0:0:
448,192,166046,1,0,0:0:0:0:
320,192,166183,1,0,0:0:0:0:
64,192,166183,1,0,0:0:0:0:
192,192,166183,1,0,0:0:0:0:
448,192,166228,1,0,0:0:0:0:
320,192,166274,1,0,0:0:0:0:
192,192,166319,1,0,0:0:0:0:
64,192,166365,1,0,0:0:0:0:
448,192,166455,1,0,0:0:0:0:
320,192,166455,1,0,0:0:0:0:
448,192,166592,1,0,0:0:0:0:
320,192,166592,1,0,0:0:0:0:
320,192,166728,1,0,0:0:0:0:
448,192,166728,1,0,0:0:0:0:
192,192,166728,1,0,0:0:0:0:
64,192,166728,1,0,0:0:0:0:
192,192,166865,1,0,0:0:0:0:
64,192,166865,1,0,0:0:0:0:
192,192,167001,1,0,0:0:0:0:
64,192,167001,1,0,0:0:0:0:
64,192,167137,1,0,0:0:0:0:
192,192,167137,1,0,0:0:0:0:
320,192,167274,1,0,0:0:0:0:
448,192,167274,1,0,0:0:0:0:
192,192,167274,128,0,167546:0:0:0:0:
64,192,167274,128,0,167546:0:0:0:0:
448,192,167546,128,0,167683:0:0:0:0:
320,192,167683,128,0,167819:0:0:0:0:
64,192,167819,1,0,0:0:0:0:
192,192,167819,1,0,0:0:0:0:
448,192,167819,1,0,0:0:0:0:
64,192,167955,1,0,0:0:0:0:
448,192,167955,1,0,0:0:0:0:
320,192,168092,1,0,0:0:0:0:
192,192,168092,1,0,0:0:0:0:
64,192,168228,1,0,0:0:0:0:
448,192,168228,1,0,0:0:0:0:
448,192,168365,1,0,0:0:0:0:
320,192,168365,1,0,0:0:0:0:
192,192,168365,1,0,0:0:0:0:
64,192,168410,1,0,0:0:0:0:
192,192,168455,1,0,0:0:0:0:
320,192,168501,1,0,0:0:0:0:
448,192,168546,1,0,0:0:0:0:
192,192,168592,1,0,0:0:0:0:
64,192,168637,1,0,0:0:0:0:
448,192,168683,1,0,0:0:0:0:
320,192,168728,1,0,0:0:0:0:
192,192,168774,1,0,0:0:0:0:
64,192,168819,1,0,0:0:0:0:
448,192,168910,1,0,0:0:0:0:
320,192,168910,1,0,0:0:0:0:
192,192,168910,1,0,0:0:0:0:
448,192,169046,1,0,0:0:0:0:
64,192,169046,1,0,0:0:0:0:
320,192,169183,1,0,0:0:0:0:
192,192,169183,1,0,0:0:0:0:
64,192,169319,1,0,0:0:0:0:
192,192,169319,1,0,0:0:0:0:
192,192,169455,1,0,0:0:0:0:
320,192,169455,1,0,0:0:0:0:
448,192,169455,1,0,0:0:0:0:
64,192,169455,1,0,0:0:0:0:
320,192,169592,1,0,0:0:0:0:
448,192,169592,1,0,0:0:0:0:
192,192,169728,1,0,0:0:0:0:
320,192,169728,1,0,0:0:0:0:
192,192,169865,1,0,0:0:0:0:
64,192,169865,1,0,0:0:0:0:
448,192,170001,1,0,0:0:0:0:
320,192,170001,1,0,0:0:0:0:
64,192,170001,1,0,0:0:0:0:
192,192,170001,1,0,0:0:0:0:
64,192,170137,1,0,0:0:0:0:
448,192,170137,1,0,0:0:0:0:
320,192,170274,1,0,0:0:0:0:
192,192,170274,1,0,0:0:0:0:
64,192,170410,1,0,0:0:0:0:
448,192,170410,1,0,0:0:0:0:
64,192,170546,1,0,0:0:0:0:
192,192,170546,1,0,0:0:0:0:
320,192,170546,1,0,0:0:0:0:
448,192,170592,1,0,0:0:0:0:
320,192,170637,1,0,0:0:0:0:
192,192,170683,1,0,0:0:0:0:
64,192,170728,1,0,0:0:0:0:
448,192,170819,1,0,0:0:0:0:
192,192,170819,1,0,0:0:0:0:
448,192,170955,1,0,0:0:0:0:
192,192,170955,1,0,0:0:0:0:
320,192,171092,1,0,0:0:0:0:
448,192,171092,1,0,0:0:0:0:
192,192,171092,1,0,0:0:0:0:
64,192,171092,1,0,0:0:0:0:
320,192,171228,1,0,0:0:0:0:
64,192,171228,1,0,0:0:0:0:
64,192,171365,1,0,0:0:0:0:
320,192,171365,1,0,0:0:0:0:
320,192,171501,1,0,0:0:0:0:
64,192,171501,1,0,0:0:0:0:
320,192,171637,1,0,0:0:0:0:
64,192,171637,1,0,0:0:0:0:
192,192,171637,128,0,171910:0:0:0:0:
448,192,171637,128,0,171910:0:0:0:0:
64,192,171910,128,0,172046:0:0:0:0:
320,192,171910,128,0,172046:0:0:0:0:
192,192,172046,128,0,172183:0:0:0:0:
448,192,172046,128,0,172183:0:0:0:0:
320,192,172183,128,0,172455:0:0:0:0:
64,192,172183,128,0,172455:0:0:0:0:
192,192,172455,128,0,172592:0:0:0:0:
448,192,172455,128,0,172592:0:0:0:0:
64,192,172728,1,0,0:0:0:0:
192,192,172728,1,0,0:0:0:0:
320,192,172728,1,0,0:0:0:0:
448,192,172774,1,0,0:0:0:0:
320,192,172819,1,0,0:0:0:0:
192,192,172865,1,0,0:0:0:0:
64,192,172910,1,0,0:0:0:0:
320,192,172955,1,0,0:0:0:0:
448,192,173001,1,0,0:0:0:0:
64,192,173046,1,0,0:0:0:0:
192,192,173092,1,0,0:0:0:0:
320,192,173137,1,0,0:0:0:0:
448,192,173183,1,0,0:0:0:0:
64,192,173274,1,0,0:0:0:0:
192,192,173274,1,0,0:0:0:0:
320,192,173274,1,0,0:0:0:0:
320,192,173410,1,0,0:0:0:0:
64,192,173410,1,0,0:0:0:0:
192,192,173546,1,0,0:0:0:0:
448,192,173546,1,0,0:0:0:0:
320,192,173683,1,0,0:0:0:0:
64,192,173683,1,0,0:0:0:0:
64,192,173819,1,0,0:0:0:0:
192,192,173819,1,0,0:0:0:0:
320,192,173819,1,0,0:0:0:0:
448,192,173819,1,0,0:0:0:0:
192,192,173955,1,0,0:0:0:0:
448,192,173955,1,0,0:0:0:0:
320,192,174092,1,0,0:0:0:0:
64,192,174092,1,0,0:0:0:0:
448,192,174228,1,0,0:0:0:0:
192,192,174228,1,0,0:0:0:0:
320,192,174365,1,0,0:0:0:0:
448,192,174365,1,0,0:0:0:0:
192,192,174365,1,0,0:0:0:0:
64,192,174365,1,0,0:0:0:0:
320,192,174501,1,0,0:0:0:0:
64,192,174501,1,0,0:0:0:0:
192,192,174637,1,0,0:0:0:0:
448,192,174637,1,0,0:0:0:0:
320,192,174774,1,0,0:0:0:0:
64,192,174774,1,0,0:0:0:0:
448,192,174774,1,0,0:0:0:0:
448,192,174910,1,0,0:0:0:0:
320,192,174910,1,0,0:0:0:0:
192,192,174910,1,0,0:0:0:0:
64,192,174955,1,0,0:0:0:0:
192,192,175001,1,0,0:0:0:0:
320,192,175046,1,0,0:0:0:0:
448,192,175092,1,0,0:0:0:0:
192,192,175183,1,0,0:0:0:0:
64,192,175183,1,0,0:0:0:0:
192,192,175319,1,0,0:0:0:0:
64,192,175319,1,0,0:0:0:0:
192,192,175455,1,0,0:0:0:0:
320,192,175455,1,0,0:0:0:0:
448,192,175455,1,0,0:0:0:0:
64,192,175455,1,0,0:0:0:0:
448,192,175592,1,0,0:0:0:0:
320,192,175592,1,0,0:0:0:0:
320,192,175728,1,0,0:0:0:0:
448,192,175728,1,0,0:0:0:0:
320,192,175865,1,0,0:0:0:0:
448,192,175865,1,0,0:0:0:0:
448,192,176001,1,0,0:0:0:0:
320,192,176001,1,0,0:0:0:0:
64,192,176001,128,0,176274:0:0:0:0:
192,192,176001,128,0,176274:0:0:0:0:
320,192,176274,128,0,176410:0:0:0:0:
448,192,176274,128,0,176410:0:0:0:0:
64,192,176410,128,0,176546:0:0:0:0:
192,192,176410,128,0,176546:0:0:0:0:
320,192,176546,128,0,176683:0:0:0:0:
448,192,176546,128,0,176683:0:0:0:0:
192,192,176683,1,0,0:0:0:0:
64,192,176683,1,0,0:0:0:0:
320,192,176819,128,0,176955:0:0:0:0:
448,192,176819,128,0,176955:0:0:0:0:
192,192,176819,1,0,0:0:0:0:
64,192,176819,1,0,0:0:0:0:
448,192,177092,1,0,0:0:0:0:
320,192,177092,1,0,0:0:0:0:
192,192,177092,1,0,0:0:0:0:
64,192,177137,1,0,0:0:0:0:
192,192,177183,1,0,0:0:0:0:
320,192,177228,1,0,0:0:0:0:
448,192,177274,1,0,0:0:0:0:
64,192,177319,1,0,0:0:0:0:
192,192,177365,1,0,0:0:0:0:
448,192,177410,1,0,0:0:0:0:
320,192,177455,1,0,0:0:0:0:
192,192,177501,1,0,0:0:0:0:
64,192,177546,1,0,0:0:0:0:
448,192,177637,1,0,0:0:0:0:
320,192,177637,1,0,0:0:0:0:
192,192,177637,1,0,0:0:0:0:
448,192,177774,1,0,0:0:0:0:
192,192,177774,1,0,0:0:0:0:
320,192,177910,1,0,0:0:0:0:
64,192,177910,1,0,0:0:0:0:
192,192,178046,1,0,0:0:0:0:
448,192,178046,1,0,0:0:0:0:
448,192,178183,1,0,0:0:0:0:
320,192,178183,1,0,0:0:0:0:
192,192,178183,1,0,0:0:0:0:
64,192,178183,1,0,0:0:0:0:
320,192,178319,1,0,0:0:0:0:
64,192,178319,1,0,0:0:0:0:
192,192,178455,1,0,0:0:0:0:
448,192,178455,1,0,0:0:0:0:
320,192,178592,1,0,0:0:0:0:
64,192,178592,1,0,0:0:0:0:
64,192,178728,1,0,0:0:0:0:
192,192,178728,1,0,0:0:0:0:
320,192,178728,1,0,0:0:0:0:
448,192,178728,1,0,0:0:0:0:
192,192,178865,1,0,0:0:0:0:
448,192,178865,1,0,0:0:0:0:
320,192,179001,1,0,0:0:0:0:
64,192,179001,1,0,0:0:0:0:
192,192,179137,1,0,0:0:0:0:
448,192,179137,1,0,0:0:0:0:
320,192,179274,1,0,0:0:0:0:
64,192,179274,1,0,0:0:0:0:
192,192,179274,1,0,0:0:0:0:
448,192,179319,1,0,0:0:0:0:
320,192,179365,1,0,0:0:0:0:
192,192,179410,1,0,0:0:0:0:
64,192,179455,1,0,0:0:0:0:
320,192,179546,1,0,0:0:0:0:
448,192,179546,1,0,0:0:0:0:
192,192,179683,1,0,0:0:0:0:
320,192,179683,1,0,0:0:0:0:
192,192,179819,1,0,0:0:0:0:
64,192,179819,1,0,0:0:0:0:
320,192,179819,1,0,0:0:0:0:
448,192,179819,1,0,0:0:0:0:
64,192,179955,1,0,0:0:0:0:
192,192,179955,1,0,0:0:0:0:
192,192,180092,1,0,0:0:0:0:
320,192,180092,1,0,0:0:0:0:
320,192,180228,1,0,0:0:0:0:
448,192,180228,1,0,0:0:0:0:
192,192,180365,1,0,0:0:0:0:
320,192,180365,1,0,0:0:0:0:
64,192,180365,128,0,180637:0:0:0:0:
448,192,180365,128,0,180637:0:0:0:0:
320,192,180637,128,0,180774:0:0:0:0:
192,192,180637,128,0,180774:0:0:0:0:
64,192,180774,128,0,180910:0:0:0:0:
448,192,180774,128,0,180910:0:0:0:0:
320,192,180910,128,0,181183:0:0:0:0:
192,192,180910,128,0,181183:0:0:0:0:
448,192,181183,128,0,181319:0:0:0:0:
64,192,181183,128,0,181319:0:0:0:0:
64,192,181455,1,0,0:0:0:0:
192,192,181455,1,0,0:0:0:0:
320,192,181455,1,0,0:0:0:0:
448,192,181501,1,0,0:0:0:0:
320,192,181546,1,0,0:0:0:0:
192,192,181592,1,0,0:0:0:0:
64,192,181637,1,0,0:0:0:0:
320,192,181683,1,0,0:0:0:0:
448,192,181728,1,0,0:0:0:0:
64,192,181774,1,0,0:0:0:0:
192,192,181819,1,0,0:0:0:0:
320,192,181865,1,0,0:0:0:0:
448,192,181910,1,0,0:0:0:0:
64,192,182001,1,0,0:0:0:0:
320,192,182001,1,0,0:0:0:0:
192,192,182001,1,0,0:0:0:0:
448,192,182137,1,0,0:0:0:0:
192,192,182137,1,0,0:0:0:0:
320,192,182274,1,0,0:0:0:0:
64,192,182274,1,0,0:0:0:0:
192,192,182410,1,0,0:0:0:0:
448,192,182410,1,0,0:0:0:0:
320,192,182546,1,0,0:0:0:0:
448,192,182546,1,0,0:0:0:0:
64,192,182546,1,0,0:0:0:0:
192,192,182546,1,0,0:0:0:0:
64,192,182683,1,0,0:0:0:0:
320,192,182683,1,0,0:0:0:0:
192,192,182819,1,0,0:0:0:0:
448,192,182819,1,0,0:0:0:0:
320,192,182955,1,0,0:0:0:0:
64,192,182955,1,0,0:0:0:0:
64,192,183092,1,0,0:0:0:0:
192,192,183092,1,0,0:0:0:0:
320,192,183092,1,0,0:0:0:0:
448,192,183092,1,0,0:0:0:0:
320,192,183228,1,0,0:0:0:0:
64,192,183228,1,0,0:0:0:0:
192,192,183365,1,0,0:0:0:0:
448,192,183365,1,0,0:0:0:0:
320,192,183501,1,0,0:0:0:0:
64,192,183501,1,0,0:0:0:0:
192,192,183637,1,0,0:0:0:0:
320,192,183637,1,0,0:0:0:0:
64,192,183637,1,0,0:0:0:0:
448,192,183683,1,0,0:0:0:0:
320,192,183728,1,0,0:0:0:0:
192,192,183774,1,0,0:0:0:0:
64,192,183819,1,0,0:0:0:0:
448,192,183910,1,0,0:0:0:0:
320,192,183910,1,0,0:0:0:0:
64,192,184046,1,0,0:0:0:0:
192,192,184046,1,0,0:0:0:0:
64,192,184183,1,0,0:0:0:0:
192,192,184183,1,0,0:0:0:0:
320,192,184183,1,0,0:0:0:0:
448,192,184183,1,0,0:0:0:0:
320,192,184319,1,0,0:0:0:0:
448,192,184319,1,0,0:0:0:0:
192,192,184455,1,0,0:0:0:0:
64,192,184455,1,0,0:0:0:0:
320,192,184592,1,0,0:0:0:0:
448,192,184592,1,0,0:0:0:0:
448,192,184728,1,0,0:0:0:0:
192,192,184728,1,0,0:0:0:0:
64,192,184728,128,0,185001:0:0:0:0:
320,192,184728,128,0,185001:0:0:0:0:
192,192,185001,128,0,185137:0:0:0:0:
448,192,185001,128,0,185137:0:0:0:0:
64,192,185137,128,0,185274:0:0:0:0:
320,192,185137,128,0,185274:0:0:0:0:
192,192,185274,128,0,185410:0:0:0:0:
448,192,185274,128,0,185410:0:0:0:0:
320,192,185410,128,0,185546:0:0:0:0:
64,192,185410,128,0,185546:0:0:0:0:
192,192,185546,128,0,185683:0:0:0:0:
448,192,185546,128,0,185683:0:0:0:0:
64,192,185819,1,0,0:0:0:0:
192,192,185819,1,0,0:0:0:0:
320,192,185819,1,0,0:0:0:0:
448,192,185819,1,0,0:0:0:0:
320,192,185955,1,0,0:0:0:0:
192,192,186092,1,0,0:0:0:0:
64,192,186092,1,0,0:0:0:0:
448,192,186092,1,0,0:0:0:0:
64,192,186228,1,0,0:0:0:0:
448,192,186365,1,0,0:0:0:0:
320,192,186365,1,0,0:0:0:0:
192,192,186365,1,0,0:0:0:0:
64,192,186365,1,0,0:0:0:0:
320,192,186501,1,0,0:0:0:0:
192,192,186637,1,0,0:0:0:0:
64,192,186637,1,0,0:0:0:0:
448,192,186637,1,0,0:0:0:0:
448,192,186774,1,0,0:0:0:0:
320,192,186910,1,0,0:0:0:0:
448,192,186910,1,0,0:0:0:0:
64,192,186910,128,0,187319:0:0:0:0:
192,192,186910,128,0,187319:0:0:0:0:
320,192,187455,1,0,0:0:0:0:
448,192,187455,1,0,0:0:0:0:
192,192,187455,1,0,0:0:0:0:
64,192,187455,1,0,0:0:0:0:
320,192,187592,1,0,0:0:0:0:
448,192,187728,1,0,0:0:0:0:
320,192,187728,1,0,0:0:0:0:
192,192,187728,1,0,0:0:0:0:
64,192,187728,128,0,188001:0:0:0:0:
192,192,188001,1,0,0:0:0:0:
448,192,188001,1,0,0:0:0:0:
320,192,188001,128,0,188274:0:0:0:0:
64,192,188274,1,0,0:0:0:0:
192,192,188274,1,0,0:0:0:0:
448,192,188274,1,0,0:0:0:0:
64,192,188410,1,0,0:0:0:0:
448,192,188546,1,0,0:0:0:0:
320,192,188546,1,0,0:0:0:0:
192,192,188546,1,0,0:0:0:0:
64,192,188546,1,0,0:0:0:0:
320,192,188683,1,0,0:0:0:0:
192,192,188819,1,0,0:0:0:0:
64,192,188819,1,0,0:0:0:0:
448,192,188819,1,0,0:0:0:0:
448,192,188955,1,0,0:0:0:0:
64,192,189092,1,0,0:0:0:0:
192,192,189092,1,0,0:0:0:0:
320,192,189092,128,0,189501:0:0:0:0:
448,192,189092,128,0,189501:0:0:0:0:
64,192,189637,128,0,189910:0:0:0:0:
192,192,189637,128,0,189910:0:0:0:0:
320,192,189637,1,0,0:0:0:0:
448,192,189637,1,0,0:0:0:0:
320,192,189910,128,0,190046:0:0:0:0:
448,192,189910,128,0,190046:0:0:0:0:
192,192,190183,1,0,0:0:0:0:
64,192,190183,1,0,0:0:0:0:
320,192,190183,1,0,0:0:0:0:
448,192,190183,1,0,0:0:0:0:
64,192,190319,1,0,0:0:0:0:
448,192,190455,1,0,0:0:0:0:
320,192,190455,1,0,0:0:0:0:
192,192,190455,1,0,0:0:0:0:
320,192,190592,1,0,0:0:0:0:
64,192,190728,1,0,0:0:0:0:
192,192,190728,1,0,0:0:0:0:
320,192,190728,1,0,0:0:0:0:
448,192,190728,1,0,0:0:0:0:
64,192,190865,1,0,0:0:0:0:
448,192,191001,1,0,0:0:0:0:
320,192,191001,1,0,0:0:0:0:
192,192,191001,1,0,0:0:0:0:
192,192,191137,1,0,0:0:0:0:
192,192,191274,1,0,0:0:0:0:
320,192,191274,1,0,0:0:0:0:
64,192,191274,128,0,191683:0:0:0:0:
448,192,191274,128,0,191683:0:0:0:0:
64,192,191819,1,0,0:0:0:0:
448,192,191819,1,0,0:0:0:0:
192,192,191819,128,0,192092:0:0:0:0:
320,192,191819,128,0,192092:0:0:0:0:
64,192,192092,128,0,192228:0:0:0:0:
448,192,192092,128,0,192228:0:0:0:0:
320,192,192365,1,0,0:0:0:0:
192,192,192365,1,0,0:0:0:0:
448,192,192365,1,0,0:0:0:0:
64,192,192365,1,0,0:0:0:0:
320,192,192501,1,0,0:0:0:0:
192,192,192637,1,0,0:0:0:0:
64,192,192637,1,0,0:0:0:0:
448,192,192637,1,0,0:0:0:0:
64,192,192774,1,0,0:0:0:0:
192,192,192910,1,0,0:0:0:0:
320,192,192910,1,0,0:0:0:0:
448,192,192910,1,0,0:0:0:0:
64,192,192910,1,0,0:0:0:0:
448,192,193046,1,0,0:0:0:0:
320,192,193183,1,0,0:0:0:0:
192,192,193183,1,0,0:0:0:0:
64,192,193183,1,0,0:0:0:0:
320,192,193319,1,0,0:0:0:0:
320,192,193455,1,0,0:0:0:0:
448,192,193455,1,0,0:0:0:0:
64,192,193455,128,0,193865:0:0:0:0:
192,192,193455,128,0,193865:0:0:0:0:
64,192,194001,1,0,0:0:0:0:
320,192,194001,1,0,0:0:0:0:
192,192,194001,128,0,194410:0:0:0:0:
448,192,194001,128,0,194410:0:0:0:0:
320,192,194546,1,0,0:0:0:0:
64,192,194546,1,0,0:0:0:0:
192,192,194546,1,0,0:0:0:0:
448,192,194546,1,0,0:0:0:0:
448,192,194683,1,0,0:0:0:0:
320,192,194819,1,0,0:0:0:0:
192,192,194819,1,0,0:0:0:0:
64,192,194819,1,0,0:0:0:0:
192,192,194955,1,0,0:0:0:0:
320,192,195092,1,0,0:0:0:0:
448,192,195092,1,0,0:0:0:0:
192,192,195092,1,0,0:0:0:0:
64,192,195092,1,0,0:0:0:0:
448,192,195228,1,0,0:0:0:0:
320,192,195365,1,0,0:0:0:0:
64,192,195365,1,0,0:0:0:0:
192,192,195365,1,0,0:0:0:0:
320,192,195501,1,0,0:0:0:0:
320,192,195637,1,0,0:0:0:0:
64,192,195637,1,0,0:0:0:0:
192,192,195637,128,0,196046:0:0:0:0:
448,192,195637,128,0,196046:0:0:0:0:
192,192,196183,1,0,0:0:0:0:
448,192,196183,1,0,0:0:0:0:
320,192,196183,128,0,196455:0:0:0:0:
64,192,196183,128,0,196455:0:0:0:0:
448,192,196455,128,0,196592:0:0:0:0:
192,192,196455,128,0,196592:0:0:0:0:
320,192,196728,1,0,0:0:0:0:
64,192,196728,1,0,0:0:0:0:
192,192,196728,1,0,0:0:0:0:
448,192,196728,1,0,0:0:0:0:
64,192,196865,1,0,0:0:0:0:
320,192,197001,1,0,0:0:0:0:
448,192,197001,1,0,0:0:0:0:
192,192,197001,1,0,0:0:0:0:
448,192,197137,1,0,0:0:0:0:
320,192,197274,1,0,0:0:0:0:
448,192,197274,1,0,0:0:0:0:
192,192,197274,1,0,0:0:0:0:
64,192,197274,1,0,0:0:0:0:
64,192,197410,1,0,0:0:0:0:
320,192,197546,1,0,0:0:0:0:
192,192,197546,1,0,0:0:0:0:
448,192,197546,1,0,0:0:0:0:
192,192,197683,1,0,0:0:0:0:
320,192,197819,1,0,0:0:0:0:
448,192,197819,1,0,0:0:0:0:
64,192,197819,128,0,198228:0:0:0:0:
192,192,197819,128,0,198228:0:0:0:0:
320,192,198365,1,0,0:0:0:0:
448,192,198365,1,0,0:0:0:0:
192,192,198365,128,0,198774:0:0:0:0:
64,192,198365,128,0,198774:0:0:0:0:
320,192,198637,1,0,0:0:0:0:
448,192,198637,1,0,0:0:0:0:
448,192,198910,1,0,0:0:0:0:
320,192,198910,1,0,0:0:0:0:
64,192,198910,1,0,0:0:0:0:
192,192,198910,1,0,0:0:0:0:
448,192,199046,1,0,0:0:0:0:
320,192,199183,1,0,0:0:0:0:
192,192,199183,1,0,0:0:0:0:
64,192,199183,1,0,0:0:0:0:
192,192,199319,1,0,0:0:0:0:
192,192,199455,1,0,0:0:0:0:
320,192,199455,1,0,0:0:0:0:
448,192,199455,1,0,0:0:0:0:
64,192,199455,1,0,0:0:0:0:
448,192,199592,1,0,0:0:0:0:
320,192,199728,1,0,0:0:0:0:
192,192,199728,1,0,0:0:0:0:
64,192,199728,1,0,0:0:0:0:
64,192,199865,1,0,0:0:0:0:
64,192,200001,1,0,0:0:0:0:
320,192,200001,1,0,0:0:0:0:
192,192,200001,128,0,200410:0:0:0:0:
448,192,200001,128,0,200410:0:0:0:0:
320,192,200546,1,0,0:0:0:0:
448,192,200546,1,0,0:0:0:0:
64,192,200546,128,0,200819:0:0:0:0:
192,192,200546,128,0,200819:0:0:0:0:
320,192,200819,128,0,200955:0:0:0:0:
448,192,200819,128,0,200955:0:0:0:0:
192,192,201092,1,0,0:0:0:0:
64,192,201092,1,0,0:0:0:0:
320,192,201092,1,0,0:0:0:0:
448,192,201092,1,0,0:0:0:0:
64,192,201228,1,0,0:0:0:0:
448,192,201365,1,0,0:0:0:0:
192,192,201365,1,0,0:0:0:0:
320,192,201365,1,0,0:0:0:0:
320,192,201501,1,0,0:0:0:0:
192,192,201637,1,0,0:0:0:0:
320,192,201637,1,0,0:0:0:0:
448,192,201637,1,0,0:0:0:0:
64,192,201637,1,0,0:0:0:0:
448,192,201774,1,0,0:0:0:0:
320,192,201910,1,0,0:0:0:0:
64,192,201910,1,0,0:0:0:0:
192,192,201910,1,0,0:0:0:0:
64,192,202046,1,0,0:0:0:0:
192,192,202183,1,0,0:0:0:0:
320,192,202183,1,0,0:0:0:0:
448,192,202183,128,0,202592:0:0:0:0:
64,192,202183,128,0,202592:0:0:0:0:
192,192,202728,1,0,0:0:0:0:
320,192,202728,1,0,0:0:0:0:
448,192,202728,1,0,0:0:0:0:
64,192,202728,128,0,203001:0:0:0:0:
448,192,203274,1,0,0:0:0:0:
320,192,203274,1,0,0:0:0:0:
64,192,203819,128,0,205455:0:0:0:0:
192,192,205455,1,0,0:0:0:0:
320,192,205455,1,0,0:0:0:0:
448,192,205524,1,0,0:0:0:0:
64,192,205592,1,0,0:0:0:0:
192,192,205660,1,0,0:0:0:0:
448,192,205728,1,0,0:0:0:0:
320,192,205796,1,0,0:0:0:0:
64,192,205865,1,0,0:0:0:0:
192,192,205933,1,0,0:0:0:0:
320,192,206001,1,0,0:0:0:0:
448,192,206001,1,0,0:0:0:0:
64,192,206001,1,0,0:0:0:0:
448,192,206137,1,0,0:0:0:0:
320,192,206137,1,0,0:0:0:0:
320,192,206274,1,0,0:0:0:0:
448,192,206274,1,0,0:0:0:0:
320,192,206410,1,0,0:0:0:0:
448,192,206410,1,0,0:0:0:0:
320,192,206546,1,0,0:0:0:0:
448,192,206546,1,0,0:0:0:0:
192,192,206546,1,0,0:0:0:0:
64,192,206546,1,0,0:0:0:0:
192,192,206683,1,0,0:0:0:0:
64,192,206683,1,0,0:0:0:0:
192,192,206819,1,0,0:0:0:0:
64,192,206819,1,0,0:0:0:0:
192,192,206955,1,0,0:0:0:0:
64,192,206955,1,0,0:0:0:0:
192,192,207092,1,0,0:0:0:0:
64,192,207092,1,0,0:0:0:0:
320,192,207092,1,0,0:0:0:0:
448,192,207092,1,0,0:0:0:0:
320,192,207228,1,0,0:0:0:0:
448,192,207228,1,0,0:0:0:0:
320,192,207365,1,0,0:0:0:0:
448,192,207365,1,0,0:0:0:0:
320,192,207501,1,0,0:0:0:0:
448,192,207501,1,0,0:0:0:0:
320,192,207637,1,0,0:0:0:0:
448,192,207637,1,0,0:0:0:0:
64,192,207637,128,0,208046:0:0:0:0:
192,192,207637,128,0,208046:0:0:0:0:
64,192,208183,1,0,0:0:0:0:
192,192,208183,1,0,0:0:0:0:
448,192,208183,1,0,0:0:0:0:
320,192,208183,1,0,0:0:0:0:
64,192,208319,1,0,0:0:0:0:
320,192,208319,1,0,0:0:0:0:
192,192,208455,1,0,0:0:0:0:
448,192,208455,1,0,0:0:0:0:
320,192,208592,1,0,0:0:0:0:
64,192,208592,1,0,0:0:0:0:
192,192,208728,1,0,0:0:0:0:
448,192,208728,1,0,0:0:0:0:
320,192,208728,1,0,0:0:0:0:
64,192,208728,1,0,0:0:0:0:
192,192,208865,1,0,0:0:0:0:
448,192,208865,1,0,0:0:0:0:
320,192,209001,1,0,0:0:0:0:
64,192,209001,1,0,0:0:0:0:
192,192,209137,1,0,0:0:0:0:
448,192,209137,1,0,0:0:0:0:
448,192,209274,1,0,0:0:0:0:
320,192,209274,1,0,0:0:0:0:
192,192,209274,1,0,0:0:0:0:
64,192,209274,1,0,0:0:0:0:
320,192,209410,1,0,0:0:0:0:
64,192,209410,1,0,0:0:0:0:
192,192,209546,1,0,0:0:0:0:
448,192,209546,1,0,0:0:0:0:
320,192,209683,1,0,0:0:0:0:
64,192,209683,1,0,0:0:0:0:
64,192,209819,1,0,0:0:0:0:
320,192,209819,1,0,0:0:0:0:
192,192,209819,128,0,210228:0:0:0:0:
448,192,209819,128,0,210228:0:0:0:0:
448,192,210365,1,0,0:0:0:0:
320,192,210365,1,0,0:0:0:0:
192,192,210365,1,0,0:0:0:0:
64,192,210365,1,0,0:0:0:0:
64,192,210501,1,0,0:0:0:0:
448,192,210501,1,0,0:0:0:0:
320,192,210637,1,0,0:0:0:0:
192,192,210637,1,0,0:0:0:0:
64,192,210774,1,0,0:0:0:0:
192,192,210774,1,0,0:0:0:0:
448,192,210910,1,0,0:0:0:0:
320,192,210910,1,0,0:0:0:0:
192,192,210910,1,0,0:0:0:0:
64,192,210910,1,0,0:0:0:0:
320,192,211046,1,0,0:0:0:0:
448,192,211046,1,0,0:0:0:0:
64,192,211183,1,0,0:0:0:0:
192,192,211183,1,0,0:0:0:0:
192,192,211319,1,0,0:0:0:0:
320,192,211319,1,0,0:0:0:0:
64,192,211455,1,0,0:0:0:0:
192,192,211455,1,0,0:0:0:0:
320,192,211455,1,0,0:0:0:0:
448,192,211455,1,0,0:0:0:0:
320,192,211592,1,0,0:0:0:0:
448,192,211592,1,0,0:0:0:0:
448,192,211728,1,0,0:0:0:0:
320,192,211728,1,0,0:0:0:0:
320,192,211865,1,0,0:0:0:0:
448,192,211865,1,0,0:0:0:0:
64,192,212001,1,0,0:0:0:0:
192,192,212001,1,0,0:0:0:0:
320,192,212001,128,0,212410:0:0:0:0:
448,192,212001,128,0,212410:0:0:0:0:
64,192,212546,1,0,0:0:0:0:
192,192,212546,1,0,0:0:0:0:
320,192,212546,1,0,0:0:0:0:
448,192,212546,1,0,0:0:0:0:
64,192,212683,1,0,0:0:0:0:
320,192,212683,1,0,0:0:0:0:
64,192,212819,1,0,0:0:0:0:
320,192,212819,1,0,0:0:0:0:
320,192,212955,1,0,0:0:0:0:
64,192,212955,1,0,0:0:0:0:
64,192,213092,1,0,0:0:0:0:
192,192,213092,1,0,0:0:0:0:
320,192,213092,1,0,0:0:0:0:
448,192,213092,1,0,0:0:0:0:
448,192,213228,1,0,0:0:0:0:
192,192,213228,1,0,0:0:0:0:
192,192,213365,1,0,0:0:0:0:
448,192,213365,1,0,0:0:0:0:
448,192,213501,1,0,0:0:0:0:
192,192,213501,1,0,0:0:0:0:
192,192,213637,1,0,0:0:0:0:
448,192,213637,1,0,0:0:0:0:
320,192,213637,1,0,0:0:0:0:
64,192,213637,1,0,0:0:0:0:
320,192,213774,1,0,0:0:0:0:
64,192,213774,1,0,0:0:0:0:
64,192,213910,1,0,0:0:0:0:
320,192,213910,1,0,0:0:0:0:
320,192,214046,1,0,0:0:0:0:
64,192,214046,1,0,0:0:0:0:
64,192,214183,1,0,0:0:0:0:
320,192,214183,1,0,0:0:0:0:
192,192,214183,128,0,214592:0:0:0:0:
448,192,214183,128,0,214592:0:0:0:0:
64,192,214728,1,0,0:0:0:0:
192,192,214728,1,0,0:0:0:0:
320,192,214728,1,0,0:0:0:0:
448,192,214728,1,0,0:0:0:0:
192,192,214865,1,0,0:0:0:0:
320,192,214865,1,0,0:0:0:0:
448,192,215001,1,0,0:0:0:0:
64,192,215001,1,0,0:0:0:0:
192,192,215137,1,0,0:0:0:0:
320,192,215137,1,0,0:0:0:0:
64,192,215274,1,0,0:0:0:0:
192,192,215274,1,0,0:0:0:0:
320,192,215274,1,0,0:0:0:0:
448,192,215274,1,0,0:0:0:0:
320,192,215410,1,0,0:0:0:0:
192,192,215410,1,0,0:0:0:0:
64,192,215546,1,0,0:0:0:0:
448,192,215546,1,0,0:0:0:0:
320,192,215683,1,0,0:0:0:0:
192,192,215683,1,0,0:0:0:0:
64,192,215819,1,0,0:0:0:0:
192,192,215819,1,0,0:0:0:0:
320,192,215819,1,0,0:0:0:0:
448,192,215819,1,0,0:0:0:0:
64,192,215955,1,0,0:0:0:0:
448,192,215955,1,0,0:0:0:0:
320,192,216092,1,0,0:0:0:0:
192,192,216092,1,0,0:0:0:0:
64,192,216228,1,0,0:0:0:0:
448,192,216228,1,0,0:0:0:0:
448,192,216365,1,0,0:0:0:0:
64,192,216365,1,0,0:0:0:0:
320,192,216365,128,0,216774:0:0:0:0:
192,192,216365,128,0,216774:0:0:0:0:
448,192,216910,1,0,0:0:0:0:
320,192,216910,1,0,0:0:0:0:
192,192,216910,1,0,0:0:0:0:
64,192,216910,1,0,0:0:0:0:
64,192,217046,1,0,0:0:0:0:
448,192,217046,1,0,0:0:0:0:
448,192,217183,1,0,0:0:0:0:
64,192,217183,1,0,0:0:0:0:
64,192,217319,1,0,0:0:0:0:
448,192,217319,1,0,0:0:0:0:
448,192,217455,1,0,0:0:0:0:
64,192,217455,1,0,0:0:0:0:
192,192,217455,1,0,0:0:0:0:
320,192,217455,1,0,0:0:0:0:
192,192,217592,1,0,0:0:0:0:
320,192,217592,1,0,0:0:0:0:
320,192,217728,1,0,0:0:0:0:
192,192,217728,1,0,0:0:0:0:
192,192,217865,1,0,0:0:0:0:
320,192,217865,1,0,0:0:0:0:
320,192,218001,1,0,0:0:0:0:
192,192,218001,1,0,0:0:0:0:
64,192,218001,1,0,0:0:0:0:
448,192,218001,1,0,0:0:0:0:
64,192,218137,1,0,0:0:0:0:
320,192,218137,1,0,0:0:0:0:
192,192,218274,1,0,0:0:0:0:
448,192,218274,1,0,0:0:0:0:
320,192,218410,1,0,0:0:0:0:
64,192,218410,1,0,0:0:0:0:
192,192,218546,1,0,0:0:0:0:
448,192,218546,1,0,0:0:0:0:
64,192,218546,128,0,218955:0:0:0:0:
320,192,218546,128,0,218955:0:0:0:0:
64,192,219092,1,0,0:0:0:0:
192,192,219092,1,0,0:0:0:0:
320,192,219092,1,0,0:0:0:0:
448,192,219092,1,0,0:0:0:0:
64,192,219228,1,0,0:0:0:0:
192,192,219228,1,0,0:0:0:0:
320,192,219365,1,0,0:0:0:0:
448,192,219365,1,0,0:0:0:0:
192,192,219501,1,0,0:0:0:0:
64,192,219501,1,0,0:0:0:0:
192,192,219637,1,0,0:0:0:0:
64,192,219637,1,0,0:0:0:0:
320,192,219637,1,0,0:0:0:0:
448,192,219637,1,0,0:0:0:0:
448,192,219774,1,0,0:0:0:0:
320,192,219774,1,0,0:0:0:0:
192,192,219910,1,0,0:0:0:0:
64,192,219910,1,0,0:0:0:0:
320,192,220046,1,0,0:0:0:0:
448,192,220046,1,0,0:0:0:0:
448,192,220183,1,0,0:0:0:0:
320,192,220183,1,0,0:0:0:0:
192,192,220183,1,0,0:0:0:0:
64,192,220183,1,0,0:0:0:0:
64,192,220319,1,0,0:0:0:0:
192,192,220319,1,0,0:0:0:0:
320,192,220455,1,0,0:0:0:0:
448,192,220455,1,0,0:0:0:0:
192,192,220592,1,0,0:0:0:0:
64,192,220592,1,0,0:0:0:0:
320,192,220728,1,0,0:0:0:0:
448,192,220728,1,0,0:0:0:0:
64,192,220728,128,0,221137:0:0:0:0:
192,192,220728,128,0,221137:0:0:0:0:
448,192,221274,1,0,0:0:0:0:
320,192,221274,1,0,0:0:0:0:
192,192,221274,1,0,0:0:0:0:
64,192,221274,1,0,0:0:0:0:
64,192,221410,1,0,0:0:0:0:
320,192,221410,1,0,0:0:0:0:
192,192,221546,1,0,0:0:0:0:
448,192,221546,1,0,0:0:0:0:
448,192,221683,1,0,0:0:0:0:
192,192,221683,1,0,0:0:0:0:
448,192,221819,1,0,0:0:0:0:
192,192,221819,1,0,0:0:0:0:
64,192,221819,128,0,222228:0:0:0:0:
320,192,221819,128,0,222228:0:0:0:0:
320,192,222365,1,0,0:0:0:0:
192,192,222365,128,0,222774:0:0:0:0:
64,192,222365,128,0,222774:0:0:0:0:
448,192,222365,128,0,222637:0:0:0:0:
192,192,222910,1,0,0:0:0:0:
64,192,222910,1,0,0:0:0:0:
320,192,222910,128,0,223319:0:0:0:0:
448,192,222910,128,0,223319:0:0:0:0:
192,192,223455,1,0,0:0:0:0:
64,192,223455,1,0,0:0:0:0:
320,192,223455,1,0,0:0:0:0:
448,192,223455,1,0,0:0:0:0:
192,192,223592,1,0,0:0:0:0:
320,192,223592,1,0,0:0:0:0:
192,192,223728,1,0,0:0:0:0:
320,192,223728,1,0,0:0:0:0:
64,192,223865,1,0,0:0:0:0:
448,192,223865,1,0,0:0:0:0:
448,192,224001,1,0,0:0:0:0:
320,192,224001,1,0,0:0:0:0:
192,192,224001,1,0,0:0:0:0:
64,192,224001,1,0,0:0:0:0:
192,192,224137,1,0,0:0:0:0:
64,192,224137,1,0,0:0:0:0:
64,192,224274,1,0,0:0:0:0:
192,192,224274,1,0,0:0:0:0:
448,192,224410,1,0,0:0:0:0:
320,192,224410,1,0,0:0:0:0:
64,192,224546,1,0,0:0:0:0:
192,192,224546,1,0,0:0:0:0:
320,192,224546,1,0,0:0:0:0:
448,192,224546,1,0,0:0:0:0:
64,192,224683,1,0,0:0:0:0:
320,192,224683,1,0,0:0:0:0:
64,192,224819,1,0,0:0:0:0:
320,192,224819,1,0,0:0:0:0:
192,192,224955,1,0,0:0:0:0:
448,192,224955,1,0,0:0:0:0:
448,192,225092,1,0,0:0:0:0:
192,192,225092,1,0,0:0:0:0:
64,192,225092,128,0,225501:0:0:0:0:
320,192,225092,128,0,225501:0:0:0:0:
448,192,225637,1,0,0:0:0:0:
320,192,225637,1,0,0:0:0:0:
192,192,225637,1,0,0:0:0:0:
64,192,225637,1,0,0:0:0:0:
320,192,225774,1,0,0:0:0:0:
64,192,225774,1,0,0:0:0:0:
320,192,225910,1,0,0:0:0:0:
64,192,225910,1,0,0:0:0:0:
192,192,226046,1,0,0:0:0:0:
448,192,226046,1,0,0:0:0:0:
448,192,226183,1,0,0:0:0:0:
192,192,226183,1,0,0:0:0:0:
320,192,226183,1,0,0:0:0:0:
64,192,226183,1,0,0:0:0:0:
320,192,226319,1,0,0:0:0:0:
64,192,226319,1,0,0:0:0:0:
64,192,226455,1,0,0:0:0:0:
320,192,226455,1,0,0:0:0:0:
192,192,226592,1,0,0:0:0:0:
448,192,226592,1,0,0:0:0:0:
448,192,226728,1,0,0:0:0:0:
192,192,226728,1,0,0:0:0:0:
320,192,226728,1,0,0:0:0:0:
64,192,226728,1,0,0:0:0:0:
320,192,226865,1,0,0:0:0:0:
448,192,226865,1,0,0:0:0:0:
320,192,227001,1,0,0:0:0:0:
448,192,227001,1,0,0:0:0:0:
320,192,227137,1,0,0:0:0:0:
448,192,227137,1,0,0:0:0:0:
320,192,227274,1,0,0:0:0:0:
448,192,227274,1,0,0:0:0:0:
64,192,227274,128,0,227683:0:0:0:0:
192,192,227274,128,0,227683:0:0:0:0:
448,192,227819,1,0,0:0:0:0:
320,192,227819,1,0,0:0:0:0:
192,192,227819,1,0,0:0:0:0:
64,192,227819,1,0,0:0:0:0:
64,192,227955,1,0,0:0:0:0:
192,192,227955,1,0,0:0:0:0:
64,192,228092,1,0,0:0:0:0:
192,192,228092,1,0,0:0:0:0:
64,192,228228,1,0,0:0:0:0:
192,192,228228,1,0,0:0:0:0:
320,192,228365,1,0,0:0:0:0:
448,192,228365,1,0,0:0:0:0:
192,192,228365,1,0,0:0:0:0:
64,192,228365,1,0,0:0:0:0:
192,192,228501,1,0,0:0:0:0:
64,192,228501,1,0,0:0:0:0:
64,192,228637,1,0,0:0:0:0:
192,192,228637,1,0,0:0:0:0:
64,192,228774,1,0,0:0:0:0:
192,192,228774,1,0,0:0:0:0:
64,192,228910,1,0,0:0:0:0:
192,192,228910,1,0,0:0:0:0:
320,192,228910,1,0,0:0:0:0:
448,192,228910,1,0,0:0:0:0:
64,192,229046,1,0,0:0:0:0:
192,192,229046,1,0,0:0:0:0:
192,192,229183,1,0,0:0:0:0:
64,192,229183,1,0,0:0:0:0:
64,192,229319,1,0,0:0:0:0:
192,192,229319,1,0,0:0:0:0:
64,192,229455,1,0,0:0:0:0:
448,192,229455,1,0,0:0:0:0:
192,192,229455,128,0,229865:0:0:0:0:
320,192,229455,128,0,229865:0:0:0:0:
64,192,230001,1,0,0:0:0:0:
192,192,230001,1,0,0:0:0:0:
320,192,230001,1,0,0:0:0:0:
448,192,230001,1,0,0:0:0:0:
320,192,230137,1,0,0:0:0:0:
192,192,230137,1,0,0:0:0:0:
64,192,230274,1,0,0:0:0:0:
320,192,230274,1,0,0:0:0:0:
192,192,230410,1,0,0:0:0:0:
448,192,230410,1,0,0:0:0:0:
320,192,230546,1,0,0:0:0:0:
448,192,230546,1,0,0:0:0:0:
64,192,230546,1,0,0:0:0:0:
192,192,230546,1,0,0:0:0:0:
64,192,230683,1,0,0:0:0:0:
320,192,230683,1,0,0:0:0:0:
320,192,230819,1,0,0:0:0:0:
192,192,230819,1,0,0:0:0:0:
64,192,230955,1,0,0:0:0:0:
320,192,230955,1,0,0:0:0:0:
192,192,231092,1,0,0:0:0:0:
320,192,231092,1,0,0:0:0:0:
448,192,231092,1,0,0:0:0:0:
64,192,231092,1,0,0:0:0:0:
192,192,231228,1,0,0:0:0:0:
448,192,231228,1,0,0:0:0:0:
192,192,231365,1,0,0:0:0:0:
448,192,231365,1,0,0:0:0:0:
192,192,231501,1,0,0:0:0:0:
448,192,231501,1,0,0:0:0:0:
320,192,231637,1,0,0:0:0:0:
64,192,231637,1,0,0:0:0:0:
192,192,231637,128,0,232046:0:0:0:0:
448,192,231637,128,0,232046:0:0:0:0:
320,192,232183,1,0,0:0:0:0:
64,192,232183,1,0,0:0:0:0:
192,192,232183,1,0,0:0:0:0:
448,192,232183,1,0,0:0:0:0:
64,192,232319,1,0,0:0:0:0:
192,192,232319,1,0,0:0:0:0:
192,192,232455,1,0,0:0:0:0:
320,192,232455,1,0,0:0:0:0:
64,192,232592,1,0,0:0:0:0:
320,192,232592,1,0,0:0:0:0:
192,192,232728,1,0,0:0:0:0:
320,192,232728,1,0,0:0:0:0:
448,192,232728,1,0,0:0:0:0:
64,192,232728,1,0,0:0:0:0:
448,192,232865,1,0,0:0:0:0:
192,192,232865,1,0,0:0:0:0:
448,192,233001,1,0,0:0:0:0:
192,192,233001,1,0,0:0:0:0:
64,192,233137,1,0,0:0:0:0:
320,192,233137,1,0,0:0:0:0:
192,192,233274,1,0,0:0:0:0:
320,192,233274,1,0,0:0:0:0:
448,192,233274,1,0,0:0:0:0:
64,192,233274,1,0,0:0:0:0:
192,192,233410,1,0,0:0:0:0:
320,192,233410,1,0,0:0:0:0:
320,192,233546,1,0,0:0:0:0:
192,192,233546,1,0,0:0:0:0:
64,192,233683,1,0,0:0:0:0:
448,192,233683,1,0,0:0:0:0:
448,192,233819,1,0,0:0:0:0:
64,192,233819,1,0,0:0:0:0:
320,192,233819,128,0,234228:0:0:0:0:
192,192,233819,128,0,234228:0:0:0:0:
320,192,234365,1,0,0:0:0:0:
448,192,234365,1,0,0:0:0:0:
192,192,234365,1,0,0:0:0:0:
64,192,234365,1,0,0:0:0:0:
64,192,234501,1,0,0:0:0:0:
320,192,234501,1,0,0:0:0:0:
192,192,234637,1,0,0:0:0:0:
448,192,234637,1,0,0:0:0:0:
320,192,234774,1,0,0:0:0:0:
64,192,234774,1,0,0:0:0:0:
64,192,234910,1,0,0:0:0:0:
192,192,234910,1,0,0:0:0:0:
320,192,234910,1,0,0:0:0:0:
448,192,234910,1,0,0:0:0:0:
448,192,235046,1,0,0:0:0:0:
192,192,235046,1,0,0:0:0:0:
320,192,235183,1,0,0:0:0:0:
64,192,235183,1,0,0:0:0:0:
192,192,235319,1,0,0:0:0:0:
448,192,235319,1,0,0:0:0:0:
448,192,235455,1,0,0:0:0:0:
320,192,235455,1,0,0:0:0:0:
192,192,235455,1,0,0:0:0:0:
64,192,235455,1,0,0:0:0:0:
320,192,235592,1,0,0:0:0:0:
64,192,235592,1,0,0:0:0:0:
64,192,235728,1,0,0:0:0:0:
320,192,235728,1,0,0:0:0:0:
192,192,235865,1,0,0:0:0:0:
448,192,235865,1,0,0:0:0:0:
448,192,236001,1,0,0:0:0:0:
192,192,236001,1,0,0:0:0:0:
64,192,236001,128,0,236410:0:0:0:0:
320,192,236001,128,0,236410:0:0:0:0:
448,192,236546,1,0,0:0:0:0:
320,192,236546,1,0,0:0:0:0:
192,192,236546,1,0,0:0:0:0:
64,192,236546,1,0,0:0:0:0:
192,192,236683,1,0,0:0:0:0:
320,192,236683,1,0,0:0:0:0:
320,192,236819,1,0,0:0:0:0:
192,192,236819,1,0,0:0:0:0:
320,192,236955,1,0,0:0:0:0:
192,192,236955,1,0,0:0:0:0:
320,192,237092,1,0,0:0:0:0:
192,192,237092,1,0,0:0:0:0:
64,192,237092,1,0,0:0:0:0:
448,192,237092,1,0,0:0:0:0:
448,192,237228,1,0,0:0:0:0:
64,192,237228,1,0,0:0:0:0:
64,192,237365,1,0,0:0:0:0:
448,192,237365,1,0,0:0:0:0:
448,192,237501,1,0,0:0:0:0:
64,192,237501,1,0,0:0:0:0:
64,192,237637,1,0,0:0:0:0:
192,192,237637,1,0,0:0:0:0:
320,192,237637,1,0,0:0:0:0:
448,192,237637,1,0,0:0:0:0:
320,192,237774,1,0,0:0:0:0:
192,192,237774,1,0,0:0:0:0:
192,192,237910,1,0,0:0:0:0:
320,192,237910,1,0,0:0:0:0:
192,192,238046,1,0,0:0:0:0:
320,192,238046,1,0,0:0:0:0:
192,192,238183,1,0,0:0:0:0:
320,192,238183,1,0,0:0:0:0:
64,192,238183,128,0,238592:0:0:0:0:
448,192,238183,128,0,238592:0:0:0:0:
192,192,238728,1,0,0:0:0:0:
320,192,238728,1,0,0:0:0:0:
448,192,238728,1,0,0:0:0:0:
64,192,238728,1,0,0:0:0:0:
64,192,238865,1,0,0:0:0:0:
320,192,238865,1,0,0:0:0:0:
192,192,239001,1,0,0:0:0:0:
448,192,239001,1,0,0:0:0:0:
320,192,239137,1,0,0:0:0:0:
64,192,239137,1,0,0:0:0:0:
192,192,239274,1,0,0:0:0:0:
64,192,239274,1,0,0:0:0:0:
320,192,239274,1,0,0:0:0:0:
448,192,239274,1,0,0:0:0:0:
64,192,239410,1,0,0:0:0:0:
448,192,239410,1,0,0:0:0:0:
64,192,239546,1,0,0:0:0:0:
320,192,239546,1,0,0:0:0:0:
64,192,239683,1,0,0:0:0:0:
192,192,239683,1,0,0:0:0:0:
64,192,239819,1,0,0:0:0:0:
448,192,239819,1,0,0:0:0:0:
320,192,239819,1,0,0:0:0:0:
192,192,239819,128,0,240092:0:0:0:0:
320,192,239955,1,0,0:0:0:0:
448,192,239955,1,0,0:0:0:0:
64,192,240092,1,0,0:0:0:0:
448,192,240092,1,0,0:0:0:0:
320,192,240228,1,0,0:0:0:0:
64,192,240228,1,0,0:0:0:0:
192,192,240365,1,0,0:0:0:0:
320,192,240365,1,0,0:0:0:0:
448,192,240365,1,0,0:0:0:0:
64,192,240365,1,0,0:0:0:0:
