osu file format v14

[General]
AudioFilename: Jinsei OP Jinsei Opening -- OP -- Opening.mp3
AudioLeadIn: 0
PreviewTime: 66534
Countdown: 1
SampleSet: Soft
StackLeniency: 0.7
Mode: 3
LetterboxInBreaks: 1
SpecialStyle: 0
WidescreenStoryboard: 0

[Editor]
DistanceSpacing: 1
BeatDivisor: 4
GridSize: 8
TimelineZoom: 2.3

[Metadata]
Title:Hestia's 1st Pack
TitleUnicode:Hestia's 1st Pack
Artist:Various Artists
ArtistUnicode:Various Artists
Creator:Hestiaaa
Version:Dekoboko Kaiketsu Sensation[9]
Source:
Tags:
BeatmapID:893792
BeatmapSetID:411939

[Difficulty]
HPDrainRate:8
CircleSize:4
OverallDifficulty:8
ApproachRate:5
SliderMultiplier:1.4
SliderTickRate:1

[Events]
//Background and Video events
0,0,"605684619_orig.jpg",0,0
//Break Periods
//Storyboard Layer 0 (Background)
//Storyboard Layer 1 (Fail)
//Storyboard Layer 2 (Pass)
//Storyboard Layer 3 (Foreground)
//Storyboard Sound Samples

[TimingPoints]
-512,402.684563758389,4,2,0,16,1,0

[HitObjects]
64,192,494,5,0,0:0:0:0:
192,192,494,1,0,0:0:0:0:
320,192,696,1,0,0:0:0:0:
448,192,696,1,0,0:0:0:0:
192,192,897,1,0,0:0:0:0:
64,192,897,1,0,0:0:0:0:
448,192,1098,1,0,0:0:0:0:
320,192,1098,1,0,0:0:0:0:
192,192,1098,1,0,0:0:0:0:
64,192,1098,1,0,0:0:0:0:
448,192,1199,1,0,0:0:0:0:
320,192,1300,1,0,0:0:0:0:
192,192,1300,1,0,0:0:0:0:
64,192,1300,1,0,0:0:0:0:
64,192,1400,1,0,0:0:0:0:
448,192,1400,1,0,0:0:0:0:
320,192,1501,1,0,0:0:0:0:
192,192,1501,1,0,0:0:0:0:
448,192,1602,1,0,0:0:0:0:
64,192,1702,1,0,0:0:0:0:
192,192,1702,1,0,0:0:0:0:
320,192,1702,1,0,0:0:0:0:
448,192,1702,1,0,0:0:0:0:
64,192,1803,1,0,0:0:0:0:
192,192,1904,1,0,0:0:0:0:
448,192,1904,1,0,0:0:0:0:
192,192,2004,1,0,0:0:0:0:
448,192,2004,1,0,0:0:0:0:
64,192,2004,1,0,0:0:0:0:
192,192,2105,1,0,0:0:0:0:
320,192,2105,1,0,0:0:0:0:
448,192,2105,1,0,0:0:0:0:
64,192,2206,1,0,0:0:0:0:
64,192,2306,1,0,0:0:0:0:
192,192,2306,1,0,0:0:0:0:
320,192,2306,1,0,0:0:0:0:
448,192,2407,1,0,0:0:0:0:
448,192,2508,1,0,0:0:0:0:
320,192,2508,1,0,0:0:0:0:
192,192,2508,1,0,0:0:0:0:
64,192,2508,1,0,0:0:0:0:
192,192,2608,1,0,0:0:0:0:
448,192,2709,1,0,0:0:0:0:
320,192,2709,1,0,0:0:0:0:
64,192,2709,1,0,0:0:0:0:
320,192,2810,1,0,0:0:0:0:
192,192,2910,1,0,0:0:0:0:
64,192,2910,1,0,0:0:0:0:
64,192,3011,1,0,0:0:0:0:
448,192,3011,1,0,0:0:0:0:
448,192,3112,1,0,0:0:0:0:
320,192,3112,1,0,0:0:0:0:
192,192,3112,1,0,0:0:0:0:
64,192,3212,1,0,0:0:0:0:
64,192,3313,1,0,0:0:0:0:
192,192,3313,1,0,0:0:0:0:
320,192,3313,1,0,0:0:0:0:
448,192,3313,1,0,0:0:0:0:
320,192,3414,1,0,0:0:0:0:
64,192,3514,1,0,0:0:0:0:
192,192,3514,1,0,0:0:0:0:
448,192,3514,1,0,0:0:0:0:
64,192,3615,1,0,0:0:0:0:
320,192,3615,1,0,0:0:0:0:
320,192,3716,1,0,0:0:0:0:
448,192,3716,1,0,0:0:0:0:
192,192,3716,1,0,0:0:0:0:
64,192,3816,1,0,0:0:0:0:
64,192,3917,1,0,0:0:0:0:
192,192,3917,1,0,0:0:0:0:
320,192,3917,1,0,0:0:0:0:
448,192,3917,1,0,0:0:0:0:
448,192,4018,1,0,0:0:0:0:
192,192,4118,1,0,0:0:0:0:
320,192,4219,1,0,0:0:0:0:
448,192,4219,1,0,0:0:0:0:
192,192,4219,1,0,0:0:0:0:
64,192,4219,1,0,0:0:0:0:
320,192,4320,1,0,0:0:0:0:
448,192,4320,1,0,0:0:0:0:
192,192,4420,1,0,0:0:0:0:
64,192,4420,1,0,0:0:0:0:
64,192,4521,1,0,0:0:0:0:
320,192,4521,1,0,0:0:0:0:
64,192,4622,1,0,0:0:0:0:
448,192,4622,1,0,0:0:0:0:
192,192,4722,1,0,0:0:0:0:
320,192,4722,1,0,0:0:0:0:
448,192,4722,1,0,0:0:0:0:
64,192,4823,1,0,0:0:0:0:
320,192,4924,1,0,0:0:0:0:
448,192,4924,1,0,0:0:0:0:
192,192,4924,1,0,0:0:0:0:
64,192,4924,1,0,0:0:0:0:
448,192,5024,1,0,0:0:0:0:
192,192,5125,1,0,0:0:0:0:
320,192,5125,1,0,0:0:0:0:
320,192,5226,1,0,0:0:0:0:
64,192,5226,1,0,0:0:0:0:
192,192,5326,1,0,0:0:0:0:
448,192,5326,1,0,0:0:0:0:
448,192,5427,1,0,0:0:0:0:
64,192,5427,1,0,0:0:0:0:
320,192,5528,1,0,0:0:0:0:
192,192,5528,1,0,0:0:0:0:
64,192,5528,1,0,0:0:0:0:
448,192,5628,1,0,0:0:0:0:
448,192,5729,1,0,0:0:0:0:
320,192,5729,1,0,0:0:0:0:
192,192,5729,1,0,0:0:0:0:
64,192,5729,1,0,0:0:0:0:
64,192,5830,1,0,0:0:0:0:
320,192,5930,1,0,0:0:0:0:
448,192,5930,1,0,0:0:0:0:
448,192,6031,1,0,0:0:0:0:
64,192,6031,1,0,0:0:0:0:
192,192,6132,1,0,0:0:0:0:
320,192,6199,1,0,0:0:0:0:
64,192,6232,1,0,0:0:0:0:
192,192,6333,1,0,0:0:0:0:
320,192,6333,1,0,0:0:0:0:
448,192,6333,1,0,0:0:0:0:
64,192,6333,1,0,0:0:0:0:
320,192,6434,1,0,0:0:0:0:
64,192,6534,1,0,0:0:0:0:
192,192,6534,1,0,0:0:0:0:
448,192,6534,1,0,0:0:0:0:
320,192,6635,1,0,0:0:0:0:
448,192,6736,1,0,0:0:0:0:
320,192,6736,1,0,0:0:0:0:
192,192,6736,1,0,0:0:0:0:
64,192,6736,1,0,0:0:0:0:
192,192,6836,1,0,0:0:0:0:
448,192,6937,1,0,0:0:0:0:
320,192,6937,1,0,0:0:0:0:
448,192,7038,1,0,0:0:0:0:
192,192,7038,1,0,0:0:0:0:
64,192,7139,1,0,0:0:0:0:
320,192,7139,1,0,0:0:0:0:
320,192,7239,1,0,0:0:0:0:
64,192,7239,1,0,0:0:0:0:
192,192,7340,1,0,0:0:0:0:
320,192,7340,1,0,0:0:0:0:
448,192,7441,1,0,0:0:0:0:
448,192,7541,1,0,0:0:0:0:
320,192,7541,1,0,0:0:0:0:
192,192,7541,1,0,0:0:0:0:
64,192,7541,1,0,0:0:0:0:
64,192,7642,1,0,0:0:0:0:
320,192,7743,1,0,0:0:0:0:
192,192,7743,1,0,0:0:0:0:
448,192,7743,1,0,0:0:0:0:
448,192,7843,1,0,0:0:0:0:
64,192,7843,1,0,0:0:0:0:
320,192,7944,1,0,0:0:0:0:
192,192,7944,1,0,0:0:0:0:
64,192,8045,1,0,0:0:0:0:
448,192,8145,1,0,0:0:0:0:
320,192,8145,1,0,0:0:0:0:
192,192,8145,1,0,0:0:0:0:
64,192,8145,1,0,0:0:0:0:
448,192,8246,1,0,0:0:0:0:
192,192,8347,1,0,0:0:0:0:
64,192,8347,1,0,0:0:0:0:
320,192,8447,1,0,0:0:0:0:
448,192,8548,1,0,0:0:0:0:
320,192,8548,1,0,0:0:0:0:
192,192,8548,1,0,0:0:0:0:
64,192,8548,1,0,0:0:0:0:
192,192,8649,1,0,0:0:0:0:
448,192,8749,1,0,0:0:0:0:
320,192,8749,1,0,0:0:0:0:
64,192,8749,1,0,0:0:0:0:
448,192,8850,1,0,0:0:0:0:
192,192,8850,1,0,0:0:0:0:
320,192,8951,1,0,0:0:0:0:
192,192,8951,1,0,0:0:0:0:
64,192,8951,1,0,0:0:0:0:
448,192,9051,1,0,0:0:0:0:
64,192,9152,1,0,0:0:0:0:
192,192,9152,1,0,0:0:0:0:
320,192,9152,1,0,0:0:0:0:
448,192,9152,1,0,0:0:0:0:
192,192,9253,1,0,0:0:0:0:
448,192,9353,1,0,0:0:0:0:
320,192,9353,1,0,0:0:0:0:
64,192,9353,1,0,0:0:0:0:
192,192,9454,1,0,0:0:0:0:
448,192,9555,1,0,0:0:0:0:
320,192,9555,1,0,0:0:0:0:
192,192,9555,1,0,0:0:0:0:
64,192,9555,1,0,0:0:0:0:
320,192,9655,1,0,0:0:0:0:
64,192,9756,1,0,0:0:0:0:
192,192,9756,1,0,0:0:0:0:
64,192,9857,1,0,0:0:0:0:
448,192,9857,1,0,0:0:0:0:
320,192,9957,1,0,0:0:0:0:
192,192,9957,1,0,0:0:0:0:
64,192,10058,1,0,0:0:0:0:
448,192,10159,1,0,0:0:0:0:
320,192,10159,1,0,0:0:0:0:
192,192,10159,1,0,0:0:0:0:
64,192,10159,1,0,0:0:0:0:
448,192,10259,1,0,0:0:0:0:
64,192,10360,1,0,0:0:0:0:
320,192,10360,1,0,0:0:0:0:
192,192,10360,1,0,0:0:0:0:
448,192,10461,1,0,0:0:0:0:
192,192,10461,1,0,0:0:0:0:
320,192,10561,1,0,0:0:0:0:
64,192,10561,1,0,0:0:0:0:
192,192,10662,1,0,0:0:0:0:
320,192,10662,1,0,0:0:0:0:
448,192,10662,1,0,0:0:0:0:
64,192,10763,1,0,0:0:0:0:
192,192,10863,1,0,0:0:0:0:
320,192,10863,1,0,0:0:0:0:
448,192,10863,1,0,0:0:0:0:
320,192,10964,1,0,0:0:0:0:
64,192,11065,1,0,0:0:0:0:
192,192,11065,1,0,0:0:0:0:
192,192,11165,1,0,0:0:0:0:
320,192,11165,1,0,0:0:0:0:
448,192,11266,1,0,0:0:0:0:
448,192,11367,1,0,0:0:0:0:
320,192,11367,1,0,0:0:0:0:
192,192,11367,1,0,0:0:0:0:
64,192,11367,1,0,0:0:0:0:
192,192,11467,1,0,0:0:0:0:
448,192,11568,1,0,0:0:0:0:
320,192,11568,1,0,0:0:0:0:
448,192,11669,1,0,0:0:0:0:
64,192,11669,1,0,0:0:0:0:
192,192,11769,1,0,0:0:0:0:
320,192,11769,1,0,0:0:0:0:
192,192,11870,1,0,0:0:0:0:
448,192,11971,1,0,0:0:0:0:
64,192,11971,1,0,0:0:0:0:
320,192,12071,1,0,0:0:0:0:
448,192,12071,1,0,0:0:0:0:
192,192,12172,1,0,0:0:0:0:
64,192,12172,1,0,0:0:0:0:
64,192,12273,1,0,0:0:0:0:
320,192,12273,1,0,0:0:0:0:
192,192,12373,1,0,0:0:0:0:
320,192,12373,1,0,0:0:0:0:
448,192,12373,1,0,0:0:0:0:
448,192,12474,1,0,0:0:0:0:
64,192,12474,1,0,0:0:0:0:
64,192,12575,1,0,0:0:0:0:
320,192,12575,1,0,0:0:0:0:
192,192,12675,1,0,0:0:0:0:
320,192,12675,1,0,0:0:0:0:
64,192,12776,1,0,0:0:0:0:
448,192,12776,1,0,0:0:0:0:
448,192,12877,1,0,0:0:0:0:
320,192,12877,1,0,0:0:0:0:
192,192,12877,1,0,0:0:0:0:
192,192,12977,1,0,0:0:0:0:
320,192,13078,1,0,0:0:0:0:
448,192,13179,1,0,0:0:0:0:
320,192,13179,1,0,0:0:0:0:
192,192,13179,1,0,0:0:0:0:
64,192,13179,1,0,0:0:0:0:
64,192,13279,1,0,0:0:0:0:
320,192,13380,1,0,0:0:0:0:
448,192,13380,1,0,0:0:0:0:
192,192,13481,1,0,0:0:0:0:
448,192,13581,1,0,0:0:0:0:
320,192,13581,1,0,0:0:0:0:
192,192,13581,1,0,0:0:0:0:
64,192,13581,1,0,0:0:0:0:
448,192,13682,1,0,0:0:0:0:
64,192,13783,1,0,0:0:0:0:
320,192,13783,1,0,0:0:0:0:
192,192,13883,1,0,0:0:0:0:
448,192,13984,1,0,0:0:0:0:
320,192,13984,1,0,0:0:0:0:
192,192,13984,1,0,0:0:0:0:
64,192,13984,1,0,0:0:0:0:
448,192,14085,1,0,0:0:0:0:
320,192,14185,1,0,0:0:0:0:
192,192,14185,1,0,0:0:0:0:
64,192,14185,1,0,0:0:0:0:
448,192,14286,1,0,0:0:0:0:
192,192,14387,1,0,0:0:0:0:
320,192,14387,1,0,0:0:0:0:
448,192,14387,1,0,0:0:0:0:
64,192,14387,1,0,0:0:0:0:
192,192,14487,1,0,0:0:0:0:
64,192,14588,1,0,0:0:0:0:
448,192,14588,1,0,0:0:0:0:
320,192,14588,1,0,0:0:0:0:
192,192,14689,1,0,0:0:0:0:
448,192,14790,1,0,0:0:0:0:
320,192,14790,1,0,0:0:0:0:
192,192,14790,1,0,0:0:0:0:
64,192,14790,1,0,0:0:0:0:
64,192,14890,1,0,0:0:0:0:
192,192,14991,1,0,0:0:0:0:
320,192,14991,1,0,0:0:0:0:
448,192,14991,1,0,0:0:0:0:
64,192,15092,1,0,0:0:0:0:
448,192,15192,1,0,0:0:0:0:
320,192,15192,1,0,0:0:0:0:
192,192,15192,1,0,0:0:0:0:
64,192,15192,1,0,0:0:0:0:
320,192,15293,1,0,0:0:0:0:
192,192,15394,1,0,0:0:0:0:
64,192,15394,1,0,0:0:0:0:
448,192,15394,1,0,0:0:0:0:
320,192,15494,1,0,0:0:0:0:
448,192,15595,1,0,0:0:0:0:
320,192,15595,1,0,0:0:0:0:
192,192,15595,1,0,0:0:0:0:
64,192,15595,1,0,0:0:0:0:
448,192,15696,1,0,0:0:0:0:
64,192,15796,1,0,0:0:0:0:
320,192,15796,1,0,0:0:0:0:
64,192,15897,1,0,0:0:0:0:
192,192,15897,1,0,0:0:0:0:
448,192,15897,1,0,0:0:0:0:
320,192,15998,1,0,0:0:0:0:
192,192,16098,1,0,0:0:0:0:
448,192,16098,1,0,0:0:0:0:
448,192,16199,1,0,0:0:0:0:
320,192,16199,1,0,0:0:0:0:
192,192,16199,1,0,0:0:0:0:
64,192,16199,1,0,0:0:0:0:
448,192,16702,1,0,0:0:0:0:
320,192,16753,1,0,0:0:0:0:
192,192,16803,1,0,0:0:0:0:
64,192,16803,1,0,0:0:0:0:
448,192,17206,1,0,0:0:0:0:
320,192,17206,1,0,0:0:0:0:
192,192,17206,1,0,0:0:0:0:
64,192,17206,1,0,0:0:0:0:
448,192,17306,1,0,0:0:0:0:
192,192,17306,1,0,0:0:0:0:
320,192,17407,1,0,0:0:0:0:
64,192,17407,1,0,0:0:0:0:
192,192,17508,1,0,0:0:0:0:
448,192,17608,1,0,0:0:0:0:
320,192,17608,1,0,0:0:0:0:
192,192,17608,1,0,0:0:0:0:
64,192,17608,1,0,0:0:0:0:
448,192,17709,1,0,0:0:0:0:
320,192,17810,1,0,0:0:0:0:
192,192,17810,1,0,0:0:0:0:
320,192,17910,1,0,0:0:0:0:
448,192,17910,1,0,0:0:0:0:
64,192,18011,1,0,0:0:0:0:
192,192,18011,1,0,0:0:0:0:
448,192,18011,1,0,0:0:0:0:
64,192,18112,1,0,0:0:0:0:
448,192,18212,1,0,0:0:0:0:
320,192,18212,1,0,0:0:0:0:
64,192,18313,1,0,0:0:0:0:
320,192,18414,1,0,0:0:0:0:
448,192,18414,1,0,0:0:0:0:
192,192,18414,1,0,0:0:0:0:
64,192,18414,1,0,0:0:0:0:
192,192,18514,1,0,0:0:0:0:
448,192,18615,1,0,0:0:0:0:
320,192,18615,1,0,0:0:0:0:
448,192,18716,1,0,0:0:0:0:
64,192,18816,1,0,0:0:0:0:
192,192,18816,1,0,0:0:0:0:
320,192,18816,1,0,0:0:0:0:
64,192,18917,1,0,0:0:0:0:
448,192,18917,1,0,0:0:0:0:
192,192,19018,1,0,0:0:0:0:
320,192,19018,1,0,0:0:0:0:
448,192,19018,1,0,0:0:0:0:
64,192,19118,1,0,0:0:0:0:
64,192,19219,1,0,0:0:0:0:
192,192,19219,1,0,0:0:0:0:
320,192,19219,1,0,0:0:0:0:
448,192,19219,1,0,0:0:0:0:
448,192,19320,1,0,0:0:0:0:
320,192,19420,1,0,0:0:0:0:
192,192,19420,1,0,0:0:0:0:
448,192,19521,1,0,0:0:0:0:
320,192,19622,1,0,0:0:0:0:
448,192,19622,1,0,0:0:0:0:
192,192,19622,1,0,0:0:0:0:
64,192,19622,1,0,0:0:0:0:
64,192,19722,1,0,0:0:0:0:
448,192,19823,1,0,0:0:0:0:
320,192,19924,1,0,0:0:0:0:
64,192,20024,1,0,0:0:0:0:
192,192,20024,1,0,0:0:0:0:
192,192,20226,1,0,0:0:0:0:
64,192,20226,1,0,0:0:0:0:
448,192,20427,1,0,0:0:0:0:
320,192,20427,1,0,0:0:0:0:
192,192,20427,1,0,0:0:0:0:
64,192,20427,1,0,0:0:0:0:
192,192,20528,1,0,0:0:0:0:
448,192,20528,1,0,0:0:0:0:
64,192,20628,1,0,0:0:0:0:
320,192,20628,1,0,0:0:0:0:
192,192,20729,1,0,0:0:0:0:
448,192,20729,1,0,0:0:0:0:
448,192,20830,1,0,0:0:0:0:
64,192,20830,1,0,0:0:0:0:
320,192,20830,1,0,0:0:0:0:
192,192,20930,1,0,0:0:0:0:
320,192,21031,1,0,0:0:0:0:
192,192,21031,1,0,0:0:0:0:
448,192,21132,1,0,0:0:0:0:
64,192,21132,1,0,0:0:0:0:
448,192,21232,1,0,0:0:0:0:
64,192,21232,1,0,0:0:0:0:
192,192,21232,1,0,0:0:0:0:
320,192,21333,1,0,0:0:0:0:
192,192,21434,1,0,0:0:0:0:
320,192,21434,1,0,0:0:0:0:
448,192,21534,1,0,0:0:0:0:
448,192,21635,1,0,0:0:0:0:
320,192,21635,1,0,0:0:0:0:
192,192,21635,1,0,0:0:0:0:
64,192,21635,1,0,0:0:0:0:
64,192,21736,1,0,0:0:0:0:
448,192,21836,1,0,0:0:0:0:
320,192,21836,1,0,0:0:0:0:
192,192,21937,1,0,0:0:0:0:
64,192,22038,1,0,0:0:0:0:
192,192,22038,1,0,0:0:0:0:
320,192,22038,1,0,0:0:0:0:
448,192,22038,1,0,0:0:0:0:
448,192,22441,128,0,22474:0:0:0:0:
320,192,22642,1,0,0:0:0:0:
192,192,22743,1,0,0:0:0:0:
448,192,22843,1,0,0:0:0:0:
320,192,22843,1,0,0:0:0:0:
448,192,22944,1,0,0:0:0:0:
64,192,23045,1,0,0:0:0:0:
192,192,23045,1,0,0:0:0:0:
64,192,23145,1,0,0:0:0:0:
320,192,23246,1,0,0:0:0:0:
448,192,23246,1,0,0:0:0:0:
448,192,23347,1,0,0:0:0:0:
64,192,23447,1,0,0:0:0:0:
192,192,23447,1,0,0:0:0:0:
64,192,23548,1,0,0:0:0:0:
320,192,23548,1,0,0:0:0:0:
448,192,23649,1,0,0:0:0:0:
320,192,23649,1,0,0:0:0:0:
192,192,23649,1,0,0:0:0:0:
64,192,23649,1,0,0:0:0:0:
448,192,24051,1,0,0:0:0:0:
320,192,24051,1,0,0:0:0:0:
192,192,24152,1,0,0:0:0:0:
64,192,24253,1,0,0:0:0:0:
320,192,24253,1,0,0:0:0:0:
448,192,24353,1,0,0:0:0:0:
192,192,24454,1,0,0:0:0:0:
320,192,24454,1,0,0:0:0:0:
64,192,24555,1,0,0:0:0:0:
448,192,24555,1,0,0:0:0:0:
320,192,24655,1,0,0:0:0:0:
192,192,24655,1,0,0:0:0:0:
448,192,24756,1,0,0:0:0:0:
320,192,24857,1,0,0:0:0:0:
192,192,24857,1,0,0:0:0:0:
448,192,24957,1,0,0:0:0:0:
64,192,24957,1,0,0:0:0:0:
192,192,25058,1,0,0:0:0:0:
320,192,25159,1,0,0:0:0:0:
64,192,25159,1,0,0:0:0:0:
448,192,25259,1,0,0:0:0:0:
192,192,25259,1,0,0:0:0:0:
64,192,25259,1,0,0:0:0:0:
320,192,25259,1,0,0:0:0:0:
320,192,25662,1,0,0:0:0:0:
192,192,25662,1,0,0:0:0:0:
320,192,25763,1,0,0:0:0:0:
192,192,25863,1,0,0:0:0:0:
64,192,25863,1,0,0:0:0:0:
64,192,25964,1,0,0:0:0:0:
448,192,26065,1,0,0:0:0:0:
320,192,26165,1,0,0:0:0:0:
192,192,26266,1,0,0:0:0:0:
448,192,26266,1,0,0:0:0:0:
64,192,26367,1,0,0:0:0:0:
320,192,26367,1,0,0:0:0:0:
192,192,26467,1,0,0:0:0:0:
448,192,26518,1,0,0:0:0:0:
64,192,26568,1,0,0:0:0:0:
192,192,26618,1,0,0:0:0:0:
320,192,26669,1,0,0:0:0:0:
448,192,26719,1,0,0:0:0:0:
64,192,26769,1,0,0:0:0:0:
320,192,26870,1,0,0:0:0:0:
448,192,26870,1,0,0:0:0:0:
192,192,26870,1,0,0:0:0:0:
64,192,26870,1,0,0:0:0:0:
64,192,26971,1,0,0:0:0:0:
320,192,26971,1,0,0:0:0:0:
192,192,27071,1,0,0:0:0:0:
448,192,27071,1,0,0:0:0:0:
64,192,27172,1,0,0:0:0:0:
320,192,27172,1,0,0:0:0:0:
192,192,27273,1,0,0:0:0:0:
320,192,27273,1,0,0:0:0:0:
64,192,27273,1,0,0:0:0:0:
448,192,27373,1,0,0:0:0:0:
320,192,27474,1,0,0:0:0:0:
448,192,27474,1,0,0:0:0:0:
64,192,27575,1,0,0:0:0:0:
320,192,27675,1,0,0:0:0:0:
64,192,27675,1,0,0:0:0:0:
192,192,27675,1,0,0:0:0:0:
320,192,27776,1,0,0:0:0:0:
192,192,27877,1,0,0:0:0:0:
64,192,27877,1,0,0:0:0:0:
448,192,27977,1,0,0:0:0:0:
64,192,28078,1,0,0:0:0:0:
192,192,28078,1,0,0:0:0:0:
320,192,28078,1,0,0:0:0:0:
448,192,28078,1,0,0:0:0:0:
192,192,28179,1,0,0:0:0:0:
448,192,28279,1,0,0:0:0:0:
320,192,28279,1,0,0:0:0:0:
320,192,28380,1,0,0:0:0:0:
64,192,28380,1,0,0:0:0:0:
448,192,28481,1,0,0:0:0:0:
64,192,28481,1,0,0:0:0:0:
192,192,28481,1,0,0:0:0:0:
192,192,28581,1,0,0:0:0:0:
448,192,28682,1,0,0:0:0:0:
320,192,28682,1,0,0:0:0:0:
64,192,28783,1,0,0:0:0:0:
448,192,28883,1,0,0:0:0:0:
320,192,28883,1,0,0:0:0:0:
192,192,28883,1,0,0:0:0:0:
64,192,28883,1,0,0:0:0:0:
448,192,28984,1,0,0:0:0:0:
192,192,29085,1,0,0:0:0:0:
64,192,29085,1,0,0:0:0:0:
320,192,29185,1,0,0:0:0:0:
448,192,29286,1,0,0:0:0:0:
320,192,29286,1,0,0:0:0:0:
192,192,29286,1,0,0:0:0:0:
64,192,29286,1,0,0:0:0:0:
64,192,29387,1,0,0:0:0:0:
320,192,29487,1,0,0:0:0:0:
192,192,29487,1,0,0:0:0:0:
448,192,29588,1,0,0:0:0:0:
448,192,29689,1,0,0:0:0:0:
320,192,29689,1,0,0:0:0:0:
192,192,29689,1,0,0:0:0:0:
64,192,29689,1,0,0:0:0:0:
64,192,29790,1,0,0:0:0:0:
320,192,29840,1,0,0:0:0:0:
192,192,29890,1,0,0:0:0:0:
64,192,29941,1,0,0:0:0:0:
448,192,29991,1,0,0:0:0:0:
320,192,29991,1,0,0:0:0:0:
320,192,30092,1,0,0:0:0:0:
448,192,30092,1,0,0:0:0:0:
192,192,30092,1,0,0:0:0:0:
64,192,30092,1,0,0:0:0:0:
448,192,30494,1,0,0:0:0:0:
320,192,30494,1,0,0:0:0:0:
192,192,30696,1,0,0:0:0:0:
64,192,30696,1,0,0:0:0:0:
320,192,30897,1,0,0:0:0:0:
448,192,30897,1,0,0:0:0:0:
192,192,30998,1,0,0:0:0:0:
64,192,31098,1,0,0:0:0:0:
192,192,31199,1,0,0:0:0:0:
320,192,31199,1,0,0:0:0:0:
448,192,31300,1,0,0:0:0:0:
192,192,31400,1,0,0:0:0:0:
448,192,31501,1,0,0:0:0:0:
320,192,31501,1,0,0:0:0:0:
64,192,31602,1,0,0:0:0:0:
320,192,31602,1,0,0:0:0:0:
192,192,31702,1,0,0:0:0:0:
64,192,31702,1,0,0:0:0:0:
320,192,31702,1,0,0:0:0:0:
448,192,31702,1,0,0:0:0:0:
320,192,32105,1,0,0:0:0:0:
192,192,32105,1,0,0:0:0:0:
448,192,32306,1,0,0:0:0:0:
64,192,32306,1,0,0:0:0:0:
320,192,32508,1,0,0:0:0:0:
192,192,32508,1,0,0:0:0:0:
64,192,32508,1,0,0:0:0:0:
320,192,32810,1,0,0:0:0:0:
448,192,32810,1,0,0:0:0:0:
64,192,32910,1,0,0:0:0:0:
448,192,32910,1,0,0:0:0:0:
192,192,32961,1,0,0:0:0:0:
320,192,33011,1,0,0:0:0:0:
448,192,33061,1,0,0:0:0:0:
64,192,33112,1,0,0:0:0:0:
192,192,33162,1,0,0:0:0:0:
320,192,33212,1,0,0:0:0:0:
448,192,33263,1,0,0:0:0:0:
64,192,33313,1,0,0:0:0:0:
192,192,33313,1,0,0:0:0:0:
320,192,33313,1,0,0:0:0:0:
64,192,33414,1,0,0:0:0:0:
320,192,33514,1,0,0:0:0:0:
192,192,33514,1,0,0:0:0:0:
448,192,33615,1,0,0:0:0:0:
448,192,33716,1,0,0:0:0:0:
320,192,33716,1,0,0:0:0:0:
192,192,33716,1,0,0:0:0:0:
64,192,33716,1,0,0:0:0:0:
64,192,33816,1,0,0:0:0:0:
448,192,33917,1,0,0:0:0:0:
320,192,33917,1,0,0:0:0:0:
320,192,34018,1,0,0:0:0:0:
192,192,34118,1,0,0:0:0:0:
64,192,34118,1,0,0:0:0:0:
448,192,34118,1,0,0:0:0:0:
64,192,34219,1,0,0:0:0:0:
320,192,34219,1,0,0:0:0:0:
192,192,34320,1,0,0:0:0:0:
448,192,34320,1,0,0:0:0:0:
320,192,34420,1,0,0:0:0:0:
320,192,34521,1,0,0:0:0:0:
448,192,34521,1,0,0:0:0:0:
192,192,34521,1,0,0:0:0:0:
64,192,34521,1,0,0:0:0:0:
64,192,34622,1,0,0:0:0:0:
192,192,34622,1,0,0:0:0:0:
448,192,34672,1,0,0:0:0:0:
320,192,34722,1,0,0:0:0:0:
192,192,34773,1,0,0:0:0:0:
64,192,34823,1,0,0:0:0:0:
448,192,34924,1,0,0:0:0:0:
320,192,34924,1,0,0:0:0:0:
192,192,34924,1,0,0:0:0:0:
448,192,35024,1,0,0:0:0:0:
192,192,35125,1,0,0:0:0:0:
64,192,35125,1,0,0:0:0:0:
64,192,35226,1,0,0:0:0:0:
320,192,35326,1,0,0:0:0:0:
448,192,35326,1,0,0:0:0:0:
192,192,35326,1,0,0:0:0:0:
320,192,35528,1,0,0:0:0:0:
448,192,35528,1,0,0:0:0:0:
192,192,35528,1,0,0:0:0:0:
192,192,35628,1,0,0:0:0:0:
448,192,35729,1,0,0:0:0:0:
320,192,35729,1,0,0:0:0:0:
448,192,35830,1,0,0:0:0:0:
320,192,35930,1,0,0:0:0:0:
192,192,35930,1,0,0:0:0:0:
64,192,35930,1,0,0:0:0:0:
448,192,36132,1,0,0:0:0:0:
320,192,36132,1,0,0:0:0:0:
192,192,36132,1,0,0:0:0:0:
64,192,36132,1,0,0:0:0:0:
64,192,36232,1,0,0:0:0:0:
448,192,36333,1,0,0:0:0:0:
320,192,36333,1,0,0:0:0:0:
192,192,36333,1,0,0:0:0:0:
448,192,36434,1,0,0:0:0:0:
192,192,36534,1,0,0:0:0:0:
320,192,36534,1,0,0:0:0:0:
64,192,36534,1,0,0:0:0:0:
64,192,36635,1,0,0:0:0:0:
448,192,36736,1,0,0:0:0:0:
320,192,36736,1,0,0:0:0:0:
192,192,36736,1,0,0:0:0:0:
64,192,36836,1,0,0:0:0:0:
448,192,36937,1,0,0:0:0:0:
320,192,36937,1,0,0:0:0:0:
192,192,36937,1,0,0:0:0:0:
64,192,36937,1,0,0:0:0:0:
448,192,37038,1,0,0:0:0:0:
320,192,37139,1,0,0:0:0:0:
192,192,37139,1,0,0:0:0:0:
64,192,37239,1,0,0:0:0:0:
320,192,37239,1,0,0:0:0:0:
192,192,37340,1,0,0:0:0:0:
64,192,37340,1,0,0:0:0:0:
448,192,37340,1,0,0:0:0:0:
448,192,37441,1,0,0:0:0:0:
192,192,37541,1,0,0:0:0:0:
64,192,37541,1,0,0:0:0:0:
320,192,37642,1,0,0:0:0:0:
448,192,37743,1,0,0:0:0:0:
320,192,37743,1,0,0:0:0:0:
192,192,37743,1,0,0:0:0:0:
64,192,37743,1,0,0:0:0:0:
64,192,37843,1,0,0:0:0:0:
448,192,37944,1,0,0:0:0:0:
320,192,37944,1,0,0:0:0:0:
192,192,38045,1,0,0:0:0:0:
448,192,38145,1,0,0:0:0:0:
320,192,38145,1,0,0:0:0:0:
192,192,38145,1,0,0:0:0:0:
64,192,38145,1,0,0:0:0:0:
448,192,38246,1,0,0:0:0:0:
64,192,38347,1,0,0:0:0:0:
192,192,38347,1,0,0:0:0:0:
320,192,38414,1,0,0:0:0:0:
448,192,38447,1,0,0:0:0:0:
64,192,38548,1,0,0:0:0:0:
192,192,38548,1,0,0:0:0:0:
320,192,38548,1,0,0:0:0:0:
448,192,38548,1,0,0:0:0:0:
192,192,38649,1,0,0:0:0:0:
448,192,38749,1,0,0:0:0:0:
320,192,38749,1,0,0:0:0:0:
448,192,38850,1,0,0:0:0:0:
320,192,38951,1,0,0:0:0:0:
192,192,38951,1,0,0:0:0:0:
64,192,38951,1,0,0:0:0:0:
320,192,39353,1,0,0:0:0:0:
448,192,39353,1,0,0:0:0:0:
192,192,39353,1,0,0:0:0:0:
64,192,39555,128,0,39655:0:0:0:0:
448,192,39756,1,0,0:0:0:0:
320,192,39756,1,0,0:0:0:0:
64,192,39756,1,0,0:0:0:0:
192,192,39806,1,0,0:0:0:0:
320,192,39857,1,0,0:0:0:0:
64,192,39907,1,0,0:0:0:0:
448,192,39957,1,0,0:0:0:0:
320,192,40008,1,0,0:0:0:0:
192,192,40058,1,0,0:0:0:0:
64,192,40108,1,0,0:0:0:0:
448,192,40159,1,0,0:0:0:0:
320,192,40159,1,0,0:0:0:0:
192,192,40159,1,0,0:0:0:0:
448,192,40561,1,0,0:0:0:0:
320,192,40561,1,0,0:0:0:0:
320,192,40662,1,0,0:0:0:0:
192,192,40662,1,0,0:0:0:0:
192,192,40763,1,0,0:0:0:0:
64,192,40763,1,0,0:0:0:0:
448,192,40863,1,0,0:0:0:0:
448,192,40964,1,0,0:0:0:0:
320,192,40964,1,0,0:0:0:0:
192,192,40964,1,0,0:0:0:0:
64,192,40964,1,0,0:0:0:0:
64,192,41065,1,0,0:0:0:0:
448,192,41165,1,0,0:0:0:0:
320,192,41165,1,0,0:0:0:0:
192,192,41266,1,0,0:0:0:0:
448,192,41367,1,0,0:0:0:0:
320,192,41367,1,0,0:0:0:0:
64,192,41367,1,0,0:0:0:0:
448,192,41467,1,0,0:0:0:0:
192,192,41568,1,0,0:0:0:0:
64,192,41568,1,0,0:0:0:0:
320,192,41669,1,0,0:0:0:0:
64,192,41769,1,0,0:0:0:0:
192,192,41769,1,0,0:0:0:0:
320,192,41769,1,0,0:0:0:0:
448,192,41769,1,0,0:0:0:0:
64,192,41870,1,0,0:0:0:0:
320,192,41971,1,0,0:0:0:0:
192,192,41971,1,0,0:0:0:0:
192,192,42071,1,0,0:0:0:0:
448,192,42071,1,0,0:0:0:0:
448,192,42172,1,0,0:0:0:0:
320,192,42172,1,0,0:0:0:0:
64,192,42172,1,0,0:0:0:0:
320,192,42273,1,0,0:0:0:0:
64,192,42373,1,0,0:0:0:0:
192,192,42373,1,0,0:0:0:0:
448,192,42474,1,0,0:0:0:0:
448,192,42575,1,0,0:0:0:0:
320,192,42575,1,0,0:0:0:0:
192,192,42575,1,0,0:0:0:0:
64,192,42575,1,0,0:0:0:0:
64,192,42675,1,0,0:0:0:0:
448,192,42726,1,0,0:0:0:0:
320,192,42776,1,0,0:0:0:0:
192,192,42826,1,0,0:0:0:0:
64,192,42877,1,0,0:0:0:0:
448,192,42877,1,0,0:0:0:0:
64,192,42977,1,0,0:0:0:0:
192,192,42977,1,0,0:0:0:0:
320,192,42977,1,0,0:0:0:0:
448,192,42977,1,0,0:0:0:0:
320,192,43380,1,0,0:0:0:0:
448,192,43380,1,0,0:0:0:0:
192,192,43380,1,0,0:0:0:0:
64,192,43380,1,0,0:0:0:0:
448,192,43481,1,0,0:0:0:0:
320,192,43581,1,0,0:0:0:0:
192,192,43581,1,0,0:0:0:0:
192,192,43682,1,0,0:0:0:0:
448,192,43783,1,0,0:0:0:0:
320,192,43783,1,0,0:0:0:0:
192,192,43883,1,0,0:0:0:0:
320,192,43883,1,0,0:0:0:0:
192,192,43984,1,0,0:0:0:0:
64,192,43984,1,0,0:0:0:0:
320,192,44085,1,0,0:0:0:0:
448,192,44185,1,0,0:0:0:0:
320,192,44185,1,0,0:0:0:0:
192,192,44185,1,0,0:0:0:0:
64,192,44185,1,0,0:0:0:0:
64,192,44286,1,0,0:0:0:0:
448,192,44387,1,0,0:0:0:0:
320,192,44387,1,0,0:0:0:0:
192,192,44487,1,0,0:0:0:0:
448,192,44588,1,0,0:0:0:0:
320,192,44588,1,0,0:0:0:0:
192,192,44588,1,0,0:0:0:0:
64,192,44588,1,0,0:0:0:0:
448,192,44689,1,0,0:0:0:0:
64,192,44790,1,0,0:0:0:0:
192,192,44790,1,0,0:0:0:0:
64,192,44890,1,0,0:0:0:0:
320,192,44991,1,0,0:0:0:0:
192,192,44991,1,0,0:0:0:0:
448,192,44991,1,0,0:0:0:0:
448,192,45092,1,0,0:0:0:0:
192,192,45092,1,0,0:0:0:0:
320,192,45192,1,0,0:0:0:0:
192,192,45293,1,0,0:0:0:0:
64,192,45293,1,0,0:0:0:0:
64,192,45394,1,0,0:0:0:0:
192,192,45394,1,0,0:0:0:0:
320,192,45394,1,0,0:0:0:0:
448,192,45394,1,0,0:0:0:0:
448,192,45494,1,0,0:0:0:0:
320,192,45494,1,0,0:0:0:0:
192,192,45595,1,0,0:0:0:0:
64,192,45595,1,0,0:0:0:0:
448,192,45696,1,0,0:0:0:0:
320,192,45696,1,0,0:0:0:0:
192,192,45796,1,0,0:0:0:0:
320,192,45796,1,0,0:0:0:0:
448,192,45796,1,0,0:0:0:0:
64,192,45796,1,0,0:0:0:0:
448,192,46199,1,0,0:0:0:0:
320,192,46199,1,0,0:0:0:0:
192,192,46199,1,0,0:0:0:0:
64,192,46199,1,0,0:0:0:0:
64,192,46400,1,0,0:0:0:0:
192,192,46400,1,0,0:0:0:0:
448,192,46501,1,0,0:0:0:0:
320,192,46501,1,0,0:0:0:0:
192,192,46501,1,0,0:0:0:0:
448,192,46702,1,0,0:0:0:0:
192,192,46702,1,0,0:0:0:0:
448,192,46803,1,0,0:0:0:0:
320,192,46803,1,0,0:0:0:0:
192,192,46803,1,0,0:0:0:0:
64,192,46803,1,0,0:0:0:0:
448,192,47206,1,0,0:0:0:0:
64,192,47206,1,0,0:0:0:0:
448,192,47306,1,0,0:0:0:0:
192,192,47306,1,0,0:0:0:0:
448,192,47407,1,0,0:0:0:0:
320,192,47407,1,0,0:0:0:0:
64,192,47407,1,0,0:0:0:0:
192,192,47508,1,0,0:0:0:0:
320,192,47608,1,0,0:0:0:0:
448,192,47608,1,0,0:0:0:0:
64,192,47608,1,0,0:0:0:0:
192,192,47709,1,0,0:0:0:0:
192,192,47810,1,0,0:0:0:0:
320,192,47810,1,0,0:0:0:0:
448,192,47810,1,0,0:0:0:0:
64,192,47810,1,0,0:0:0:0:
448,192,47910,1,0,0:0:0:0:
320,192,48011,1,0,0:0:0:0:
192,192,48011,1,0,0:0:0:0:
64,192,48112,1,0,0:0:0:0:
64,192,48212,1,0,0:0:0:0:
192,192,48212,1,0,0:0:0:0:
320,192,48212,1,0,0:0:0:0:
448,192,48212,1,0,0:0:0:0:
448,192,48313,1,0,0:0:0:0:
320,192,48414,1,0,0:0:0:0:
192,192,48414,1,0,0:0:0:0:
64,192,48414,1,0,0:0:0:0:
448,192,48716,1,0,0:0:0:0:
64,192,48716,1,0,0:0:0:0:
448,192,48816,1,0,0:0:0:0:
192,192,48816,1,0,0:0:0:0:
448,192,48917,1,0,0:0:0:0:
320,192,48917,1,0,0:0:0:0:
320,192,49018,1,0,0:0:0:0:
192,192,49018,1,0,0:0:0:0:
64,192,49018,1,0,0:0:0:0:
64,192,49118,1,0,0:0:0:0:
448,192,49219,1,0,0:0:0:0:
192,192,49320,1,0,0:0:0:0:
320,192,49320,1,0,0:0:0:0:
448,192,49320,1,0,0:0:0:0:
64,192,49420,128,0,49521:0:0:0:0:
448,192,49622,1,0,0:0:0:0:
320,192,49622,1,0,0:0:0:0:
192,192,49823,1,0,0:0:0:0:
64,192,49823,1,0,0:0:0:0:
320,192,50024,1,0,0:0:0:0:
448,192,50024,1,0,0:0:0:0:
192,192,50226,1,0,0:0:0:0:
64,192,50226,1,0,0:0:0:0:
320,192,50326,1,0,0:0:0:0:
448,192,50427,1,0,0:0:0:0:
64,192,50528,1,0,0:0:0:0:
192,192,50528,1,0,0:0:0:0:
448,192,50830,1,0,0:0:0:0:
320,192,50830,1,0,0:0:0:0:
64,192,51031,1,0,0:0:0:0:
192,192,51031,1,0,0:0:0:0:
320,192,51031,1,0,0:0:0:0:
320,192,51232,1,0,0:0:0:0:
448,192,51232,1,0,0:0:0:0:
192,192,51232,1,0,0:0:0:0:
192,192,51434,1,0,0:0:0:0:
448,192,51434,1,0,0:0:0:0:
64,192,51434,1,0,0:0:0:0:
320,192,51635,1,0,0:0:0:0:
192,192,51635,1,0,0:0:0:0:
64,192,51635,1,0,0:0:0:0:
448,192,51836,1,0,0:0:0:0:
320,192,51836,1,0,0:0:0:0:
64,192,51836,1,0,0:0:0:0:
320,192,52038,1,0,0:0:0:0:
448,192,52038,1,0,0:0:0:0:
192,192,52038,1,0,0:0:0:0:
64,192,52239,1,0,0:0:0:0:
192,192,52239,1,0,0:0:0:0:
320,192,52239,1,0,0:0:0:0:
320,192,52441,1,0,0:0:0:0:
448,192,52441,1,0,0:0:0:0:
192,192,52441,1,0,0:0:0:0:
448,192,52541,1,0,0:0:0:0:
64,192,52541,1,0,0:0:0:0:
320,192,52642,1,0,0:0:0:0:
448,192,52642,1,0,0:0:0:0:
192,192,52642,1,0,0:0:0:0:
64,192,52642,1,0,0:0:0:0:
448,192,53045,1,0,0:0:0:0:
320,192,53045,1,0,0:0:0:0:
192,192,53045,1,0,0:0:0:0:
64,192,53045,1,0,0:0:0:0:
448,192,53447,1,0,0:0:0:0:
320,192,53447,1,0,0:0:0:0:
192,192,53447,1,0,0:0:0:0:
64,192,53447,1,0,0:0:0:0:
448,192,53649,1,0,0:0:0:0:
320,192,53649,1,0,0:0:0:0:
64,192,53749,1,0,0:0:0:0:
192,192,53850,1,0,0:0:0:0:
320,192,53850,1,0,0:0:0:0:
64,192,53850,1,0,0:0:0:0:
320,192,53951,1,0,0:0:0:0:
64,192,54051,1,0,0:0:0:0:
192,192,54051,1,0,0:0:0:0:
64,192,54152,1,0,0:0:0:0:
192,192,54253,1,0,0:0:0:0:
448,192,54253,1,0,0:0:0:0:
320,192,54253,1,0,0:0:0:0:
448,192,54353,1,0,0:0:0:0:
192,192,54454,1,0,0:0:0:0:
64,192,54454,1,0,0:0:0:0:
320,192,54555,1,0,0:0:0:0:
64,192,54655,1,0,0:0:0:0:
192,192,54655,1,0,0:0:0:0:
320,192,54655,1,0,0:0:0:0:
448,192,54655,1,0,0:0:0:0:
64,192,54756,1,0,0:0:0:0:
192,192,54857,1,0,0:0:0:0:
320,192,54857,1,0,0:0:0:0:
448,192,54957,1,0,0:0:0:0:
64,192,54957,1,0,0:0:0:0:
320,192,55058,1,0,0:0:0:0:
192,192,55058,1,0,0:0:0:0:
64,192,55058,1,0,0:0:0:0:
320,192,55159,1,0,0:0:0:0:
192,192,55259,1,0,0:0:0:0:
448,192,55259,1,0,0:0:0:0:
64,192,55360,1,0,0:0:0:0:
64,192,55461,1,0,0:0:0:0:
192,192,55461,1,0,0:0:0:0:
320,192,55461,1,0,0:0:0:0:
448,192,55461,1,0,0:0:0:0:
448,192,55561,1,0,0:0:0:0:
320,192,55662,1,0,0:0:0:0:
64,192,55662,1,0,0:0:0:0:
192,192,55763,1,0,0:0:0:0:
320,192,55863,1,0,0:0:0:0:
448,192,55863,1,0,0:0:0:0:
64,192,55863,1,0,0:0:0:0:
192,192,55863,1,0,0:0:0:0:
320,192,55964,1,0,0:0:0:0:
64,192,56065,1,0,0:0:0:0:
448,192,56065,1,0,0:0:0:0:
192,192,56165,1,0,0:0:0:0:
64,192,56266,1,0,0:0:0:0:
192,192,56266,1,0,0:0:0:0:
320,192,56266,1,0,0:0:0:0:
448,192,56266,1,0,0:0:0:0:
320,192,56367,1,0,0:0:0:0:
64,192,56467,1,0,0:0:0:0:
192,192,56467,1,0,0:0:0:0:
64,192,56568,1,0,0:0:0:0:
448,192,56669,1,0,0:0:0:0:
320,192,56669,1,0,0:0:0:0:
192,192,56669,1,0,0:0:0:0:
448,192,56769,1,0,0:0:0:0:
192,192,56870,1,0,0:0:0:0:
64,192,56870,1,0,0:0:0:0:
320,192,56971,1,0,0:0:0:0:
448,192,57071,1,0,0:0:0:0:
320,192,57071,1,0,0:0:0:0:
192,192,57071,1,0,0:0:0:0:
64,192,57071,1,0,0:0:0:0:
192,192,57172,1,0,0:0:0:0:
448,192,57273,1,0,0:0:0:0:
64,192,57273,1,0,0:0:0:0:
320,192,57373,1,0,0:0:0:0:
448,192,57474,1,0,0:0:0:0:
320,192,57474,1,0,0:0:0:0:
192,192,57474,1,0,0:0:0:0:
64,192,57474,1,0,0:0:0:0:
448,192,57575,1,0,0:0:0:0:
64,192,57675,1,0,0:0:0:0:
320,192,57675,1,0,0:0:0:0:
192,192,57675,1,0,0:0:0:0:
64,192,57776,1,0,0:0:0:0:
448,192,57877,1,0,0:0:0:0:
320,192,57877,1,0,0:0:0:0:
192,192,57877,1,0,0:0:0:0:
448,192,57977,1,0,0:0:0:0:
192,192,58078,1,0,0:0:0:0:
64,192,58078,1,0,0:0:0:0:
320,192,58078,1,0,0:0:0:0:
64,192,58179,1,0,0:0:0:0:
192,192,58279,1,0,0:0:0:0:
320,192,58279,1,0,0:0:0:0:
448,192,58279,1,0,0:0:0:0:
448,192,58380,1,0,0:0:0:0:
192,192,58481,1,0,0:0:0:0:
64,192,58481,1,0,0:0:0:0:
320,192,58581,1,0,0:0:0:0:
320,192,58682,1,0,0:0:0:0:
448,192,58682,1,0,0:0:0:0:
192,192,58682,1,0,0:0:0:0:
64,192,58682,1,0,0:0:0:0:
192,192,58783,1,0,0:0:0:0:
320,192,58883,1,0,0:0:0:0:
448,192,58883,1,0,0:0:0:0:
448,192,58984,1,0,0:0:0:0:
64,192,58984,1,0,0:0:0:0:
192,192,58984,1,0,0:0:0:0:
320,192,59085,1,0,0:0:0:0:
192,192,59185,1,0,0:0:0:0:
64,192,59185,1,0,0:0:0:0:
448,192,59286,1,0,0:0:0:0:
320,192,59286,1,0,0:0:0:0:
448,192,59387,1,0,0:0:0:0:
320,192,59387,1,0,0:0:0:0:
320,192,59487,1,0,0:0:0:0:
448,192,59487,1,0,0:0:0:0:
64,192,59538,1,0,0:0:0:0:
192,192,59588,1,0,0:0:0:0:
320,192,59639,1,0,0:0:0:0:
448,192,59689,1,0,0:0:0:0:
64,192,59739,1,0,0:0:0:0:
192,192,59790,1,0,0:0:0:0:
320,192,59890,1,0,0:0:0:0:
448,192,59890,1,0,0:0:0:0:
192,192,59890,1,0,0:0:0:0:
64,192,59890,1,0,0:0:0:0:
448,192,59991,1,0,0:0:0:0:
320,192,60092,1,0,0:0:0:0:
64,192,60092,1,0,0:0:0:0:
192,192,60192,1,0,0:0:0:0:
448,192,60293,1,0,0:0:0:0:
320,192,60293,1,0,0:0:0:0:
192,192,60293,1,0,0:0:0:0:
64,192,60293,1,0,0:0:0:0:
320,192,60394,1,0,0:0:0:0:
448,192,60494,1,0,0:0:0:0:
192,192,60494,1,0,0:0:0:0:
64,192,60595,1,0,0:0:0:0:
320,192,60696,1,0,0:0:0:0:
448,192,60696,1,0,0:0:0:0:
192,192,60696,1,0,0:0:0:0:
64,192,60696,1,0,0:0:0:0:
448,192,60796,1,0,0:0:0:0:
64,192,60897,1,0,0:0:0:0:
192,192,60897,1,0,0:0:0:0:
320,192,60897,1,0,0:0:0:0:
64,192,60998,1,0,0:0:0:0:
448,192,61098,1,0,0:0:0:0:
320,192,61098,1,0,0:0:0:0:
192,192,61098,1,0,0:0:0:0:
448,192,61199,1,0,0:0:0:0:
320,192,61300,1,0,0:0:0:0:
192,192,61300,1,0,0:0:0:0:
64,192,61300,1,0,0:0:0:0:
64,192,61400,1,0,0:0:0:0:
448,192,61501,1,0,0:0:0:0:
320,192,61501,1,0,0:0:0:0:
192,192,61501,1,0,0:0:0:0:
448,192,61602,1,0,0:0:0:0:
64,192,61602,1,0,0:0:0:0:
320,192,61702,1,0,0:0:0:0:
192,192,61702,1,0,0:0:0:0:
64,192,61803,1,0,0:0:0:0:
192,192,61904,1,0,0:0:0:0:
320,192,61904,1,0,0:0:0:0:
448,192,61904,1,0,0:0:0:0:
64,192,61904,1,0,0:0:0:0:
448,192,62004,1,0,0:0:0:0:
64,192,62105,1,0,0:0:0:0:
192,192,62105,1,0,0:0:0:0:
192,192,62206,1,0,0:0:0:0:
320,192,62306,1,0,0:0:0:0:
448,192,62306,1,0,0:0:0:0:
64,192,62306,1,0,0:0:0:0:
448,192,62407,1,0,0:0:0:0:
192,192,62407,1,0,0:0:0:0:
320,192,62508,1,0,0:0:0:0:
192,192,62508,1,0,0:0:0:0:
64,192,62608,1,0,0:0:0:0:
64,192,62709,1,0,0:0:0:0:
192,192,62709,1,0,0:0:0:0:
448,192,62709,1,0,0:0:0:0:
320,192,62709,1,0,0:0:0:0:
448,192,62810,1,0,0:0:0:0:
320,192,62910,1,0,0:0:0:0:
192,192,62910,1,0,0:0:0:0:
320,192,63011,1,0,0:0:0:0:
64,192,63011,1,0,0:0:0:0:
448,192,63112,1,0,0:0:0:0:
64,192,63112,1,0,0:0:0:0:
192,192,63112,1,0,0:0:0:0:
192,192,63212,1,0,0:0:0:0:
64,192,63313,1,0,0:0:0:0:
448,192,63313,1,0,0:0:0:0:
320,192,63414,1,0,0:0:0:0:
448,192,63514,1,0,0:0:0:0:
320,192,63514,1,0,0:0:0:0:
192,192,63514,1,0,0:0:0:0:
64,192,63514,1,0,0:0:0:0:
64,192,63615,1,0,0:0:0:0:
320,192,63716,1,0,0:0:0:0:
448,192,63716,1,0,0:0:0:0:
192,192,63816,1,0,0:0:0:0:
448,192,63917,1,0,0:0:0:0:
320,192,63917,1,0,0:0:0:0:
192,192,63917,1,0,0:0:0:0:
64,192,63917,1,0,0:0:0:0:
448,192,64018,1,0,0:0:0:0:
320,192,64118,1,0,0:0:0:0:
192,192,64118,1,0,0:0:0:0:
64,192,64219,1,0,0:0:0:0:
448,192,64320,1,0,0:0:0:0:
320,192,64320,1,0,0:0:0:0:
192,192,64320,1,0,0:0:0:0:
64,192,64320,1,0,0:0:0:0:
448,192,64420,1,0,0:0:0:0:
192,192,64521,1,0,0:0:0:0:
64,192,64521,1,0,0:0:0:0:
320,192,64622,1,0,0:0:0:0:
320,192,64722,1,0,0:0:0:0:
448,192,64722,1,0,0:0:0:0:
192,192,64722,1,0,0:0:0:0:
64,192,64722,1,0,0:0:0:0:
64,192,64823,1,0,0:0:0:0:
320,192,64924,1,0,0:0:0:0:
448,192,64924,1,0,0:0:0:0:
192,192,65024,1,0,0:0:0:0:
448,192,65125,1,0,0:0:0:0:
320,192,65125,1,0,0:0:0:0:
192,192,65125,1,0,0:0:0:0:
64,192,65125,1,0,0:0:0:0:
448,192,65226,1,0,0:0:0:0:
192,192,65326,1,0,0:0:0:0:
64,192,65326,1,0,0:0:0:0:
64,192,65427,1,0,0:0:0:0:
320,192,65528,1,0,0:0:0:0:
448,192,65528,1,0,0:0:0:0:
192,192,65528,1,0,0:0:0:0:
448,192,65628,1,0,0:0:0:0:
320,192,65729,1,0,0:0:0:0:
192,192,65729,1,0,0:0:0:0:
64,192,65729,1,0,0:0:0:0:
192,192,65830,1,0,0:0:0:0:
320,192,65930,1,0,0:0:0:0:
448,192,65930,1,0,0:0:0:0:
64,192,65930,1,0,0:0:0:0:
448,192,66031,1,0,0:0:0:0:
320,192,66132,1,0,0:0:0:0:
192,192,66132,1,0,0:0:0:0:
64,192,66132,1,0,0:0:0:0:
320,192,66232,1,0,0:0:0:0:
64,192,66333,128,0,66434:0:0:0:0:
448,192,66534,1,0,0:0:0:0:
320,192,66534,1,0,0:0:0:0:
64,192,66736,1,0,0:0:0:0:
192,192,66736,1,0,0:0:0:0:
320,192,66937,1,0,0:0:0:0:
448,192,66937,1,0,0:0:0:0:
192,192,67139,1,0,0:0:0:0:
320,192,67139,1,0,0:0:0:0:
448,192,67139,1,0,0:0:0:0:
64,192,67139,1,0,0:0:0:0:
448,192,67239,1,0,0:0:0:0:
64,192,67239,1,0,0:0:0:0:
192,192,67340,1,0,0:0:0:0:
320,192,67340,1,0,0:0:0:0:
448,192,67441,1,0,0:0:0:0:
64,192,67441,1,0,0:0:0:0:
64,192,67541,1,0,0:0:0:0:
192,192,67541,1,0,0:0:0:0:
320,192,67541,1,0,0:0:0:0:
448,192,67541,1,0,0:0:0:0:
320,192,67642,1,0,0:0:0:0:
192,192,67642,1,0,0:0:0:0:
448,192,67743,1,0,0:0:0:0:
64,192,67743,1,0,0:0:0:0:
64,192,67843,1,0,0:0:0:0:
320,192,67843,1,0,0:0:0:0:
320,192,67944,1,0,0:0:0:0:
448,192,67944,1,0,0:0:0:0:
192,192,67944,1,0,0:0:0:0:
448,192,68045,1,0,0:0:0:0:
64,192,68145,1,0,0:0:0:0:
192,192,68145,1,0,0:0:0:0:
320,192,68246,1,0,0:0:0:0:
192,192,68347,1,0,0:0:0:0:
320,192,68347,1,0,0:0:0:0:
448,192,68347,1,0,0:0:0:0:
64,192,68347,1,0,0:0:0:0:
64,192,68447,1,0,0:0:0:0:
320,192,68548,1,0,0:0:0:0:
192,192,68548,1,0,0:0:0:0:
192,192,68649,1,0,0:0:0:0:
448,192,68749,1,0,0:0:0:0:
320,192,68749,1,0,0:0:0:0:
64,192,68749,1,0,0:0:0:0:
448,192,68850,1,0,0:0:0:0:
320,192,68951,1,0,0:0:0:0:
192,192,68951,1,0,0:0:0:0:
64,192,68951,1,0,0:0:0:0:
64,192,69051,1,0,0:0:0:0:
448,192,69152,1,0,0:0:0:0:
320,192,69152,1,0,0:0:0:0:
192,192,69152,1,0,0:0:0:0:
320,192,69253,1,0,0:0:0:0:
192,192,69353,1,0,0:0:0:0:
64,192,69353,1,0,0:0:0:0:
448,192,69353,1,0,0:0:0:0:
64,192,69454,1,0,0:0:0:0:
192,192,69555,1,0,0:0:0:0:
320,192,69555,1,0,0:0:0:0:
448,192,69555,1,0,0:0:0:0:
192,192,69655,1,0,0:0:0:0:
448,192,69756,1,0,0:0:0:0:
64,192,69756,1,0,0:0:0:0:
320,192,69857,1,0,0:0:0:0:
448,192,69957,1,0,0:0:0:0:
320,192,69957,1,0,0:0:0:0:
192,192,69957,1,0,0:0:0:0:
64,192,69957,1,0,0:0:0:0:
192,192,70058,1,0,0:0:0:0:
448,192,70159,1,0,0:0:0:0:
320,192,70159,1,0,0:0:0:0:
64,192,70259,1,0,0:0:0:0:
448,192,70360,1,0,0:0:0:0:
320,192,70360,1,0,0:0:0:0:
192,192,70360,1,0,0:0:0:0:
64,192,70360,1,0,0:0:0:0:
448,192,70461,1,0,0:0:0:0:
64,192,70561,1,0,0:0:0:0:
192,192,70561,1,0,0:0:0:0:
320,192,70561,1,0,0:0:0:0:
192,192,70662,1,0,0:0:0:0:
448,192,70763,1,0,0:0:0:0:
64,192,70763,1,0,0:0:0:0:
320,192,70763,1,0,0:0:0:0:
448,192,70863,1,0,0:0:0:0:
192,192,70964,1,0,0:0:0:0:
320,192,70964,1,0,0:0:0:0:
64,192,70964,1,0,0:0:0:0:
192,192,71065,1,0,0:0:0:0:
64,192,71165,1,0,0:0:0:0:
320,192,71165,1,0,0:0:0:0:
448,192,71165,1,0,0:0:0:0:
320,192,71266,1,0,0:0:0:0:
64,192,71367,1,0,0:0:0:0:
448,192,71367,1,0,0:0:0:0:
192,192,71467,1,0,0:0:0:0:
64,192,71568,1,0,0:0:0:0:
192,192,71568,1,0,0:0:0:0:
320,192,71568,1,0,0:0:0:0:
448,192,71568,1,0,0:0:0:0:
448,192,71669,1,0,0:0:0:0:
64,192,71769,1,0,0:0:0:0:
192,192,71769,1,0,0:0:0:0:
192,192,71870,1,0,0:0:0:0:
448,192,71971,1,0,0:0:0:0:
320,192,71971,1,0,0:0:0:0:
64,192,71971,1,0,0:0:0:0:
320,192,72071,1,0,0:0:0:0:
64,192,72172,1,0,0:0:0:0:
192,192,72222,1,0,0:0:0:0:
320,192,72273,1,0,0:0:0:0:
448,192,72273,1,0,0:0:0:0:
192,192,72373,1,0,0:0:0:0:
64,192,72373,1,0,0:0:0:0:
448,192,72373,1,0,0:0:0:0:
320,192,72474,1,0,0:0:0:0:
192,192,72575,1,0,0:0:0:0:
320,192,72575,1,0,0:0:0:0:
448,192,72675,1,0,0:0:0:0:
64,192,72675,1,0,0:0:0:0:
64,192,72776,1,0,0:0:0:0:
320,192,72776,1,0,0:0:0:0:
192,192,72877,1,0,0:0:0:0:
320,192,72877,1,0,0:0:0:0:
448,192,72977,1,0,0:0:0:0:
64,192,72977,1,0,0:0:0:0:
448,192,73078,1,0,0:0:0:0:
320,192,73179,1,0,0:0:0:0:
192,192,73179,1,0,0:0:0:0:
64,192,73179,1,0,0:0:0:0:
64,192,73279,1,0,0:0:0:0:
320,192,73279,1,0,0:0:0:0:
192,192,73380,1,0,0:0:0:0:
448,192,73380,1,0,0:0:0:0:
320,192,73481,1,0,0:0:0:0:
320,192,73581,1,0,0:0:0:0:
448,192,73581,1,0,0:0:0:0:
192,192,73581,1,0,0:0:0:0:
64,192,73581,1,0,0:0:0:0:
64,192,73682,1,0,0:0:0:0:
448,192,73783,1,0,0:0:0:0:
320,192,73783,1,0,0:0:0:0:
192,192,73783,1,0,0:0:0:0:
320,192,73883,1,0,0:0:0:0:
64,192,73984,1,0,0:0:0:0:
192,192,73984,1,0,0:0:0:0:
448,192,73984,1,0,0:0:0:0:
64,192,74085,1,0,0:0:0:0:
320,192,74185,1,0,0:0:0:0:
448,192,74185,1,0,0:0:0:0:
192,192,74185,1,0,0:0:0:0:
192,192,74286,1,0,0:0:0:0:
320,192,74387,1,0,0:0:0:0:
448,192,74387,1,0,0:0:0:0:
64,192,74387,1,0,0:0:0:0:
448,192,74487,1,0,0:0:0:0:
192,192,74487,1,0,0:0:0:0:
192,192,74588,1,0,0:0:0:0:
320,192,74588,1,0,0:0:0:0:
64,192,74689,1,0,0:0:0:0:
448,192,74790,1,0,0:0:0:0:
320,192,74790,1,0,0:0:0:0:
192,192,74790,1,0,0:0:0:0:
64,192,74790,1,0,0:0:0:0:
448,192,74890,1,0,0:0:0:0:
320,192,74991,1,0,0:0:0:0:
192,192,74991,1,0,0:0:0:0:
64,192,74991,1,0,0:0:0:0:
320,192,75092,1,0,0:0:0:0:
192,192,75192,1,0,0:0:0:0:
64,192,75192,1,0,0:0:0:0:
448,192,75192,1,0,0:0:0:0:
192,192,75293,1,0,0:0:0:0:
320,192,75394,1,0,0:0:0:0:
64,192,75394,1,0,0:0:0:0:
448,192,75394,1,0,0:0:0:0:
448,192,75494,1,0,0:0:0:0:
320,192,75595,1,0,0:0:0:0:
192,192,75595,1,0,0:0:0:0:
64,192,75595,1,0,0:0:0:0:
320,192,75696,1,0,0:0:0:0:
448,192,75796,1,0,0:0:0:0:
192,192,75796,1,0,0:0:0:0:
64,192,75897,1,0,0:0:0:0:
448,192,75998,1,0,0:0:0:0:
320,192,75998,1,0,0:0:0:0:
192,192,75998,1,0,0:0:0:0:
64,192,75998,1,0,0:0:0:0:
192,192,76098,1,0,0:0:0:0:
320,192,76199,1,0,0:0:0:0:
448,192,76199,1,0,0:0:0:0:
448,192,76300,1,0,0:0:0:0:
320,192,76400,1,0,0:0:0:0:
192,192,76400,1,0,0:0:0:0:
64,192,76400,1,0,0:0:0:0:
64,192,76501,1,0,0:0:0:0:
448,192,76501,1,0,0:0:0:0:
192,192,76602,1,0,0:0:0:0:
320,192,76602,1,0,0:0:0:0:
448,192,76602,1,0,0:0:0:0:
64,192,76702,1,0,0:0:0:0:
64,192,76803,1,0,0:0:0:0:
192,192,76803,1,0,0:0:0:0:
320,192,76803,1,0,0:0:0:0:
448,192,76803,1,0,0:0:0:0:
448,192,76904,1,0,0:0:0:0:
192,192,77004,1,0,0:0:0:0:
64,192,77004,1,0,0:0:0:0:
192,192,77105,1,0,0:0:0:0:
448,192,77105,1,0,0:0:0:0:
448,192,77206,1,0,0:0:0:0:
320,192,77206,1,0,0:0:0:0:
64,192,77206,1,0,0:0:0:0:
320,192,77306,1,0,0:0:0:0:
192,192,77407,1,0,0:0:0:0:
448,192,77407,1,0,0:0:0:0:
64,192,77508,1,0,0:0:0:0:
448,192,77608,1,0,0:0:0:0:
320,192,77608,1,0,0:0:0:0:
192,192,77608,1,0,0:0:0:0:
64,192,77608,1,0,0:0:0:0:
448,192,77709,1,0,0:0:0:0:
320,192,77810,1,0,0:0:0:0:
192,192,77810,1,0,0:0:0:0:
192,192,77910,1,0,0:0:0:0:
320,192,78011,1,0,0:0:0:0:
448,192,78011,1,0,0:0:0:0:
64,192,78011,1,0,0:0:0:0:
64,192,78112,1,0,0:0:0:0:
192,192,78212,1,0,0:0:0:0:
320,192,78212,1,0,0:0:0:0:
448,192,78313,1,0,0:0:0:0:
64,192,78414,1,0,0:0:0:0:
192,192,78414,1,0,0:0:0:0:
320,192,78414,1,0,0:0:0:0:
448,192,78414,1,0,0:0:0:0:
64,192,78514,1,0,0:0:0:0:
448,192,78615,1,0,0:0:0:0:
320,192,78615,1,0,0:0:0:0:
448,192,78716,1,0,0:0:0:0:
192,192,78716,1,0,0:0:0:0:
320,192,78816,1,0,0:0:0:0:
192,192,78816,1,0,0:0:0:0:
64,192,78816,1,0,0:0:0:0:
64,192,78917,1,0,0:0:0:0:
448,192,79018,1,0,0:0:0:0:
320,192,79018,1,0,0:0:0:0:
192,192,79118,1,0,0:0:0:0:
320,192,79219,1,0,0:0:0:0:
448,192,79219,1,0,0:0:0:0:
192,192,79219,1,0,0:0:0:0:
64,192,79219,1,0,0:0:0:0:
64,192,79320,1,0,0:0:0:0:
448,192,79420,1,0,0:0:0:0:
320,192,79420,1,0,0:0:0:0:
192,192,79420,1,0,0:0:0:0:
448,192,79521,1,0,0:0:0:0:
320,192,79622,1,0,0:0:0:0:
192,192,79622,1,0,0:0:0:0:
64,192,79622,1,0,0:0:0:0:
64,192,79722,1,0,0:0:0:0:
448,192,79773,1,0,0:0:0:0:
320,192,79823,1,0,0:0:0:0:
192,192,79873,1,0,0:0:0:0:
64,192,79924,1,0,0:0:0:0:
448,192,80024,1,0,0:0:0:0:
320,192,80024,1,0,0:0:0:0:
192,192,80024,1,0,0:0:0:0:
64,192,80024,1,0,0:0:0:0:
448,192,80125,1,0,0:0:0:0:
192,192,80226,1,0,0:0:0:0:
64,192,80226,1,0,0:0:0:0:
320,192,80326,1,0,0:0:0:0:
448,192,80427,1,0,0:0:0:0:
192,192,80427,1,0,0:0:0:0:
64,192,80427,1,0,0:0:0:0:
320,192,80427,1,0,0:0:0:0:
192,192,80528,1,0,0:0:0:0:
320,192,80628,1,0,0:0:0:0:
448,192,80628,1,0,0:0:0:0:
64,192,80729,1,0,0:0:0:0:
448,192,80830,1,0,0:0:0:0:
320,192,80830,1,0,0:0:0:0:
192,192,80830,1,0,0:0:0:0:
64,192,80830,1,0,0:0:0:0:
448,192,80930,1,0,0:0:0:0:
192,192,81031,1,0,0:0:0:0:
320,192,81031,1,0,0:0:0:0:
64,192,81132,1,0,0:0:0:0:
448,192,81232,1,0,0:0:0:0:
320,192,81232,1,0,0:0:0:0:
192,192,81232,1,0,0:0:0:0:
64,192,81232,1,0,0:0:0:0:
448,192,81333,1,0,0:0:0:0:
64,192,81434,1,0,0:0:0:0:
192,192,81434,1,0,0:0:0:0:
320,192,81534,1,0,0:0:0:0:
448,192,81635,1,0,0:0:0:0:
320,192,81635,1,0,0:0:0:0:
192,192,81635,1,0,0:0:0:0:
64,192,81635,1,0,0:0:0:0:
64,192,81736,1,0,0:0:0:0:
448,192,81836,1,0,0:0:0:0:
320,192,81836,1,0,0:0:0:0:
192,192,81836,1,0,0:0:0:0:
448,192,81937,1,0,0:0:0:0:
192,192,82038,1,0,0:0:0:0:
320,192,82038,1,0,0:0:0:0:
448,192,82239,1,0,0:0:0:0:
320,192,82239,128,0,82642:0:0:0:0:
192,192,82239,128,0,82642:0:0:0:0:
64,192,82239,128,0,82642:0:0:0:0:
448,192,82743,1,0,0:0:0:0:
64,192,82743,1,0,0:0:0:0:
448,192,82843,1,0,0:0:0:0:
192,192,82843,1,0,0:0:0:0:
448,192,82944,1,0,0:0:0:0:
320,192,82944,1,0,0:0:0:0:
