osu file format v12

[General]
AudioFilename: Negima.mp3
AudioLeadIn: 0
PreviewTime: 60121
Countdown: 0
SampleSet: Normal
StackLeniency: 0.7
Mode: 0
LetterboxInBreaks: 0
WidescreenStoryboard: 1

[Editor]
DistanceSpacing: 1.5
BeatDivisor: 2
GridSize: 8
TimelineZoom: 1

[Metadata]
Title:Happy Material (TV Size)
TitleUnicode:Happy Material (TV Size)
Artist:Various Artists
ArtistUnicode:Various Artists
Creator:Swayzo
Version:Hard
Source:Negima! Magister Negi Magi
Tags:negima magistar opening
BeatmapID:386678
BeatmapSetID:157774

[Difficulty]
HPDrainRate:6
CircleSize:4
OverallDifficulty:5
ApproachRate:8
SliderMultiplier:1.5
SliderTickRate:2

[Events]
//Background and Video events
0,0,"10455_negima.jpg",0,0
Video,0,"Mahou Sensei Negima Opening HD.avi"
//Break Periods
//Storyboard Layer 0 (Background)
//Storyboard Layer 1 (Fail)
//Storyboard Layer 2 (Pass)
//Storyboard Layer 3 (Foreground)
//Storyboard Sound Samples
//Background Colour Transformations
3,100,163,162,255

[TimingPoints]
3250,368.098159509202,4,1,1,60,1,0
15581,-133.333333333333,4,1,1,60,0,0
16317,-200,4,1,1,60,0,0
17605,-100,4,1,1,60,0,0
23863,-100,4,1,1,30,0,0
45765,-100,4,1,1,60,0,0
46685,-100,4,1,1,45,0,0
60673,-80,4,1,1,60,0,1
81286,-100,4,1,1,60,0,1
81838,-133.333333333333,4,1,1,60,0,1
82575,-200,4,1,1,60,0,1
83863,-100,4,1,1,60,0,1
88648,-100,4,1,1,60,0,0

[Colours]
Combo1 : 128,255,128
Combo2 : 255,121,121
Combo3 : 119,187,255
Combo4 : 255,255,128

[HitObjects]
72,44,3249,6,0,L|248:60,1,150
312,124,3802,2,0,L|136:140,1,150
72,204,4354,2,0,L|248:220,1,150,0|2,0:0|0:0,0:0:0:0:
296,348,4906,1,2,0:0:0:0:
296,200,5090,1,2,0:0:0:0:
204,316,5274,1,2,0:0:0:0:
204,316,6194,6,0,P|109:319|68:256,1,150,0|8,0:0|0:0,0:0:0:0:
48,212,6746,1,0,0:0:0:0:
36,136,6930,2,0,P|95:64|169:75,1,150,0|8,0:0|0:0,0:0:0:0:
208,104,7483,2,0,L|392:88,1,150
328,20,8035,2,0,L|420:12,1,75,8|0,0:0|0:0,0:0:0:0:
472,103,8403,2,0,P|472:197|408:236,1,150,0|8,0:0|0:0,0:0:0:0:
460,340,8955,1,0,0:0:0:0:
460,340,9139,6,0,P|370:312|314:361,1,150,0|8,0:0|0:0,0:0:0:0:
256,316,9691,1,0,0:0:0:0:
183,339,9875,2,0,P|117:309|52:340,1,150,0|8,0:0|0:0,0:0:0:0:
56,228,10427,2,0,L|68:52,1,150
112,136,10980,1,8,0:0:0:0:
192,60,11164,2,0,L|181:209,1,150
248,244,11716,1,8,0:0:0:0:
228,172,11900,1,0,0:0:0:0:
284,76,12084,6,0,P|350:106|415:75,1,150,0|8,0:0|0:0,0:0:0:0:
456,12,12636,2,0,L|452:180,1,150
424,232,13188,1,8,0:0:0:0:
436,304,13372,2,0,L|452:388,2,75
436,304,14292,5,0,0:0:0:0:
436,304,14661,1,8,0:0:0:0:
436,304,15029,6,0,L|264:296,1,150,0|8,0:0|0:0,0:0:0:0:
256,248,15581,2,0,L|424:255,1,168.750006437302,0|8,0:0|0:0,0:0:0:0:
460,212,16317,2,0,L|235:201,1,225
235,201,17605,1,12,0:0:0:0:
235,201,17973,6,0,L|232:308,1,75,0|0,0:0|0:0,0:0:0:0:
228,352,18342,1,8,0:0:0:0:
160,264,18526,2,0,B|162:192|162:192|165:144|226:124,1,150
272,100,19078,1,8,0:0:0:0:
340,192,19262,6,0,P|274:222|209:191,1,150
272,100,19814,1,8,0:0:0:0:
340,236,19998,2,0,P|274:266|209:235,1,150
136,148,20550,1,8,0:0:0:0:
76,240,20734,1,0,0:0:0:0:
68,92,20918,5,2,0:0:0:0:
68,92,21102,1,2,0:0:0:0:
288,48,21470,5,2,0:0:0:0:
288,48,21654,1,2,0:0:0:0:
164,236,22023,5,2,0:0:0:0:
164,236,22207,1,2,0:0:0:0:
388,256,22575,5,2,0:0:0:0:
388,256,22759,1,2,0:0:0:0:
288,48,23127,5,2,0:0:0:0:
288,48,23863,6,0,L|264:208,1,150,4|0,0:0|0:0,0:0:0:0:
300,264,24415,2,0,L|322:115,1,150
372,60,24967,1,0,0:0:0:0:
440,28,25151,2,0,L|417:176,1,150
464,236,25703,1,0,0:0:0:0:
416,292,25888,2,0,P|350:323|284:293,1,150
244,232,26440,1,0,0:0:0:0:
204,336,26624,6,0,L|208:240,2,75
132,320,27176,1,0,0:0:0:0:
88,380,27360,2,0,L|94:214,1,150
72,160,27912,1,0,0:0:0:0:
128,112,28096,2,0,P|193:80|259:110,1,150
296,44,28648,1,0,0:0:0:0:
184,16,28832,2,0,L|196:184,1,150
160,232,29384,1,0,0:0:0:0:
208,292,29569,1,0,0:0:0:0:
248,228,29753,6,0,P|313:196|379:226,1,150
412,292,30305,2,0,L|424:112,1,150
456,76,30857,1,0,0:0:0:0:
396,32,31041,2,0,P|324:20|269:67,1,150
256,140,31593,1,0,0:0:0:0:
256,140,31777,1,0,0:0:0:0:
256,140,32513,5,0,0:0:0:0:
228,208,32697,2,0,P|173:255|101:243,1,150
28,220,33249,2,0,P|82:172|154:184,1,150
172,112,33802,1,0,0:0:0:0:
224,12,33986,2,0,L|228:168,1,150
260,268,34538,6,0,L|257:166,1,75
328,108,34906,2,0,L|329:182,1,75
404,268,35274,2,0,L|401:166,1,75
388,80,35642,6,0,P|316:68|261:115,1,150,4|0,0:0|0:0,0:0:0:0:
216,172,36194,2,0,L|211:11,1,150
140,44,36746,1,0,0:0:0:0:
92,104,36930,2,0,P|63:170|95:235,1,150
76,308,37483,1,0,0:0:0:0:
136,352,37667,2,0,P|200:319|267:348,1,150
332,308,38219,1,0,0:0:0:0:
400,344,38403,1,0,0:0:0:0:
464,252,38587,6,0,P|397:222|332:255,1,150
300,324,39139,2,0,L|309:174,1,150
256,124,39691,1,0,0:0:0:0:
228,192,39875,2,0,L|218:341,1,150
152,372,40427,1,0,0:0:0:0:
140,300,40611,2,0,L|149:150,1,150
120,80,41164,1,0,0:0:0:0:
192,84,41348,1,0,0:0:0:0:
216,196,41532,6,0,P|151:229|84:199,1,150
64,124,42084,2,0,L|54:273,1,150
80,352,42636,1,0,0:0:0:0:
124,292,42820,2,0,P|188:258|255:288,1,150
288,356,43372,2,0,L|288:260,1,75
364,196,43740,6,0,L|364:271,1,75
440,356,44108,2,0,L|440:281,1,75
432,168,44476,6,0,P|367:134|300:164,1,150
260,228,45029,2,0,L|272:78,1,150
216,28,45581,1,0,0:0:0:0:
68,48,45765,6,0,P|132:81|199:51,1,150
136,4,46317,2,0,L|128:188,1,150
92,220,46869,2,0,L|95:145,2,75
132,284,47421,6,0,L|344:280,1,150
352,308,47973,1,0,0:0:0:0:
404,360,48157,2,0,L|254:362,1,150
180,368,48710,1,0,0:0:0:0:
120,272,48894,2,0,L|332:268,1,150
336,236,49446,1,0,0:0:0:0:
440,188,49630,2,0,L|290:190,1,150
256,124,50182,1,0,0:0:0:0:
220,232,50366,6,0,L|224:152,1,75
156,68,50734,2,0,L|152:142,1,75
116,248,51102,2,0,L|119:173,1,75
48,84,51470,2,0,L|44:158,1,75
112,292,51838,6,0,L|12:304,1,75,4|0,0:0|0:0,0:0:0:0:
184,340,52207,6,0,L|258:348,1,75,4|0,0:0|0:0,0:0:0:0:
404,320,52575,6,0,L|329:311,1,75,4|0,0:0|0:0,0:0:0:0:
424,196,52943,6,0,L|498:187,1,75,4|0,0:0|0:0,0:0:0:0:
376,100,53311,6,0,L|200:121,1,150
160,88,53863,1,0,0:0:0:0:
152,200,54047,2,0,L|300:181,1,150
356,236,54599,1,0,0:0:0:0:
308,340,54783,6,0,L|316:252,1,75
208,228,55151,2,0,L|201:302,1,75
96,344,55519,2,0,L|102:269,1,75
84,156,55888,2,0,L|77:230,1,75
92,120,56256,6,0,P|158:91|222:125,1,150,0|4,0:0|0:0,0:0:0:0:
222,125,56808,1,0,0:0:0:0:
268,228,56992,2,0,L|272:48,1,150,0|4,0:0|0:0,0:0:0:0:
324,24,57544,1,0,0:0:0:0:
432,52,57728,6,0,L|357:55,1,75
280,140,58096,2,0,L|355:137,1,75
432,220,58464,2,0,L|357:223,1,75
292,316,58832,2,0,L|367:313,1,75
224,264,59200,5,2,0:0:0:0:
88,328,59384,5,2,0:0:0:0:
172,204,59569,5,2,0:0:0:0:
160,352,59753,5,2,0:0:0:0:
160,352,60121,5,0,0:0:0:0:
160,352,60305,1,0,0:0:0:0:
160,352,60489,1,0,0:0:0:0:
160,352,60673,6,0,P|124:256|40:268,1,187.5,4|8,0:0|0:0,0:0:0:0:
88,172,61225,1,0,0:0:0:0:
128,36,61409,2,0,L|144:228,1,187.5,0|8,0:0|0:0,0:0:0:0:
232,256,61961,2,0,L|216:69,1,187.5
308,76,62513,2,0,L|296:216,1,93.75,8|0,0:0|0:0,0:0:0:0:
316,260,62881,2,0,P|352:164|436:176,1,187.5,0|8,0:0|0:0,0:0:0:0:
408,260,63434,1,0,0:0:0:0:
500,260,63618,6,0,P|464:356|380:344,1,187.5,0|8,0:0|0:0,0:0:0:0:
300,376,64170,1,0,0:0:0:0:
208,360,64354,2,0,P|120:352|100:266,1,187.5,0|8,0:0|0:0,0:0:0:0:
68,180,64906,2,0,L|36:368,1,187.5
4,228,65458,2,0,L|19:134,1,93.75,8|0,0:0|0:0,0:0:0:0:
40,44,65826,2,0,P|125:23|171:99,1,187.5,0|8,0:0|0:0,0:0:0:0:
176,192,66378,1,0,0:0:0:0:
192,284,66562,6,0,L|212:72,1,187.5,0|8,0:0|0:0,0:0:0:0:
280,32,67115,1,0,0:0:0:0:
348,96,67299,2,0,L|365:282,1,187.5,0|8,0:0|0:0,0:0:0:0:
424,356,67851,2,0,L|406:169,3,187.5,8|8|8|8,0:0|0:0|0:0|0:0,0:0:0:0:
406,169,69139,1,8,0:0:0:0:
406,169,69323,1,0,0:0:0:0:
440,32,69507,6,0,P|355:11|309:87,1,187.5,12|8,0:0|0:0,0:0:0:0:
196,172,70059,2,0,P|281:193|327:117,1,187.5,12|8,0:0|0:0,0:0:0:0:
327,118,70611,1,8,0:0:0:0:
224,24,70796,2,0,P|139:3|93:79,1,187.5,12|8,0:0|0:0,0:0:0:0:
56,212,71348,2,0,L|60:36,1,93.75,8|0,0:0|0:0,0:0:0:0:
132,176,71716,2,0,L|129:269,1,93.75,8|0,0:0|0:0,0:0:0:0:
204,328,72084,2,0,L|206:234,1,93.75,8|0,0:0|0:0,0:0:0:0:
284,180,72452,6,0,L|278:421,2,187.5,4|8|0,0:0|0:0|0:0,0:0:0:0:
356,120,73372,1,0,0:0:0:0:
428,180,73556,1,8,0:0:0:0:
416,88,73740,2,0,P|331:67|285:143,1,187.5
244,228,74292,2,0,L|248:120,2,93.75,8|0|0,0:0|0:0|0:0,0:0:0:0:
172,164,74845,2,0,L|168:257,2,93.75,0|8|0,0:0|0:0|0:0,0:0:0:0:
168,72,75397,6,0,P|83:51|37:127,1,187.5,0|8,0:0|0:0,0:0:0:0:
88,204,75949,1,0,0:0:0:0:
88,296,76133,2,0,P|160:344|229:289,1,187.5,0|8,0:0|0:0,0:0:0:0:
308,176,76685,2,0,P|235:127|166:182,1,187.5
166,181,77237,1,8,0:0:0:0:
304,212,77421,2,0,P|376:260|445:205,1,187.5
476,116,77973,1,8,0:0:0:0:
476,116,78157,1,0,0:0:0:0:
476,116,78342,6,0,L|472:336,1,187.5,0|8,0:0|0:0,0:0:0:0:
400,364,78894,2,0,L|403:176,2,187.5,0|8|8,0:0|0:0|0:0,0:0:0:0:
320,312,79814,2,0,L|321:218,1,93.75,8|8,0:0|0:0,0:0:0:0:
321,218,80550,5,0,0:0:0:0:
321,218,80918,1,8,0:0:0:0:
321,218,81286,6,0,L|108:204,1,150,0|8,0:0|0:0,0:0:0:0:
132,248,81838,2,0,L|322:260,1,168.750006437302,0|8,0:0|0:0,0:0:0:0:
328,308,82575,2,0,L|80:291,1,225
103,293,83863,1,12,0:0:0:0:
103,293,84231,6,0,L|96:368,1,75,8|0,0:0|0:0,0:0:0:0:
28,280,84599,2,0,L|35:205,1,75,8|0,0:0|0:0,0:0:0:0:
84,104,84967,2,0,L|76:178,1,75,8|0,0:0|0:0,0:0:0:0:
48,72,85335,1,8,0:0:0:0:
120,160,85519,6,0,P|221:176|252:98,1,150
180,112,86072,1,8,0:0:0:0:
180,112,86256,2,0,L|196:320,1,150
228,328,86808,2,0,L|222:253,1,75,8|0,0:0|0:0,0:0:0:0:
272,356,87176,5,2,0:0:0:0:
272,356,87360,1,2,0:0:0:0:
348,144,87728,5,2,0:0:0:0:
348,144,87912,1,2,0:0:0:0:
120,160,88280,5,2,0:0:0:0:
120,160,88464,1,2,0:0:0:0:
