osu file format v14

[General]
AudioFilename: LegenD.mp3
AudioLeadIn: 0
PreviewTime: -1
Countdown: 1
SampleSet: None
StackLeniency: 0.7
Mode: 3
LetterboxInBreaks: 1
SpecialStyle: 1
WidescreenStoryboard: 1

[Editor]
DistanceSpacing: 1.3
BeatDivisor: 4
GridSize: 8
TimelineZoom: 1

[Metadata]
Title:Derrick 6K Exercise Pack
TitleUnicode:Derrick 6K Exercise Pack
Artist:Various Artists
ArtistUnicode:Various Artists
Creator:[Crz]Derrick
Version:Yooh - LegenD. [13]
Source:
Tags:
BeatmapID:998942
BeatmapSetID:466803

[Difficulty]
HPDrainRate:9
CircleSize:6
OverallDifficulty:8.5
ApproachRate:5
SliderMultiplier:1.4
SliderTickRate:1

[Events]
//Background and Video events
0,0,"Yooh.jpg",0,0
//Break Periods
//Storyboard Layer 0 (Background)
//Storyboard Layer 1 (Fail)
//Storyboard Layer 2 (Pass)
//Storyboard Layer 3 (Foreground)
//Storyboard Sound Samples

[TimingPoints]
0,292.682926829268,4,2,0,70,1,0
57365,291.26213592233,4,2,0,70,1,0

[HitObjects]
128,192,878,5,0,0:0:0:1:
298,192,878,1,0,0:0:0:1:
128,192,1024,1,0,0:0:0:1:
298,192,1024,1,0,0:0:0:1:
213,192,1170,1,0,0:0:0:1:
384,192,1170,1,0,0:0:0:1:
469,192,1170,1,0,0:0:0:1:
42,192,1170,128,0,1463:0:0:0:1:
298,192,1317,1,0,0:0:0:1:
128,192,1463,1,0,0:0:0:1:
384,192,1609,1,0,0:0:0:1:
42,192,1609,128,0,1756:0:0:0:1:
213,192,1756,1,0,0:0:0:1:
298,192,1902,1,0,0:0:0:1:
469,192,2048,1,0,0:0:0:1:
42,192,2048,128,0,2195:0:0:0:1:
213,192,2195,1,0,0:0:0:1:
469,192,2341,1,0,0:0:0:1:
128,192,2341,128,0,2634:0:0:0:1:
298,192,2487,1,0,0:0:0:1:
469,192,2634,1,0,0:0:0:1:
384,192,2780,1,0,0:0:0:1:
128,192,2780,128,0,2926:0:0:0:1:
213,192,2926,1,0,0:0:0:1:
298,192,3073,1,0,0:0:0:1:
42,192,3219,1,0,0:0:0:1:
128,192,3219,128,0,3365:0:0:0:1:
384,192,3365,1,0,0:0:0:1:
469,192,3512,1,0,0:0:0:1:
213,192,3512,128,0,3804:0:0:0:1:
42,192,3658,1,0,0:0:0:1:
384,192,3804,1,0,0:0:0:1:
298,192,3951,1,0,0:0:0:1:
213,192,3951,128,0,4097:0:0:0:1:
128,192,4097,1,0,0:0:0:1:
469,192,4243,1,0,0:0:0:1:
42,192,4390,1,0,0:0:0:1:
213,192,4390,128,0,4536:0:0:0:1:
384,192,4536,1,0,0:0:0:1:
42,192,4682,1,0,0:0:0:1:
298,192,4682,128,0,4975:0:0:0:1:
213,192,4829,1,0,0:0:0:1:
469,192,4975,1,0,0:0:0:1:
128,192,5121,1,0,0:0:0:1:
298,192,5121,128,0,5268:0:0:0:1:
384,192,5268,1,0,0:0:0:1:
213,192,5414,1,0,0:0:0:1:
298,192,5414,128,0,5560:0:0:0:1:
128,192,5560,1,0,0:0:0:1:
42,192,5560,1,0,0:0:0:1:
128,192,5707,1,0,0:0:0:1:
42,192,5707,1,0,0:0:0:1:
128,192,5853,1,0,0:0:0:1:
298,192,5853,1,0,0:0:0:1:
42,192,5853,1,0,0:0:0:1:
469,192,5853,128,0,6146:0:0:0:1:
213,192,6000,1,0,0:0:0:1:
384,192,6146,1,0,0:0:0:1:
128,192,6292,1,0,0:0:0:1:
469,192,6292,128,0,6439:0:0:0:1:
298,192,6439,1,0,0:0:0:1:
213,192,6585,1,0,0:0:0:1:
42,192,6731,1,0,0:0:0:1:
469,192,6731,128,0,6878:0:0:0:1:
298,192,6878,1,0,0:0:0:1:
42,192,7024,1,0,0:0:0:1:
384,192,7024,128,0,7317:0:0:0:1:
213,192,7170,1,0,0:0:0:1:
42,192,7317,1,0,0:0:0:1:
128,192,7463,1,0,0:0:0:1:
384,192,7463,128,0,7609:0:0:0:1:
298,192,7609,1,0,0:0:0:1:
213,192,7756,1,0,0:0:0:1:
469,192,7902,1,0,0:0:0:1:
384,192,7902,128,0,8048:0:0:0:1:
128,192,8048,1,0,0:0:0:1:
42,192,8195,1,0,0:0:0:1:
298,192,8195,128,0,8487:0:0:0:1:
469,192,8341,1,0,0:0:0:1:
128,192,8487,1,0,0:0:0:1:
213,192,8634,1,0,0:0:0:1:
298,192,8634,128,0,8780:0:0:0:1:
384,192,8780,1,0,0:0:0:1:
42,192,8926,1,0,0:0:0:1:
469,192,9073,1,0,0:0:0:1:
298,192,9073,128,0,9219:0:0:0:1:
128,192,9219,1,0,0:0:0:1:
469,192,9365,1,0,0:0:0:1:
213,192,9365,128,0,9658:0:0:0:1:
128,192,9512,1,0,0:0:0:1:
42,192,9512,1,0,0:0:0:1:
384,192,9658,1,0,0:0:0:1:
469,192,9658,1,0,0:0:0:1:
128,192,9804,1,0,0:0:0:1:
42,192,9804,1,0,0:0:0:1:
213,192,9804,128,0,9951:0:0:0:1:
384,192,9951,1,0,0:0:0:1:
469,192,9951,1,0,0:0:0:1:
128,192,10024,1,0,0:0:0:1:
42,192,10024,1,0,0:0:0:1:
384,192,10097,1,0,0:0:0:1:
469,192,10097,1,0,0:0:0:1:
213,192,10097,128,0,10243:0:0:0:1:
298,192,10243,1,0,0:0:0:1:
384,192,10243,1,0,0:0:0:1:
128,192,10317,1,0,0:0:0:1:
213,192,10317,1,0,0:0:0:1:
298,192,10390,1,0,0:0:0:1:
384,192,10390,1,0,0:0:0:1:
128,192,10463,1,0,0:0:0:1:
213,192,10463,1,0,0:0:0:1:
298,192,10536,1,0,0:0:0:1:
384,192,10536,1,0,0:0:0:1:
469,192,10536,1,0,0:0:0:1:
42,192,10536,128,0,10682:0:0:0:1:
298,192,10682,1,0,0:0:0:1:
128,192,10829,1,0,0:0:0:1:
213,192,10829,1,0,0:0:0:1:
469,192,10829,1,0,0:0:0:1:
384,192,10975,1,0,0:0:0:1:
42,192,10975,128,0,11121:0:0:0:1:
298,192,11121,1,0,0:0:0:1:
469,192,11121,1,0,0:0:0:1:
213,192,11268,1,0,0:0:0:1:
128,192,11414,1,0,0:0:0:1:
298,192,11414,1,0,0:0:0:1:
384,192,11414,1,0,0:0:0:1:
42,192,11414,128,0,11560:0:0:0:1:
469,192,11560,1,0,0:0:0:1:
213,192,11707,1,0,0:0:0:1:
384,192,11707,1,0,0:0:0:1:
128,192,11707,128,0,11853:0:0:0:1:
298,192,11853,1,0,0:0:0:1:
213,192,12000,1,0,0:0:0:1:
469,192,12000,1,0,0:0:0:1:
42,192,12000,1,0,0:0:0:1:
384,192,12146,1,0,0:0:0:1:
128,192,12146,128,0,12292:0:0:0:1:
298,192,12292,1,0,0:0:0:1:
469,192,12292,1,0,0:0:0:1:
213,192,12439,1,0,0:0:0:1:
384,192,12585,1,0,0:0:0:1:
469,192,12585,1,0,0:0:0:1:
42,192,12585,1,0,0:0:0:1:
128,192,12585,128,0,12731:0:0:0:1:
298,192,12731,1,0,0:0:0:1:
384,192,12804,1,0,0:0:0:1:
128,192,12878,1,0,0:0:0:1:
469,192,12878,1,0,0:0:0:1:
42,192,12878,1,0,0:0:0:1:
213,192,12878,128,0,13024:0:0:0:1:
384,192,13024,1,0,0:0:0:1:
298,192,13170,1,0,0:0:0:1:
469,192,13170,1,0,0:0:0:1:
42,192,13170,1,0,0:0:0:1:
384,192,13317,1,0,0:0:0:1:
213,192,13317,128,0,13463:0:0:0:1:
128,192,13463,1,0,0:0:0:1:
298,192,13463,1,0,0:0:0:1:
384,192,13609,1,0,0:0:0:1:
128,192,13756,1,0,0:0:0:1:
469,192,13756,1,0,0:0:0:1:
42,192,13756,1,0,0:0:0:1:
213,192,13756,128,0,13902:0:0:0:1:
298,192,13902,1,0,0:0:0:1:
128,192,14048,1,0,0:0:0:1:
384,192,14048,1,0,0:0:0:1:
298,192,14048,128,0,14195:0:0:0:1:
213,192,14195,1,0,0:0:0:1:
384,192,14341,1,0,0:0:0:1:
469,192,14341,1,0,0:0:0:1:
42,192,14341,1,0,0:0:0:1:
213,192,14487,1,0,0:0:0:1:
298,192,14487,128,0,14634:0:0:0:1:
128,192,14634,1,0,0:0:0:1:
469,192,14634,1,0,0:0:0:1:
213,192,14707,1,0,0:0:0:1:
128,192,14780,1,0,0:0:0:1:
384,192,14780,1,0,0:0:0:1:
213,192,14926,1,0,0:0:0:1:
469,192,14926,1,0,0:0:0:1:
42,192,14926,1,0,0:0:0:1:
298,192,14926,128,0,15073:0:0:0:1:
384,192,15000,1,0,0:0:0:1:
128,192,15073,1,0,0:0:0:1:
213,192,15146,1,0,0:0:0:1:
128,192,15219,1,0,0:0:0:1:
42,192,15219,1,0,0:0:0:1:
384,192,15219,128,0,15365:0:0:0:1:
128,192,15365,1,0,0:0:0:1:
42,192,15365,1,0,0:0:0:1:
128,192,15512,1,0,0:0:0:1:
213,192,15512,1,0,0:0:0:1:
469,192,15512,1,0,0:0:0:1:
128,192,15658,1,0,0:0:0:1:
42,192,15658,1,0,0:0:0:1:
384,192,15658,128,0,15804:0:0:0:1:
213,192,15731,1,0,0:0:0:1:
298,192,15731,1,0,0:0:0:1:
128,192,15804,1,0,0:0:0:1:
42,192,15804,1,0,0:0:0:1:
128,192,15951,1,0,0:0:0:1:
42,192,15951,1,0,0:0:0:1:
128,192,16097,1,0,0:0:0:1:
213,192,16097,1,0,0:0:0:1:
469,192,16097,1,0,0:0:0:1:
384,192,16097,128,0,16243:0:0:0:1:
128,192,16243,1,0,0:0:0:1:
42,192,16243,1,0,0:0:0:1:
213,192,16317,1,0,0:0:0:1:
298,192,16317,1,0,0:0:0:1:
128,192,16390,1,0,0:0:0:1:
384,192,16390,1,0,0:0:0:1:
42,192,16390,1,0,0:0:0:1:
213,192,16536,1,0,0:0:0:1:
298,192,16536,1,0,0:0:0:1:
128,192,16682,1,0,0:0:0:1:
42,192,16682,1,0,0:0:0:1:
213,192,16829,1,0,0:0:0:1:
298,192,16829,1,0,0:0:0:1:
469,192,16975,1,0,0:0:0:1:
42,192,16975,1,0,0:0:0:1:
128,192,17048,1,0,0:0:0:1:
384,192,17048,1,0,0:0:0:1:
213,192,17121,1,0,0:0:0:1:
298,192,17121,1,0,0:0:0:1:
469,192,17195,1,0,0:0:0:1:
42,192,17195,1,0,0:0:0:1:
128,192,17268,1,0,0:0:0:1:
384,192,17268,1,0,0:0:0:1:
213,192,17341,1,0,0:0:0:1:
298,192,17341,1,0,0:0:0:1:
128,192,17414,1,0,0:0:0:1:
384,192,17414,1,0,0:0:0:1:
469,192,17487,1,0,0:0:0:1:
42,192,17487,1,0,0:0:0:1:
213,192,17560,1,0,0:0:0:1:
128,192,17560,128,0,18731:0:0:0:1:
384,192,17560,128,0,18731:0:0:0:1:
298,192,17707,1,0,0:0:0:1:
213,192,17853,1,0,0:0:0:1:
298,192,18000,1,0,0:0:0:1:
213,192,18146,1,0,0:0:0:1:
298,192,18292,1,0,0:0:0:1:
213,192,18439,1,0,0:0:0:1:
298,192,18585,1,0,0:0:0:1:
213,192,18731,1,0,0:0:0:1:
298,192,18731,1,0,0:0:0:1:
469,192,18731,128,0,19609:0:0:0:1:
42,192,18731,128,0,19609:0:0:0:1:
128,192,18878,1,0,0:0:0:1:
384,192,18878,1,0,0:0:0:1:
128,192,19024,1,0,0:0:0:1:
298,192,19024,1,0,0:0:0:1:
213,192,19170,1,0,0:0:0:1:
384,192,19170,1,0,0:0:0:1:
213,192,19317,1,0,0:0:0:1:
298,192,19317,1,0,0:0:0:1:
128,192,19463,1,0,0:0:0:1:
384,192,19463,1,0,0:0:0:1:
213,192,19609,1,0,0:0:0:1:
384,192,19609,1,0,0:0:0:1:
298,192,19756,1,0,0:0:0:1:
128,192,19756,128,0,19902:0:0:0:1:
213,192,19902,1,0,0:0:0:1:
42,192,19902,1,0,0:0:0:1:
128,192,20048,1,0,0:0:0:1:
469,192,20048,128,0,20195:0:0:0:1:
213,192,20195,1,0,0:0:0:1:
42,192,20195,1,0,0:0:0:1:
128,192,20341,1,0,0:0:0:1:
469,192,20341,128,0,20487:0:0:0:1:
298,192,20414,1,0,0:0:0:1:
213,192,20487,1,0,0:0:0:1:
42,192,20487,1,0,0:0:0:1:
384,192,20560,1,0,0:0:0:1:
128,192,20634,1,0,0:0:0:1:
469,192,20634,128,0,20780:0:0:0:1:
298,192,20707,1,0,0:0:0:1:
213,192,20780,1,0,0:0:0:1:
42,192,20780,1,0,0:0:0:1:
128,192,20926,1,0,0:0:0:1:
469,192,20926,128,0,21073:0:0:0:1:
128,192,21073,1,0,0:0:0:1:
298,192,21073,1,0,0:0:0:1:
213,192,21219,1,0,0:0:0:1:
384,192,21219,128,0,21365:0:0:0:1:
128,192,21365,1,0,0:0:0:1:
298,192,21365,1,0,0:0:0:1:
213,192,21512,1,0,0:0:0:1:
384,192,21512,128,0,21658:0:0:0:1:
42,192,21585,1,0,0:0:0:1:
128,192,21658,1,0,0:0:0:1:
298,192,21658,1,0,0:0:0:1:
469,192,21731,1,0,0:0:0:1:
213,192,21804,1,0,0:0:0:1:
384,192,21804,128,0,21951:0:0:0:1:
42,192,21878,1,0,0:0:0:1:
128,192,21951,1,0,0:0:0:1:
298,192,21951,1,0,0:0:0:1:
213,192,22097,1,0,0:0:0:1:
384,192,22097,128,0,22243:0:0:0:1:
213,192,22243,1,0,0:0:0:1:
469,192,22243,1,0,0:0:0:1:
298,192,22390,1,0,0:0:0:1:
128,192,22390,128,0,22536:0:0:0:1:
213,192,22536,1,0,0:0:0:1:
384,192,22536,1,0,0:0:0:1:
298,192,22682,1,0,0:0:0:1:
128,192,22682,128,0,22829:0:0:0:1:
384,192,22756,1,0,0:0:0:1:
213,192,22829,1,0,0:0:0:1:
469,192,22829,1,0,0:0:0:1:
42,192,22902,1,0,0:0:0:1:
298,192,22975,1,0,0:0:0:1:
128,192,22975,128,0,23121:0:0:0:1:
469,192,23048,1,0,0:0:0:1:
213,192,23121,1,0,0:0:0:1:
384,192,23121,1,0,0:0:0:1:
298,192,23268,1,0,0:0:0:1:
128,192,23268,128,0,23414:0:0:0:1:
213,192,23414,1,0,0:0:0:1:
469,192,23414,1,0,0:0:0:1:
384,192,23560,1,0,0:0:0:1:
42,192,23560,128,0,23707:0:0:0:1:
298,192,23707,1,0,0:0:0:1:
469,192,23707,1,0,0:0:0:1:
213,192,23853,1,0,0:0:0:1:
42,192,23853,128,0,24000:0:0:0:1:
128,192,23926,1,0,0:0:0:1:
298,192,24000,1,0,0:0:0:1:
469,192,24000,1,0,0:0:0:1:
213,192,24073,1,0,0:0:0:1:
384,192,24146,1,0,0:0:0:1:
42,192,24146,128,0,24292:0:0:0:1:
128,192,24219,1,0,0:0:0:1:
298,192,24292,1,0,0:0:0:1:
469,192,24292,1,0,0:0:0:1:
213,192,24439,1,0,0:0:0:1:
128,192,24585,1,0,0:0:0:1:
384,192,24585,1,0,0:0:0:1:
298,192,24731,1,0,0:0:0:1:
469,192,24878,1,0,0:0:0:1:
42,192,24878,1,0,0:0:0:1:
213,192,25024,1,0,0:0:0:1:
298,192,25097,1,0,0:0:0:1:
128,192,25170,1,0,0:0:0:1:
384,192,25170,1,0,0:0:0:1:
213,192,25243,1,0,0:0:0:1:
298,192,25317,1,0,0:0:0:1:
384,192,25390,1,0,0:0:0:1:
213,192,25463,1,0,0:0:0:1:
42,192,25463,1,0,0:0:0:1:
213,192,25609,1,0,0:0:0:1:
42,192,25609,1,0,0:0:0:1:
128,192,25756,1,0,0:0:0:1:
298,192,25756,1,0,0:0:0:1:
469,192,25756,1,0,0:0:0:1:
213,192,25902,1,0,0:0:0:1:
384,192,26048,1,0,0:0:0:1:
42,192,26048,1,0,0:0:0:1:
298,192,26195,1,0,0:0:0:1:
128,192,26268,1,0,0:0:0:1:
213,192,26341,1,0,0:0:0:1:
469,192,26341,1,0,0:0:0:1:
42,192,26414,1,0,0:0:0:1:
384,192,26487,1,0,0:0:0:1:
213,192,26560,1,0,0:0:0:1:
128,192,26634,1,0,0:0:0:1:
298,192,26634,1,0,0:0:0:1:
469,192,26634,1,0,0:0:0:1:
298,192,26780,1,0,0:0:0:1:
469,192,26780,1,0,0:0:0:1:
128,192,26926,1,0,0:0:0:1:
298,192,26926,1,0,0:0:0:1:
469,192,26926,1,0,0:0:0:1:
42,192,26926,1,0,0:0:0:1:
128,192,27073,1,0,0:0:0:1:
42,192,27073,1,0,0:0:0:1:
128,192,27219,1,0,0:0:0:1:
213,192,27219,1,0,0:0:0:1:
384,192,27219,1,0,0:0:0:1:
213,192,27439,1,0,0:0:0:1:
128,192,27512,1,0,0:0:0:1:
42,192,27512,1,0,0:0:0:1:
128,192,27658,1,0,0:0:0:1:
42,192,27658,1,0,0:0:0:1:
128,192,27804,1,0,0:0:0:1:
213,192,27804,1,0,0:0:0:1:
384,192,27804,1,0,0:0:0:1:
298,192,28000,1,0,0:0:0:1:
469,192,28000,1,0,0:0:0:1:
298,192,28097,1,0,0:0:0:1:
469,192,28097,128,0,28390:0:0:0:1:
213,192,28292,1,0,0:0:0:1:
42,192,28292,1,0,0:0:0:1:
213,192,28390,1,0,0:0:0:1:
42,192,28390,128,0,28682:0:0:0:1:
298,192,28585,1,0,0:0:0:1:
384,192,28585,1,0,0:0:0:1:
469,192,28585,1,0,0:0:0:1:
128,192,28682,1,0,0:0:0:1:
213,192,28682,1,0,0:0:0:1:
298,192,28682,1,0,0:0:0:1:
128,192,28780,1,0,0:0:0:1:
213,192,28780,1,0,0:0:0:1:
42,192,28780,1,0,0:0:0:1:
298,192,28878,1,0,0:0:0:1:
384,192,28878,1,0,0:0:0:1:
469,192,28878,1,0,0:0:0:1:
42,192,28975,1,0,0:0:0:1:
128,192,29000,1,0,0:0:0:1:
213,192,29024,1,0,0:0:0:1:
469,192,29048,1,0,0:0:0:1:
384,192,29073,1,0,0:0:0:1:
298,192,29097,1,0,0:0:0:1:
42,192,29121,1,0,0:0:0:1:
128,192,29146,1,0,0:0:0:1:
213,192,29170,1,0,0:0:0:1:
469,192,29195,1,0,0:0:0:1:
384,192,29219,1,0,0:0:0:1:
298,192,29243,1,0,0:0:0:1:
128,192,29268,1,0,0:0:0:1:
213,192,29268,1,0,0:0:0:1:
42,192,29268,128,0,29414:0:0:0:1:
298,192,29414,1,0,0:0:0:1:
128,192,29560,1,0,0:0:0:1:
213,192,29560,1,0,0:0:0:1:
384,192,29560,1,0,0:0:0:1:
42,192,29560,128,0,29707:0:0:0:1:
298,192,29707,1,0,0:0:0:1:
213,192,29853,1,0,0:0:0:1:
469,192,29853,1,0,0:0:0:1:
128,192,29853,128,0,30000:0:0:0:1:
384,192,30000,1,0,0:0:0:1:
213,192,30146,1,0,0:0:0:1:
298,192,30146,1,0,0:0:0:1:
469,192,30146,1,0,0:0:0:1:
128,192,30146,128,0,30292:0:0:0:1:
384,192,30292,1,0,0:0:0:1:
298,192,30439,1,0,0:0:0:1:
42,192,30439,1,0,0:0:0:1:
213,192,30439,128,0,30585:0:0:0:1:
128,192,30585,1,0,0:0:0:1:
384,192,30731,1,0,0:0:0:1:
469,192,30731,1,0,0:0:0:1:
42,192,30731,1,0,0:0:0:1:
213,192,30731,128,0,30878:0:0:0:1:
298,192,30878,1,0,0:0:0:1:
128,192,31024,1,0,0:0:0:1:
384,192,31024,1,0,0:0:0:1:
213,192,31170,1,0,0:0:0:1:
298,192,31170,1,0,0:0:0:1:
128,192,31317,1,0,0:0:0:1:
384,192,31317,1,0,0:0:0:1:
469,192,31317,1,0,0:0:0:1:
213,192,31463,1,0,0:0:0:1:
298,192,31463,1,0,0:0:0:1:
298,192,31609,1,0,0:0:0:1:
384,192,31609,1,0,0:0:0:1:
469,192,31609,128,0,31756:0:0:0:1:
213,192,31756,1,0,0:0:0:1:
128,192,31902,1,0,0:0:0:1:
298,192,31902,1,0,0:0:0:1:
384,192,31902,1,0,0:0:0:1:
469,192,31902,128,0,32048:0:0:0:1:
213,192,32048,1,0,0:0:0:1:
298,192,32195,1,0,0:0:0:1:
42,192,32195,1,0,0:0:0:1:
384,192,32195,128,0,32341:0:0:0:1:
128,192,32341,1,0,0:0:0:1:
213,192,32487,1,0,0:0:0:1:
298,192,32487,1,0,0:0:0:1:
42,192,32487,1,0,0:0:0:1:
384,192,32487,128,0,32634:0:0:0:1:
128,192,32634,1,0,0:0:0:1:
213,192,32780,1,0,0:0:0:1:
469,192,32780,1,0,0:0:0:1:
298,192,32780,128,0,32926:0:0:0:1:
384,192,32926,1,0,0:0:0:1:
128,192,33073,1,0,0:0:0:1:
469,192,33073,1,0,0:0:0:1:
42,192,33073,1,0,0:0:0:1:
298,192,33073,128,0,33219:0:0:0:1:
213,192,33219,1,0,0:0:0:1:
128,192,33365,1,0,0:0:0:1:
384,192,33365,1,0,0:0:0:1:
213,192,33512,1,0,0:0:0:1:
298,192,33512,1,0,0:0:0:1:
128,192,33658,1,0,0:0:0:1:
384,192,33658,1,0,0:0:0:1:
42,192,33658,1,0,0:0:0:1:
213,192,33804,1,0,0:0:0:1:
298,192,33804,1,0,0:0:0:1:
128,192,33951,1,0,0:0:0:1:
384,192,33951,1,0,0:0:0:1:
42,192,33951,1,0,0:0:0:1:
469,192,33951,128,0,34097:0:0:0:1:
298,192,34097,1,0,0:0:0:1:
128,192,34243,1,0,0:0:0:1:
213,192,34243,1,0,0:0:0:1:
384,192,34243,1,0,0:0:0:1:
469,192,34243,128,0,34390:0:0:0:1:
42,192,34390,1,0,0:0:0:1:
128,192,34536,1,0,0:0:0:1:
298,192,34536,1,0,0:0:0:1:
384,192,34536,128,0,34682:0:0:0:1:
213,192,34682,1,0,0:0:0:1:
128,192,34829,1,0,0:0:0:1:
298,192,34829,1,0,0:0:0:1:
42,192,34829,1,0,0:0:0:1:
384,192,34829,128,0,34975:0:0:0:1:
213,192,34975,1,0,0:0:0:1:
128,192,35121,1,0,0:0:0:1:
469,192,35121,1,0,0:0:0:1:
42,192,35121,1,0,0:0:0:1:
298,192,35121,128,0,35268:0:0:0:1:
213,192,35268,1,0,0:0:0:1:
384,192,35414,1,0,0:0:0:1:
469,192,35414,1,0,0:0:0:1:
42,192,35414,1,0,0:0:0:1:
298,192,35414,128,0,35560:0:0:0:1:
213,192,35560,1,0,0:0:0:1:
384,192,35707,1,0,0:0:0:1:
42,192,35707,1,0,0:0:0:1:
213,192,35707,128,0,35853:0:0:0:1:
128,192,35853,128,0,36000:0:0:0:1:
384,192,35926,1,0,0:0:0:1:
213,192,36000,1,0,0:0:0:1:
469,192,36000,1,0,0:0:0:1:
42,192,36000,128,0,36146:0:0:0:1:
298,192,36146,1,0,0:0:0:1:
469,192,36146,1,0,0:0:0:1:
128,192,36146,128,0,36292:0:0:0:1:
213,192,36292,1,0,0:0:0:1:
384,192,36292,1,0,0:0:0:1:
469,192,36292,1,0,0:0:0:1:
298,192,36365,1,0,0:0:0:1:
213,192,36439,1,0,0:0:0:1:
384,192,36439,1,0,0:0:0:1:
469,192,36439,1,0,0:0:0:1:
128,192,36512,1,0,0:0:0:1:
384,192,36585,1,0,0:0:0:1:
469,192,36585,1,0,0:0:0:1:
42,192,36585,1,0,0:0:0:1:
128,192,36658,1,0,0:0:0:1:
213,192,36731,1,0,0:0:0:1:
298,192,36804,1,0,0:0:0:1:
213,192,36878,1,0,0:0:0:1:
384,192,36878,1,0,0:0:0:1:
469,192,36878,1,0,0:0:0:1:
298,192,36951,1,0,0:0:0:1:
213,192,37024,1,0,0:0:0:1:
384,192,37024,1,0,0:0:0:1:
469,192,37024,1,0,0:0:0:1:
128,192,37097,1,0,0:0:0:1:
384,192,37170,1,0,0:0:0:1:
469,192,37170,1,0,0:0:0:1:
42,192,37170,1,0,0:0:0:1:
128,192,37243,1,0,0:0:0:1:
213,192,37317,1,0,0:0:0:1:
298,192,37390,1,0,0:0:0:1:
128,192,37463,1,0,0:0:0:1:
213,192,37463,1,0,0:0:0:1:
384,192,37463,1,0,0:0:0:1:
42,192,37463,128,0,37609:0:0:0:1:
298,192,37609,1,0,0:0:0:1:
213,192,37756,1,0,0:0:0:1:
384,192,37756,1,0,0:0:0:1:
469,192,37756,1,0,0:0:0:1:
128,192,37756,128,0,37902:0:0:0:1:
298,192,37902,1,0,0:0:0:1:
384,192,38048,1,0,0:0:0:1:
469,192,38048,1,0,0:0:0:1:
42,192,38048,1,0,0:0:0:1:
213,192,38048,128,0,38195:0:0:0:1:
128,192,38195,1,0,0:0:0:1:
384,192,38341,1,0,0:0:0:1:
469,192,38341,1,0,0:0:0:1:
42,192,38341,1,0,0:0:0:1:
298,192,38341,128,0,38487:0:0:0:1:
213,192,38487,1,0,0:0:0:1:
384,192,38560,1,0,0:0:0:1:
213,192,38634,1,0,0:0:0:1:
42,192,38634,1,0,0:0:0:1:
469,192,38634,128,0,38780:0:0:0:1:
298,192,38780,1,0,0:0:0:1:
128,192,38926,1,0,0:0:0:1:
213,192,38926,1,0,0:0:0:1:
384,192,38926,1,0,0:0:0:1:
42,192,38926,128,0,39073:0:0:0:1:
469,192,39073,1,0,0:0:0:1:
128,192,39219,1,0,0:0:0:1:
298,192,39219,1,0,0:0:0:1:
384,192,39219,128,0,39365:0:0:0:1:
213,192,39365,1,0,0:0:0:1:
298,192,39439,1,0,0:0:0:1:
384,192,39512,1,0,0:0:0:1:
469,192,39512,1,0,0:0:0:1:
42,192,39512,1,0,0:0:0:1:
128,192,39512,128,0,39658:0:0:0:1:
298,192,39658,1,0,0:0:0:1:
213,192,39804,1,0,0:0:0:1:
384,192,39804,1,0,0:0:0:1:
469,192,39804,128,0,39951:0:0:0:1:
128,192,39951,1,0,0:0:0:1:
298,192,40097,1,0,0:0:0:1:
469,192,40097,1,0,0:0:0:1:
42,192,40097,1,0,0:0:0:1:
213,192,40097,128,0,40243:0:0:0:1:
384,192,40170,1,0,0:0:0:1:
298,192,40243,1,0,0:0:0:1:
384,192,40317,1,0,0:0:0:1:
128,192,40390,1,0,0:0:0:1:
298,192,40390,1,0,0:0:0:1:
128,192,40536,1,0,0:0:0:1:
298,192,40536,1,0,0:0:0:1:
213,192,40682,128,0,40975:0:0:0:1:
384,192,40829,128,0,40975:0:0:0:1:
128,192,40975,1,0,0:0:0:1:
469,192,40975,1,0,0:0:0:1:
42,192,40975,128,0,41121:0:0:0:1:
298,192,41121,1,0,0:0:0:1:
128,192,41268,1,0,0:0:0:1:
213,192,41268,1,0,0:0:0:1:
384,192,41268,1,0,0:0:0:1:
469,192,41268,128,0,41414:0:0:0:1:
298,192,41414,1,0,0:0:0:1:
384,192,41560,1,0,0:0:0:1:
42,192,41560,1,0,0:0:0:1:
213,192,41560,128,0,41707:0:0:0:1:
298,192,41707,1,0,0:0:0:1:
384,192,41780,1,0,0:0:0:1:
128,192,41853,1,0,0:0:0:1:
213,192,41853,1,0,0:0:0:1:
469,192,41853,1,0,0:0:0:1:
42,192,41853,128,0,42000:0:0:0:1:
298,192,42000,1,0,0:0:0:1:
469,192,42146,128,0,42731:0:0:0:1:
42,192,42292,128,0,42731:0:0:0:1:
213,192,42439,128,0,42512:0:0:0:1:
298,192,42512,128,0,42585:0:0:0:1:
213,192,42585,128,0,42658:0:0:0:1:
298,192,42658,128,0,42731:0:0:0:1:
128,192,42731,1,0,0:0:0:1:
213,192,42731,128,0,42878:0:0:0:1:
384,192,42731,128,0,43317:0:0:0:1:
128,192,42878,128,0,43024:0:0:0:1:
42,192,43024,128,0,43170:0:0:0:1:
128,192,43170,128,0,43317:0:0:0:1:
213,192,43317,1,0,0:0:0:1:
469,192,43317,1,0,0:0:0:1:
298,192,43317,128,0,43463:0:0:0:1:
128,192,43463,1,0,0:0:0:1:
213,192,43609,1,0,0:0:0:1:
384,192,43609,1,0,0:0:0:1:
42,192,43609,1,0,0:0:0:1:
469,192,43609,128,0,43756:0:0:0:1:
298,192,43756,1,0,0:0:0:1:
128,192,43902,1,0,0:0:0:1:
384,192,43902,1,0,0:0:0:1:
213,192,43902,128,0,44048:0:0:0:1:
298,192,44048,1,0,0:0:0:1:
384,192,44121,1,0,0:0:0:1:
128,192,44195,1,0,0:0:0:1:
213,192,44195,1,0,0:0:0:1:
469,192,44195,1,0,0:0:0:1:
42,192,44195,128,0,44341:0:0:0:1:
298,192,44341,1,0,0:0:0:1:
469,192,44341,1,0,0:0:0:1:
128,192,44487,1,0,0:0:0:1:
384,192,44487,1,0,0:0:0:1:
213,192,44487,128,0,44634:0:0:0:1:
298,192,44634,1,0,0:0:0:1:
42,192,44634,1,0,0:0:0:1:
128,192,44780,1,0,0:0:0:1:
213,192,44780,1,0,0:0:0:1:
469,192,44780,1,0,0:0:0:1:
384,192,44780,128,0,44926:0:0:0:1:
298,192,44926,1,0,0:0:0:1:
384,192,45073,1,0,0:0:0:1:
469,192,45073,128,0,45219:0:0:0:1:
298,192,45219,1,0,0:0:0:1:
384,192,45219,128,0,45365:0:0:0:1:
213,192,45365,1,0,0:0:0:1:
298,192,45365,128,0,45512:0:0:0:1:
128,192,45512,1,0,0:0:0:1:
213,192,45512,128,0,45658:0:0:0:1:
469,192,45658,1,0,0:0:0:1:
42,192,45658,1,0,0:0:0:1:
384,192,45658,128,0,45804:0:0:0:1:
213,192,45804,1,0,0:0:0:1:
128,192,45951,1,0,0:0:0:1:
298,192,45951,1,0,0:0:0:1:
469,192,45951,1,0,0:0:0:1:
42,192,45951,128,0,46097:0:0:0:1:
384,192,46097,1,0,0:0:0:1:
213,192,46243,1,0,0:0:0:1:
469,192,46243,1,0,0:0:0:1:
128,192,46243,128,0,46390:0:0:0:1:
298,192,46390,1,0,0:0:0:1:
384,192,46463,1,0,0:0:0:1:
213,192,46536,1,0,0:0:0:1:
469,192,46536,1,0,0:0:0:1:
42,192,46536,1,0,0:0:0:1:
298,192,46536,128,0,46682:0:0:0:1:
128,192,46682,1,0,0:0:0:1:
213,192,46829,1,0,0:0:0:1:
384,192,46829,1,0,0:0:0:1:
469,192,46829,1,0,0:0:0:1:
42,192,46829,1,0,0:0:0:1:
128,192,47048,1,0,0:0:0:1:
298,192,47048,1,0,0:0:0:1:
384,192,47048,1,0,0:0:0:1:
42,192,47048,1,0,0:0:0:1:
128,192,47268,1,0,0:0:0:1:
213,192,47268,1,0,0:0:0:1:
384,192,47268,1,0,0:0:0:1:
469,192,47268,1,0,0:0:0:1:
213,192,47487,1,0,0:0:0:1:
298,192,47487,1,0,0:0:0:1:
469,192,47487,1,0,0:0:0:1:
42,192,47487,1,0,0:0:0:1:
128,192,47707,1,0,0:0:0:1:
213,192,47707,1,0,0:0:0:1:
384,192,47780,1,0,0:0:0:1:
469,192,47780,1,0,0:0:0:1:
128,192,47853,1,0,0:0:0:1:
213,192,47853,1,0,0:0:0:1:
384,192,47926,1,0,0:0:0:1:
469,192,47926,1,0,0:0:0:1:
128,192,48000,1,0,0:0:0:1:
298,192,48000,1,0,0:0:0:1:
42,192,48000,128,0,48146:0:0:0:1:
213,192,48146,1,0,0:0:0:1:
128,192,48292,1,0,0:0:0:1:
469,192,48292,1,0,0:0:0:1:
42,192,48292,1,0,0:0:0:1:
298,192,48292,128,0,48439:0:0:0:1:
384,192,48439,1,0,0:0:0:1:
213,192,48585,1,0,0:0:0:1:
469,192,48585,1,0,0:0:0:1:
128,192,48585,128,0,48731:0:0:0:1:
298,192,48731,1,0,0:0:0:1:
213,192,48804,1,0,0:0:0:1:
128,192,48878,1,0,0:0:0:1:
469,192,48878,1,0,0:0:0:1:
42,192,48878,1,0,0:0:0:1:
384,192,48878,128,0,49024:0:0:0:1:
213,192,49024,1,0,0:0:0:1:
128,192,49170,1,0,0:0:0:1:
298,192,49170,1,0,0:0:0:1:
469,192,49170,128,0,49317:0:0:0:1:
298,192,49317,1,0,0:0:0:1:
213,192,49463,1,0,0:0:0:1:
384,192,49463,1,0,0:0:0:1:
42,192,49463,1,0,0:0:0:1:
469,192,49463,128,0,49609:0:0:0:1:
298,192,49609,1,0,0:0:0:1:
384,192,49756,1,0,0:0:0:1:
42,192,49756,1,0,0:0:0:1:
128,192,49756,128,0,50048:0:0:0:1:
213,192,49902,1,0,0:0:0:1:
384,192,49902,128,0,50195:0:0:0:1:
298,192,50048,1,0,0:0:0:1:
469,192,50048,1,0,0:0:0:1:
213,192,50048,128,0,50341:0:0:0:1:
128,192,50195,1,0,0:0:0:1:
42,192,50195,128,0,50341:0:0:0:1:
298,192,50341,1,0,0:0:0:1:
384,192,50341,1,0,0:0:0:1:
469,192,50341,128,0,50487:0:0:0:1:
213,192,50487,1,0,0:0:0:1:
298,192,50634,1,0,0:0:0:1:
384,192,50634,1,0,0:0:0:1:
469,192,50634,128,0,50780:0:0:0:1:
128,192,50780,1,0,0:0:0:1:
213,192,50926,1,0,0:0:0:1:
298,192,50926,1,0,0:0:0:1:
384,192,50926,128,0,51073:0:0:0:1:
128,192,51073,1,0,0:0:0:1:
42,192,51146,1,0,0:0:0:1:
213,192,51219,1,0,0:0:0:1:
298,192,51219,1,0,0:0:0:1:
384,192,51219,128,0,51365:0:0:0:1:
128,192,51365,1,0,0:0:0:1:
298,192,51512,1,0,0:0:0:1:
469,192,51512,1,0,0:0:0:1:
42,192,51512,1,0,0:0:0:1:
213,192,51658,1,0,0:0:0:1:
128,192,51804,1,0,0:0:0:1:
298,192,51804,1,0,0:0:0:1:
469,192,51804,1,0,0:0:0:1:
384,192,51951,1,0,0:0:0:1:
213,192,52097,1,0,0:0:0:1:
42,192,52097,1,0,0:0:0:1:
298,192,52170,1,0,0:0:0:1:
128,192,52243,1,0,0:0:0:1:
384,192,52243,1,0,0:0:0:1:
213,192,52317,1,0,0:0:0:1:
298,192,52390,1,0,0:0:0:1:
469,192,52390,1,0,0:0:0:1:
42,192,52390,1,0,0:0:0:1:
128,192,52463,1,0,0:0:0:1:
213,192,52536,1,0,0:0:0:1:
384,192,52536,1,0,0:0:0:1:
298,192,52609,1,0,0:0:0:1:
384,192,52682,1,0,0:0:0:1:
213,192,52975,1,0,0:0:0:1:
384,192,52975,1,0,0:0:0:1:
42,192,52975,1,0,0:0:0:1:
469,192,52975,128,0,53121:0:0:0:1:
298,192,53121,1,0,0:0:0:1:
128,192,53268,1,0,0:0:0:1:
384,192,53268,1,0,0:0:0:1:
213,192,53268,128,0,53414:0:0:0:1:
298,192,53414,1,0,0:0:0:1:
384,192,53487,1,0,0:0:0:1:
213,192,53560,1,0,0:0:0:1:
298,192,53560,1,0,0:0:0:1:
469,192,53560,1,0,0:0:0:1:
42,192,53560,128,0,53707:0:0:0:1:
128,192,53707,1,0,0:0:0:1:
298,192,53853,1,0,0:0:0:1:
469,192,53853,1,0,0:0:0:1:
213,192,53853,128,0,54000:0:0:0:1:
384,192,54000,1,0,0:0:0:1:
42,192,54000,128,0,54146:0:0:0:1:
128,192,54146,1,0,0:0:0:1:
298,192,54146,1,0,0:0:0:1:
469,192,54146,1,0,0:0:0:1:
213,192,54146,128,0,54292:0:0:0:1:
384,192,54292,1,0,0:0:0:1:
298,192,54365,1,0,0:0:0:1:
213,192,54439,1,0,0:0:0:1:
469,192,54439,1,0,0:0:0:1:
42,192,54439,1,0,0:0:0:1:
128,192,54439,128,0,54585:0:0:0:1:
298,192,54585,1,0,0:0:0:1:
469,192,54585,1,0,0:0:0:1:
213,192,54731,1,0,0:0:0:1:
128,192,54878,1,0,0:0:0:1:
213,192,55024,1,0,0:0:0:1:
298,192,55024,1,0,0:0:0:1:
42,192,55024,1,0,0:0:0:1:
469,192,55024,128,0,55170:0:0:0:1:
128,192,55170,1,0,0:0:0:1:
213,192,55317,1,0,0:0:0:1:
298,192,55317,1,0,0:0:0:1:
42,192,55317,1,0,0:0:0:1:
469,192,55317,128,0,55463:0:0:0:1:
42,192,55463,1,0,0:0:0:1:
128,192,55536,1,0,0:0:0:1:
213,192,55609,1,0,0:0:0:1:
298,192,55609,1,0,0:0:0:1:
469,192,55609,1,0,0:0:0:1:
384,192,55609,128,0,55756:0:0:0:1:
128,192,55756,1,0,0:0:0:1:
213,192,55902,1,0,0:0:0:1:
298,192,55902,1,0,0:0:0:1:
469,192,55902,1,0,0:0:0:1:
384,192,55902,128,0,56048:0:0:0:1:
128,192,56048,1,0,0:0:0:1:
213,192,56121,1,0,0:0:0:1:
384,192,56195,1,0,0:0:0:1:
469,192,56195,1,0,0:0:0:1:
42,192,56195,1,0,0:0:0:1:
298,192,56195,128,0,56341:0:0:0:1:
128,192,56341,1,0,0:0:0:1:
384,192,56487,1,0,0:0:0:1:
469,192,56487,1,0,0:0:0:1:
42,192,56487,1,0,0:0:0:1:
298,192,56487,128,0,56634:0:0:0:1:
128,192,56634,1,0,0:0:0:1:
384,192,56780,1,0,0:0:0:1:
42,192,56780,1,0,0:0:0:1:
213,192,56780,128,0,56926:0:0:0:1:
469,192,56926,1,0,0:0:0:1:
298,192,57073,1,0,0:0:0:1:
128,192,57073,128,0,57219:0:0:0:1:
384,192,57146,1,0,0:0:0:1:
298,192,57219,1,0,0:0:0:1:
42,192,57219,128,0,57365:0:0:0:1:
384,192,57292,1,0,0:0:0:1:
213,192,57365,1,0,0:0:0:1:
469,192,57365,1,0,0:0:0:1:
298,192,57438,1,0,0:0:0:1:
384,192,57511,1,0,0:0:0:1:
213,192,57584,1,0,0:0:0:1:
298,192,57657,1,0,0:0:0:1:
469,192,57657,1,0,0:0:0:1:
128,192,57729,1,0,0:0:0:1:
213,192,57802,1,0,0:0:0:1:
42,192,57875,1,0,0:0:0:1:
128,192,57948,1,0,0:0:0:1:
469,192,57948,1,0,0:0:0:1:
42,192,58021,1,0,0:0:0:1:
213,192,58094,1,0,0:0:0:1:
128,192,58166,1,0,0:0:0:1:
298,192,58239,1,0,0:0:0:1:
469,192,58239,1,0,0:0:0:1:
213,192,58312,1,0,0:0:0:1:
384,192,58385,1,0,0:0:0:1:
298,192,58458,1,0,0:0:0:1:
469,192,58530,1,0,0:0:0:1:
42,192,58530,1,0,0:0:0:1:
298,192,58603,1,0,0:0:0:1:
384,192,58676,1,0,0:0:0:1:
213,192,58749,1,0,0:0:0:1:
298,192,58822,1,0,0:0:0:1:
469,192,58822,1,0,0:0:0:1:
128,192,58894,1,0,0:0:0:1:
213,192,58967,1,0,0:0:0:1:
42,192,59040,1,0,0:0:0:1:
128,192,59113,1,0,0:0:0:1:
469,192,59113,1,0,0:0:0:1:
42,192,59186,1,0,0:0:0:1:
213,192,59259,1,0,0:0:0:1:
128,192,59331,1,0,0:0:0:1:
298,192,59404,1,0,0:0:0:1:
469,192,59404,1,0,0:0:0:1:
213,192,59477,1,0,0:0:0:1:
384,192,59550,1,0,0:0:0:1:
298,192,59623,1,0,0:0:0:1:
469,192,59695,1,0,0:0:0:1:
42,192,59695,1,0,0:0:0:1:
298,192,59768,1,0,0:0:0:1:
384,192,59841,1,0,0:0:0:1:
213,192,59914,1,0,0:0:0:1:
298,192,59987,1,0,0:0:0:1:
469,192,59987,1,0,0:0:0:1:
128,192,60060,1,0,0:0:0:1:
213,192,60132,1,0,0:0:0:1:
42,192,60205,1,0,0:0:0:1:
128,192,60278,1,0,0:0:0:1:
469,192,60278,1,0,0:0:0:1:
42,192,60351,1,0,0:0:0:1:
213,192,60424,1,0,0:0:0:1:
128,192,60496,1,0,0:0:0:1:
298,192,60569,1,0,0:0:0:1:
469,192,60569,1,0,0:0:0:1:
213,192,60642,1,0,0:0:0:1:
384,192,60715,1,0,0:0:0:1:
298,192,60788,1,0,0:0:0:1:
213,192,60860,1,0,0:0:0:1:
469,192,60860,1,0,0:0:0:1:
128,192,60933,1,0,0:0:0:1:
384,192,60933,1,0,0:0:0:1:
298,192,61006,1,0,0:0:0:1:
42,192,61006,1,0,0:0:0:1:
128,192,61079,1,0,0:0:0:1:
384,192,61079,1,0,0:0:0:1:
213,192,61152,1,0,0:0:0:1:
469,192,61152,1,0,0:0:0:1:
128,192,61225,1,0,0:0:0:1:
384,192,61225,1,0,0:0:0:1:
298,192,61297,1,0,0:0:0:1:
42,192,61297,1,0,0:0:0:1:
128,192,61370,1,0,0:0:0:1:
384,192,61370,1,0,0:0:0:1:
213,192,61443,1,0,0:0:0:1:
469,192,61443,1,0,0:0:0:1:
128,192,61516,1,0,0:0:0:1:
384,192,61516,1,0,0:0:0:1:
298,192,61589,1,0,0:0:0:1:
42,192,61589,1,0,0:0:0:1:
128,192,61661,1,0,0:0:0:1:
384,192,61661,1,0,0:0:0:1:
213,192,61734,1,0,0:0:0:1:
298,192,61734,1,0,0:0:0:1:
469,192,61734,128,0,61880:0:0:0:1:
42,192,61734,128,0,61880:0:0:0:1:
213,192,61880,128,0,61953:0:0:0:1:
298,192,61880,128,0,61953:0:0:0:1:
128,192,61953,128,0,62026:0:0:0:1:
384,192,61953,128,0,62026:0:0:0:1:
469,192,62026,1,0,0:0:0:1:
42,192,62026,128,0,62171:0:0:0:1:
298,192,62171,1,0,0:0:0:1:
213,192,62317,1,0,0:0:0:1:
384,192,62317,1,0,0:0:0:1:
469,192,62317,1,0,0:0:0:1:
128,192,62317,128,0,62462:0:0:0:1:
298,192,62462,1,0,0:0:0:1:
469,192,62608,1,0,0:0:0:1:
42,192,62608,1,0,0:0:0:1:
213,192,62608,128,0,62754:0:0:0:1:
384,192,62754,1,0,0:0:0:1:
213,192,62899,1,0,0:0:0:1:
469,192,62899,1,0,0:0:0:1:
42,192,62899,1,0,0:0:0:1:
298,192,62899,128,0,63191:0:0:0:1:
384,192,63045,1,0,0:0:0:1:
128,192,63045,128,0,63191:0:0:0:1:
213,192,63191,1,0,0:0:0:1:
42,192,63191,1,0,0:0:0:1:
469,192,63191,128,0,63336:0:0:0:1:
298,192,63336,1,0,0:0:0:1:
128,192,63482,1,0,0:0:0:1:
213,192,63482,1,0,0:0:0:1:
469,192,63482,1,0,0:0:0:1:
384,192,63482,128,0,63627:0:0:0:1:
298,192,63627,1,0,0:0:0:1:
298,192,63773,1,0,0:0:0:1:
42,192,63773,1,0,0:0:0:1:
128,192,63846,1,0,0:0:0:1:
384,192,63846,1,0,0:0:0:1:
213,192,63919,1,0,0:0:0:1:
469,192,63919,1,0,0:0:0:1:
128,192,63992,1,0,0:0:0:1:
298,192,63992,1,0,0:0:0:1:
469,192,64064,1,0,0:0:0:1:
42,192,64064,1,0,0:0:0:1:
384,192,64064,128,0,64210:0:0:0:1:
213,192,64210,1,0,0:0:0:1:
298,192,64356,1,0,0:0:0:1:
469,192,64356,1,0,0:0:0:1:
128,192,64356,128,0,64501:0:0:0:1:
213,192,64501,1,0,0:0:0:1:
128,192,64647,1,0,0:0:0:1:
384,192,64647,1,0,0:0:0:1:
42,192,64647,1,0,0:0:0:1:
298,192,64647,128,0,64793:0:0:0:1:
213,192,64793,1,0,0:0:0:1:
298,192,64938,1,0,0:0:0:1:
469,192,64938,1,0,0:0:0:1:
42,192,64938,128,0,65229:0:0:0:1:
384,192,65084,1,0,0:0:0:1:
213,192,65084,128,0,65375:0:0:0:1:
128,192,65229,1,0,0:0:0:1:
298,192,65229,1,0,0:0:0:1:
469,192,65229,1,0,0:0:0:1:
384,192,65229,128,0,65521:0:0:0:1:
42,192,65375,1,0,0:0:0:1:
128,192,65375,128,0,65666:0:0:0:1:
213,192,65521,1,0,0:0:0:1:
298,192,65521,1,0,0:0:0:1:
469,192,65521,128,0,65666:0:0:0:1:
42,192,65666,1,0,0:0:0:1:
128,192,65812,1,0,0:0:0:1:
298,192,65812,1,0,0:0:0:1:
469,192,65812,1,0,0:0:0:1:
384,192,65812,128,0,65958:0:0:0:1:
213,192,65958,1,0,0:0:0:1:
384,192,66103,1,0,0:0:0:1:
42,192,66103,1,0,0:0:0:1:
298,192,66103,128,0,66249:0:0:0:1:
213,192,66249,1,0,0:0:0:1:
128,192,66394,1,0,0:0:0:1:
469,192,66394,1,0,0:0:0:1:
42,192,66394,1,0,0:0:0:1:
213,192,66394,128,0,66540:0:0:0:1:
384,192,66467,1,0,0:0:0:1:
298,192,66540,1,0,0:0:0:1:
384,192,66613,1,0,0:0:0:1:
213,192,66686,1,0,0:0:0:1:
469,192,66686,1,0,0:0:0:1:
42,192,66686,1,0,0:0:0:1:
298,192,66759,1,0,0:0:0:1:
128,192,66831,1,0,0:0:0:1:
384,192,66831,1,0,0:0:0:1:
213,192,66904,1,0,0:0:0:1:
298,192,66977,1,0,0:0:0:1:
469,192,66977,1,0,0:0:0:1:
42,192,66977,1,0,0:0:0:1:
213,192,67123,1,0,0:0:0:1:
128,192,67268,1,0,0:0:0:1:
384,192,67268,1,0,0:0:0:1:
128,192,67414,1,0,0:0:0:1:
384,192,67414,1,0,0:0:0:1:
298,192,67487,1,0,0:0:0:1:
213,192,67560,1,0,0:0:0:1:
469,192,67560,1,0,0:0:0:1:
213,192,67705,1,0,0:0:0:1:
469,192,67705,1,0,0:0:0:1:
298,192,67851,1,0,0:0:0:1:
469,192,67851,1,0,0:0:0:1:
42,192,67851,1,0,0:0:0:1:
213,192,67924,1,0,0:0:0:1:
128,192,67996,1,0,0:0:0:1:
384,192,67996,1,0,0:0:0:1:
298,192,68069,1,0,0:0:0:1:
213,192,68142,1,0,0:0:0:1:
469,192,68142,1,0,0:0:0:1:
42,192,68142,1,0,0:0:0:1:
298,192,68288,1,0,0:0:0:1:
128,192,68433,1,0,0:0:0:1:
384,192,68433,1,0,0:0:0:1:
128,192,68579,1,0,0:0:0:1:
384,192,68579,1,0,0:0:0:1:
213,192,68652,1,0,0:0:0:1:
298,192,68725,1,0,0:0:0:1:
42,192,68725,1,0,0:0:0:1:
298,192,68870,1,0,0:0:0:1:
42,192,68870,1,0,0:0:0:1:
469,192,69016,1,0,0:0:0:1:
213,192,69016,128,0,69161:0:0:0:1:
42,192,69016,128,0,69453:0:0:0:1:
298,192,69161,128,0,69234:0:0:0:1:
384,192,69234,128,0,69307:0:0:0:1:
128,192,69307,1,0,0:0:0:1:
213,192,69307,1,0,0:0:0:1:
469,192,69307,1,0,0:0:0:1:
298,192,69307,128,0,69598:0:0:0:1:
128,192,69598,1,0,0:0:0:1:
469,192,69598,1,0,0:0:0:1:
213,192,69598,128,0,69744:0:0:0:1:
42,192,69598,128,0,70035:0:0:0:1:
298,192,69744,128,0,69817:0:0:0:1:
384,192,69817,128,0,69890:0:0:0:1:
128,192,69890,1,0,0:0:0:1:
213,192,69890,1,0,0:0:0:1:
469,192,69890,1,0,0:0:0:1:
298,192,69890,128,0,70181:0:0:0:1:
384,192,70181,1,0,0:0:0:1:
42,192,70181,1,0,0:0:0:1:
213,192,70181,128,0,70327:0:0:0:1:
469,192,70181,128,0,70618:0:0:0:1:
128,192,70327,128,0,70399:0:0:0:1:
42,192,70399,128,0,70472:0:0:0:1:
213,192,70472,1,0,0:0:0:1:
298,192,70472,1,0,0:0:0:1:
384,192,70472,1,0,0:0:0:1:
128,192,70472,128,0,70763:0:0:0:1:
384,192,70763,1,0,0:0:0:1:
42,192,70763,1,0,0:0:0:1:
469,192,70763,128,0,70909:0:0:0:1:
213,192,70836,1,0,0:0:0:1:
298,192,70909,1,0,0:0:0:1:
384,192,70909,128,0,71055:0:0:0:1:
128,192,70982,1,0,0:0:0:1:
213,192,71055,1,0,0:0:0:1:
298,192,71055,128,0,71200:0:0:0:1:
42,192,71127,1,0,0:0:0:1:
128,192,71200,1,0,0:0:0:1:
213,192,71200,128,0,71346:0:0:0:1:
384,192,71273,1,0,0:0:0:1:
298,192,71346,1,0,0:0:0:1:
42,192,71346,1,0,0:0:0:1:
469,192,71346,128,0,71492:0:0:0:1:
213,192,71492,1,0,0:0:0:1:
128,192,71637,1,0,0:0:0:1:
298,192,71637,1,0,0:0:0:1:
42,192,71637,1,0,0:0:0:1:
384,192,71637,128,0,71783:0:0:0:1:
213,192,71783,1,0,0:0:0:1:
469,192,71928,1,0,0:0:0:1:
42,192,71928,1,0,0:0:0:1:
298,192,71928,128,0,72074:0:0:0:1:
128,192,72074,1,0,0:0:0:1:
298,192,72220,1,0,0:0:0:1:
469,192,72220,1,0,0:0:0:1:
42,192,72220,1,0,0:0:0:1:
213,192,72220,128,0,72511:0:0:0:1:
128,192,72365,1,0,0:0:0:1:
384,192,72365,128,0,72511:0:0:0:1:
298,192,72511,1,0,0:0:0:1:
469,192,72511,1,0,0:0:0:1:
42,192,72511,128,0,72657:0:0:0:1:
213,192,72657,1,0,0:0:0:1:
298,192,72802,1,0,0:0:0:1:
384,192,72802,1,0,0:0:0:1:
42,192,72802,1,0,0:0:0:1:
128,192,72802,128,0,72948:0:0:0:1:
213,192,72948,1,0,0:0:0:1:
213,192,73094,1,0,0:0:0:1:
469,192,73094,1,0,0:0:0:1:
128,192,73166,1,0,0:0:0:1:
384,192,73166,1,0,0:0:0:1:
298,192,73239,1,0,0:0:0:1:
42,192,73239,1,0,0:0:0:1:
213,192,73312,1,0,0:0:0:1:
384,192,73312,1,0,0:0:0:1:
469,192,73385,1,0,0:0:0:1:
42,192,73385,1,0,0:0:0:1:
128,192,73385,128,0,73530:0:0:0:1:
298,192,73530,1,0,0:0:0:1:
213,192,73676,1,0,0:0:0:1:
42,192,73676,1,0,0:0:0:1:
384,192,73676,128,0,73822:0:0:0:1:
298,192,73822,1,0,0:0:0:1:
128,192,73967,1,0,0:0:0:1:
384,192,73967,1,0,0:0:0:1:
469,192,73967,1,0,0:0:0:1:
213,192,73967,128,0,74113:0:0:0:1:
298,192,74113,1,0,0:0:0:1:
213,192,74259,1,0,0:0:0:1:
42,192,74259,1,0,0:0:0:1:
469,192,74259,128,0,74550:0:0:0:1:
128,192,74404,1,0,0:0:0:1:
298,192,74404,128,0,74695:0:0:0:1:
213,192,74550,1,0,0:0:0:1:
384,192,74550,1,0,0:0:0:1:
42,192,74550,1,0,0:0:0:1:
128,192,74550,128,0,74841:0:0:0:1:
469,192,74695,1,0,0:0:0:1:
384,192,74695,128,0,74987:0:0:0:1:
213,192,74841,1,0,0:0:0:1:
298,192,74841,1,0,0:0:0:1:
42,192,74841,128,0,74987:0:0:0:1:
469,192,74987,1,0,0:0:0:1:
213,192,75132,1,0,0:0:0:1:
384,192,75132,1,0,0:0:0:1:
42,192,75132,1,0,0:0:0:1:
128,192,75132,128,0,75278:0:0:0:1:
298,192,75278,1,0,0:0:0:1:
128,192,75424,1,0,0:0:0:1:
469,192,75424,1,0,0:0:0:1:
213,192,75424,128,0,75569:0:0:0:1:
298,192,75569,1,0,0:0:0:1:
384,192,75715,1,0,0:0:0:1:
469,192,75715,1,0,0:0:0:1:
42,192,75715,1,0,0:0:0:1:
298,192,75715,128,0,75860:0:0:0:1:
128,192,75788,1,0,0:0:0:1:
213,192,75860,1,0,0:0:0:1:
128,192,75933,1,0,0:0:0:1:
298,192,76006,1,0,0:0:0:1:
469,192,76006,1,0,0:0:0:1:
42,192,76006,1,0,0:0:0:1:
213,192,76079,1,0,0:0:0:1:
128,192,76152,1,0,0:0:0:1:
384,192,76152,1,0,0:0:0:1:
298,192,76225,1,0,0:0:0:1:
213,192,76297,1,0,0:0:0:1:
469,192,76297,1,0,0:0:0:1:
42,192,76297,1,0,0:0:0:1:
298,192,76443,1,0,0:0:0:1:
128,192,76589,1,0,0:0:0:1:
384,192,76589,1,0,0:0:0:1:
128,192,76734,1,0,0:0:0:1:
384,192,76734,1,0,0:0:0:1:
213,192,76807,1,0,0:0:0:1:
298,192,76880,1,0,0:0:0:1:
42,192,76880,1,0,0:0:0:1:
298,192,77026,1,0,0:0:0:1:
42,192,77026,1,0,0:0:0:1:
213,192,77171,1,0,0:0:0:1:
469,192,77171,1,0,0:0:0:1:
42,192,77171,1,0,0:0:0:1:
298,192,77244,1,0,0:0:0:1:
128,192,77317,1,0,0:0:0:1:
384,192,77317,1,0,0:0:0:1:
213,192,77390,1,0,0:0:0:1:
298,192,77462,1,0,0:0:0:1:
469,192,77462,1,0,0:0:0:1:
42,192,77462,1,0,0:0:0:1:
213,192,77608,1,0,0:0:0:1:
128,192,77754,1,0,0:0:0:1:
384,192,77754,1,0,0:0:0:1:
128,192,77899,1,0,0:0:0:1:
384,192,77899,1,0,0:0:0:1:
298,192,77972,1,0,0:0:0:1:
213,192,78045,1,0,0:0:0:1:
469,192,78045,1,0,0:0:0:1:
213,192,78191,1,0,0:0:0:1:
469,192,78191,1,0,0:0:0:1:
42,192,78336,1,0,0:0:0:1:
298,192,78336,128,0,78482:0:0:0:1:
469,192,78336,128,0,78773:0:0:0:1:
213,192,78482,128,0,78555:0:0:0:1:
128,192,78555,128,0,78627:0:0:0:1:
298,192,78627,1,0,0:0:0:1:
384,192,78627,1,0,0:0:0:1:
42,192,78627,1,0,0:0:0:1:
213,192,78627,128,0,78919:0:0:0:1:
384,192,78919,1,0,0:0:0:1:
42,192,78919,1,0,0:0:0:1:
298,192,78919,128,0,79064:0:0:0:1:
469,192,78919,128,0,79356:0:0:0:1:
213,192,79064,128,0,79137:0:0:0:1:
128,192,79137,128,0,79210:0:0:0:1:
298,192,79210,1,0,0:0:0:1:
384,192,79210,1,0,0:0:0:1:
42,192,79210,1,0,0:0:0:1:
213,192,79210,128,0,79501:0:0:0:1:
384,192,79501,1,0,0:0:0:1:
469,192,79501,1,0,0:0:0:1:
42,192,79501,1,0,0:0:0:1:
128,192,79501,128,0,80084:0:0:0:1:
298,192,79647,1,0,0:0:0:1:
213,192,79793,1,0,0:0:0:1:
384,192,79793,1,0,0:0:0:1:
42,192,79793,1,0,0:0:0:1:
469,192,79793,128,0,80375:0:0:0:1:
298,192,79938,1,0,0:0:0:1:
213,192,80084,1,0,0:0:0:1:
384,192,80084,1,0,0:0:0:1:
42,192,80084,128,0,80375:0:0:0:1:
298,192,80229,1,0,0:0:0:1:
128,192,80375,1,0,0:0:0:1:
213,192,80375,1,0,0:0:0:1:
384,192,80375,1,0,0:0:0:1:
298,192,80448,1,0,0:0:0:1:
42,192,80448,1,0,0:0:0:1:
128,192,80521,1,0,0:0:0:1:
384,192,80521,1,0,0:0:0:1:
213,192,80594,1,0,0:0:0:1:
469,192,80594,1,0,0:0:0:1:
128,192,80666,1,0,0:0:0:1:
298,192,80666,1,0,0:0:0:1:
384,192,80666,1,0,0:0:0:1:
42,192,80666,1,0,0:0:0:1:
213,192,80739,1,0,0:0:0:1:
128,192,80812,1,0,0:0:0:1:
469,192,80812,1,0,0:0:0:1:
298,192,80885,1,0,0:0:0:1:
213,192,80958,1,0,0:0:0:1:
384,192,80958,1,0,0:0:0:1:
42,192,80958,1,0,0:0:0:1:
298,192,81030,1,0,0:0:0:1:
128,192,81103,1,0,0:0:0:1:
469,192,81103,1,0,0:0:0:1:
213,192,81176,1,0,0:0:0:1:
298,192,81249,1,0,0:0:0:1:
42,192,81249,1,0,0:0:0:1:
213,192,81394,1,0,0:0:0:1:
298,192,81467,1,0,0:0:0:1:
128,192,81540,1,0,0:0:0:1:
384,192,81540,1,0,0:0:0:1:
469,192,81540,1,0,0:0:0:1:
298,192,81686,1,0,0:0:0:1:
42,192,81686,1,0,0:0:0:1:
213,192,81831,1,0,0:0:0:1:
384,192,81831,1,0,0:0:0:1:
128,192,81977,1,0,0:0:0:1:
213,192,82050,1,0,0:0:0:1:
298,192,82123,1,0,0:0:0:1:
469,192,82123,1,0,0:0:0:1:
42,192,82123,1,0,0:0:0:1:
213,192,82268,1,0,0:0:0:1:
384,192,82268,1,0,0:0:0:1:
128,192,82414,1,0,0:0:0:1:
469,192,82414,128,0,82560:0:0:0:1:
213,192,82560,1,0,0:0:0:1:
384,192,82560,128,0,82705:0:0:0:1:
128,192,82705,1,0,0:0:0:1:
42,192,82705,1,0,0:0:0:1:
298,192,82705,128,0,82851:0:0:0:1:
469,192,82851,1,0,0:0:0:1:
213,192,82851,128,0,82996:0:0:0:1:
128,192,82996,1,0,0:0:0:1:
384,192,82996,1,0,0:0:0:1:
298,192,83069,1,0,0:0:0:1:
469,192,83142,1,0,0:0:0:1:
42,192,83142,1,0,0:0:0:1:
213,192,83215,1,0,0:0:0:1:
128,192,83288,1,0,0:0:0:1:
298,192,83288,1,0,0:0:0:1:
469,192,83288,1,0,0:0:0:1:
42,192,83360,1,0,0:0:0:1:
213,192,83433,1,0,0:0:0:1:
384,192,83433,1,0,0:0:0:1:
298,192,83506,1,0,0:0:0:1:
128,192,83579,1,0,0:0:0:1:
469,192,83579,1,0,0:0:0:1:
42,192,83579,1,0,0:0:0:1:
213,192,83725,1,0,0:0:0:1:
298,192,83797,1,0,0:0:0:1:
384,192,83797,1,0,0:0:0:1:
128,192,83870,1,0,0:0:0:1:
469,192,83870,1,0,0:0:0:1:
213,192,84016,1,0,0:0:0:1:
384,192,84016,1,0,0:0:0:1:
128,192,84161,1,0,0:0:0:1:
298,192,84161,1,0,0:0:0:1:
469,192,84161,1,0,0:0:0:1:
42,192,84161,128,0,84453:0:0:0:1:
213,192,84307,1,0,0:0:0:1:
298,192,84453,1,0,0:0:0:1:
384,192,84453,1,0,0:0:0:1:
469,192,84453,1,0,0:0:0:1:
128,192,84453,128,0,84744:0:0:0:1:
213,192,84598,1,0,0:0:0:1:
298,192,84744,1,0,0:0:0:1:
384,192,84744,1,0,0:0:0:1:
42,192,84744,1,0,0:0:0:1:
213,192,84744,128,0,85035:0:0:0:1:
469,192,84890,1,0,0:0:0:1:
128,192,85035,1,0,0:0:0:1:
384,192,85035,1,0,0:0:0:1:
42,192,85035,1,0,0:0:0:1:
298,192,85035,128,0,85327:0:0:0:1:
213,192,85181,1,0,0:0:0:1:
128,192,85327,1,0,0:0:0:1:
384,192,85327,1,0,0:0:0:1:
42,192,85327,1,0,0:0:0:1:
213,192,85399,1,0,0:0:0:1:
128,192,85472,1,0,0:0:0:1:
469,192,85472,1,0,0:0:0:1:
298,192,85545,1,0,0:0:0:1:
213,192,85618,1,0,0:0:0:1:
384,192,85618,1,0,0:0:0:1:
42,192,85618,1,0,0:0:0:1:
298,192,85691,1,0,0:0:0:1:
128,192,85763,1,0,0:0:0:1:
469,192,85763,1,0,0:0:0:1:
213,192,85836,1,0,0:0:0:1:
298,192,85909,1,0,0:0:0:1:
42,192,85909,1,0,0:0:0:1:
213,192,86055,1,0,0:0:0:1:
298,192,86127,1,0,0:0:0:1:
128,192,86200,1,0,0:0:0:1:
384,192,86200,1,0,0:0:0:1:
469,192,86200,1,0,0:0:0:1:
298,192,86346,1,0,0:0:0:1:
42,192,86346,1,0,0:0:0:1:
213,192,86492,1,0,0:0:0:1:
384,192,86492,1,0,0:0:0:1:
128,192,86637,1,0,0:0:0:1:
213,192,86710,1,0,0:0:0:1:
298,192,86783,1,0,0:0:0:1:
469,192,86783,1,0,0:0:0:1:
42,192,86783,1,0,0:0:0:1:
213,192,86928,1,0,0:0:0:1:
384,192,86928,1,0,0:0:0:1:
128,192,87074,1,0,0:0:0:1:
298,192,87074,1,0,0:0:0:1:
469,192,87074,1,0,0:0:0:1:
213,192,87220,1,0,0:0:0:1:
298,192,87293,1,0,0:0:0:1:
384,192,87293,1,0,0:0:0:1:
469,192,87365,1,0,0:0:0:1:
42,192,87365,1,0,0:0:0:1:
213,192,87511,1,0,0:0:0:1:
384,192,87511,1,0,0:0:0:1:
128,192,87657,1,0,0:0:0:1:
298,192,87657,1,0,0:0:0:1:
42,192,87657,1,0,0:0:0:1:
384,192,87802,1,0,0:0:0:1:
128,192,87875,1,0,0:0:0:1:
213,192,87875,1,0,0:0:0:1:
469,192,87948,1,0,0:0:0:1:
42,192,87948,1,0,0:0:0:1:
213,192,88094,1,0,0:0:0:1:
298,192,88094,1,0,0:0:0:1:
128,192,88239,1,0,0:0:0:1:
384,192,88239,1,0,0:0:0:1:
469,192,88239,1,0,0:0:0:1:
213,192,88385,1,0,0:0:0:1:
128,192,88458,1,0,0:0:0:1:
384,192,88458,1,0,0:0:0:1:
298,192,88530,1,0,0:0:0:1:
42,192,88530,1,0,0:0:0:1:
213,192,88676,1,0,0:0:0:1:
469,192,88676,1,0,0:0:0:1:
128,192,88822,1,0,0:0:0:1:
384,192,88822,1,0,0:0:0:1:
298,192,88894,1,0,0:0:0:1:
213,192,88967,1,0,0:0:0:1:
298,192,89040,1,0,0:0:0:1:
384,192,89113,1,0,0:0:0:1:
42,192,89113,1,0,0:0:0:1:
213,192,89259,1,0,0:0:0:1:
469,192,89259,1,0,0:0:0:1:
384,192,89404,1,0,0:0:0:1:
213,192,89404,128,0,89550:0:0:0:1:
42,192,89404,128,0,89695:0:0:0:1:
298,192,89550,128,0,89695:0:0:0:1:
384,192,89695,1,0,0:0:0:1:
469,192,89695,1,0,0:0:0:1:
128,192,89695,128,0,89841:0:0:0:1:
298,192,89768,1,0,0:0:0:1:
384,192,89841,1,0,0:0:0:1:
469,192,89841,1,0,0:0:0:1:
213,192,89841,128,0,89987:0:0:0:1:
298,192,89914,1,0,0:0:0:1:
128,192,89987,1,0,0:0:0:1:
384,192,89987,1,0,0:0:0:1:
469,192,89987,1,0,0:0:0:1:
42,192,89987,1,0,0:0:0:1:
213,192,90424,1,0,0:0:0:1:
298,192,90424,1,0,0:0:0:1:
384,192,90424,1,0,0:0:0:1:
42,192,90424,1,0,0:0:0:1:
128,192,90860,1,0,0:0:0:1:
213,192,90860,1,0,0:0:0:1:
384,192,90860,1,0,0:0:0:1:
469,192,90860,1,0,0:0:0:1:
128,192,91297,1,0,0:0:0:1:
298,192,91297,1,0,0:0:0:1:
384,192,91297,1,0,0:0:0:1:
42,192,91297,1,0,0:0:0:1:
213,192,91734,1,0,0:0:0:1:
469,192,91734,1,0,0:0:0:1:
128,192,91880,1,0,0:0:0:1:
384,192,91880,1,0,0:0:0:1:
213,192,92026,1,0,0:0:0:1:
298,192,92026,1,0,0:0:0:1:
469,192,92026,1,0,0:0:0:1:
42,192,92026,1,0,0:0:0:1:
128,192,92171,1,0,0:0:0:1:
384,192,92171,1,0,0:0:0:1:
128,192,92317,1,0,0:0:0:1:
384,192,92317,1,0,0:0:0:1:
469,192,92317,1,0,0:0:0:1:
42,192,92317,1,0,0:0:0:1:
128,192,92754,1,0,0:0:0:1:
213,192,92754,1,0,0:0:0:1:
298,192,92754,1,0,0:0:0:1:
469,192,92754,1,0,0:0:0:1:
128,192,93191,1,0,0:0:0:1:
298,192,93191,1,0,0:0:0:1:
384,192,93191,1,0,0:0:0:1:
42,192,93191,1,0,0:0:0:1:
128,192,93627,1,0,0:0:0:1:
213,192,93627,1,0,0:0:0:1:
384,192,93627,1,0,0:0:0:1:
469,192,93627,1,0,0:0:0:1:
298,192,94064,1,0,0:0:0:1:
42,192,94064,1,0,0:0:0:1:
128,192,94210,1,0,0:0:0:1:
384,192,94210,1,0,0:0:0:1:
213,192,94356,1,0,0:0:0:1:
298,192,94356,1,0,0:0:0:1:
469,192,94356,1,0,0:0:0:1:
42,192,94356,1,0,0:0:0:1:
128,192,94501,1,0,0:0:0:1:
384,192,94501,1,0,0:0:0:1:
128,192,94647,1,0,0:0:0:1:
298,192,94647,1,0,0:0:0:1:
469,192,94647,1,0,0:0:0:1:
42,192,94793,1,0,0:0:0:1:
128,192,94865,1,0,0:0:0:1:
213,192,94938,1,0,0:0:0:1:
298,192,94938,1,0,0:0:0:1:
384,192,94938,1,0,0:0:0:1:
469,192,95084,1,0,0:0:0:1:
384,192,95157,1,0,0:0:0:1:
128,192,95229,1,0,0:0:0:1:
213,192,95229,1,0,0:0:0:1:
298,192,95229,1,0,0:0:0:1:
42,192,95375,1,0,0:0:0:1:
128,192,95448,1,0,0:0:0:1:
213,192,95521,1,0,0:0:0:1:
298,192,95521,1,0,0:0:0:1:
384,192,95521,1,0,0:0:0:1:
469,192,95666,1,0,0:0:0:1:
384,192,95739,1,0,0:0:0:1:
128,192,95812,1,0,0:0:0:1:
213,192,95812,1,0,0:0:0:1:
298,192,95812,1,0,0:0:0:1:
42,192,95885,1,0,0:0:0:1:
128,192,95958,1,0,0:0:0:1:
213,192,96030,1,0,0:0:0:1:
298,192,96103,1,0,0:0:0:1:
384,192,96103,1,0,0:0:0:1:
42,192,96103,1,0,0:0:0:1:
469,192,96176,1,0,0:0:0:1:
384,192,96249,1,0,0:0:0:1:
298,192,96322,1,0,0:0:0:1:
128,192,96394,1,0,0:0:0:1:
213,192,96394,1,0,0:0:0:1:
469,192,96394,1,0,0:0:0:1:
42,192,96467,1,0,0:0:0:1:
128,192,96540,1,0,0:0:0:1:
213,192,96613,1,0,0:0:0:1:
298,192,96686,1,0,0:0:0:1:
384,192,96686,1,0,0:0:0:1:
42,192,96686,1,0,0:0:0:1:
469,192,96759,1,0,0:0:0:1:
384,192,96831,1,0,0:0:0:1:
298,192,96904,1,0,0:0:0:1:
213,192,96977,1,0,0:0:0:1:
469,192,96977,1,0,0:0:0:1:
42,192,96977,1,0,0:0:0:1:
384,192,97050,1,0,0:0:0:1:
128,192,97123,1,0,0:0:0:1:
298,192,97123,1,0,0:0:0:1:
469,192,97195,1,0,0:0:0:1:
213,192,97268,1,0,0:0:0:1:
384,192,97268,1,0,0:0:0:1:
128,192,97341,1,0,0:0:0:1:
298,192,97414,1,0,0:0:0:1:
469,192,97414,1,0,0:0:0:1:
213,192,97487,1,0,0:0:0:1:
128,192,97560,1,0,0:0:0:1:
384,192,97560,1,0,0:0:0:1:
469,192,97560,1,0,0:0:0:1:
42,192,97560,1,0,0:0:0:1:
213,192,97632,1,0,0:0:0:1:
298,192,97632,1,0,0:0:0:1:
128,192,97705,1,0,0:0:0:1:
384,192,97705,1,0,0:0:0:1:
469,192,97705,1,0,0:0:0:1:
42,192,97705,1,0,0:0:0:1:
213,192,97778,1,0,0:0:0:1:
298,192,97778,1,0,0:0:0:1:
128,192,97851,1,0,0:0:0:1:
384,192,97851,1,0,0:0:0:1:
469,192,97851,1,0,0:0:0:1:
42,192,97851,1,0,0:0:0:1:
213,192,97924,1,0,0:0:0:1:
298,192,97924,1,0,0:0:0:1:
128,192,97996,1,0,0:0:0:1:
384,192,97996,1,0,0:0:0:1:
469,192,97996,1,0,0:0:0:1:
42,192,97996,1,0,0:0:0:1:
213,192,98069,1,0,0:0:0:1:
298,192,98069,1,0,0:0:0:1:
128,192,98142,128,0,99307:0:0:0:1:
298,192,99016,128,0,99089:0:0:0:1:
384,192,99089,128,0,99161:0:0:0:1:
298,192,99161,128,0,99234:0:0:0:1:
384,192,99234,128,0,99307:0:0:0:1:
213,192,99307,1,0,0:0:0:1:
298,192,99307,1,0,0:0:0:1:
469,192,99307,1,0,0:0:0:1:
42,192,99307,128,0,99453:0:0:0:1:
298,192,99453,1,0,0:0:0:1:
213,192,99598,1,0,0:0:0:1:
384,192,99598,1,0,0:0:0:1:
469,192,99598,1,0,0:0:0:1:
128,192,99598,128,0,99744:0:0:0:1:
298,192,99744,1,0,0:0:0:1:
384,192,99817,1,0,0:0:0:1:
469,192,99890,1,0,0:0:0:1:
42,192,99890,1,0,0:0:0:1:
213,192,99890,128,0,100035:0:0:0:1:
384,192,100035,1,0,0:0:0:1:
213,192,100181,1,0,0:0:0:1:
469,192,100181,1,0,0:0:0:1:
42,192,100181,1,0,0:0:0:1:
298,192,100181,128,0,100472:0:0:0:1:
384,192,100327,1,0,0:0:0:1:
128,192,100327,128,0,100472:0:0:0:1:
213,192,100472,1,0,0:0:0:1:
42,192,100472,1,0,0:0:0:1:
469,192,100472,128,0,100618:0:0:0:1:
298,192,100618,1,0,0:0:0:1:
128,192,100763,1,0,0:0:0:1:
213,192,100763,1,0,0:0:0:1:
469,192,100763,1,0,0:0:0:1:
384,192,100763,128,0,100909:0:0:0:1:
298,192,100909,1,0,0:0:0:1:
298,192,101055,1,0,0:0:0:1:
42,192,101055,1,0,0:0:0:1:
128,192,101127,1,0,0:0:0:1:
384,192,101127,1,0,0:0:0:1:
213,192,101200,1,0,0:0:0:1:
469,192,101200,1,0,0:0:0:1:
128,192,101273,1,0,0:0:0:1:
298,192,101273,1,0,0:0:0:1:
469,192,101346,1,0,0:0:0:1:
42,192,101346,1,0,0:0:0:1:
384,192,101346,128,0,101492:0:0:0:1:
213,192,101492,1,0,0:0:0:1:
128,192,101637,1,0,0:0:0:1:
298,192,101637,1,0,0:0:0:1:
469,192,101637,1,0,0:0:0:1:
42,192,101637,1,0,0:0:0:1:
213,192,101710,1,0,0:0:0:1:
384,192,101710,1,0,0:0:0:1:
128,192,101783,1,0,0:0:0:1:
42,192,101783,1,0,0:0:0:1:
213,192,101856,1,0,0:0:0:1:
384,192,101856,1,0,0:0:0:1:
128,192,101928,1,0,0:0:0:1:
469,192,101928,1,0,0:0:0:1:
42,192,101928,1,0,0:0:0:1:
298,192,101928,128,0,102074:0:0:0:1:
213,192,102074,1,0,0:0:0:1:
298,192,102220,1,0,0:0:0:1:
469,192,102220,1,0,0:0:0:1:
42,192,102220,1,0,0:0:0:1:
128,192,102293,1,0,0:0:0:1:
213,192,102365,1,0,0:0:0:1:
384,192,102365,1,0,0:0:0:1:
42,192,102438,1,0,0:0:0:1:
128,192,102511,1,0,0:0:0:1:
298,192,102511,1,0,0:0:0:1:
469,192,102511,1,0,0:0:0:1:
213,192,102584,1,0,0:0:0:1:
384,192,102657,1,0,0:0:0:1:
42,192,102657,1,0,0:0:0:1:
298,192,102729,1,0,0:0:0:1:
128,192,102802,1,0,0:0:0:1:
213,192,102802,1,0,0:0:0:1:
384,192,102802,1,0,0:0:0:1:
469,192,102802,128,0,102948:0:0:0:1:
42,192,102948,1,0,0:0:0:1:
128,192,103094,1,0,0:0:0:1:
298,192,103094,1,0,0:0:0:1:
469,192,103094,1,0,0:0:0:1:
384,192,103094,128,0,103239:0:0:0:1:
213,192,103239,1,0,0:0:0:1:
128,192,103385,1,0,0:0:0:1:
384,192,103385,1,0,0:0:0:1:
42,192,103385,1,0,0:0:0:1:
298,192,103385,128,0,103530:0:0:0:1:
213,192,103530,1,0,0:0:0:1:
128,192,103676,1,0,0:0:0:1:
384,192,103676,1,0,0:0:0:1:
42,192,103676,1,0,0:0:0:1:
213,192,103676,128,0,103822:0:0:0:1:
298,192,103822,1,0,0:0:0:1:
213,192,103967,1,0,0:0:0:1:
469,192,103967,1,0,0:0:0:1:
42,192,103967,1,0,0:0:0:1:
298,192,104040,1,0,0:0:0:1:
128,192,104113,1,0,0:0:0:1:
384,192,104113,1,0,0:0:0:1:
213,192,104186,1,0,0:0:0:1:
298,192,104259,1,0,0:0:0:1:
469,192,104259,1,0,0:0:0:1:
42,192,104259,1,0,0:0:0:1:
213,192,104404,1,0,0:0:0:1:
213,192,104550,1,0,0:0:0:1:
469,192,104550,1,0,0:0:0:1:
42,192,104550,1,0,0:0:0:1:
298,192,104623,1,0,0:0:0:1:
128,192,104695,1,0,0:0:0:1:
384,192,104695,1,0,0:0:0:1:
298,192,104768,1,0,0:0:0:1:
213,192,104841,1,0,0:0:0:1:
469,192,104841,1,0,0:0:0:1:
42,192,104841,1,0,0:0:0:1:
128,192,104914,1,0,0:0:0:1:
213,192,104987,1,0,0:0:0:1:
384,192,104987,1,0,0:0:0:1:
298,192,105132,1,0,0:0:0:1:
469,192,105132,1,0,0:0:0:1:
42,192,105132,1,0,0:0:0:1:
213,192,105205,1,0,0:0:0:1:
128,192,105278,1,0,0:0:0:1:
384,192,105278,1,0,0:0:0:1:
298,192,105351,1,0,0:0:0:1:
213,192,105424,1,0,0:0:0:1:
469,192,105424,1,0,0:0:0:1:
42,192,105424,1,0,0:0:0:1:
128,192,105569,1,0,0:0:0:1:
298,192,105715,1,0,0:0:0:1:
469,192,105715,1,0,0:0:0:1:
42,192,105715,1,0,0:0:0:1:
213,192,105788,1,0,0:0:0:1:
128,192,105860,1,0,0:0:0:1:
384,192,105860,1,0,0:0:0:1:
213,192,105933,1,0,0:0:0:1:
298,192,106006,1,0,0:0:0:1:
469,192,106006,1,0,0:0:0:1:
42,192,106006,1,0,0:0:0:1:
384,192,106079,1,0,0:0:0:1:
128,192,106152,1,0,0:0:0:1:
298,192,106152,1,0,0:0:0:1:
469,192,106297,1,0,0:0:0:1:
213,192,106297,128,0,106443:0:0:0:1:
42,192,106297,128,0,106734:0:0:0:1:
298,192,106443,128,0,106516:0:0:0:1:
384,192,106516,128,0,106589:0:0:0:1:
128,192,106589,1,0,0:0:0:1:
213,192,106589,1,0,0:0:0:1:
469,192,106589,1,0,0:0:0:1:
298,192,106589,128,0,106880:0:0:0:1:
128,192,106880,1,0,0:0:0:1:
469,192,106880,1,0,0:0:0:1:
213,192,106880,128,0,107026:0:0:0:1:
42,192,106880,128,0,107317:0:0:0:1:
298,192,107026,128,0,107098:0:0:0:1:
384,192,107098,128,0,107171:0:0:0:1:
128,192,107171,1,0,0:0:0:1:
213,192,107171,1,0,0:0:0:1:
469,192,107171,1,0,0:0:0:1:
298,192,107171,128,0,107462:0:0:0:1:
128,192,107462,1,0,0:0:0:1:
469,192,107462,1,0,0:0:0:1:
42,192,107462,1,0,0:0:0:1:
384,192,107462,128,0,108045:0:0:0:1:
213,192,107608,1,0,0:0:0:1:
128,192,107754,1,0,0:0:0:1:
298,192,107754,1,0,0:0:0:1:
469,192,107754,1,0,0:0:0:1:
42,192,107754,128,0,108336:0:0:0:1:
213,192,107899,1,0,0:0:0:1:
128,192,108045,1,0,0:0:0:1:
298,192,108045,1,0,0:0:0:1:
469,192,108045,128,0,108191:0:0:0:1:
213,192,108191,1,0,0:0:0:1:
384,192,108191,128,0,108336:0:0:0:1:
128,192,108336,1,0,0:0:0:1:
469,192,108336,1,0,0:0:0:1:
298,192,108336,128,0,108482:0:0:0:1:
384,192,108482,1,0,0:0:0:1:
213,192,108482,128,0,108627:0:0:0:1:
128,192,108627,1,0,0:0:0:1:
298,192,108627,1,0,0:0:0:1:
384,192,108627,1,0,0:0:0:1:
42,192,108627,1,0,0:0:0:1:
469,192,108627,128,0,109064:0:0:0:1:
213,192,108773,1,0,0:0:0:1:
128,192,108919,1,0,0:0:0:1:
213,192,109064,1,0,0:0:0:1:
298,192,109064,1,0,0:0:0:1:
384,192,109064,1,0,0:0:0:1:
42,192,109064,128,0,109501:0:0:0:1:
128,192,109210,1,0,0:0:0:1:
298,192,109356,1,0,0:0:0:1:
128,192,109501,1,0,0:0:0:1:
213,192,109501,1,0,0:0:0:1:
469,192,109501,1,0,0:0:0:1:
384,192,109501,128,0,109938:0:0:0:1:
298,192,109647,1,0,0:0:0:1:
213,192,109793,1,0,0:0:0:1:
128,192,109938,1,0,0:0:0:1:
298,192,109938,1,0,0:0:0:1:
469,192,109938,1,0,0:0:0:1:
42,192,109938,128,0,110375:0:0:0:1:
213,192,110084,1,0,0:0:0:1:
298,192,110229,1,0,0:0:0:1:
213,192,110375,1,0,0:0:0:1:
469,192,110375,1,0,0:0:0:1:
128,192,110521,1,0,0:0:0:1:
384,192,110521,1,0,0:0:0:1:
213,192,110666,1,0,0:0:0:1:
469,192,110666,1,0,0:0:0:1:
42,192,110666,1,0,0:0:0:1:
298,192,110739,1,0,0:0:0:1:
128,192,110812,1,0,0:0:0:1:
384,192,110812,1,0,0:0:0:1:
213,192,110885,1,0,0:0:0:1:
128,192,110958,1,0,0:0:0:1:
298,192,110958,1,0,0:0:0:1:
384,192,110958,1,0,0:0:0:1:
42,192,110958,128,0,111394:0:0:0:1:
469,192,111030,1,0,0:0:0:1:
384,192,111103,1,0,0:0:0:1:
298,192,111176,1,0,0:0:0:1:
213,192,111249,1,0,0:0:0:1:
128,192,111394,1,0,0:0:0:1:
298,192,111394,1,0,0:0:0:1:
469,192,111394,1,0,0:0:0:1:
213,192,111394,128,0,111831:0:0:0:1:
384,192,111540,1,0,0:0:0:1:
469,192,111686,1,0,0:0:0:1:
128,192,111831,1,0,0:0:0:1:
298,192,111831,1,0,0:0:0:1:
42,192,111831,1,0,0:0:0:1:
384,192,111831,128,0,112268:0:0:0:1:
213,192,111904,1,0,0:0:0:1:
128,192,111977,1,0,0:0:0:1:
42,192,111977,1,0,0:0:0:1:
213,192,112050,1,0,0:0:0:1:
128,192,112123,1,0,0:0:0:1:
42,192,112123,1,0,0:0:0:1:
213,192,112195,1,0,0:0:0:1:
128,192,112268,1,0,0:0:0:1:
298,192,112268,1,0,0:0:0:1:
469,192,112268,1,0,0:0:0:1:
42,192,112341,1,0,0:0:0:1:
128,192,112414,1,0,0:0:0:1:
384,192,112414,1,0,0:0:0:1:
213,192,112487,1,0,0:0:0:1:
298,192,112560,1,0,0:0:0:1:
469,192,112560,1,0,0:0:0:1:
384,192,112632,1,0,0:0:0:1:
298,192,112705,1,0,0:0:0:1:
42,192,112705,1,0,0:0:0:1:
128,192,112851,1,0,0:0:0:1:
384,192,112851,1,0,0:0:0:1:
213,192,112996,1,0,0:0:0:1:
298,192,112996,1,0,0:0:0:1:
469,192,112996,1,0,0:0:0:1:
42,192,112996,1,0,0:0:0:1:
128,192,113142,1,0,0:0:0:1:
384,192,113142,1,0,0:0:0:1:
128,192,113288,1,0,0:0:0:1:
298,192,113288,1,0,0:0:0:1:
469,192,113288,1,0,0:0:0:1:
384,192,113433,1,0,0:0:0:1:
42,192,113433,1,0,0:0:0:1:
128,192,113506,1,0,0:0:0:1:
213,192,113579,1,0,0:0:0:1:
298,192,113579,1,0,0:0:0:1:
384,192,113579,1,0,0:0:0:1:
128,192,113725,1,0,0:0:0:1:
469,192,113725,1,0,0:0:0:1:
384,192,113797,1,0,0:0:0:1:
128,192,113870,1,0,0:0:0:1:
213,192,113870,1,0,0:0:0:1:
298,192,113870,1,0,0:0:0:1:
384,192,114016,1,0,0:0:0:1:
42,192,114016,1,0,0:0:0:1:
128,192,114089,1,0,0:0:0:1:
213,192,114161,1,0,0:0:0:1:
298,192,114161,1,0,0:0:0:1:
384,192,114161,1,0,0:0:0:1:
128,192,114307,1,0,0:0:0:1:
469,192,114307,1,0,0:0:0:1:
384,192,114380,1,0,0:0:0:1:
128,192,114453,1,0,0:0:0:1:
213,192,114453,1,0,0:0:0:1:
42,192,114453,1,0,0:0:0:1:
384,192,114526,1,0,0:0:0:1:
128,192,114598,1,0,0:0:0:1:
213,192,114598,1,0,0:0:0:1:
298,192,114598,1,0,0:0:0:1:
469,192,114671,1,0,0:0:0:1:
213,192,114744,1,0,0:0:0:1:
298,192,114744,1,0,0:0:0:1:
384,192,114744,1,0,0:0:0:1:
469,192,114817,1,0,0:0:0:1:
128,192,114890,1,0,0:0:0:1:
384,192,114890,1,0,0:0:0:1:
42,192,114890,1,0,0:0:0:1:
298,192,114962,1,0,0:0:0:1:
128,192,115035,1,0,0:0:0:1:
213,192,115035,1,0,0:0:0:1:
42,192,115035,1,0,0:0:0:1:
298,192,115108,1,0,0:0:0:1:
384,192,115108,1,0,0:0:0:1:
469,192,115108,1,0,0:0:0:1:
128,192,115181,1,0,0:0:0:1:
213,192,115181,1,0,0:0:0:1:
42,192,115181,1,0,0:0:0:1:
298,192,115254,1,0,0:0:0:1:
384,192,115254,1,0,0:0:0:1:
469,192,115254,1,0,0:0:0:1:
128,192,115327,1,0,0:0:0:1:
213,192,115327,1,0,0:0:0:1:
42,192,115327,1,0,0:0:0:1:
298,192,115399,1,0,0:0:0:1:
384,192,115399,1,0,0:0:0:1:
469,192,115399,1,0,0:0:0:1:
128,192,115472,1,0,0:0:0:1:
213,192,115472,1,0,0:0:0:1:
42,192,115472,1,0,0:0:0:1:
298,192,115545,1,0,0:0:0:1:
384,192,115545,1,0,0:0:0:1:
469,192,115545,1,0,0:0:0:1:
128,192,115618,1,0,0:0:0:1:
213,192,115618,1,0,0:0:0:1:
298,192,115618,1,0,0:0:0:1:
42,192,115618,1,0,0:0:0:1:
469,192,115618,128,0,115909:0:0:0:1:
213,192,116200,1,0,0:0:0:1:
42,192,116200,1,0,0:0:0:1:
384,192,116200,128,0,116492:0:0:0:1:
128,192,116783,1,0,0:0:0:1:
469,192,116783,1,0,0:0:0:1:
298,192,116783,128,0,117074:0:0:0:1:
384,192,117365,1,0,0:0:0:1:
42,192,117365,1,0,0:0:0:1:
213,192,117365,128,0,117657:0:0:0:1:
298,192,117948,1,0,0:0:0:1:
469,192,117948,1,0,0:0:0:1:
42,192,117948,128,0,120278:0:0:0:1:
128,192,118530,128,0,120314:0:0:0:1:
213,192,119113,128,0,120351:0:0:0:1:
298,192,119695,128,0,120387:0:0:0:1:
