osu file format v14

[General]
AudioFilename: Rose Quartz.mp3
AudioLeadIn: 0
PreviewTime: -1
Countdown: 1
SampleSet: None
StackLeniency: 0.7
Mode: 3
LetterboxInBreaks: 1
SpecialStyle: 1
WidescreenStoryboard: 1

[Editor]
DistanceSpacing: 1.3
BeatDivisor: 4
GridSize: 8
TimelineZoom: 1

[Metadata]
Title:Derrick 6K Exercise Pack
TitleUnicode:Derrick 6K Exercise Pack
Artist:Various Artists
ArtistUnicode:Various Artists
Creator:[Crz]Derrick
Version:Shiki - Rose Quartz [14]
Source:
Tags:
BeatmapID:998939
BeatmapSetID:466803

[Difficulty]
HPDrainRate:9
CircleSize:6
OverallDifficulty:9
ApproachRate:5
SliderMultiplier:1.4
SliderTickRate:1

[Events]
//Background and Video events
0,0,"black-rose.jpg",0,0
//Break Periods
//Storyboard Layer 0 (Background)
//Storyboard Layer 1 (Fail)
//Storyboard Layer 2 (Pass)
//Storyboard Layer 3 (Foreground)
//Storyboard Sound Samples

[TimingPoints]
0,410.958904109589,4,2,0,70,1,0

[HitObjects]
42,192,1643,5,0,0:0:0:1:
128,192,1746,1,0,0:0:0:1:
213,192,1849,1,0,0:0:0:1:
298,192,1952,1,0,0:0:0:1:
128,192,2054,1,0,0:0:0:1:
213,192,2157,1,0,0:0:0:1:
298,192,2260,1,0,0:0:0:1:
384,192,2363,1,0,0:0:0:1:
42,192,2465,1,0,0:0:0:1:
128,192,2568,1,0,0:0:0:1:
213,192,2671,1,0,0:0:0:1:
298,192,2773,1,0,0:0:0:1:
128,192,2876,1,0,0:0:0:1:
213,192,2979,1,0,0:0:0:1:
298,192,3082,1,0,0:0:0:1:
384,192,3184,1,0,0:0:0:1:
42,192,3287,1,0,0:0:0:1:
128,192,3390,1,0,0:0:0:1:
213,192,3493,1,0,0:0:0:1:
298,192,3595,1,0,0:0:0:1:
128,192,3698,1,0,0:0:0:1:
213,192,3801,1,0,0:0:0:1:
298,192,3904,1,0,0:0:0:1:
384,192,4006,1,0,0:0:0:1:
42,192,4109,1,0,0:0:0:1:
128,192,4212,1,0,0:0:0:1:
213,192,4315,1,0,0:0:0:1:
298,192,4417,1,0,0:0:0:1:
128,192,4520,1,0,0:0:0:1:
213,192,4623,1,0,0:0:0:1:
298,192,4726,1,0,0:0:0:1:
384,192,4828,1,0,0:0:0:1:
469,192,4931,1,0,0:0:0:1:
42,192,4931,1,0,0:0:0:1:
128,192,5034,1,0,0:0:0:1:
384,192,5034,1,0,0:0:0:1:
213,192,5136,1,0,0:0:0:1:
469,192,5136,1,0,0:0:0:1:
298,192,5239,1,0,0:0:0:1:
469,192,5342,1,0,0:0:0:1:
42,192,5342,1,0,0:0:0:1:
128,192,5445,1,0,0:0:0:1:
384,192,5445,1,0,0:0:0:1:
213,192,5547,1,0,0:0:0:1:
298,192,5650,1,0,0:0:0:1:
469,192,5650,1,0,0:0:0:1:
384,192,5753,1,0,0:0:0:1:
42,192,5753,1,0,0:0:0:1:
128,192,5856,1,0,0:0:0:1:
213,192,5958,1,0,0:0:0:1:
384,192,5958,1,0,0:0:0:1:
298,192,6061,1,0,0:0:0:1:
469,192,6061,1,0,0:0:0:1:
42,192,6164,1,0,0:0:0:1:
128,192,6267,1,0,0:0:0:1:
384,192,6267,1,0,0:0:0:1:
213,192,6369,1,0,0:0:0:1:
469,192,6369,1,0,0:0:0:1:
298,192,6472,1,0,0:0:0:1:
469,192,6575,1,0,0:0:0:1:
42,192,6575,1,0,0:0:0:1:
128,192,6678,1,0,0:0:0:1:
384,192,6678,1,0,0:0:0:1:
298,192,6780,1,0,0:0:0:1:
42,192,6780,1,0,0:0:0:1:
213,192,6883,1,0,0:0:0:1:
469,192,6986,1,0,0:0:0:1:
42,192,6986,1,0,0:0:0:1:
128,192,7089,1,0,0:0:0:1:
384,192,7089,1,0,0:0:0:1:
298,192,7191,1,0,0:0:0:1:
213,192,7294,1,0,0:0:0:1:
42,192,7294,1,0,0:0:0:1:
128,192,7397,1,0,0:0:0:1:
469,192,7397,1,0,0:0:0:1:
384,192,7499,1,0,0:0:0:1:
128,192,7602,1,0,0:0:0:1:
298,192,7602,1,0,0:0:0:1:
213,192,7705,1,0,0:0:0:1:
42,192,7705,1,0,0:0:0:1:
469,192,7808,1,0,0:0:0:1:
128,192,7910,1,0,0:0:0:1:
384,192,7910,1,0,0:0:0:1:
298,192,8013,1,0,0:0:0:1:
42,192,8013,1,0,0:0:0:1:
213,192,8116,1,0,0:0:0:1:
42,192,8116,1,0,0:0:0:1:
298,192,8219,1,0,0:0:0:1:
469,192,8219,1,0,0:0:0:1:
42,192,8219,1,0,0:0:0:1:
128,192,8321,1,0,0:0:0:1:
213,192,8424,1,0,0:0:0:1:
469,192,8424,1,0,0:0:0:1:
298,192,8527,1,0,0:0:0:1:
128,192,8630,1,0,0:0:0:1:
384,192,8630,1,0,0:0:0:1:
42,192,8630,1,0,0:0:0:1:
298,192,8732,1,0,0:0:0:1:
469,192,8732,1,0,0:0:0:1:
213,192,8835,1,0,0:0:0:1:
128,192,8938,1,0,0:0:0:1:
298,192,9041,1,0,0:0:0:1:
469,192,9041,1,0,0:0:0:1:
42,192,9041,1,0,0:0:0:1:
128,192,9143,1,0,0:0:0:1:
213,192,9246,1,0,0:0:0:1:
298,192,9349,1,0,0:0:0:1:
128,192,9452,1,0,0:0:0:1:
384,192,9452,1,0,0:0:0:1:
42,192,9452,1,0,0:0:0:1:
298,192,9554,1,0,0:0:0:1:
469,192,9554,1,0,0:0:0:1:
213,192,9657,1,0,0:0:0:1:
128,192,9760,1,0,0:0:0:1:
298,192,9863,1,0,0:0:0:1:
469,192,9863,1,0,0:0:0:1:
42,192,9863,1,0,0:0:0:1:
128,192,9965,1,0,0:0:0:1:
213,192,10068,1,0,0:0:0:1:
469,192,10068,1,0,0:0:0:1:
298,192,10171,1,0,0:0:0:1:
128,192,10273,1,0,0:0:0:1:
384,192,10273,1,0,0:0:0:1:
42,192,10273,1,0,0:0:0:1:
298,192,10376,1,0,0:0:0:1:
469,192,10376,1,0,0:0:0:1:
213,192,10479,1,0,0:0:0:1:
128,192,10582,1,0,0:0:0:1:
298,192,10684,1,0,0:0:0:1:
469,192,10684,1,0,0:0:0:1:
42,192,10684,1,0,0:0:0:1:
128,192,10787,1,0,0:0:0:1:
213,192,10890,1,0,0:0:0:1:
298,192,10993,1,0,0:0:0:1:
128,192,11095,1,0,0:0:0:1:
384,192,11095,1,0,0:0:0:1:
42,192,11095,1,0,0:0:0:1:
298,192,11198,1,0,0:0:0:1:
469,192,11198,1,0,0:0:0:1:
213,192,11301,1,0,0:0:0:1:
128,192,11404,1,0,0:0:0:1:
298,192,11506,1,0,0:0:0:1:
469,192,11506,1,0,0:0:0:1:
42,192,11506,1,0,0:0:0:1:
128,192,11609,1,0,0:0:0:1:
213,192,11712,1,0,0:0:0:1:
469,192,11712,1,0,0:0:0:1:
298,192,11815,1,0,0:0:0:1:
128,192,11917,1,0,0:0:0:1:
384,192,11917,1,0,0:0:0:1:
42,192,11917,1,0,0:0:0:1:
298,192,12020,1,0,0:0:0:1:
469,192,12020,1,0,0:0:0:1:
213,192,12123,1,0,0:0:0:1:
128,192,12226,1,0,0:0:0:1:
298,192,12328,1,0,0:0:0:1:
469,192,12328,1,0,0:0:0:1:
42,192,12328,1,0,0:0:0:1:
128,192,12431,1,0,0:0:0:1:
213,192,12534,1,0,0:0:0:1:
298,192,12636,1,0,0:0:0:1:
128,192,12739,1,0,0:0:0:1:
384,192,12739,1,0,0:0:0:1:
42,192,12739,1,0,0:0:0:1:
298,192,12842,1,0,0:0:0:1:
469,192,12842,1,0,0:0:0:1:
213,192,12945,1,0,0:0:0:1:
128,192,13047,1,0,0:0:0:1:
298,192,13150,1,0,0:0:0:1:
469,192,13150,1,0,0:0:0:1:
42,192,13150,1,0,0:0:0:1:
128,192,13253,1,0,0:0:0:1:
213,192,13356,1,0,0:0:0:1:
469,192,13356,1,0,0:0:0:1:
298,192,13458,1,0,0:0:0:1:
128,192,13561,1,0,0:0:0:1:
384,192,13561,1,0,0:0:0:1:
42,192,13561,1,0,0:0:0:1:
298,192,13664,1,0,0:0:0:1:
469,192,13664,1,0,0:0:0:1:
213,192,13767,1,0,0:0:0:1:
128,192,13869,1,0,0:0:0:1:
298,192,13972,1,0,0:0:0:1:
469,192,13972,1,0,0:0:0:1:
42,192,13972,1,0,0:0:0:1:
128,192,14075,1,0,0:0:0:1:
213,192,14178,1,0,0:0:0:1:
298,192,14280,1,0,0:0:0:1:
128,192,14383,1,0,0:0:0:1:
384,192,14383,1,0,0:0:0:1:
42,192,14383,1,0,0:0:0:1:
298,192,14486,1,0,0:0:0:1:
469,192,14486,1,0,0:0:0:1:
213,192,14589,1,0,0:0:0:1:
128,192,14691,1,0,0:0:0:1:
298,192,14794,1,0,0:0:0:1:
469,192,14794,1,0,0:0:0:1:
42,192,14794,1,0,0:0:0:1:
128,192,14897,1,0,0:0:0:1:
384,192,14897,1,0,0:0:0:1:
213,192,14999,1,0,0:0:0:1:
469,192,14999,1,0,0:0:0:1:
128,192,15102,1,0,0:0:0:1:
298,192,15102,1,0,0:0:0:1:
128,192,15205,1,0,0:0:0:1:
384,192,15205,1,0,0:0:0:1:
42,192,15205,1,0,0:0:0:1:
298,192,15308,1,0,0:0:0:1:
469,192,15308,1,0,0:0:0:1:
213,192,15410,1,0,0:0:0:1:
128,192,15513,1,0,0:0:0:1:
384,192,15513,1,0,0:0:0:1:
298,192,15616,1,0,0:0:0:1:
469,192,15616,1,0,0:0:0:1:
42,192,15616,1,0,0:0:0:1:
128,192,15719,1,0,0:0:0:1:
213,192,15821,1,0,0:0:0:1:
42,192,15821,1,0,0:0:0:1:
298,192,15924,1,0,0:0:0:1:
469,192,15924,1,0,0:0:0:1:
128,192,16027,1,0,0:0:0:1:
384,192,16027,1,0,0:0:0:1:
42,192,16027,1,0,0:0:0:1:
298,192,16130,1,0,0:0:0:1:
469,192,16130,1,0,0:0:0:1:
213,192,16232,1,0,0:0:0:1:
42,192,16232,1,0,0:0:0:1:
128,192,16335,1,0,0:0:0:1:
384,192,16335,1,0,0:0:0:1:
298,192,16438,1,0,0:0:0:1:
469,192,16438,1,0,0:0:0:1:
42,192,16438,1,0,0:0:0:1:
128,192,16541,1,0,0:0:0:1:
384,192,16541,1,0,0:0:0:1:
213,192,16643,1,0,0:0:0:1:
469,192,16643,1,0,0:0:0:1:
128,192,16746,1,0,0:0:0:1:
298,192,16746,1,0,0:0:0:1:
128,192,16849,1,0,0:0:0:1:
384,192,16849,1,0,0:0:0:1:
42,192,16849,1,0,0:0:0:1:
298,192,16952,1,0,0:0:0:1:
469,192,16952,1,0,0:0:0:1:
213,192,17054,1,0,0:0:0:1:
128,192,17157,1,0,0:0:0:1:
384,192,17157,1,0,0:0:0:1:
298,192,17260,1,0,0:0:0:1:
469,192,17260,1,0,0:0:0:1:
42,192,17260,1,0,0:0:0:1:
128,192,17363,1,0,0:0:0:1:
213,192,17465,1,0,0:0:0:1:
42,192,17465,1,0,0:0:0:1:
298,192,17568,1,0,0:0:0:1:
469,192,17568,1,0,0:0:0:1:
128,192,17671,1,0,0:0:0:1:
384,192,17671,1,0,0:0:0:1:
42,192,17671,1,0,0:0:0:1:
298,192,17773,1,0,0:0:0:1:
469,192,17773,1,0,0:0:0:1:
213,192,17876,1,0,0:0:0:1:
42,192,17876,1,0,0:0:0:1:
128,192,17979,1,0,0:0:0:1:
384,192,17979,1,0,0:0:0:1:
298,192,18082,1,0,0:0:0:1:
469,192,18082,1,0,0:0:0:1:
42,192,18082,1,0,0:0:0:1:
128,192,18184,1,0,0:0:0:1:
384,192,18184,1,0,0:0:0:1:
213,192,18287,1,0,0:0:0:1:
469,192,18287,1,0,0:0:0:1:
128,192,18390,1,0,0:0:0:1:
298,192,18390,1,0,0:0:0:1:
128,192,18493,1,0,0:0:0:1:
384,192,18493,1,0,0:0:0:1:
42,192,18493,1,0,0:0:0:1:
298,192,18595,1,0,0:0:0:1:
469,192,18595,1,0,0:0:0:1:
213,192,18698,1,0,0:0:0:1:
128,192,18801,1,0,0:0:0:1:
384,192,18801,1,0,0:0:0:1:
298,192,18904,1,0,0:0:0:1:
469,192,18904,1,0,0:0:0:1:
42,192,18904,1,0,0:0:0:1:
128,192,19006,1,0,0:0:0:1:
213,192,19109,1,0,0:0:0:1:
42,192,19109,1,0,0:0:0:1:
298,192,19212,1,0,0:0:0:1:
469,192,19212,1,0,0:0:0:1:
128,192,19315,1,0,0:0:0:1:
384,192,19315,1,0,0:0:0:1:
42,192,19315,1,0,0:0:0:1:
298,192,19417,1,0,0:0:0:1:
469,192,19417,1,0,0:0:0:1:
213,192,19520,1,0,0:0:0:1:
42,192,19520,1,0,0:0:0:1:
128,192,19623,1,0,0:0:0:1:
384,192,19623,1,0,0:0:0:1:
298,192,19726,1,0,0:0:0:1:
469,192,19726,1,0,0:0:0:1:
42,192,19726,1,0,0:0:0:1:
128,192,19828,1,0,0:0:0:1:
384,192,19828,1,0,0:0:0:1:
213,192,19931,1,0,0:0:0:1:
469,192,19931,1,0,0:0:0:1:
128,192,20034,1,0,0:0:0:1:
298,192,20034,1,0,0:0:0:1:
128,192,20136,1,0,0:0:0:1:
384,192,20136,1,0,0:0:0:1:
42,192,20136,1,0,0:0:0:1:
298,192,20239,1,0,0:0:0:1:
469,192,20239,1,0,0:0:0:1:
213,192,20342,1,0,0:0:0:1:
128,192,20445,1,0,0:0:0:1:
384,192,20445,1,0,0:0:0:1:
298,192,20547,1,0,0:0:0:1:
469,192,20547,1,0,0:0:0:1:
42,192,20547,1,0,0:0:0:1:
128,192,20650,1,0,0:0:0:1:
213,192,20753,1,0,0:0:0:1:
42,192,20753,1,0,0:0:0:1:
298,192,20856,1,0,0:0:0:1:
469,192,20856,1,0,0:0:0:1:
128,192,20958,1,0,0:0:0:1:
384,192,20958,1,0,0:0:0:1:
42,192,20958,1,0,0:0:0:1:
298,192,21061,1,0,0:0:0:1:
469,192,21061,1,0,0:0:0:1:
213,192,21164,1,0,0:0:0:1:
42,192,21164,1,0,0:0:0:1:
128,192,21267,1,0,0:0:0:1:
384,192,21267,1,0,0:0:0:1:
298,192,21369,1,0,0:0:0:1:
469,192,21369,1,0,0:0:0:1:
42,192,21369,1,0,0:0:0:1:
128,192,21472,1,0,0:0:0:1:
384,192,21472,1,0,0:0:0:1:
213,192,21575,1,0,0:0:0:1:
469,192,21575,1,0,0:0:0:1:
128,192,21678,1,0,0:0:0:1:
298,192,21678,1,0,0:0:0:1:
128,192,21780,1,0,0:0:0:1:
384,192,21780,1,0,0:0:0:1:
42,192,21780,1,0,0:0:0:1:
298,192,21883,1,0,0:0:0:1:
469,192,21883,1,0,0:0:0:1:
213,192,21986,1,0,0:0:0:1:
128,192,22089,1,0,0:0:0:1:
384,192,22089,1,0,0:0:0:1:
298,192,22191,1,0,0:0:0:1:
469,192,22191,1,0,0:0:0:1:
42,192,22191,1,0,0:0:0:1:
128,192,22294,1,0,0:0:0:1:
384,192,22294,1,0,0:0:0:1:
213,192,22397,1,0,0:0:0:1:
42,192,22397,1,0,0:0:0:1:
298,192,22500,1,0,0:0:0:1:
469,192,22500,1,0,0:0:0:1:
128,192,22602,1,0,0:0:0:1:
384,192,22602,1,0,0:0:0:1:
42,192,22602,1,0,0:0:0:1:
298,192,22705,1,0,0:0:0:1:
469,192,22705,1,0,0:0:0:1:
213,192,22808,1,0,0:0:0:1:
42,192,22808,1,0,0:0:0:1:
128,192,22910,1,0,0:0:0:1:
384,192,22910,1,0,0:0:0:1:
298,192,23013,1,0,0:0:0:1:
469,192,23013,1,0,0:0:0:1:
42,192,23013,1,0,0:0:0:1:
128,192,23116,1,0,0:0:0:1:
384,192,23116,1,0,0:0:0:1:
213,192,23219,1,0,0:0:0:1:
469,192,23219,1,0,0:0:0:1:
128,192,23321,1,0,0:0:0:1:
298,192,23321,1,0,0:0:0:1:
128,192,23424,1,0,0:0:0:1:
384,192,23424,1,0,0:0:0:1:
42,192,23424,1,0,0:0:0:1:
298,192,23527,1,0,0:0:0:1:
469,192,23527,1,0,0:0:0:1:
213,192,23630,1,0,0:0:0:1:
128,192,23732,1,0,0:0:0:1:
384,192,23732,1,0,0:0:0:1:
298,192,23835,1,0,0:0:0:1:
469,192,23835,1,0,0:0:0:1:
42,192,23835,1,0,0:0:0:1:
128,192,23938,1,0,0:0:0:1:
384,192,23938,1,0,0:0:0:1:
213,192,24041,1,0,0:0:0:1:
42,192,24041,1,0,0:0:0:1:
298,192,24143,1,0,0:0:0:1:
469,192,24143,1,0,0:0:0:1:
128,192,24246,1,0,0:0:0:1:
384,192,24246,1,0,0:0:0:1:
42,192,24246,1,0,0:0:0:1:
298,192,24349,1,0,0:0:0:1:
469,192,24349,1,0,0:0:0:1:
213,192,24452,1,0,0:0:0:1:
42,192,24452,1,0,0:0:0:1:
128,192,24554,1,0,0:0:0:1:
384,192,24554,1,0,0:0:0:1:
298,192,24657,1,0,0:0:0:1:
469,192,24657,1,0,0:0:0:1:
42,192,24657,1,0,0:0:0:1:
128,192,24760,1,0,0:0:0:1:
384,192,24760,1,0,0:0:0:1:
213,192,24863,1,0,0:0:0:1:
469,192,24863,1,0,0:0:0:1:
128,192,24965,1,0,0:0:0:1:
298,192,24965,1,0,0:0:0:1:
128,192,25068,1,0,0:0:0:1:
384,192,25068,1,0,0:0:0:1:
42,192,25068,1,0,0:0:0:1:
298,192,25171,1,0,0:0:0:1:
469,192,25171,1,0,0:0:0:1:
213,192,25273,1,0,0:0:0:1:
128,192,25376,1,0,0:0:0:1:
384,192,25376,1,0,0:0:0:1:
298,192,25479,1,0,0:0:0:1:
469,192,25479,1,0,0:0:0:1:
42,192,25479,1,0,0:0:0:1:
128,192,25582,1,0,0:0:0:1:
384,192,25582,1,0,0:0:0:1:
213,192,25684,1,0,0:0:0:1:
42,192,25684,1,0,0:0:0:1:
298,192,25787,1,0,0:0:0:1:
469,192,25787,1,0,0:0:0:1:
128,192,25890,1,0,0:0:0:1:
384,192,25890,1,0,0:0:0:1:
42,192,25890,1,0,0:0:0:1:
298,192,25993,1,0,0:0:0:1:
469,192,25993,1,0,0:0:0:1:
213,192,26095,1,0,0:0:0:1:
42,192,26095,1,0,0:0:0:1:
128,192,26198,1,0,0:0:0:1:
384,192,26198,1,0,0:0:0:1:
298,192,26301,1,0,0:0:0:1:
469,192,26301,1,0,0:0:0:1:
42,192,26301,1,0,0:0:0:1:
128,192,26404,1,0,0:0:0:1:
384,192,26404,1,0,0:0:0:1:
213,192,26506,1,0,0:0:0:1:
469,192,26506,1,0,0:0:0:1:
128,192,26609,1,0,0:0:0:1:
298,192,26609,1,0,0:0:0:1:
128,192,26712,1,0,0:0:0:1:
384,192,26712,1,0,0:0:0:1:
42,192,26712,1,0,0:0:0:1:
298,192,26815,1,0,0:0:0:1:
469,192,26815,1,0,0:0:0:1:
213,192,26917,1,0,0:0:0:1:
128,192,27020,1,0,0:0:0:1:
384,192,27020,1,0,0:0:0:1:
298,192,27123,1,0,0:0:0:1:
469,192,27123,1,0,0:0:0:1:
42,192,27123,1,0,0:0:0:1:
128,192,27226,1,0,0:0:0:1:
384,192,27226,1,0,0:0:0:1:
213,192,27328,1,0,0:0:0:1:
42,192,27328,1,0,0:0:0:1:
298,192,27431,1,0,0:0:0:1:
469,192,27431,1,0,0:0:0:1:
128,192,27534,1,0,0:0:0:1:
384,192,27534,1,0,0:0:0:1:
42,192,27534,1,0,0:0:0:1:
298,192,27636,1,0,0:0:0:1:
469,192,27636,1,0,0:0:0:1:
213,192,27739,1,0,0:0:0:1:
42,192,27739,1,0,0:0:0:1:
128,192,27842,1,0,0:0:0:1:
384,192,27842,1,0,0:0:0:1:
298,192,27945,1,0,0:0:0:1:
469,192,27945,1,0,0:0:0:1:
42,192,27945,1,0,0:0:0:1:
128,192,28047,1,0,0:0:0:1:
384,192,28047,1,0,0:0:0:1:
213,192,28150,1,0,0:0:0:1:
469,192,28150,1,0,0:0:0:1:
128,192,28253,1,0,0:0:0:1:
298,192,28253,1,0,0:0:0:1:
128,192,28356,1,0,0:0:0:1:
384,192,28356,1,0,0:0:0:1:
42,192,28356,1,0,0:0:0:1:
298,192,28458,1,0,0:0:0:1:
469,192,28458,1,0,0:0:0:1:
213,192,28561,1,0,0:0:0:1:
128,192,28664,1,0,0:0:0:1:
384,192,28664,1,0,0:0:0:1:
298,192,28767,1,0,0:0:0:1:
469,192,28767,1,0,0:0:0:1:
42,192,28767,1,0,0:0:0:1:
128,192,28869,1,0,0:0:0:1:
384,192,28869,1,0,0:0:0:1:
213,192,28972,1,0,0:0:0:1:
42,192,28972,1,0,0:0:0:1:
298,192,29075,1,0,0:0:0:1:
469,192,29075,1,0,0:0:0:1:
128,192,29178,1,0,0:0:0:1:
384,192,29178,1,0,0:0:0:1:
42,192,29178,1,0,0:0:0:1:
298,192,29280,1,0,0:0:0:1:
469,192,29280,1,0,0:0:0:1:
213,192,29383,1,0,0:0:0:1:
42,192,29383,1,0,0:0:0:1:
128,192,29486,1,0,0:0:0:1:
384,192,29486,1,0,0:0:0:1:
298,192,29589,1,0,0:0:0:1:
469,192,29589,1,0,0:0:0:1:
42,192,29589,1,0,0:0:0:1:
128,192,29691,1,0,0:0:0:1:
384,192,29691,1,0,0:0:0:1:
213,192,29794,1,0,0:0:0:1:
469,192,29794,1,0,0:0:0:1:
128,192,29897,1,0,0:0:0:1:
298,192,29897,1,0,0:0:0:1:
128,192,29999,1,0,0:0:0:1:
384,192,29999,1,0,0:0:0:1:
42,192,29999,1,0,0:0:0:1:
298,192,30102,1,0,0:0:0:1:
469,192,30102,1,0,0:0:0:1:
213,192,30205,1,0,0:0:0:1:
128,192,30308,1,0,0:0:0:1:
384,192,30308,1,0,0:0:0:1:
298,192,30410,1,0,0:0:0:1:
469,192,30410,1,0,0:0:0:1:
42,192,30410,1,0,0:0:0:1:
128,192,30513,1,0,0:0:0:1:
384,192,30513,1,0,0:0:0:1:
213,192,30616,1,0,0:0:0:1:
42,192,30616,1,0,0:0:0:1:
298,192,30719,1,0,0:0:0:1:
469,192,30719,1,0,0:0:0:1:
128,192,30821,1,0,0:0:0:1:
384,192,30821,1,0,0:0:0:1:
42,192,30821,1,0,0:0:0:1:
298,192,30924,1,0,0:0:0:1:
469,192,30924,1,0,0:0:0:1:
213,192,31027,1,0,0:0:0:1:
42,192,31027,1,0,0:0:0:1:
128,192,31130,1,0,0:0:0:1:
384,192,31130,1,0,0:0:0:1:
298,192,31232,1,0,0:0:0:1:
469,192,31232,1,0,0:0:0:1:
42,192,31232,1,0,0:0:0:1:
128,192,31335,1,0,0:0:0:1:
384,192,31335,1,0,0:0:0:1:
213,192,31438,1,0,0:0:0:1:
469,192,31438,1,0,0:0:0:1:
128,192,31541,1,0,0:0:0:1:
298,192,31541,1,0,0:0:0:1:
128,192,31643,1,0,0:0:0:1:
384,192,31643,1,0,0:0:0:1:
42,192,31643,1,0,0:0:0:1:
298,192,31746,1,0,0:0:0:1:
469,192,31746,1,0,0:0:0:1:
213,192,31849,1,0,0:0:0:1:
128,192,31952,1,0,0:0:0:1:
384,192,31952,1,0,0:0:0:1:
298,192,32054,1,0,0:0:0:1:
469,192,32054,1,0,0:0:0:1:
42,192,32054,1,0,0:0:0:1:
128,192,32157,1,0,0:0:0:1:
384,192,32157,1,0,0:0:0:1:
213,192,32260,1,0,0:0:0:1:
42,192,32260,1,0,0:0:0:1:
298,192,32363,1,0,0:0:0:1:
469,192,32363,1,0,0:0:0:1:
128,192,32465,1,0,0:0:0:1:
384,192,32465,1,0,0:0:0:1:
42,192,32465,1,0,0:0:0:1:
298,192,32568,1,0,0:0:0:1:
469,192,32568,1,0,0:0:0:1:
213,192,32671,1,0,0:0:0:1:
42,192,32671,1,0,0:0:0:1:
128,192,32773,1,0,0:0:0:1:
384,192,32773,1,0,0:0:0:1:
298,192,32876,1,0,0:0:0:1:
469,192,32876,1,0,0:0:0:1:
42,192,32876,1,0,0:0:0:1:
128,192,32979,1,0,0:0:0:1:
384,192,32979,1,0,0:0:0:1:
213,192,33082,1,0,0:0:0:1:
469,192,33082,1,0,0:0:0:1:
128,192,33184,1,0,0:0:0:1:
298,192,33184,1,0,0:0:0:1:
128,192,33287,1,0,0:0:0:1:
384,192,33287,1,0,0:0:0:1:
42,192,33287,1,0,0:0:0:1:
298,192,33390,1,0,0:0:0:1:
469,192,33390,1,0,0:0:0:1:
213,192,33493,1,0,0:0:0:1:
128,192,33595,1,0,0:0:0:1:
384,192,33595,1,0,0:0:0:1:
298,192,33698,1,0,0:0:0:1:
469,192,33698,1,0,0:0:0:1:
42,192,33698,1,0,0:0:0:1:
128,192,33801,1,0,0:0:0:1:
384,192,33801,1,0,0:0:0:1:
213,192,33904,1,0,0:0:0:1:
42,192,33904,1,0,0:0:0:1:
298,192,34006,1,0,0:0:0:1:
469,192,34006,1,0,0:0:0:1:
128,192,34109,1,0,0:0:0:1:
384,192,34109,1,0,0:0:0:1:
42,192,34109,1,0,0:0:0:1:
298,192,34212,1,0,0:0:0:1:
469,192,34212,1,0,0:0:0:1:
213,192,34315,1,0,0:0:0:1:
42,192,34315,1,0,0:0:0:1:
128,192,34417,1,0,0:0:0:1:
384,192,34417,1,0,0:0:0:1:
298,192,34520,1,0,0:0:0:1:
469,192,34520,1,0,0:0:0:1:
42,192,34520,1,0,0:0:0:1:
128,192,34623,1,0,0:0:0:1:
384,192,34623,1,0,0:0:0:1:
213,192,34726,1,0,0:0:0:1:
469,192,34726,1,0,0:0:0:1:
128,192,34828,1,0,0:0:0:1:
298,192,34828,1,0,0:0:0:1:
128,192,34931,1,0,0:0:0:1:
384,192,34931,1,0,0:0:0:1:
42,192,34931,1,0,0:0:0:1:
298,192,35034,1,0,0:0:0:1:
469,192,35034,1,0,0:0:0:1:
213,192,35136,1,0,0:0:0:1:
128,192,35239,1,0,0:0:0:1:
384,192,35239,1,0,0:0:0:1:
298,192,35342,1,0,0:0:0:1:
469,192,35342,1,0,0:0:0:1:
42,192,35342,1,0,0:0:0:1:
128,192,35445,1,0,0:0:0:1:
384,192,35445,1,0,0:0:0:1:
213,192,35547,1,0,0:0:0:1:
42,192,35547,1,0,0:0:0:1:
298,192,35650,1,0,0:0:0:1:
469,192,35650,1,0,0:0:0:1:
128,192,35753,1,0,0:0:0:1:
384,192,35753,1,0,0:0:0:1:
42,192,35753,1,0,0:0:0:1:
298,192,35856,1,0,0:0:0:1:
469,192,35856,1,0,0:0:0:1:
213,192,35958,1,0,0:0:0:1:
42,192,35958,1,0,0:0:0:1:
128,192,36061,1,0,0:0:0:1:
384,192,36061,1,0,0:0:0:1:
298,192,36164,1,0,0:0:0:1:
469,192,36164,1,0,0:0:0:1:
42,192,36164,1,0,0:0:0:1:
128,192,36267,1,0,0:0:0:1:
384,192,36267,1,0,0:0:0:1:
213,192,36369,1,0,0:0:0:1:
469,192,36369,1,0,0:0:0:1:
128,192,36472,1,0,0:0:0:1:
298,192,36472,1,0,0:0:0:1:
128,192,36575,1,0,0:0:0:1:
384,192,36575,1,0,0:0:0:1:
42,192,36575,1,0,0:0:0:1:
298,192,36678,1,0,0:0:0:1:
469,192,36678,1,0,0:0:0:1:
213,192,36780,1,0,0:0:0:1:
128,192,36883,1,0,0:0:0:1:
384,192,36883,1,0,0:0:0:1:
298,192,36986,1,0,0:0:0:1:
469,192,36986,1,0,0:0:0:1:
42,192,36986,1,0,0:0:0:1:
128,192,37089,1,0,0:0:0:1:
384,192,37089,1,0,0:0:0:1:
213,192,37191,1,0,0:0:0:1:
42,192,37191,1,0,0:0:0:1:
298,192,37294,1,0,0:0:0:1:
469,192,37294,1,0,0:0:0:1:
128,192,37397,1,0,0:0:0:1:
384,192,37397,1,0,0:0:0:1:
42,192,37397,1,0,0:0:0:1:
298,192,37500,1,0,0:0:0:1:
469,192,37500,1,0,0:0:0:1:
213,192,37602,1,0,0:0:0:1:
42,192,37602,1,0,0:0:0:1:
128,192,37705,1,0,0:0:0:1:
384,192,37705,1,0,0:0:0:1:
298,192,37808,1,0,0:0:0:1:
469,192,37808,1,0,0:0:0:1:
42,192,37808,1,0,0:0:0:1:
128,192,37910,1,0,0:0:0:1:
384,192,37910,1,0,0:0:0:1:
213,192,38013,1,0,0:0:0:1:
469,192,38013,1,0,0:0:0:1:
128,192,38116,1,0,0:0:0:1:
298,192,38116,1,0,0:0:0:1:
128,192,38219,1,0,0:0:0:1:
384,192,38219,1,0,0:0:0:1:
42,192,38219,1,0,0:0:0:1:
298,192,38321,1,0,0:0:0:1:
469,192,38321,1,0,0:0:0:1:
213,192,38424,1,0,0:0:0:1:
128,192,38527,1,0,0:0:0:1:
384,192,38527,1,0,0:0:0:1:
298,192,38630,1,0,0:0:0:1:
469,192,38630,1,0,0:0:0:1:
42,192,38630,1,0,0:0:0:1:
128,192,38732,1,0,0:0:0:1:
384,192,38732,1,0,0:0:0:1:
213,192,38835,1,0,0:0:0:1:
42,192,38835,1,0,0:0:0:1:
298,192,38938,1,0,0:0:0:1:
469,192,38938,1,0,0:0:0:1:
128,192,39041,1,0,0:0:0:1:
384,192,39041,1,0,0:0:0:1:
42,192,39041,1,0,0:0:0:1:
298,192,39143,1,0,0:0:0:1:
469,192,39143,1,0,0:0:0:1:
213,192,39246,1,0,0:0:0:1:
42,192,39246,1,0,0:0:0:1:
128,192,39349,1,0,0:0:0:1:
384,192,39349,1,0,0:0:0:1:
298,192,39452,1,0,0:0:0:1:
469,192,39452,1,0,0:0:0:1:
213,192,39554,1,0,0:0:0:1:
384,192,39554,1,0,0:0:0:1:
128,192,39657,1,0,0:0:0:1:
298,192,39657,1,0,0:0:0:1:
298,192,39760,1,0,0:0:0:1:
42,192,39760,1,0,0:0:0:1:
128,192,39863,1,0,0:0:0:1:
384,192,39863,1,0,0:0:0:1:
213,192,39965,1,0,0:0:0:1:
469,192,39965,1,0,0:0:0:1:
213,192,40068,1,0,0:0:0:1:
384,192,40068,1,0,0:0:0:1:
298,192,40171,1,0,0:0:0:1:
213,192,40273,1,0,0:0:0:1:
469,192,40273,1,0,0:0:0:1:
128,192,40376,1,0,0:0:0:1:
384,192,40376,1,0,0:0:0:1:
213,192,40479,1,0,0:0:0:1:
128,192,40582,1,0,0:0:0:1:
298,192,40582,1,0,0:0:0:1:
213,192,40684,1,0,0:0:0:1:
42,192,40684,1,0,0:0:0:1:
128,192,40890,1,0,0:0:0:1:
298,192,40890,1,0,0:0:0:1:
213,192,40993,1,0,0:0:0:1:
384,192,40993,1,0,0:0:0:1:
298,192,41095,1,0,0:0:0:1:
469,192,41095,1,0,0:0:0:1:
42,192,41095,1,0,0:0:0:1:
128,192,41198,1,0,0:0:0:1:
298,192,41301,1,0,0:0:0:1:
213,192,41404,1,0,0:0:0:1:
128,192,41506,1,0,0:0:0:1:
384,192,41506,1,0,0:0:0:1:
42,192,41506,1,0,0:0:0:1:
128,192,41712,1,0,0:0:0:1:
298,192,41712,1,0,0:0:0:1:
213,192,41815,1,0,0:0:0:1:
384,192,41815,1,0,0:0:0:1:
298,192,41917,1,0,0:0:0:1:
469,192,41917,1,0,0:0:0:1:
42,192,41917,1,0,0:0:0:1:
128,192,42020,1,0,0:0:0:1:
213,192,42226,1,0,0:0:0:1:
384,192,42226,1,0,0:0:0:1:
128,192,42328,1,0,0:0:0:1:
298,192,42328,1,0,0:0:0:1:
42,192,42328,1,0,0:0:0:1:
213,192,42534,1,0,0:0:0:1:
213,192,42636,1,0,0:0:0:1:
298,192,42739,1,0,0:0:0:1:
469,192,42739,1,0,0:0:0:1:
42,192,42739,1,0,0:0:0:1:
298,192,42945,1,0,0:0:0:1:
213,192,43047,1,0,0:0:0:1:
128,192,43150,1,0,0:0:0:1:
384,192,43150,1,0,0:0:0:1:
42,192,43150,1,0,0:0:0:1:
298,192,43356,1,0,0:0:0:1:
384,192,43458,1,0,0:0:0:1:
213,192,43561,1,0,0:0:0:1:
469,192,43561,1,0,0:0:0:1:
42,192,43561,1,0,0:0:0:1:
298,192,43664,1,0,0:0:0:1:
469,192,43869,1,0,0:0:0:1:
128,192,43972,1,0,0:0:0:1:
384,192,43972,1,0,0:0:0:1:
42,192,43972,1,0,0:0:0:1:
384,192,44178,1,0,0:0:0:1:
384,192,44280,1,0,0:0:0:1:
298,192,44383,1,0,0:0:0:1:
469,192,44383,1,0,0:0:0:1:
42,192,44383,1,0,0:0:0:1:
128,192,44486,1,0,0:0:0:1:
298,192,44589,1,0,0:0:0:1:
213,192,44691,1,0,0:0:0:1:
128,192,44794,1,0,0:0:0:1:
384,192,44794,1,0,0:0:0:1:
42,192,44794,1,0,0:0:0:1:
128,192,45000,1,0,0:0:0:1:
298,192,45000,1,0,0:0:0:1:
213,192,45102,1,0,0:0:0:1:
384,192,45102,1,0,0:0:0:1:
298,192,45205,1,0,0:0:0:1:
469,192,45205,1,0,0:0:0:1:
42,192,45205,1,0,0:0:0:1:
128,192,45308,1,0,0:0:0:1:
213,192,45513,1,0,0:0:0:1:
384,192,45513,1,0,0:0:0:1:
128,192,45616,1,0,0:0:0:1:
298,192,45616,1,0,0:0:0:1:
42,192,45616,1,0,0:0:0:1:
213,192,45821,1,0,0:0:0:1:
213,192,45924,1,0,0:0:0:1:
298,192,46027,1,0,0:0:0:1:
469,192,46027,1,0,0:0:0:1:
42,192,46027,1,0,0:0:0:1:
298,192,46232,1,0,0:0:0:1:
213,192,46335,1,0,0:0:0:1:
128,192,46438,1,0,0:0:0:1:
384,192,46438,1,0,0:0:0:1:
42,192,46438,1,0,0:0:0:1:
298,192,46643,1,0,0:0:0:1:
384,192,46746,1,0,0:0:0:1:
213,192,46849,1,0,0:0:0:1:
469,192,46849,1,0,0:0:0:1:
42,192,46849,1,0,0:0:0:1:
298,192,46952,1,0,0:0:0:1:
469,192,47157,1,0,0:0:0:1:
128,192,47260,1,0,0:0:0:1:
384,192,47260,1,0,0:0:0:1:
42,192,47260,1,0,0:0:0:1:
384,192,47465,1,0,0:0:0:1:
384,192,47568,1,0,0:0:0:1:
298,192,47671,1,0,0:0:0:1:
469,192,47671,1,0,0:0:0:1:
42,192,47671,1,0,0:0:0:1:
128,192,47773,1,0,0:0:0:1:
298,192,47876,1,0,0:0:0:1:
213,192,47979,1,0,0:0:0:1:
128,192,48082,1,0,0:0:0:1:
384,192,48082,1,0,0:0:0:1:
42,192,48082,1,0,0:0:0:1:
128,192,48287,1,0,0:0:0:1:
298,192,48287,1,0,0:0:0:1:
213,192,48390,1,0,0:0:0:1:
384,192,48390,1,0,0:0:0:1:
298,192,48493,1,0,0:0:0:1:
469,192,48493,1,0,0:0:0:1:
42,192,48493,1,0,0:0:0:1:
128,192,48595,1,0,0:0:0:1:
213,192,48801,1,0,0:0:0:1:
384,192,48801,1,0,0:0:0:1:
128,192,48904,1,0,0:0:0:1:
298,192,48904,1,0,0:0:0:1:
42,192,48904,1,0,0:0:0:1:
213,192,49109,1,0,0:0:0:1:
213,192,49212,1,0,0:0:0:1:
298,192,49315,1,0,0:0:0:1:
469,192,49315,1,0,0:0:0:1:
42,192,49315,1,0,0:0:0:1:
298,192,49520,1,0,0:0:0:1:
213,192,49623,1,0,0:0:0:1:
128,192,49726,1,0,0:0:0:1:
384,192,49726,1,0,0:0:0:1:
42,192,49726,1,0,0:0:0:1:
298,192,49931,1,0,0:0:0:1:
384,192,50034,1,0,0:0:0:1:
213,192,50136,1,0,0:0:0:1:
469,192,50136,1,0,0:0:0:1:
42,192,50136,1,0,0:0:0:1:
298,192,50239,1,0,0:0:0:1:
469,192,50445,1,0,0:0:0:1:
128,192,50547,1,0,0:0:0:1:
384,192,50547,1,0,0:0:0:1:
42,192,50547,1,0,0:0:0:1:
384,192,50753,1,0,0:0:0:1:
384,192,50856,1,0,0:0:0:1:
298,192,50958,1,0,0:0:0:1:
469,192,50958,1,0,0:0:0:1:
42,192,50958,1,0,0:0:0:1:
128,192,51061,1,0,0:0:0:1:
298,192,51164,1,0,0:0:0:1:
213,192,51267,1,0,0:0:0:1:
128,192,51369,1,0,0:0:0:1:
384,192,51369,1,0,0:0:0:1:
42,192,51369,1,0,0:0:0:1:
128,192,51575,1,0,0:0:0:1:
298,192,51575,1,0,0:0:0:1:
213,192,51678,1,0,0:0:0:1:
384,192,51678,1,0,0:0:0:1:
298,192,51780,1,0,0:0:0:1:
469,192,51780,1,0,0:0:0:1:
42,192,51780,1,0,0:0:0:1:
128,192,51883,1,0,0:0:0:1:
213,192,52089,1,0,0:0:0:1:
384,192,52089,1,0,0:0:0:1:
128,192,52191,1,0,0:0:0:1:
298,192,52191,1,0,0:0:0:1:
42,192,52191,1,0,0:0:0:1:
213,192,52397,1,0,0:0:0:1:
213,192,52500,1,0,0:0:0:1:
298,192,52602,1,0,0:0:0:1:
469,192,52602,1,0,0:0:0:1:
42,192,52602,1,0,0:0:0:1:
298,192,52808,1,0,0:0:0:1:
213,192,52910,1,0,0:0:0:1:
128,192,53013,1,0,0:0:0:1:
384,192,53013,1,0,0:0:0:1:
42,192,53013,1,0,0:0:0:1:
298,192,53219,1,0,0:0:0:1:
384,192,53321,1,0,0:0:0:1:
213,192,53424,1,0,0:0:0:1:
469,192,53424,1,0,0:0:0:1:
42,192,53424,1,0,0:0:0:1:
298,192,53527,1,0,0:0:0:1:
469,192,53732,1,0,0:0:0:1:
128,192,53835,1,0,0:0:0:1:
384,192,53835,1,0,0:0:0:1:
42,192,53835,1,0,0:0:0:1:
384,192,54041,1,0,0:0:0:1:
384,192,54143,1,0,0:0:0:1:
298,192,54246,1,0,0:0:0:1:
469,192,54246,1,0,0:0:0:1:
42,192,54246,1,0,0:0:0:1:
128,192,54349,1,0,0:0:0:1:
298,192,54452,1,0,0:0:0:1:
213,192,54554,1,0,0:0:0:1:
128,192,54657,1,0,0:0:0:1:
384,192,54657,1,0,0:0:0:1:
42,192,54657,1,0,0:0:0:1:
128,192,54863,1,0,0:0:0:1:
298,192,54863,1,0,0:0:0:1:
213,192,54965,1,0,0:0:0:1:
384,192,54965,1,0,0:0:0:1:
298,192,55068,1,0,0:0:0:1:
469,192,55068,1,0,0:0:0:1:
42,192,55068,1,0,0:0:0:1:
128,192,55171,1,0,0:0:0:1:
213,192,55376,1,0,0:0:0:1:
384,192,55376,1,0,0:0:0:1:
128,192,55479,1,0,0:0:0:1:
298,192,55479,1,0,0:0:0:1:
42,192,55479,1,0,0:0:0:1:
213,192,55684,1,0,0:0:0:1:
213,192,55787,1,0,0:0:0:1:
298,192,55890,1,0,0:0:0:1:
469,192,55890,1,0,0:0:0:1:
42,192,55890,1,0,0:0:0:1:
298,192,56095,1,0,0:0:0:1:
213,192,56198,1,0,0:0:0:1:
128,192,56301,1,0,0:0:0:1:
384,192,56301,1,0,0:0:0:1:
42,192,56301,1,0,0:0:0:1:
298,192,56506,1,0,0:0:0:1:
384,192,56609,1,0,0:0:0:1:
213,192,56712,1,0,0:0:0:1:
469,192,56712,1,0,0:0:0:1:
42,192,56712,1,0,0:0:0:1:
298,192,56815,1,0,0:0:0:1:
469,192,57020,1,0,0:0:0:1:
128,192,57123,1,0,0:0:0:1:
384,192,57123,1,0,0:0:0:1:
42,192,57123,1,0,0:0:0:1:
384,192,57328,1,0,0:0:0:1:
384,192,57431,1,0,0:0:0:1:
298,192,57534,1,0,0:0:0:1:
469,192,57534,1,0,0:0:0:1:
42,192,57534,1,0,0:0:0:1:
128,192,57636,1,0,0:0:0:1:
298,192,57739,1,0,0:0:0:1:
213,192,57842,1,0,0:0:0:1:
128,192,57945,1,0,0:0:0:1:
384,192,57945,1,0,0:0:0:1:
42,192,57945,1,0,0:0:0:1:
128,192,58150,1,0,0:0:0:1:
298,192,58150,1,0,0:0:0:1:
213,192,58253,1,0,0:0:0:1:
384,192,58253,1,0,0:0:0:1:
298,192,58356,1,0,0:0:0:1:
469,192,58356,1,0,0:0:0:1:
42,192,58356,1,0,0:0:0:1:
128,192,58458,1,0,0:0:0:1:
213,192,58664,1,0,0:0:0:1:
384,192,58664,1,0,0:0:0:1:
128,192,58767,1,0,0:0:0:1:
298,192,58767,1,0,0:0:0:1:
42,192,58767,1,0,0:0:0:1:
213,192,58972,1,0,0:0:0:1:
213,192,59075,1,0,0:0:0:1:
298,192,59178,1,0,0:0:0:1:
469,192,59178,1,0,0:0:0:1:
42,192,59178,1,0,0:0:0:1:
298,192,59383,1,0,0:0:0:1:
213,192,59486,1,0,0:0:0:1:
128,192,59589,1,0,0:0:0:1:
384,192,59589,1,0,0:0:0:1:
42,192,59589,1,0,0:0:0:1:
298,192,59794,1,0,0:0:0:1:
384,192,59897,1,0,0:0:0:1:
213,192,59999,1,0,0:0:0:1:
469,192,59999,1,0,0:0:0:1:
42,192,59999,1,0,0:0:0:1:
298,192,60102,1,0,0:0:0:1:
469,192,60308,1,0,0:0:0:1:
128,192,60410,1,0,0:0:0:1:
384,192,60410,1,0,0:0:0:1:
42,192,60410,1,0,0:0:0:1:
384,192,60616,1,0,0:0:0:1:
384,192,60719,1,0,0:0:0:1:
298,192,60821,1,0,0:0:0:1:
469,192,60821,1,0,0:0:0:1:
42,192,60821,1,0,0:0:0:1:
128,192,60924,1,0,0:0:0:1:
298,192,61027,1,0,0:0:0:1:
213,192,61130,1,0,0:0:0:1:
128,192,61232,1,0,0:0:0:1:
384,192,61232,1,0,0:0:0:1:
42,192,61232,1,0,0:0:0:1:
128,192,61438,1,0,0:0:0:1:
298,192,61438,1,0,0:0:0:1:
213,192,61541,1,0,0:0:0:1:
384,192,61541,1,0,0:0:0:1:
298,192,61643,1,0,0:0:0:1:
469,192,61643,1,0,0:0:0:1:
42,192,61643,1,0,0:0:0:1:
128,192,61746,1,0,0:0:0:1:
213,192,61952,1,0,0:0:0:1:
384,192,61952,1,0,0:0:0:1:
128,192,62054,1,0,0:0:0:1:
298,192,62054,1,0,0:0:0:1:
42,192,62054,1,0,0:0:0:1:
213,192,62260,1,0,0:0:0:1:
213,192,62363,1,0,0:0:0:1:
298,192,62465,1,0,0:0:0:1:
469,192,62465,1,0,0:0:0:1:
42,192,62465,1,0,0:0:0:1:
298,192,62671,1,0,0:0:0:1:
213,192,62773,1,0,0:0:0:1:
128,192,62876,1,0,0:0:0:1:
384,192,62876,1,0,0:0:0:1:
42,192,62876,1,0,0:0:0:1:
298,192,63082,1,0,0:0:0:1:
384,192,63184,1,0,0:0:0:1:
213,192,63287,1,0,0:0:0:1:
469,192,63287,1,0,0:0:0:1:
42,192,63287,1,0,0:0:0:1:
298,192,63390,1,0,0:0:0:1:
469,192,63595,1,0,0:0:0:1:
128,192,63698,1,0,0:0:0:1:
384,192,63698,1,0,0:0:0:1:
42,192,63698,1,0,0:0:0:1:
384,192,63904,1,0,0:0:0:1:
384,192,64006,1,0,0:0:0:1:
298,192,64109,1,0,0:0:0:1:
469,192,64109,1,0,0:0:0:1:
42,192,64109,1,0,0:0:0:1:
128,192,64212,1,0,0:0:0:1:
298,192,64315,1,0,0:0:0:1:
213,192,64417,1,0,0:0:0:1:
128,192,64520,1,0,0:0:0:1:
384,192,64520,1,0,0:0:0:1:
42,192,64520,1,0,0:0:0:1:
128,192,64726,1,0,0:0:0:1:
298,192,64726,1,0,0:0:0:1:
213,192,64828,1,0,0:0:0:1:
384,192,64828,1,0,0:0:0:1:
298,192,64931,1,0,0:0:0:1:
469,192,64931,1,0,0:0:0:1:
42,192,64931,1,0,0:0:0:1:
128,192,65034,1,0,0:0:0:1:
213,192,65239,1,0,0:0:0:1:
384,192,65239,1,0,0:0:0:1:
128,192,65342,1,0,0:0:0:1:
298,192,65342,1,0,0:0:0:1:
42,192,65342,1,0,0:0:0:1:
213,192,65547,1,0,0:0:0:1:
213,192,65650,1,0,0:0:0:1:
298,192,65753,1,0,0:0:0:1:
469,192,65753,1,0,0:0:0:1:
42,192,65753,1,0,0:0:0:1:
128,192,65856,1,0,0:0:0:1:
384,192,65856,1,0,0:0:0:1:
298,192,65958,1,0,0:0:0:1:
213,192,66061,1,0,0:0:0:1:
384,192,66061,1,0,0:0:0:1:
128,192,66164,1,0,0:0:0:1:
384,192,66164,1,0,0:0:0:1:
42,192,66164,1,0,0:0:0:1:
213,192,66267,1,0,0:0:0:1:
298,192,66369,1,0,0:0:0:1:
213,192,66472,1,0,0:0:0:1:
384,192,66472,1,0,0:0:0:1:
213,192,66575,1,0,0:0:0:1:
469,192,66575,1,0,0:0:0:1:
42,192,66575,1,0,0:0:0:1:
298,192,66678,1,0,0:0:0:1:
128,192,66780,1,0,0:0:0:1:
213,192,66883,1,0,0:0:0:1:
469,192,66883,1,0,0:0:0:1:
128,192,66986,1,0,0:0:0:1:
384,192,66986,1,0,0:0:0:1:
42,192,66986,1,0,0:0:0:1:
298,192,67089,1,0,0:0:0:1:
213,192,67191,1,0,0:0:0:1:
384,192,67191,1,0,0:0:0:1:
128,192,67294,1,0,0:0:0:1:
384,192,67294,1,0,0:0:0:1:
298,192,67397,1,0,0:0:0:1:
469,192,67397,1,0,0:0:0:1:
42,192,67397,1,0,0:0:0:1:
128,192,68424,1,0,0:0:0:1:
298,192,68835,1,0,0:0:0:1:
128,192,69041,1,0,0:0:0:1:
213,192,70068,1,0,0:0:0:1:
384,192,70479,1,0,0:0:0:1:
213,192,70684,1,0,0:0:0:1:
128,192,71506,1,0,0:0:0:1:
298,192,72328,1,0,0:0:0:1:
384,192,73150,1,0,0:0:0:1:
469,192,73972,1,0,0:0:0:1:
42,192,73972,1,0,0:0:0:1:
128,192,75000,1,0,0:0:0:1:
213,192,75410,1,0,0:0:0:1:
298,192,75616,1,0,0:0:0:1:
384,192,76027,1,0,0:0:0:1:
298,192,76232,1,0,0:0:0:1:
213,192,76643,1,0,0:0:0:1:
128,192,77054,1,0,0:0:0:1:
298,192,78287,1,0,0:0:0:1:
213,192,78698,1,0,0:0:0:1:
128,192,78904,1,0,0:0:0:1:
469,192,78904,1,0,0:0:0:1:
384,192,79109,1,0,0:0:0:1:
469,192,79315,1,0,0:0:0:1:
384,192,79520,1,0,0:0:0:1:
213,192,79726,1,0,0:0:0:1:
469,192,79726,1,0,0:0:0:1:
384,192,79828,1,0,0:0:0:1:
469,192,79931,1,0,0:0:0:1:
384,192,80136,1,0,0:0:0:1:
469,192,80205,1,0,0:0:0:1:
384,192,80273,1,0,0:0:0:1:
469,192,80342,1,0,0:0:0:1:
298,192,80547,1,0,0:0:0:1:
469,192,80547,1,0,0:0:0:1:
42,192,80547,1,0,0:0:0:1:
213,192,80650,1,0,0:0:0:1:
384,192,80650,1,0,0:0:0:1:
128,192,80753,1,0,0:0:0:1:
298,192,80753,1,0,0:0:0:1:
213,192,80856,1,0,0:0:0:1:
469,192,80856,1,0,0:0:0:1:
128,192,80958,1,0,0:0:0:1:
384,192,80958,1,0,0:0:0:1:
42,192,80958,1,0,0:0:0:1:
213,192,81061,1,0,0:0:0:1:
128,192,81164,1,0,0:0:0:1:
298,192,81164,1,0,0:0:0:1:
384,192,81267,1,0,0:0:0:1:
42,192,81267,1,0,0:0:0:1:
213,192,81369,1,0,0:0:0:1:
469,192,81369,1,0,0:0:0:1:
128,192,81472,1,0,0:0:0:1:
384,192,81472,1,0,0:0:0:1:
298,192,81575,1,0,0:0:0:1:
469,192,81575,1,0,0:0:0:1:
42,192,81575,1,0,0:0:0:1:
213,192,81678,1,0,0:0:0:1:
384,192,81678,1,0,0:0:0:1:
128,192,81780,1,0,0:0:0:1:
298,192,81780,1,0,0:0:0:1:
42,192,81780,1,0,0:0:0:1:
213,192,81883,1,0,0:0:0:1:
384,192,81883,1,0,0:0:0:1:
298,192,81986,1,0,0:0:0:1:
469,192,81986,1,0,0:0:0:1:
42,192,81986,1,0,0:0:0:1:
128,192,82089,1,0,0:0:0:1:
384,192,82089,1,0,0:0:0:1:
213,192,82191,1,0,0:0:0:1:
469,192,82191,1,0,0:0:0:1:
42,192,82191,1,0,0:0:0:1:
128,192,82294,1,0,0:0:0:1:
298,192,82294,1,0,0:0:0:1:
384,192,82397,1,0,0:0:0:1:
42,192,82397,1,0,0:0:0:1:
213,192,82500,1,0,0:0:0:1:
469,192,82500,1,0,0:0:0:1:
128,192,82602,1,0,0:0:0:1:
298,192,82602,1,0,0:0:0:1:
42,192,82602,1,0,0:0:0:1:
213,192,82705,1,0,0:0:0:1:
384,192,82705,1,0,0:0:0:1:
128,192,82808,1,0,0:0:0:1:
469,192,82808,1,0,0:0:0:1:
298,192,82910,1,0,0:0:0:1:
384,192,82910,1,0,0:0:0:1:
213,192,83013,1,0,0:0:0:1:
469,192,83013,1,0,0:0:0:1:
128,192,83116,1,0,0:0:0:1:
298,192,83116,1,0,0:0:0:1:
213,192,83219,1,0,0:0:0:1:
384,192,83219,1,0,0:0:0:1:
42,192,83219,1,0,0:0:0:1:
298,192,83321,1,0,0:0:0:1:
469,192,83321,1,0,0:0:0:1:
128,192,83424,1,0,0:0:0:1:
384,192,83424,1,0,0:0:0:1:
42,192,83424,1,0,0:0:0:1:
213,192,83527,1,0,0:0:0:1:
469,192,83527,1,0,0:0:0:1:
128,192,83630,1,0,0:0:0:1:
298,192,83630,1,0,0:0:0:1:
384,192,83630,1,0,0:0:0:1:
213,192,83732,1,0,0:0:0:1:
42,192,83732,1,0,0:0:0:1:
128,192,83835,1,0,0:0:0:1:
298,192,83835,1,0,0:0:0:1:
384,192,83835,1,0,0:0:0:1:
213,192,83938,1,0,0:0:0:1:
469,192,83938,1,0,0:0:0:1:
298,192,84041,1,0,0:0:0:1:
42,192,84041,1,0,0:0:0:1:
213,192,84143,1,0,0:0:0:1:
384,192,84143,1,0,0:0:0:1:
128,192,84246,1,0,0:0:0:1:
469,192,84246,1,0,0:0:0:1:
42,192,84246,1,0,0:0:0:1:
213,192,84349,1,0,0:0:0:1:
298,192,84349,1,0,0:0:0:1:
128,192,84452,1,0,0:0:0:1:
469,192,84452,1,0,0:0:0:1:
298,192,84554,1,0,0:0:0:1:
384,192,84554,1,0,0:0:0:1:
213,192,84657,1,0,0:0:0:1:
469,192,84657,1,0,0:0:0:1:
42,192,84657,1,0,0:0:0:1:
128,192,84760,1,0,0:0:0:1:
298,192,84760,1,0,0:0:0:1:
213,192,84863,1,0,0:0:0:1:
469,192,84863,1,0,0:0:0:1:
298,192,84965,1,0,0:0:0:1:
384,192,84965,1,0,0:0:0:1:
128,192,85068,1,0,0:0:0:1:
469,192,85068,1,0,0:0:0:1:
42,192,85068,1,0,0:0:0:1:
213,192,85171,1,0,0:0:0:1:
384,192,85171,1,0,0:0:0:1:
128,192,85273,1,0,0:0:0:1:
298,192,85273,1,0,0:0:0:1:
213,192,85376,1,0,0:0:0:1:
42,192,85376,1,0,0:0:0:1:
128,192,85479,1,0,0:0:0:1:
298,192,85479,1,0,0:0:0:1:
469,192,85479,1,0,0:0:0:1:
213,192,85582,1,0,0:0:0:1:
384,192,85582,1,0,0:0:0:1:
469,192,85684,1,0,0:0:0:1:
42,192,85684,1,0,0:0:0:1:
213,192,85787,1,0,0:0:0:1:
298,192,85787,1,0,0:0:0:1:
128,192,85890,1,0,0:0:0:1:
384,192,85890,1,0,0:0:0:1:
42,192,85890,1,0,0:0:0:1:
298,192,85993,1,0,0:0:0:1:
469,192,85993,1,0,0:0:0:1:
213,192,86095,1,0,0:0:0:1:
384,192,86095,1,0,0:0:0:1:
128,192,86198,1,0,0:0:0:1:
298,192,86198,1,0,0:0:0:1:
213,192,86301,1,0,0:0:0:1:
469,192,86301,1,0,0:0:0:1:
42,192,86301,1,0,0:0:0:1:
128,192,86404,1,0,0:0:0:1:
384,192,86404,1,0,0:0:0:1:
298,192,86506,1,0,0:0:0:1:
42,192,86506,1,0,0:0:0:1:
213,192,86609,1,0,0:0:0:1:
384,192,86609,1,0,0:0:0:1:
128,192,86712,1,0,0:0:0:1:
298,192,86712,1,0,0:0:0:1:
42,192,86712,1,0,0:0:0:1:
213,192,86815,1,0,0:0:0:1:
469,192,86815,1,0,0:0:0:1:
298,192,86917,1,0,0:0:0:1:
384,192,86917,1,0,0:0:0:1:
128,192,87020,1,0,0:0:0:1:
213,192,87020,1,0,0:0:0:1:
298,192,87123,1,0,0:0:0:1:
469,192,87123,1,0,0:0:0:1:
42,192,87123,1,0,0:0:0:1:
128,192,87226,1,0,0:0:0:1:
213,192,87226,1,0,0:0:0:1:
384,192,87328,1,0,0:0:0:1:
42,192,87328,1,0,0:0:0:1:
213,192,87431,1,0,0:0:0:1:
298,192,87431,1,0,0:0:0:1:
128,192,87534,1,0,0:0:0:1:
469,192,87534,1,0,0:0:0:1:
42,192,87534,1,0,0:0:0:1:
213,192,87636,1,0,0:0:0:1:
384,192,87636,1,0,0:0:0:1:
298,192,87739,1,0,0:0:0:1:
469,192,87739,1,0,0:0:0:1:
128,192,87842,1,0,0:0:0:1:
384,192,87842,1,0,0:0:0:1:
213,192,87945,1,0,0:0:0:1:
42,192,87945,1,0,0:0:0:1:
128,192,88047,1,0,0:0:0:1:
298,192,88047,1,0,0:0:0:1:
213,192,88150,1,0,0:0:0:1:
469,192,88150,1,0,0:0:0:1:
42,192,88150,1,0,0:0:0:1:
298,192,88253,1,0,0:0:0:1:
384,192,88253,1,0,0:0:0:1:
128,192,88356,1,0,0:0:0:1:
469,192,88356,1,0,0:0:0:1:
42,192,88356,1,0,0:0:0:1:
213,192,88458,1,0,0:0:0:1:
384,192,88458,1,0,0:0:0:1:
128,192,88561,1,0,0:0:0:1:
298,192,88561,1,0,0:0:0:1:
469,192,88561,1,0,0:0:0:1:
213,192,88664,1,0,0:0:0:1:
42,192,88664,1,0,0:0:0:1:
128,192,88767,1,0,0:0:0:1:
298,192,88767,1,0,0:0:0:1:
469,192,88767,1,0,0:0:0:1:
213,192,88869,1,0,0:0:0:1:
384,192,88869,1,0,0:0:0:1:
298,192,88972,1,0,0:0:0:1:
42,192,88972,1,0,0:0:0:1:
213,192,89075,1,0,0:0:0:1:
469,192,89075,1,0,0:0:0:1:
128,192,89178,1,0,0:0:0:1:
384,192,89178,1,0,0:0:0:1:
42,192,89178,1,0,0:0:0:1:
213,192,89280,1,0,0:0:0:1:
469,192,89280,1,0,0:0:0:1:
128,192,89383,1,0,0:0:0:1:
298,192,89383,1,0,0:0:0:1:
42,192,89383,1,0,0:0:0:1:
213,192,89486,1,0,0:0:0:1:
384,192,89486,1,0,0:0:0:1:
128,192,89589,1,0,0:0:0:1:
469,192,89589,1,0,0:0:0:1:
298,192,89691,1,0,0:0:0:1:
42,192,89691,1,0,0:0:0:1:
128,192,89794,1,0,0:0:0:1:
213,192,89794,1,0,0:0:0:1:
384,192,89794,1,0,0:0:0:1:
298,192,89897,1,0,0:0:0:1:
469,192,89897,1,0,0:0:0:1:
128,192,90000,1,0,0:0:0:1:
384,192,90000,1,0,0:0:0:1:
42,192,90000,1,0,0:0:0:1:
213,192,90102,1,0,0:0:0:1:
469,192,90102,1,0,0:0:0:1:
128,192,90205,1,0,0:0:0:1:
298,192,90205,1,0,0:0:0:1:
384,192,90205,1,0,0:0:0:1:
213,192,90308,1,0,0:0:0:1:
42,192,90308,1,0,0:0:0:1:
128,192,90410,1,0,0:0:0:1:
384,192,90410,1,0,0:0:0:1:
298,192,90513,1,0,0:0:0:1:
469,192,90513,1,0,0:0:0:1:
128,192,90616,1,0,0:0:0:1:
384,192,90616,1,0,0:0:0:1:
213,192,90719,1,0,0:0:0:1:
469,192,90719,1,0,0:0:0:1:
128,192,90821,1,0,0:0:0:1:
298,192,90821,1,0,0:0:0:1:
42,192,90821,1,0,0:0:0:1:
213,192,90924,1,0,0:0:0:1:
384,192,90924,1,0,0:0:0:1:
128,192,91027,1,0,0:0:0:1:
469,192,91027,1,0,0:0:0:1:
213,192,91130,1,0,0:0:0:1:
298,192,91130,1,0,0:0:0:1:
384,192,91232,1,0,0:0:0:1:
42,192,91232,1,0,0:0:0:1:
128,192,91335,1,0,0:0:0:1:
213,192,91335,1,0,0:0:0:1:
298,192,91438,1,0,0:0:0:1:
469,192,91438,1,0,0:0:0:1:
42,192,91438,1,0,0:0:0:1:
213,192,91541,1,0,0:0:0:1:
384,192,91541,1,0,0:0:0:1:
128,192,91643,1,0,0:0:0:1:
298,192,91643,1,0,0:0:0:1:
42,192,91643,1,0,0:0:0:1:
213,192,91746,1,0,0:0:0:1:
469,192,91746,1,0,0:0:0:1:
128,192,91849,1,0,0:0:0:1:
298,192,91849,1,0,0:0:0:1:
384,192,91849,1,0,0:0:0:1:
469,192,91952,1,0,0:0:0:1:
42,192,91952,1,0,0:0:0:1:
128,192,92054,1,0,0:0:0:1:
298,192,92054,1,0,0:0:0:1:
384,192,92054,1,0,0:0:0:1:
213,192,92157,1,0,0:0:0:1:
42,192,92157,1,0,0:0:0:1:
128,192,92260,1,0,0:0:0:1:
298,192,92260,1,0,0:0:0:1:
213,192,92363,1,0,0:0:0:1:
384,192,92363,1,0,0:0:0:1:
128,192,92465,1,0,0:0:0:1:
469,192,92465,1,0,0:0:0:1:
42,192,92465,1,0,0:0:0:1:
298,192,92568,1,0,0:0:0:1:
384,192,92568,1,0,0:0:0:1:
213,192,92671,1,0,0:0:0:1:
469,192,92671,1,0,0:0:0:1:
128,192,92773,1,0,0:0:0:1:
298,192,92773,1,0,0:0:0:1:
213,192,92876,1,0,0:0:0:1:
384,192,92876,1,0,0:0:0:1:
42,192,92876,1,0,0:0:0:1:
128,192,92979,1,0,0:0:0:1:
298,192,92979,1,0,0:0:0:1:
213,192,93082,1,0,0:0:0:1:
469,192,93082,1,0,0:0:0:1:
213,192,93184,1,0,0:0:0:1:
384,192,93184,1,0,0:0:0:1:
128,192,93287,1,0,0:0:0:1:
469,192,93287,1,0,0:0:0:1:
42,192,93287,1,0,0:0:0:1:
213,192,93390,1,0,0:0:0:1:
384,192,93390,1,0,0:0:0:1:
128,192,93493,1,0,0:0:0:1:
469,192,93493,1,0,0:0:0:1:
42,192,93493,1,0,0:0:0:1:
213,192,93595,1,0,0:0:0:1:
384,192,93595,1,0,0:0:0:1:
298,192,93698,1,0,0:0:0:1:
469,192,93698,1,0,0:0:0:1:
42,192,93698,1,0,0:0:0:1:
213,192,93801,1,0,0:0:0:1:
384,192,93801,1,0,0:0:0:1:
128,192,93904,1,0,0:0:0:1:
298,192,93904,1,0,0:0:0:1:
213,192,94006,1,0,0:0:0:1:
469,192,94006,1,0,0:0:0:1:
128,192,94109,1,0,0:0:0:1:
384,192,94109,1,0,0:0:0:1:
42,192,94109,1,0,0:0:0:1:
213,192,94212,1,0,0:0:0:1:
128,192,94315,1,0,0:0:0:1:
298,192,94315,1,0,0:0:0:1:
384,192,94417,1,0,0:0:0:1:
42,192,94417,1,0,0:0:0:1:
213,192,94520,1,0,0:0:0:1:
469,192,94520,1,0,0:0:0:1:
128,192,94623,1,0,0:0:0:1:
384,192,94623,1,0,0:0:0:1:
298,192,94726,1,0,0:0:0:1:
469,192,94726,1,0,0:0:0:1:
42,192,94726,1,0,0:0:0:1:
213,192,94828,1,0,0:0:0:1:
384,192,94828,1,0,0:0:0:1:
128,192,94931,1,0,0:0:0:1:
298,192,94931,1,0,0:0:0:1:
42,192,94931,1,0,0:0:0:1:
213,192,95034,1,0,0:0:0:1:
384,192,95034,1,0,0:0:0:1:
298,192,95136,1,0,0:0:0:1:
469,192,95136,1,0,0:0:0:1:
42,192,95136,1,0,0:0:0:1:
128,192,95239,1,0,0:0:0:1:
384,192,95239,1,0,0:0:0:1:
213,192,95342,1,0,0:0:0:1:
469,192,95342,1,0,0:0:0:1:
42,192,95342,1,0,0:0:0:1:
128,192,95445,1,0,0:0:0:1:
298,192,95445,1,0,0:0:0:1:
384,192,95547,1,0,0:0:0:1:
42,192,95547,1,0,0:0:0:1:
213,192,95650,1,0,0:0:0:1:
469,192,95650,1,0,0:0:0:1:
128,192,95753,1,0,0:0:0:1:
298,192,95753,1,0,0:0:0:1:
42,192,95753,1,0,0:0:0:1:
213,192,95856,1,0,0:0:0:1:
384,192,95856,1,0,0:0:0:1:
128,192,95958,1,0,0:0:0:1:
469,192,95958,1,0,0:0:0:1:
298,192,96061,1,0,0:0:0:1:
384,192,96061,1,0,0:0:0:1:
213,192,96164,1,0,0:0:0:1:
469,192,96164,1,0,0:0:0:1:
128,192,96267,1,0,0:0:0:1:
298,192,96267,1,0,0:0:0:1:
213,192,96369,1,0,0:0:0:1:
384,192,96369,1,0,0:0:0:1:
42,192,96369,1,0,0:0:0:1:
298,192,96472,1,0,0:0:0:1:
469,192,96472,1,0,0:0:0:1:
128,192,96575,1,0,0:0:0:1:
384,192,96575,1,0,0:0:0:1:
42,192,96575,1,0,0:0:0:1:
213,192,96678,1,0,0:0:0:1:
469,192,96678,1,0,0:0:0:1:
128,192,96780,1,0,0:0:0:1:
298,192,96780,1,0,0:0:0:1:
384,192,96780,1,0,0:0:0:1:
213,192,96883,1,0,0:0:0:1:
42,192,96883,1,0,0:0:0:1:
128,192,96986,1,0,0:0:0:1:
298,192,96986,1,0,0:0:0:1:
384,192,96986,1,0,0:0:0:1:
213,192,97089,1,0,0:0:0:1:
469,192,97089,1,0,0:0:0:1:
298,192,97191,1,0,0:0:0:1:
42,192,97191,1,0,0:0:0:1:
213,192,97294,1,0,0:0:0:1:
384,192,97294,1,0,0:0:0:1:
128,192,97397,1,0,0:0:0:1:
469,192,97397,1,0,0:0:0:1:
42,192,97397,1,0,0:0:0:1:
213,192,97500,1,0,0:0:0:1:
298,192,97500,1,0,0:0:0:1:
128,192,97602,1,0,0:0:0:1:
469,192,97602,1,0,0:0:0:1:
298,192,97705,1,0,0:0:0:1:
384,192,97705,1,0,0:0:0:1:
213,192,97808,1,0,0:0:0:1:
469,192,97808,1,0,0:0:0:1:
42,192,97808,1,0,0:0:0:1:
128,192,97910,1,0,0:0:0:1:
298,192,97910,1,0,0:0:0:1:
213,192,98013,1,0,0:0:0:1:
469,192,98013,1,0,0:0:0:1:
298,192,98116,1,0,0:0:0:1:
384,192,98116,1,0,0:0:0:1:
128,192,98219,1,0,0:0:0:1:
469,192,98219,1,0,0:0:0:1:
42,192,98219,1,0,0:0:0:1:
213,192,98321,1,0,0:0:0:1:
384,192,98321,1,0,0:0:0:1:
128,192,98424,1,0,0:0:0:1:
298,192,98424,1,0,0:0:0:1:
213,192,98527,1,0,0:0:0:1:
42,192,98527,1,0,0:0:0:1:
128,192,98630,1,0,0:0:0:1:
298,192,98630,1,0,0:0:0:1:
469,192,98630,1,0,0:0:0:1:
213,192,98732,1,0,0:0:0:1:
384,192,98732,1,0,0:0:0:1:
469,192,98835,1,0,0:0:0:1:
42,192,98835,1,0,0:0:0:1:
213,192,98938,1,0,0:0:0:1:
298,192,98938,1,0,0:0:0:1:
128,192,99041,1,0,0:0:0:1:
384,192,99041,1,0,0:0:0:1:
42,192,99041,1,0,0:0:0:1:
298,192,99143,1,0,0:0:0:1:
469,192,99143,1,0,0:0:0:1:
213,192,99246,1,0,0:0:0:1:
384,192,99246,1,0,0:0:0:1:
128,192,99349,1,0,0:0:0:1:
298,192,99349,1,0,0:0:0:1:
213,192,99452,1,0,0:0:0:1:
469,192,99452,1,0,0:0:0:1:
42,192,99452,1,0,0:0:0:1:
128,192,99554,1,0,0:0:0:1:
384,192,99554,1,0,0:0:0:1:
298,192,99657,1,0,0:0:0:1:
42,192,99657,1,0,0:0:0:1:
213,192,99760,1,0,0:0:0:1:
384,192,99760,1,0,0:0:0:1:
128,192,99863,1,0,0:0:0:1:
298,192,99863,1,0,0:0:0:1:
42,192,99863,1,0,0:0:0:1:
213,192,99965,1,0,0:0:0:1:
469,192,99965,1,0,0:0:0:1:
298,192,100068,1,0,0:0:0:1:
384,192,100068,1,0,0:0:0:1:
128,192,100171,1,0,0:0:0:1:
213,192,100171,1,0,0:0:0:1:
298,192,100273,1,0,0:0:0:1:
469,192,100273,1,0,0:0:0:1:
42,192,100273,1,0,0:0:0:1:
128,192,100376,1,0,0:0:0:1:
213,192,100376,1,0,0:0:0:1:
384,192,100479,1,0,0:0:0:1:
42,192,100479,1,0,0:0:0:1:
213,192,100582,1,0,0:0:0:1:
298,192,100582,1,0,0:0:0:1:
128,192,100684,1,0,0:0:0:1:
469,192,100684,1,0,0:0:0:1:
42,192,100684,1,0,0:0:0:1:
213,192,100787,1,0,0:0:0:1:
384,192,100787,1,0,0:0:0:1:
298,192,100890,1,0,0:0:0:1:
469,192,100890,1,0,0:0:0:1:
128,192,100993,1,0,0:0:0:1:
384,192,100993,1,0,0:0:0:1:
213,192,101095,1,0,0:0:0:1:
42,192,101095,1,0,0:0:0:1:
128,192,101198,1,0,0:0:0:1:
298,192,101198,1,0,0:0:0:1:
213,192,101301,1,0,0:0:0:1:
469,192,101301,1,0,0:0:0:1:
42,192,101301,1,0,0:0:0:1:
298,192,101404,1,0,0:0:0:1:
384,192,101404,1,0,0:0:0:1:
128,192,101506,1,0,0:0:0:1:
469,192,101506,1,0,0:0:0:1:
42,192,101506,1,0,0:0:0:1:
213,192,101609,1,0,0:0:0:1:
384,192,101609,1,0,0:0:0:1:
128,192,101712,1,0,0:0:0:1:
298,192,101712,1,0,0:0:0:1:
469,192,101712,1,0,0:0:0:1:
213,192,101815,1,0,0:0:0:1:
42,192,101815,1,0,0:0:0:1:
128,192,101917,1,0,0:0:0:1:
298,192,101917,1,0,0:0:0:1:
469,192,101917,1,0,0:0:0:1:
213,192,102020,1,0,0:0:0:1:
384,192,102020,1,0,0:0:0:1:
298,192,102123,1,0,0:0:0:1:
42,192,102123,1,0,0:0:0:1:
213,192,102226,1,0,0:0:0:1:
469,192,102226,1,0,0:0:0:1:
128,192,102328,1,0,0:0:0:1:
384,192,102328,1,0,0:0:0:1:
42,192,102328,1,0,0:0:0:1:
213,192,102431,1,0,0:0:0:1:
469,192,102431,1,0,0:0:0:1:
128,192,102534,1,0,0:0:0:1:
298,192,102534,1,0,0:0:0:1:
42,192,102534,1,0,0:0:0:1:
213,192,102636,1,0,0:0:0:1:
384,192,102636,1,0,0:0:0:1:
128,192,102739,1,0,0:0:0:1:
469,192,102739,1,0,0:0:0:1:
298,192,102842,1,0,0:0:0:1:
42,192,102842,1,0,0:0:0:1:
128,192,102945,1,0,0:0:0:1:
213,192,102945,1,0,0:0:0:1:
384,192,102945,1,0,0:0:0:1:
298,192,103047,1,0,0:0:0:1:
469,192,103047,1,0,0:0:0:1:
128,192,103150,1,0,0:0:0:1:
384,192,103150,1,0,0:0:0:1:
42,192,103150,1,0,0:0:0:1:
213,192,103253,1,0,0:0:0:1:
469,192,103253,1,0,0:0:0:1:
128,192,103356,1,0,0:0:0:1:
298,192,103356,1,0,0:0:0:1:
384,192,103356,1,0,0:0:0:1:
213,192,103458,1,0,0:0:0:1:
42,192,103458,1,0,0:0:0:1:
128,192,103561,1,0,0:0:0:1:
384,192,103561,1,0,0:0:0:1:
298,192,103664,1,0,0:0:0:1:
469,192,103664,1,0,0:0:0:1:
128,192,103767,1,0,0:0:0:1:
384,192,103767,1,0,0:0:0:1:
213,192,103869,1,0,0:0:0:1:
469,192,103869,1,0,0:0:0:1:
128,192,103972,1,0,0:0:0:1:
298,192,103972,1,0,0:0:0:1:
42,192,103972,1,0,0:0:0:1:
213,192,104075,1,0,0:0:0:1:
384,192,104075,1,0,0:0:0:1:
128,192,104178,1,0,0:0:0:1:
469,192,104178,1,0,0:0:0:1:
213,192,104280,1,0,0:0:0:1:
298,192,104280,1,0,0:0:0:1:
384,192,104383,1,0,0:0:0:1:
42,192,104383,1,0,0:0:0:1:
128,192,104486,1,0,0:0:0:1:
213,192,104486,1,0,0:0:0:1:
298,192,104589,1,0,0:0:0:1:
469,192,104589,1,0,0:0:0:1:
42,192,104589,1,0,0:0:0:1:
213,192,104691,1,0,0:0:0:1:
384,192,104691,1,0,0:0:0:1:
128,192,104794,1,0,0:0:0:1:
298,192,104794,1,0,0:0:0:1:
42,192,104794,1,0,0:0:0:1:
213,192,104897,1,0,0:0:0:1:
469,192,104897,1,0,0:0:0:1:
128,192,105000,1,0,0:0:0:1:
298,192,105000,1,0,0:0:0:1:
384,192,105000,1,0,0:0:0:1:
469,192,105102,1,0,0:0:0:1:
42,192,105102,1,0,0:0:0:1:
128,192,105205,1,0,0:0:0:1:
298,192,105205,1,0,0:0:0:1:
384,192,105205,1,0,0:0:0:1:
213,192,105308,1,0,0:0:0:1:
42,192,105308,1,0,0:0:0:1:
128,192,105410,1,0,0:0:0:1:
298,192,105410,1,0,0:0:0:1:
213,192,105513,1,0,0:0:0:1:
384,192,105513,1,0,0:0:0:1:
128,192,105616,1,0,0:0:0:1:
469,192,105616,1,0,0:0:0:1:
42,192,105616,1,0,0:0:0:1:
298,192,105719,1,0,0:0:0:1:
384,192,105719,1,0,0:0:0:1:
42,192,105719,1,0,0:0:0:1:
213,192,105821,1,0,0:0:0:1:
469,192,105821,1,0,0:0:0:1:
128,192,105924,1,0,0:0:0:1:
298,192,105924,1,0,0:0:0:1:
213,192,106027,1,0,0:0:0:1:
298,192,106027,1,0,0:0:0:1:
42,192,106027,1,0,0:0:0:1:
128,192,106130,1,0,0:0:0:1:
384,192,106130,1,0,0:0:0:1:
213,192,106232,1,0,0:0:0:1:
298,192,106232,1,0,0:0:0:1:
213,192,106335,1,0,0:0:0:1:
384,192,106335,1,0,0:0:0:1:
128,192,106438,1,0,0:0:0:1:
469,192,106438,1,0,0:0:0:1:
42,192,106438,1,0,0:0:0:1:
213,192,106541,1,0,0:0:0:1:
384,192,106541,1,0,0:0:0:1:
128,192,106643,1,0,0:0:0:1:
469,192,106643,1,0,0:0:0:1:
42,192,106643,1,0,0:0:0:1:
213,192,106746,1,0,0:0:0:1:
384,192,106746,1,0,0:0:0:1:
128,192,106849,1,0,0:0:0:1:
298,192,106849,1,0,0:0:0:1:
469,192,106849,1,0,0:0:0:1:
42,192,106849,1,0,0:0:0:1:
213,192,106952,1,0,0:0:0:1:
384,192,106952,1,0,0:0:0:1:
128,192,107054,1,0,0:0:0:1:
298,192,107054,1,0,0:0:0:1:
213,192,107157,1,0,0:0:0:1:
469,192,107157,1,0,0:0:0:1:
128,192,107260,1,0,0:0:0:1:
384,192,107260,1,0,0:0:0:1:
42,192,107260,1,0,0:0:0:1:
213,192,107363,1,0,0:0:0:1:
128,192,107465,1,0,0:0:0:1:
298,192,107465,1,0,0:0:0:1:
384,192,107568,1,0,0:0:0:1:
42,192,107568,1,0,0:0:0:1:
213,192,107671,1,0,0:0:0:1:
469,192,107671,1,0,0:0:0:1:
128,192,107773,1,0,0:0:0:1:
384,192,107773,1,0,0:0:0:1:
298,192,107876,1,0,0:0:0:1:
469,192,107876,1,0,0:0:0:1:
42,192,107876,1,0,0:0:0:1:
213,192,107979,1,0,0:0:0:1:
384,192,107979,1,0,0:0:0:1:
128,192,108082,1,0,0:0:0:1:
298,192,108082,1,0,0:0:0:1:
42,192,108082,1,0,0:0:0:1:
213,192,108184,1,0,0:0:0:1:
384,192,108184,1,0,0:0:0:1:
298,192,108287,1,0,0:0:0:1:
469,192,108287,1,0,0:0:0:1:
42,192,108287,1,0,0:0:0:1:
128,192,108390,1,0,0:0:0:1:
384,192,108390,1,0,0:0:0:1:
213,192,108493,1,0,0:0:0:1:
469,192,108493,1,0,0:0:0:1:
42,192,108493,1,0,0:0:0:1:
128,192,108595,1,0,0:0:0:1:
298,192,108595,1,0,0:0:0:1:
384,192,108698,1,0,0:0:0:1:
42,192,108698,1,0,0:0:0:1:
213,192,108801,1,0,0:0:0:1:
469,192,108801,1,0,0:0:0:1:
128,192,108904,1,0,0:0:0:1:
298,192,108904,1,0,0:0:0:1:
42,192,108904,1,0,0:0:0:1:
213,192,109006,1,0,0:0:0:1:
384,192,109006,1,0,0:0:0:1:
128,192,109109,1,0,0:0:0:1:
469,192,109109,1,0,0:0:0:1:
298,192,109212,1,0,0:0:0:1:
384,192,109212,1,0,0:0:0:1:
213,192,109315,1,0,0:0:0:1:
469,192,109315,1,0,0:0:0:1:
128,192,109417,1,0,0:0:0:1:
298,192,109417,1,0,0:0:0:1:
213,192,109520,1,0,0:0:0:1:
384,192,109520,1,0,0:0:0:1:
42,192,109520,1,0,0:0:0:1:
298,192,109623,1,0,0:0:0:1:
469,192,109623,1,0,0:0:0:1:
128,192,109726,1,0,0:0:0:1:
384,192,109726,1,0,0:0:0:1:
42,192,109726,1,0,0:0:0:1:
213,192,109828,1,0,0:0:0:1:
469,192,109828,1,0,0:0:0:1:
128,192,109931,1,0,0:0:0:1:
298,192,109931,1,0,0:0:0:1:
384,192,109931,1,0,0:0:0:1:
213,192,110034,1,0,0:0:0:1:
42,192,110034,1,0,0:0:0:1:
128,192,110136,1,0,0:0:0:1:
298,192,110136,1,0,0:0:0:1:
384,192,110136,1,0,0:0:0:1:
213,192,110239,1,0,0:0:0:1:
469,192,110239,1,0,0:0:0:1:
298,192,110342,1,0,0:0:0:1:
42,192,110342,1,0,0:0:0:1:
213,192,110445,1,0,0:0:0:1:
384,192,110445,1,0,0:0:0:1:
128,192,110547,1,0,0:0:0:1:
469,192,110547,1,0,0:0:0:1:
42,192,110547,1,0,0:0:0:1:
213,192,110650,1,0,0:0:0:1:
298,192,110650,1,0,0:0:0:1:
128,192,110753,1,0,0:0:0:1:
469,192,110753,1,0,0:0:0:1:
298,192,110856,1,0,0:0:0:1:
384,192,110856,1,0,0:0:0:1:
213,192,110958,1,0,0:0:0:1:
469,192,110958,1,0,0:0:0:1:
42,192,110958,1,0,0:0:0:1:
128,192,111061,1,0,0:0:0:1:
298,192,111061,1,0,0:0:0:1:
213,192,111164,1,0,0:0:0:1:
469,192,111164,1,0,0:0:0:1:
298,192,111267,1,0,0:0:0:1:
384,192,111267,1,0,0:0:0:1:
128,192,111369,1,0,0:0:0:1:
469,192,111369,1,0,0:0:0:1:
42,192,111369,1,0,0:0:0:1:
213,192,111472,1,0,0:0:0:1:
384,192,111472,1,0,0:0:0:1:
128,192,111575,1,0,0:0:0:1:
298,192,111575,1,0,0:0:0:1:
213,192,111678,1,0,0:0:0:1:
42,192,111678,1,0,0:0:0:1:
128,192,111780,1,0,0:0:0:1:
298,192,111780,1,0,0:0:0:1:
469,192,111780,1,0,0:0:0:1:
213,192,111883,1,0,0:0:0:1:
384,192,111883,1,0,0:0:0:1:
469,192,111986,1,0,0:0:0:1:
42,192,111986,1,0,0:0:0:1:
213,192,112089,1,0,0:0:0:1:
298,192,112089,1,0,0:0:0:1:
128,192,112191,1,0,0:0:0:1:
384,192,112191,1,0,0:0:0:1:
42,192,112191,1,0,0:0:0:1:
298,192,112294,1,0,0:0:0:1:
469,192,112294,1,0,0:0:0:1:
213,192,112397,1,0,0:0:0:1:
384,192,112397,1,0,0:0:0:1:
128,192,112499,1,0,0:0:0:1:
298,192,112499,1,0,0:0:0:1:
213,192,112602,1,0,0:0:0:1:
469,192,112602,1,0,0:0:0:1:
42,192,112602,1,0,0:0:0:1:
128,192,112705,1,0,0:0:0:1:
384,192,112705,1,0,0:0:0:1:
298,192,112808,1,0,0:0:0:1:
42,192,112808,1,0,0:0:0:1:
213,192,112910,1,0,0:0:0:1:
384,192,112910,1,0,0:0:0:1:
128,192,113013,1,0,0:0:0:1:
298,192,113013,1,0,0:0:0:1:
42,192,113013,1,0,0:0:0:1:
213,192,113116,1,0,0:0:0:1:
469,192,113116,1,0,0:0:0:1:
298,192,113219,1,0,0:0:0:1:
384,192,113219,1,0,0:0:0:1:
128,192,113321,1,0,0:0:0:1:
213,192,113321,1,0,0:0:0:1:
298,192,113424,1,0,0:0:0:1:
469,192,113424,1,0,0:0:0:1:
42,192,113424,1,0,0:0:0:1:
128,192,113527,1,0,0:0:0:1:
213,192,113527,1,0,0:0:0:1:
384,192,113630,1,0,0:0:0:1:
42,192,113630,1,0,0:0:0:1:
213,192,113732,1,0,0:0:0:1:
298,192,113732,1,0,0:0:0:1:
128,192,113835,1,0,0:0:0:1:
469,192,113835,1,0,0:0:0:1:
42,192,113835,1,0,0:0:0:1:
213,192,113938,1,0,0:0:0:1:
384,192,113938,1,0,0:0:0:1:
298,192,114041,1,0,0:0:0:1:
469,192,114041,1,0,0:0:0:1:
128,192,114143,1,0,0:0:0:1:
384,192,114143,1,0,0:0:0:1:
213,192,114246,1,0,0:0:0:1:
42,192,114246,1,0,0:0:0:1:
128,192,114349,1,0,0:0:0:1:
298,192,114349,1,0,0:0:0:1:
213,192,114452,1,0,0:0:0:1:
469,192,114452,1,0,0:0:0:1:
42,192,114452,1,0,0:0:0:1:
298,192,114554,1,0,0:0:0:1:
384,192,114554,1,0,0:0:0:1:
128,192,114657,1,0,0:0:0:1:
469,192,114657,1,0,0:0:0:1:
42,192,114657,1,0,0:0:0:1:
213,192,114760,1,0,0:0:0:1:
384,192,114760,1,0,0:0:0:1:
128,192,114863,1,0,0:0:0:1:
298,192,114863,1,0,0:0:0:1:
469,192,114863,1,0,0:0:0:1:
213,192,114965,1,0,0:0:0:1:
42,192,114965,1,0,0:0:0:1:
128,192,115068,1,0,0:0:0:1:
298,192,115068,1,0,0:0:0:1:
469,192,115068,1,0,0:0:0:1:
213,192,115171,1,0,0:0:0:1:
384,192,115171,1,0,0:0:0:1:
298,192,115273,1,0,0:0:0:1:
42,192,115273,1,0,0:0:0:1:
213,192,115376,1,0,0:0:0:1:
469,192,115376,1,0,0:0:0:1:
128,192,115479,1,0,0:0:0:1:
384,192,115479,1,0,0:0:0:1:
42,192,115479,1,0,0:0:0:1:
213,192,115582,1,0,0:0:0:1:
469,192,115582,1,0,0:0:0:1:
128,192,115684,1,0,0:0:0:1:
298,192,115684,1,0,0:0:0:1:
42,192,115684,1,0,0:0:0:1:
213,192,115787,1,0,0:0:0:1:
384,192,115787,1,0,0:0:0:1:
128,192,115890,1,0,0:0:0:1:
469,192,115890,1,0,0:0:0:1:
298,192,115993,1,0,0:0:0:1:
42,192,115993,1,0,0:0:0:1:
128,192,116095,1,0,0:0:0:1:
213,192,116095,1,0,0:0:0:1:
384,192,116095,1,0,0:0:0:1:
298,192,116198,1,0,0:0:0:1:
469,192,116198,1,0,0:0:0:1:
128,192,116301,1,0,0:0:0:1:
384,192,116301,1,0,0:0:0:1:
42,192,116301,1,0,0:0:0:1:
213,192,116404,1,0,0:0:0:1:
469,192,116404,1,0,0:0:0:1:
128,192,116506,1,0,0:0:0:1:
298,192,116506,1,0,0:0:0:1:
384,192,116506,1,0,0:0:0:1:
213,192,116609,1,0,0:0:0:1:
42,192,116609,1,0,0:0:0:1:
128,192,116712,1,0,0:0:0:1:
384,192,116712,1,0,0:0:0:1:
298,192,116815,1,0,0:0:0:1:
469,192,116815,1,0,0:0:0:1:
128,192,116917,1,0,0:0:0:1:
384,192,116917,1,0,0:0:0:1:
213,192,117020,1,0,0:0:0:1:
469,192,117020,1,0,0:0:0:1:
128,192,117123,1,0,0:0:0:1:
298,192,117123,1,0,0:0:0:1:
42,192,117123,1,0,0:0:0:1:
213,192,117226,1,0,0:0:0:1:
384,192,117226,1,0,0:0:0:1:
128,192,117328,1,0,0:0:0:1:
469,192,117328,1,0,0:0:0:1:
213,192,117431,1,0,0:0:0:1:
298,192,117431,1,0,0:0:0:1:
384,192,117534,1,0,0:0:0:1:
42,192,117534,1,0,0:0:0:1:
128,192,117636,1,0,0:0:0:1:
213,192,117636,1,0,0:0:0:1:
298,192,117739,1,0,0:0:0:1:
469,192,117739,1,0,0:0:0:1:
42,192,117739,1,0,0:0:0:1:
213,192,117842,1,0,0:0:0:1:
384,192,117842,1,0,0:0:0:1:
128,192,117945,1,0,0:0:0:1:
298,192,117945,1,0,0:0:0:1:
42,192,117945,1,0,0:0:0:1:
213,192,118047,1,0,0:0:0:1:
469,192,118047,1,0,0:0:0:1:
128,192,118150,1,0,0:0:0:1:
298,192,118150,1,0,0:0:0:1:
384,192,118150,1,0,0:0:0:1:
469,192,118253,1,0,0:0:0:1:
42,192,118253,1,0,0:0:0:1:
298,192,118356,1,0,0:0:0:1:
384,192,118356,1,0,0:0:0:1:
128,192,118356,128,0,119178:0:0:0:1:
213,192,119178,128,0,119999:0:0:0:1:
469,192,119999,1,0,0:0:0:1:
298,192,120068,1,0,0:0:0:1:
469,192,120136,1,0,0:0:0:1:
298,192,120205,1,0,0:0:0:1:
469,192,120308,1,0,0:0:0:1:
128,192,120410,1,0,0:0:0:1:
213,192,120410,1,0,0:0:0:1:
384,192,120410,1,0,0:0:0:1:
