osu file format v14

[General]
AudioFilename: Oboro.mp3
AudioLeadIn: 0
PreviewTime: -1
Countdown: 1
SampleSet: None
StackLeniency: 0.7
Mode: 3
LetterboxInBreaks: 1
SpecialStyle: 1
WidescreenStoryboard: 1

[Editor]
DistanceSpacing: 1.3
BeatDivisor: 4
GridSize: 8
TimelineZoom: 1

[Metadata]
Title:Derrick 6K Exercise Pack
TitleUnicode:Derrick 6K Exercise Pack
Artist:Various Artists
ArtistUnicode:Various Artists
Creator:[Crz]Derrick
Version:HH;MM;ST - Oboro [13]
Source:
Tags:
BeatmapID:998934
BeatmapSetID:466803

[Difficulty]
HPDrainRate:8.5
CircleSize:6
OverallDifficulty:7
ApproachRate:5
SliderMultiplier:1.4
SliderTickRate:1

[Events]
//Background and Video events
0,0,"8ad4b31c8701a18bc760ea64992f07082838fe16.jpg",0,0
//Break Periods
//Storyboard Layer 0 (Background)
//Storyboard Layer 1 (Fail)
//Storyboard Layer 2 (Pass)
//Storyboard Layer 3 (Foreground)
//Storyboard Sound Samples

[TimingPoints]
0,402.684563758389,4,2,0,70,1,0

[HitObjects]
469,192,1610,5,0,0:0:0:1:
42,192,1610,1,0,0:0:0:1:
213,192,1711,1,0,0:0:0:1:
128,192,1812,1,0,0:0:0:1:
298,192,1912,1,0,0:0:0:1:
213,192,2013,1,0,0:0:0:1:
384,192,2114,1,0,0:0:0:1:
298,192,2214,1,0,0:0:0:1:
213,192,2818,1,0,0:0:0:1:
384,192,2818,1,0,0:0:0:1:
128,192,3020,1,0,0:0:0:1:
298,192,3020,1,0,0:0:0:1:
469,192,3221,1,0,0:0:0:1:
42,192,3221,1,0,0:0:0:1:
298,192,3322,1,0,0:0:0:1:
384,192,3422,1,0,0:0:0:1:
213,192,3523,1,0,0:0:0:1:
298,192,3624,1,0,0:0:0:1:
128,192,3724,1,0,0:0:0:1:
213,192,3825,1,0,0:0:0:1:
298,192,4429,1,0,0:0:0:1:
42,192,4429,1,0,0:0:0:1:
128,192,4630,1,0,0:0:0:1:
384,192,4630,1,0,0:0:0:1:
469,192,4832,1,0,0:0:0:1:
42,192,4832,1,0,0:0:0:1:
298,192,4932,1,0,0:0:0:1:
128,192,5033,1,0,0:0:0:1:
384,192,5134,1,0,0:0:0:1:
213,192,5234,1,0,0:0:0:1:
298,192,5335,1,0,0:0:0:1:
128,192,5436,1,0,0:0:0:1:
213,192,6040,1,0,0:0:0:1:
42,192,6040,1,0,0:0:0:1:
128,192,6241,1,0,0:0:0:1:
298,192,6241,1,0,0:0:0:1:
213,192,6442,1,0,0:0:0:1:
469,192,6442,1,0,0:0:0:1:
42,192,6543,1,0,0:0:0:1:
213,192,6644,1,0,0:0:0:1:
298,192,6744,1,0,0:0:0:1:
128,192,6845,1,0,0:0:0:1:
213,192,6946,1,0,0:0:0:1:
384,192,7046,1,0,0:0:0:1:
128,192,7651,1,0,0:0:0:1:
469,192,7651,1,0,0:0:0:1:
213,192,7852,1,0,0:0:0:1:
298,192,7852,1,0,0:0:0:1:
213,192,8053,1,0,0:0:0:1:
384,192,8053,1,0,0:0:0:1:
469,192,8053,128,0,9463:0:0:0:1:
128,192,8456,1,0,0:0:0:1:
298,192,8456,1,0,0:0:0:1:
213,192,8657,1,0,0:0:0:1:
128,192,8758,1,0,0:0:0:1:
384,192,8859,1,0,0:0:0:1:
42,192,8859,1,0,0:0:0:1:
128,192,9261,1,0,0:0:0:1:
298,192,9261,1,0,0:0:0:1:
298,192,9463,1,0,0:0:0:1:
42,192,9463,1,0,0:0:0:1:
213,192,9664,1,0,0:0:0:1:
384,192,9664,1,0,0:0:0:1:
469,192,9664,128,0,11073:0:0:0:1:
128,192,10067,1,0,0:0:0:1:
298,192,10067,1,0,0:0:0:1:
213,192,10268,1,0,0:0:0:1:
128,192,10369,1,0,0:0:0:1:
384,192,10469,1,0,0:0:0:1:
42,192,10469,1,0,0:0:0:1:
213,192,10872,1,0,0:0:0:1:
42,192,10872,1,0,0:0:0:1:
128,192,11073,1,0,0:0:0:1:
298,192,11073,1,0,0:0:0:1:
384,192,11275,1,0,0:0:0:1:
42,192,11275,1,0,0:0:0:1:
469,192,11275,128,0,12885:0:0:0:1:
213,192,11476,1,0,0:0:0:1:
298,192,11677,1,0,0:0:0:1:
128,192,11879,1,0,0:0:0:1:
42,192,12080,1,0,0:0:0:1:
213,192,12281,1,0,0:0:0:1:
298,192,12483,1,0,0:0:0:1:
128,192,12684,1,0,0:0:0:1:
213,192,12885,1,0,0:0:0:1:
384,192,12885,1,0,0:0:0:1:
42,192,12885,128,0,14295:0:0:0:1:
298,192,13087,1,0,0:0:0:1:
213,192,13288,1,0,0:0:0:1:
469,192,13288,1,0,0:0:0:1:
128,192,13489,1,0,0:0:0:1:
384,192,13691,1,0,0:0:0:1:
213,192,13892,1,0,0:0:0:1:
298,192,14093,1,0,0:0:0:1:
384,192,14295,1,0,0:0:0:1:
298,192,14395,1,0,0:0:0:1:
213,192,14496,1,0,0:0:0:1:
469,192,14496,1,0,0:0:0:1:
42,192,14496,128,0,16107:0:0:0:1:
128,192,14899,1,0,0:0:0:1:
384,192,14899,1,0,0:0:0:1:
298,192,15100,1,0,0:0:0:1:
384,192,15201,1,0,0:0:0:1:
213,192,15302,1,0,0:0:0:1:
469,192,15302,1,0,0:0:0:1:
128,192,15704,1,0,0:0:0:1:
298,192,15704,1,0,0:0:0:1:
213,192,15906,1,0,0:0:0:1:
384,192,15906,1,0,0:0:0:1:
298,192,16107,1,0,0:0:0:1:
469,192,16107,1,0,0:0:0:1:
128,192,16107,128,0,16912:0:0:0:1:
213,192,16510,1,0,0:0:0:1:
384,192,16510,1,0,0:0:0:1:
298,192,16711,1,0,0:0:0:1:
384,192,16812,1,0,0:0:0:1:
469,192,16912,1,0,0:0:0:1:
42,192,16912,1,0,0:0:0:1:
213,192,16912,128,0,17718:0:0:0:1:
384,192,17315,1,0,0:0:0:1:
42,192,17315,1,0,0:0:0:1:
128,192,17516,1,0,0:0:0:1:
469,192,17516,1,0,0:0:0:1:
42,192,17718,1,0,0:0:0:1:
298,192,17718,128,0,19328:0:0:0:1:
384,192,17919,1,0,0:0:0:1:
128,192,18120,1,0,0:0:0:1:
213,192,18322,1,0,0:0:0:1:
469,192,18523,1,0,0:0:0:1:
42,192,18523,1,0,0:0:0:1:
128,192,19328,1,0,0:0:0:1:
469,192,19328,1,0,0:0:0:1:
384,192,19328,128,0,20134:0:0:0:1:
213,192,19530,1,0,0:0:0:1:
42,192,19731,1,0,0:0:0:1:
298,192,19932,1,0,0:0:0:1:
213,192,20134,1,0,0:0:0:1:
42,192,20134,1,0,0:0:0:1:
469,192,20134,128,0,20738:0:0:0:1:
128,192,20335,1,0,0:0:0:1:
298,192,20536,1,0,0:0:0:1:
128,192,20738,1,0,0:0:0:1:
213,192,20939,1,0,0:0:0:1:
384,192,20939,1,0,0:0:0:1:
469,192,20939,128,0,22348:0:0:0:1:
42,192,20939,128,0,21543:0:0:0:1:
298,192,21140,1,0,0:0:0:1:
128,192,21342,1,0,0:0:0:1:
128,192,21744,1,0,0:0:0:1:
298,192,21744,1,0,0:0:0:1:
42,192,21744,128,0,22550:0:0:0:1:
213,192,21946,1,0,0:0:0:1:
384,192,22147,1,0,0:0:0:1:
213,192,22348,1,0,0:0:0:1:
469,192,22550,128,0,24060:0:0:0:1:
384,192,22651,128,0,22852:0:0:0:1:
298,192,22751,128,0,22953:0:0:0:1:
213,192,22852,128,0,23053:0:0:0:1:
128,192,22953,128,0,23154:0:0:0:1:
384,192,22953,128,0,23657:0:0:0:1:
298,192,23053,128,0,23557:0:0:0:1:
42,192,23053,128,0,23255:0:0:0:1:
213,192,23154,128,0,23456:0:0:0:1:
128,192,23255,128,0,23355:0:0:0:1:
42,192,23355,128,0,23557:0:0:0:1:
128,192,23456,128,0,23657:0:0:0:1:
213,192,23557,128,0,23758:0:0:0:1:
42,192,23657,1,0,0:0:0:1:
298,192,23657,128,0,23859:0:0:0:1:
128,192,23758,1,0,0:0:0:1:
384,192,23758,128,0,23959:0:0:0:1:
213,192,23859,1,0,0:0:0:1:
298,192,23959,1,0,0:0:0:1:
384,192,24060,1,0,0:0:0:1:
213,192,24161,1,0,0:0:0:1:
469,192,24161,1,0,0:0:0:1:
42,192,24161,1,0,0:0:0:1:
128,192,24261,1,0,0:0:0:1:
298,192,24362,1,0,0:0:0:1:
128,192,24563,1,0,0:0:0:1:
213,192,24563,1,0,0:0:0:1:
384,192,24563,1,0,0:0:0:1:
469,192,24563,1,0,0:0:0:1:
298,192,24664,1,0,0:0:0:1:
42,192,24765,1,0,0:0:0:1:
213,192,24865,1,0,0:0:0:1:
128,192,24966,1,0,0:0:0:1:
298,192,24966,1,0,0:0:0:1:
384,192,24966,1,0,0:0:0:1:
213,192,25167,1,0,0:0:0:1:
384,192,25268,1,0,0:0:0:1:
128,192,25369,1,0,0:0:0:1:
298,192,25369,1,0,0:0:0:1:
469,192,25369,1,0,0:0:0:1:
42,192,25369,1,0,0:0:0:1:
384,192,25570,1,0,0:0:0:1:
298,192,25671,1,0,0:0:0:1:
128,192,25771,1,0,0:0:0:1:
213,192,25771,1,0,0:0:0:1:
469,192,25771,1,0,0:0:0:1:
298,192,25973,1,0,0:0:0:1:
213,192,26174,1,0,0:0:0:1:
384,192,26174,1,0,0:0:0:1:
469,192,26174,1,0,0:0:0:1:
42,192,26174,1,0,0:0:0:1:
298,192,26375,1,0,0:0:0:1:
213,192,26577,1,0,0:0:0:1:
469,192,26577,1,0,0:0:0:1:
42,192,26577,1,0,0:0:0:1:
298,192,26677,1,0,0:0:0:1:
213,192,26778,1,0,0:0:0:1:
128,192,26879,1,0,0:0:0:1:
213,192,26979,1,0,0:0:0:1:
298,192,26979,1,0,0:0:0:1:
384,192,26979,1,0,0:0:0:1:
42,192,26979,1,0,0:0:0:1:
384,192,27181,1,0,0:0:0:1:
42,192,27181,1,0,0:0:0:1:
213,192,27382,1,0,0:0:0:1:
469,192,27382,1,0,0:0:0:1:
42,192,27382,1,0,0:0:0:1:
298,192,27583,1,0,0:0:0:1:
213,192,27684,1,0,0:0:0:1:
128,192,27785,1,0,0:0:0:1:
298,192,27785,1,0,0:0:0:1:
469,192,27785,1,0,0:0:0:1:
42,192,27785,1,0,0:0:0:1:
213,192,27986,1,0,0:0:0:1:
384,192,27986,1,0,0:0:0:1:
128,192,28187,1,0,0:0:0:1:
213,192,28288,1,0,0:0:0:1:
298,192,28389,1,0,0:0:0:1:
42,192,28389,1,0,0:0:0:1:
213,192,28489,1,0,0:0:0:1:
384,192,28489,1,0,0:0:0:1:
128,192,28590,1,0,0:0:0:1:
298,192,28590,1,0,0:0:0:1:
469,192,28590,1,0,0:0:0:1:
42,192,28590,1,0,0:0:0:1:
213,192,28791,1,0,0:0:0:1:
128,192,28993,1,0,0:0:0:1:
384,192,28993,1,0,0:0:0:1:
469,192,28993,1,0,0:0:0:1:
42,192,28993,1,0,0:0:0:1:
128,192,29295,1,0,0:0:0:1:
213,192,29395,1,0,0:0:0:1:
384,192,29395,1,0,0:0:0:1:
42,192,29395,1,0,0:0:0:1:
128,192,29597,1,0,0:0:0:1:
384,192,29597,1,0,0:0:0:1:
469,192,29597,1,0,0:0:0:1:
298,192,29798,1,0,0:0:0:1:
42,192,29798,1,0,0:0:0:1:
128,192,29899,1,0,0:0:0:1:
384,192,29899,1,0,0:0:0:1:
213,192,30000,1,0,0:0:0:1:
469,192,30000,1,0,0:0:0:1:
298,192,30100,1,0,0:0:0:1:
128,192,30201,1,0,0:0:0:1:
384,192,30201,1,0,0:0:0:1:
469,192,30201,1,0,0:0:0:1:
42,192,30201,1,0,0:0:0:1:
469,192,30604,128,0,31812:0:0:0:1:
42,192,30604,128,0,31812:0:0:0:1:
213,192,32214,1,0,0:0:0:1:
469,192,32214,1,0,0:0:0:1:
42,192,32214,1,0,0:0:0:1:
298,192,32315,1,0,0:0:0:1:
128,192,32416,1,0,0:0:0:1:
384,192,32416,1,0,0:0:0:1:
213,192,32516,1,0,0:0:0:1:
128,192,32617,1,0,0:0:0:1:
298,192,32617,1,0,0:0:0:1:
469,192,32617,1,0,0:0:0:1:
42,192,32617,1,0,0:0:0:1:
213,192,32818,1,0,0:0:0:1:
469,192,32818,1,0,0:0:0:1:
128,192,32919,1,0,0:0:0:1:
298,192,33020,1,0,0:0:0:1:
384,192,33020,1,0,0:0:0:1:
42,192,33020,1,0,0:0:0:1:
213,192,33120,1,0,0:0:0:1:
128,192,33221,1,0,0:0:0:1:
213,192,33422,1,0,0:0:0:1:
384,192,33422,1,0,0:0:0:1:
469,192,33422,1,0,0:0:0:1:
42,192,33422,1,0,0:0:0:1:
298,192,33624,1,0,0:0:0:1:
128,192,33825,1,0,0:0:0:1:
384,192,33825,1,0,0:0:0:1:
42,192,33825,1,0,0:0:0:1:
213,192,33926,1,0,0:0:0:1:
298,192,34026,1,0,0:0:0:1:
128,192,34127,1,0,0:0:0:1:
213,192,34228,1,0,0:0:0:1:
298,192,34228,1,0,0:0:0:1:
469,192,34228,1,0,0:0:0:1:
42,192,34228,1,0,0:0:0:1:
128,192,34429,1,0,0:0:0:1:
384,192,34429,1,0,0:0:0:1:
298,192,34530,1,0,0:0:0:1:
213,192,34630,1,0,0:0:0:1:
469,192,34630,1,0,0:0:0:1:
128,192,34731,1,0,0:0:0:1:
384,192,34731,1,0,0:0:0:1:
213,192,34832,1,0,0:0:0:1:
298,192,34832,1,0,0:0:0:1:
42,192,34832,1,0,0:0:0:1:
128,192,34932,1,0,0:0:0:1:
128,192,35033,1,0,0:0:0:1:
298,192,35033,1,0,0:0:0:1:
469,192,35033,1,0,0:0:0:1:
213,192,35234,1,0,0:0:0:1:
298,192,35335,1,0,0:0:0:1:
128,192,35436,1,0,0:0:0:1:
384,192,35436,1,0,0:0:0:1:
42,192,35436,1,0,0:0:0:1:
298,192,35536,1,0,0:0:0:1:
213,192,35637,1,0,0:0:0:1:
298,192,35738,1,0,0:0:0:1:
213,192,35838,1,0,0:0:0:1:
384,192,35838,1,0,0:0:0:1:
469,192,35838,1,0,0:0:0:1:
42,192,35838,1,0,0:0:0:1:
128,192,36040,1,0,0:0:0:1:
213,192,36140,1,0,0:0:0:1:
128,192,36241,1,0,0:0:0:1:
298,192,36241,1,0,0:0:0:1:
469,192,36241,1,0,0:0:0:1:
213,192,36342,1,0,0:0:0:1:
298,192,36442,1,0,0:0:0:1:
384,192,36543,1,0,0:0:0:1:
128,192,36644,1,0,0:0:0:1:
298,192,36644,1,0,0:0:0:1:
469,192,36644,1,0,0:0:0:1:
42,192,36644,1,0,0:0:0:1:
213,192,36845,1,0,0:0:0:1:
298,192,37046,1,0,0:0:0:1:
469,192,37046,1,0,0:0:0:1:
42,192,37046,1,0,0:0:0:1:
128,192,37147,1,0,0:0:0:1:
213,192,37248,1,0,0:0:0:1:
298,192,37348,1,0,0:0:0:1:
213,192,37449,1,0,0:0:0:1:
384,192,37449,1,0,0:0:0:1:
469,192,37449,1,0,0:0:0:1:
42,192,37449,1,0,0:0:0:1:
128,192,37651,1,0,0:0:0:1:
213,192,37751,1,0,0:0:0:1:
298,192,37852,1,0,0:0:0:1:
42,192,37852,1,0,0:0:0:1:
128,192,37953,1,0,0:0:0:1:
384,192,37953,1,0,0:0:0:1:
213,192,38053,1,0,0:0:0:1:
298,192,38053,1,0,0:0:0:1:
42,192,38053,1,0,0:0:0:1:
469,192,38154,1,0,0:0:0:1:
213,192,38255,1,0,0:0:0:1:
384,192,38255,1,0,0:0:0:1:
42,192,38255,1,0,0:0:0:1:
213,192,38456,1,0,0:0:0:1:
298,192,38557,1,0,0:0:0:1:
384,192,38657,1,0,0:0:0:1:
469,192,38657,1,0,0:0:0:1:
42,192,38657,1,0,0:0:0:1:
213,192,38758,1,0,0:0:0:1:
128,192,38859,1,0,0:0:0:1:
384,192,38859,1,0,0:0:0:1:
298,192,38959,1,0,0:0:0:1:
213,192,39060,1,0,0:0:0:1:
469,192,39060,1,0,0:0:0:1:
42,192,39060,1,0,0:0:0:1:
298,192,39261,1,0,0:0:0:1:
42,192,39261,1,0,0:0:0:1:
384,192,39362,1,0,0:0:0:1:
128,192,39463,1,0,0:0:0:1:
213,192,39463,1,0,0:0:0:1:
469,192,39463,1,0,0:0:0:1:
298,192,39563,1,0,0:0:0:1:
384,192,39664,1,0,0:0:0:1:
298,192,39865,1,0,0:0:0:1:
469,192,39865,1,0,0:0:0:1:
42,192,39865,1,0,0:0:0:1:
213,192,40067,1,0,0:0:0:1:
128,192,40268,1,0,0:0:0:1:
384,192,40268,1,0,0:0:0:1:
469,192,40268,1,0,0:0:0:1:
298,192,40369,1,0,0:0:0:1:
213,192,40469,1,0,0:0:0:1:
384,192,40570,1,0,0:0:0:1:
213,192,40671,1,0,0:0:0:1:
469,192,40671,1,0,0:0:0:1:
42,192,40671,1,0,0:0:0:1:
128,192,40872,1,0,0:0:0:1:
384,192,40872,1,0,0:0:0:1:
213,192,40973,1,0,0:0:0:1:
298,192,41073,1,0,0:0:0:1:
42,192,41073,1,0,0:0:0:1:
128,192,41174,1,0,0:0:0:1:
384,192,41174,1,0,0:0:0:1:
213,192,41275,1,0,0:0:0:1:
298,192,41275,1,0,0:0:0:1:
469,192,41275,1,0,0:0:0:1:
384,192,41375,1,0,0:0:0:1:
213,192,41476,1,0,0:0:0:1:
384,192,41476,1,0,0:0:0:1:
42,192,41476,1,0,0:0:0:1:
298,192,41677,1,0,0:0:0:1:
213,192,41778,1,0,0:0:0:1:
128,192,41879,1,0,0:0:0:1:
384,192,41879,1,0,0:0:0:1:
469,192,41879,1,0,0:0:0:1:
213,192,41979,1,0,0:0:0:1:
298,192,42080,1,0,0:0:0:1:
213,192,42181,1,0,0:0:0:1:
128,192,42281,1,0,0:0:0:1:
469,192,42281,1,0,0:0:0:1:
42,192,42281,1,0,0:0:0:1:
384,192,42483,1,0,0:0:0:1:
298,192,42583,1,0,0:0:0:1:
213,192,42684,1,0,0:0:0:1:
384,192,42684,1,0,0:0:0:1:
42,192,42684,1,0,0:0:0:1:
298,192,42785,1,0,0:0:0:1:
213,192,42885,1,0,0:0:0:1:
128,192,42986,1,0,0:0:0:1:
298,192,43087,1,0,0:0:0:1:
469,192,43087,1,0,0:0:0:1:
42,192,43087,1,0,0:0:0:1:
298,192,43288,1,0,0:0:0:1:
213,192,43489,1,0,0:0:0:1:
469,192,43489,1,0,0:0:0:1:
42,192,43489,1,0,0:0:0:1:
384,192,43590,1,0,0:0:0:1:
298,192,43691,1,0,0:0:0:1:
213,192,43791,1,0,0:0:0:1:
298,192,43892,1,0,0:0:0:1:
469,192,43892,1,0,0:0:0:1:
42,192,43892,1,0,0:0:0:1:
384,192,44093,1,0,0:0:0:1:
298,192,44194,1,0,0:0:0:1:
42,192,44295,128,0,44496:0:0:0:1:
128,192,44395,128,0,44597:0:0:0:1:
213,192,44496,128,0,44697:0:0:0:1:
42,192,44597,1,0,0:0:0:1:
298,192,44597,128,0,44798:0:0:0:1:
128,192,44697,1,0,0:0:0:1:
384,192,44697,128,0,44899:0:0:0:1:
213,192,44798,1,0,0:0:0:1:
469,192,44798,128,0,45000:0:0:0:1:
298,192,44899,1,0,0:0:0:1:
384,192,45000,1,0,0:0:0:1:
213,192,45100,1,0,0:0:0:1:
469,192,45100,1,0,0:0:0:1:
42,192,45100,1,0,0:0:0:1:
298,192,45201,1,0,0:0:0:1:
128,192,45302,1,0,0:0:0:1:
384,192,45302,1,0,0:0:0:1:
298,192,45402,1,0,0:0:0:1:
213,192,45503,1,0,0:0:0:1:
469,192,45503,1,0,0:0:0:1:
42,192,45503,1,0,0:0:0:1:
213,192,45704,1,0,0:0:0:1:
384,192,45704,1,0,0:0:0:1:
298,192,45805,1,0,0:0:0:1:
469,192,45805,1,0,0:0:0:1:
128,192,45906,1,0,0:0:0:1:
384,192,45906,1,0,0:0:0:1:
213,192,46107,1,0,0:0:0:1:
298,192,46308,1,0,0:0:0:1:
469,192,46308,1,0,0:0:0:1:
42,192,46308,1,0,0:0:0:1:
128,192,46510,1,0,0:0:0:1:
298,192,46510,1,0,0:0:0:1:
213,192,46610,1,0,0:0:0:1:
42,192,46610,1,0,0:0:0:1:
128,192,46711,1,0,0:0:0:1:
384,192,46711,1,0,0:0:0:1:
469,192,46711,1,0,0:0:0:1:
298,192,46812,1,0,0:0:0:1:
128,192,46912,1,0,0:0:0:1:
213,192,46912,1,0,0:0:0:1:
384,192,47013,1,0,0:0:0:1:
213,192,47114,1,0,0:0:0:1:
469,192,47114,1,0,0:0:0:1:
42,192,47114,1,0,0:0:0:1:
213,192,47315,1,0,0:0:0:1:
298,192,47416,1,0,0:0:0:1:
128,192,47516,1,0,0:0:0:1:
384,192,47516,1,0,0:0:0:1:
213,192,47617,1,0,0:0:0:1:
42,192,47617,1,0,0:0:0:1:
128,192,47718,1,0,0:0:0:1:
298,192,47718,1,0,0:0:0:1:
384,192,47818,1,0,0:0:0:1:
213,192,47919,1,0,0:0:0:1:
384,192,47919,1,0,0:0:0:1:
42,192,47919,1,0,0:0:0:1:
128,192,48120,1,0,0:0:0:1:
298,192,48120,1,0,0:0:0:1:
213,192,48221,1,0,0:0:0:1:
469,192,48221,1,0,0:0:0:1:
298,192,48322,1,0,0:0:0:1:
384,192,48322,1,0,0:0:0:1:
42,192,48322,1,0,0:0:0:1:
128,192,48523,1,0,0:0:0:1:
384,192,48523,1,0,0:0:0:1:
298,192,48624,1,0,0:0:0:1:
213,192,48724,1,0,0:0:0:1:
469,192,48724,1,0,0:0:0:1:
42,192,48724,1,0,0:0:0:1:
128,192,48926,1,0,0:0:0:1:
128,192,49026,1,0,0:0:0:1:
213,192,49127,1,0,0:0:0:1:
384,192,49127,1,0,0:0:0:1:
42,192,49127,1,0,0:0:0:1:
298,192,49228,1,0,0:0:0:1:
213,192,49328,1,0,0:0:0:1:
128,192,49530,1,0,0:0:0:1:
298,192,49530,1,0,0:0:0:1:
469,192,49530,1,0,0:0:0:1:
298,192,49630,1,0,0:0:0:1:
213,192,49731,1,0,0:0:0:1:
42,192,49731,1,0,0:0:0:1:
298,192,49932,1,0,0:0:0:1:
384,192,49932,1,0,0:0:0:1:
128,192,49932,128,0,49983:0:0:0:1:
213,192,50033,128,0,50083:0:0:0:1:
469,192,50134,1,0,0:0:0:1:
42,192,50134,128,0,50184:0:0:0:1:
298,192,50234,1,0,0:0:0:1:
128,192,50234,128,0,50285:0:0:0:1:
384,192,50335,1,0,0:0:0:1:
213,192,50335,128,0,50385:0:0:0:1:
298,192,50436,1,0,0:0:0:1:
213,192,50536,1,0,0:0:0:1:
469,192,50536,1,0,0:0:0:1:
128,192,50637,1,0,0:0:0:1:
213,192,50738,1,0,0:0:0:1:
42,192,50738,1,0,0:0:0:1:
298,192,50788,1,0,0:0:0:1:
384,192,50838,1,0,0:0:0:1:
469,192,50889,1,0,0:0:0:1:
128,192,50939,1,0,0:0:0:1:
42,192,50939,1,0,0:0:0:1:
213,192,51040,1,0,0:0:0:1:
298,192,51040,1,0,0:0:0:1:
384,192,51140,1,0,0:0:0:1:
469,192,51140,1,0,0:0:0:1:
42,192,51140,1,0,0:0:0:1:
213,192,51342,1,0,0:0:0:1:
128,192,51543,1,0,0:0:0:1:
298,192,51543,1,0,0:0:0:1:
469,192,51543,1,0,0:0:0:1:
298,192,51744,1,0,0:0:0:1:
42,192,51744,1,0,0:0:0:1:
213,192,51946,1,0,0:0:0:1:
384,192,51946,1,0,0:0:0:1:
42,192,51946,1,0,0:0:0:1:
298,192,52046,1,0,0:0:0:1:
128,192,52147,1,0,0:0:0:1:
384,192,52147,1,0,0:0:0:1:
128,192,52248,1,0,0:0:0:1:
213,192,52348,1,0,0:0:0:1:
469,192,52348,1,0,0:0:0:1:
42,192,52348,1,0,0:0:0:1:
298,192,52449,1,0,0:0:0:1:
384,192,52550,1,0,0:0:0:1:
298,192,52651,1,0,0:0:0:1:
128,192,52751,1,0,0:0:0:1:
213,192,52751,1,0,0:0:0:1:
469,192,52751,1,0,0:0:0:1:
298,192,52953,1,0,0:0:0:1:
128,192,53053,1,0,0:0:0:1:
213,192,53154,1,0,0:0:0:1:
384,192,53154,1,0,0:0:0:1:
42,192,53154,1,0,0:0:0:1:
128,192,53355,1,0,0:0:0:1:
298,192,53456,1,0,0:0:0:1:
128,192,53557,1,0,0:0:0:1:
213,192,53557,1,0,0:0:0:1:
469,192,53557,1,0,0:0:0:1:
128,192,53758,1,0,0:0:0:1:
298,192,53758,1,0,0:0:0:1:
213,192,53859,1,0,0:0:0:1:
384,192,53859,1,0,0:0:0:1:
298,192,53959,1,0,0:0:0:1:
469,192,53959,1,0,0:0:0:1:
42,192,53959,1,0,0:0:0:1:
213,192,54060,1,0,0:0:0:1:
128,192,54161,1,0,0:0:0:1:
384,192,54161,1,0,0:0:0:1:
298,192,54261,1,0,0:0:0:1:
213,192,54362,1,0,0:0:0:1:
469,192,54362,1,0,0:0:0:1:
42,192,54362,1,0,0:0:0:1:
384,192,54563,1,0,0:0:0:1:
384,192,54664,1,0,0:0:0:1:
128,192,54765,1,0,0:0:0:1:
298,192,54765,1,0,0:0:0:1:
469,192,54765,1,0,0:0:0:1:
213,192,54966,1,0,0:0:0:1:
384,192,54966,1,0,0:0:0:1:
128,192,55167,1,0,0:0:0:1:
298,192,55167,1,0,0:0:0:1:
213,192,55369,1,0,0:0:0:1:
42,192,55369,1,0,0:0:0:1:
298,192,55469,1,0,0:0:0:1:
213,192,55570,1,0,0:0:0:1:
384,192,55570,1,0,0:0:0:1:
42,192,55570,1,0,0:0:0:1:
128,192,55771,1,0,0:0:0:1:
298,192,55771,1,0,0:0:0:1:
213,192,55973,1,0,0:0:0:1:
384,192,55973,1,0,0:0:0:1:
298,192,56174,1,0,0:0:0:1:
469,192,56174,1,0,0:0:0:1:
213,192,56375,1,0,0:0:0:1:
384,192,56375,1,0,0:0:0:1:
42,192,56375,1,0,0:0:0:1:
128,192,56577,1,0,0:0:0:1:
298,192,56577,1,0,0:0:0:1:
213,192,56677,1,0,0:0:0:1:
298,192,56778,1,0,0:0:0:1:
469,192,56778,1,0,0:0:0:1:
42,192,56778,1,0,0:0:0:1:
213,192,56979,1,0,0:0:0:1:
384,192,56979,1,0,0:0:0:1:
298,192,57181,1,0,0:0:0:1:
42,192,57181,128,0,57986:0:0:0:1:
298,192,57583,1,0,0:0:0:1:
298,192,57785,1,0,0:0:0:1:
128,192,57986,1,0,0:0:0:1:
298,192,57986,1,0,0:0:0:1:
469,192,57986,1,0,0:0:0:1:
128,192,58288,1,0,0:0:0:1:
128,192,58590,128,0,58791:0:0:0:1:
213,192,58791,128,0,58892:0:0:0:1:
298,192,58791,128,0,58993:0:0:0:1:
384,192,58791,128,0,59093:0:0:0:1:
469,192,58791,128,0,59194:0:0:0:1:
42,192,58791,128,0,58993:0:0:0:1:
128,192,58892,128,0,59093:0:0:0:1:
213,192,58993,128,0,59194:0:0:0:1:
298,192,59093,128,0,59295:0:0:0:1:
42,192,59093,128,0,59295:0:0:0:1:
128,192,59194,128,0,59395:0:0:0:1:
384,192,59194,128,0,59395:0:0:0:1:
213,192,59295,128,0,59496:0:0:0:1:
469,192,59295,128,0,59496:0:0:0:1:
298,192,59395,1,0,0:0:0:1:
42,192,59395,1,0,0:0:0:1:
128,192,59496,1,0,0:0:0:1:
384,192,59496,1,0,0:0:0:1:
213,192,59597,1,0,0:0:0:1:
469,192,59597,1,0,0:0:0:1:
298,192,59798,1,0,0:0:0:1:
42,192,59798,1,0,0:0:0:1:
213,192,59899,1,0,0:0:0:1:
128,192,60000,1,0,0:0:0:1:
384,192,60000,1,0,0:0:0:1:
469,192,60000,1,0,0:0:0:1:
213,192,60201,1,0,0:0:0:1:
42,192,60201,1,0,0:0:0:1:
298,192,60302,1,0,0:0:0:1:
128,192,60402,1,0,0:0:0:1:
384,192,60402,1,0,0:0:0:1:
469,192,60402,1,0,0:0:0:1:
298,192,60503,1,0,0:0:0:1:
213,192,60604,1,0,0:0:0:1:
298,192,60805,1,0,0:0:0:1:
469,192,60805,1,0,0:0:0:1:
42,192,60805,1,0,0:0:0:1:
128,192,61006,1,0,0:0:0:1:
384,192,61006,1,0,0:0:0:1:
213,192,61208,1,0,0:0:0:1:
469,192,61208,1,0,0:0:0:1:
298,192,61409,1,0,0:0:0:1:
42,192,61409,1,0,0:0:0:1:
213,192,61510,1,0,0:0:0:1:
128,192,61610,1,0,0:0:0:1:
384,192,61610,1,0,0:0:0:1:
469,192,61610,1,0,0:0:0:1:
213,192,61812,1,0,0:0:0:1:
42,192,61812,1,0,0:0:0:1:
298,192,61912,1,0,0:0:0:1:
128,192,62013,1,0,0:0:0:1:
384,192,62013,1,0,0:0:0:1:
469,192,62013,1,0,0:0:0:1:
213,192,62114,1,0,0:0:0:1:
298,192,62214,1,0,0:0:0:1:
213,192,62416,1,0,0:0:0:1:
469,192,62416,1,0,0:0:0:1:
42,192,62416,1,0,0:0:0:1:
128,192,62617,1,0,0:0:0:1:
384,192,62617,1,0,0:0:0:1:
469,192,62818,1,0,0:0:0:1:
42,192,62818,1,0,0:0:0:1:
298,192,62818,128,0,63221:0:0:0:1:
128,192,63020,1,0,0:0:0:1:
213,192,63120,1,0,0:0:0:1:
469,192,63221,1,0,0:0:0:1:
42,192,63221,1,0,0:0:0:1:
128,192,63322,1,0,0:0:0:1:
213,192,63422,1,0,0:0:0:1:
384,192,63422,1,0,0:0:0:1:
128,192,63624,1,0,0:0:0:1:
298,192,63624,1,0,0:0:0:1:
469,192,63624,1,0,0:0:0:1:
213,192,63724,1,0,0:0:0:1:
128,192,63825,1,0,0:0:0:1:
213,192,64026,1,0,0:0:0:1:
384,192,64026,1,0,0:0:0:1:
42,192,64026,1,0,0:0:0:1:
213,192,64228,1,0,0:0:0:1:
469,192,64228,1,0,0:0:0:1:
42,192,64429,128,0,65536:0:0:0:1:
128,192,64530,128,0,64731:0:0:0:1:
213,192,64630,128,0,64832:0:0:0:1:
298,192,64731,128,0,64932:0:0:0:1:
128,192,64832,128,0,65637:0:0:0:1:
384,192,64832,128,0,65033:0:0:0:1:
213,192,64932,128,0,65134:0:0:0:1:
298,192,65033,128,0,65234:0:0:0:1:
384,192,65134,128,0,65335:0:0:0:1:
213,192,65234,128,0,65738:0:0:0:1:
469,192,65234,128,0,65436:0:0:0:1:
298,192,65335,128,0,65838:0:0:0:1:
384,192,65436,128,0,65939:0:0:0:1:
469,192,65536,128,0,66040:0:0:0:1:
42,192,65637,1,0,0:0:0:1:
128,192,65738,1,0,0:0:0:1:
213,192,65838,1,0,0:0:0:1:
42,192,65838,1,0,0:0:0:1:
298,192,65939,1,0,0:0:0:1:
384,192,66040,1,0,0:0:0:1:
42,192,66040,1,0,0:0:0:1:
213,192,66140,1,0,0:0:0:1:
128,192,66241,1,0,0:0:0:1:
298,192,66442,1,0,0:0:0:1:
469,192,66442,1,0,0:0:0:1:
42,192,66442,1,0,0:0:0:1:
213,192,66543,1,0,0:0:0:1:
298,192,66644,1,0,0:0:0:1:
42,192,66644,1,0,0:0:0:1:
384,192,66744,1,0,0:0:0:1:
128,192,66845,1,0,0:0:0:1:
298,192,66845,1,0,0:0:0:1:
469,192,66845,1,0,0:0:0:1:
42,192,66946,1,0,0:0:0:1:
213,192,67046,1,0,0:0:0:1:
384,192,67248,1,0,0:0:0:1:
469,192,67248,1,0,0:0:0:1:
42,192,67248,1,0,0:0:0:1:
213,192,67348,1,0,0:0:0:1:
298,192,67449,1,0,0:0:0:1:
42,192,67449,1,0,0:0:0:1:
384,192,67651,1,0,0:0:0:1:
42,192,67651,1,0,0:0:0:1:
213,192,67751,1,0,0:0:0:1:
128,192,67852,1,0,0:0:0:1:
298,192,68053,1,0,0:0:0:1:
469,192,68053,1,0,0:0:0:1:
42,192,68053,1,0,0:0:0:1:
213,192,68154,1,0,0:0:0:1:
298,192,68255,1,0,0:0:0:1:
42,192,68255,1,0,0:0:0:1:
384,192,68355,1,0,0:0:0:1:
128,192,68456,1,0,0:0:0:1:
298,192,68456,1,0,0:0:0:1:
469,192,68456,1,0,0:0:0:1:
42,192,68557,1,0,0:0:0:1:
213,192,68657,1,0,0:0:0:1:
384,192,68859,1,0,0:0:0:1:
469,192,68859,1,0,0:0:0:1:
42,192,68859,1,0,0:0:0:1:
213,192,68959,1,0,0:0:0:1:
298,192,69060,1,0,0:0:0:1:
42,192,69060,1,0,0:0:0:1:
128,192,69261,1,0,0:0:0:1:
213,192,69261,1,0,0:0:0:1:
384,192,69261,1,0,0:0:0:1:
213,192,69463,1,0,0:0:0:1:
298,192,69563,1,0,0:0:0:1:
42,192,69563,1,0,0:0:0:1:
128,192,69664,1,0,0:0:0:1:
384,192,69664,1,0,0:0:0:1:
469,192,69664,1,0,0:0:0:1:
128,192,69865,1,0,0:0:0:1:
298,192,69865,1,0,0:0:0:1:
128,192,69966,1,0,0:0:0:1:
384,192,69966,1,0,0:0:0:1:
469,192,69966,1,0,0:0:0:1:
213,192,70067,1,0,0:0:0:1:
298,192,70167,1,0,0:0:0:1:
384,192,70268,1,0,0:0:0:1:
469,192,70268,1,0,0:0:0:1:
42,192,70268,1,0,0:0:0:1:
213,192,70369,1,0,0:0:0:1:
128,192,70469,1,0,0:0:0:1:
384,192,70469,1,0,0:0:0:1:
469,192,70469,1,0,0:0:0:1:
213,192,70570,1,0,0:0:0:1:
384,192,70671,1,0,0:0:0:1:
469,192,70671,1,0,0:0:0:1:
42,192,70671,1,0,0:0:0:1:
128,192,70771,1,0,0:0:0:1:
42,192,70872,1,0,0:0:0:1:
469,192,70872,128,0,71577:0:0:0:1:
384,192,70973,128,0,71174:0:0:0:1:
42,192,71073,1,0,0:0:0:1:
298,192,71073,128,0,71275:0:0:0:1:
213,192,71174,128,0,71375:0:0:0:1:
42,192,71275,1,0,0:0:0:1:
384,192,71275,128,0,71677:0:0:0:1:
298,192,71375,128,0,71778:0:0:0:1:
42,192,71476,1,0,0:0:0:1:
213,192,71476,128,0,71879:0:0:0:1:
128,192,71577,128,0,72080:0:0:0:1:
469,192,71677,128,0,72483:0:0:0:1:
42,192,71677,128,0,71979:0:0:0:1:
384,192,71778,128,0,72382:0:0:0:1:
298,192,71879,128,0,72281:0:0:0:1:
213,192,71979,128,0,72181:0:0:0:1:
42,192,72080,128,0,72281:0:0:0:1:
128,192,72181,128,0,72382:0:0:0:1:
213,192,72281,128,0,72483:0:0:0:1:
298,192,72382,128,0,72583:0:0:0:1:
384,192,72483,1,0,0:0:0:1:
42,192,72483,128,0,73288:0:0:0:1:
213,192,72684,1,0,0:0:0:1:
128,192,72885,1,0,0:0:0:1:
384,192,72885,1,0,0:0:0:1:
298,192,72986,1,0,0:0:0:1:
213,192,73087,1,0,0:0:0:1:
469,192,73288,1,0,0:0:0:1:
213,192,73389,1,0,0:0:0:1:
469,192,73489,1,0,0:0:0:1:
128,192,73691,1,0,0:0:0:1:
469,192,73691,1,0,0:0:0:1:
469,192,73892,1,0,0:0:0:1:
42,192,74093,128,0,74798:0:0:0:1:
213,192,74194,128,0,74395:0:0:0:1:
128,192,74295,128,0,74798:0:0:0:1:
298,192,74395,128,0,74597:0:0:0:1:
213,192,74496,128,0,74798:0:0:0:1:
384,192,74597,128,0,74798:0:0:0:1:
298,192,74697,128,0,74798:0:0:0:1:
469,192,74798,128,0,75000:0:0:0:1:
42,192,74899,1,0,0:0:0:1:
384,192,74899,128,0,75000:0:0:0:1:
128,192,74949,1,0,0:0:0:1:
213,192,75000,1,0,0:0:0:1:
298,192,75050,1,0,0:0:0:1:
128,192,75100,1,0,0:0:0:1:
42,192,75100,1,0,0:0:0:1:
213,192,75201,1,0,0:0:0:1:
298,192,75201,1,0,0:0:0:1:
384,192,75302,1,0,0:0:0:1:
469,192,75302,1,0,0:0:0:1:
128,192,75402,1,0,0:0:0:1:
213,192,75402,1,0,0:0:0:1:
298,192,75503,1,0,0:0:0:1:
384,192,75503,1,0,0:0:0:1:
128,192,75604,1,0,0:0:0:1:
42,192,75604,1,0,0:0:0:1:
213,192,75704,1,0,0:0:0:1:
469,192,75704,128,0,77315:0:0:0:1:
128,192,76409,1,0,0:0:0:1:
128,192,76510,1,0,0:0:0:1:
213,192,76711,1,0,0:0:0:1:
298,192,76812,1,0,0:0:0:1:
128,192,76912,1,0,0:0:0:1:
298,192,77013,1,0,0:0:0:1:
42,192,77114,1,0,0:0:0:1:
213,192,77214,1,0,0:0:0:1:
298,192,77315,1,0,0:0:0:1:
384,192,77315,1,0,0:0:0:1:
42,192,77315,1,0,0:0:0:1:
213,192,77416,1,0,0:0:0:1:
128,192,77516,1,0,0:0:0:1:
384,192,77516,1,0,0:0:0:1:
298,192,77617,1,0,0:0:0:1:
213,192,77718,1,0,0:0:0:1:
469,192,77718,1,0,0:0:0:1:
42,192,77718,1,0,0:0:0:1:
298,192,77919,1,0,0:0:0:1:
42,192,77919,1,0,0:0:0:1:
384,192,78020,1,0,0:0:0:1:
128,192,78120,1,0,0:0:0:1:
213,192,78120,1,0,0:0:0:1:
469,192,78120,1,0,0:0:0:1:
298,192,78221,1,0,0:0:0:1:
128,192,78322,1,0,0:0:0:1:
384,192,78322,1,0,0:0:0:1:
298,192,78523,1,0,0:0:0:1:
469,192,78523,1,0,0:0:0:1:
42,192,78523,1,0,0:0:0:1:
213,192,78724,1,0,0:0:0:1:
384,192,78724,1,0,0:0:0:1:
128,192,78926,1,0,0:0:0:1:
384,192,78926,1,0,0:0:0:1:
469,192,78926,1,0,0:0:0:1:
298,192,79026,1,0,0:0:0:1:
128,192,79127,1,0,0:0:0:1:
213,192,79127,1,0,0:0:0:1:
384,192,79228,1,0,0:0:0:1:
213,192,79328,1,0,0:0:0:1:
469,192,79328,1,0,0:0:0:1:
42,192,79328,1,0,0:0:0:1:
128,192,79530,1,0,0:0:0:1:
384,192,79530,1,0,0:0:0:1:
213,192,79630,1,0,0:0:0:1:
298,192,79731,1,0,0:0:0:1:
42,192,79731,1,0,0:0:0:1:
128,192,79832,1,0,0:0:0:1:
384,192,79832,1,0,0:0:0:1:
213,192,79932,1,0,0:0:0:1:
298,192,79932,1,0,0:0:0:1:
469,192,79932,1,0,0:0:0:1:
384,192,80033,1,0,0:0:0:1:
213,192,80134,1,0,0:0:0:1:
384,192,80134,1,0,0:0:0:1:
42,192,80134,1,0,0:0:0:1:
298,192,80335,1,0,0:0:0:1:
469,192,80335,1,0,0:0:0:1:
213,192,80436,1,0,0:0:0:1:
128,192,80536,1,0,0:0:0:1:
384,192,80536,1,0,0:0:0:1:
469,192,80536,1,0,0:0:0:1:
213,192,80637,1,0,0:0:0:1:
298,192,80738,1,0,0:0:0:1:
42,192,80738,1,0,0:0:0:1:
213,192,80838,1,0,0:0:0:1:
128,192,80939,1,0,0:0:0:1:
298,192,80939,1,0,0:0:0:1:
469,192,80939,1,0,0:0:0:1:
42,192,80939,1,0,0:0:0:1:
128,192,81140,1,0,0:0:0:1:
384,192,81140,1,0,0:0:0:1:
298,192,81241,1,0,0:0:0:1:
213,192,81342,1,0,0:0:0:1:
384,192,81342,1,0,0:0:0:1:
42,192,81342,1,0,0:0:0:1:
298,192,81442,1,0,0:0:0:1:
213,192,81543,1,0,0:0:0:1:
469,192,81543,1,0,0:0:0:1:
128,192,81644,1,0,0:0:0:1:
213,192,81744,1,0,0:0:0:1:
384,192,81744,1,0,0:0:0:1:
469,192,81744,1,0,0:0:0:1:
42,192,81744,1,0,0:0:0:1:
128,192,81946,1,0,0:0:0:1:
298,192,81946,1,0,0:0:0:1:
213,192,82147,1,0,0:0:0:1:
469,192,82147,1,0,0:0:0:1:
42,192,82147,1,0,0:0:0:1:
384,192,82248,1,0,0:0:0:1:
128,192,82348,1,0,0:0:0:1:
298,192,82348,1,0,0:0:0:1:
213,192,82449,1,0,0:0:0:1:
128,192,82550,1,0,0:0:0:1:
298,192,82550,1,0,0:0:0:1:
469,192,82550,1,0,0:0:0:1:
42,192,82550,1,0,0:0:0:1:
384,192,82751,1,0,0:0:0:1:
42,192,82751,1,0,0:0:0:1:
298,192,82852,1,0,0:0:0:1:
213,192,82953,1,0,0:0:0:1:
469,192,82953,1,0,0:0:0:1:
128,192,83053,1,0,0:0:0:1:
384,192,83053,1,0,0:0:0:1:
213,192,83154,1,0,0:0:0:1:
298,192,83154,1,0,0:0:0:1:
469,192,83154,1,0,0:0:0:1:
42,192,83255,1,0,0:0:0:1:
128,192,83355,1,0,0:0:0:1:
298,192,83355,1,0,0:0:0:1:
469,192,83355,1,0,0:0:0:1:
298,192,83557,1,0,0:0:0:1:
42,192,83557,1,0,0:0:0:1:
213,192,83657,1,0,0:0:0:1:
128,192,83758,1,0,0:0:0:1:
469,192,83758,1,0,0:0:0:1:
42,192,83758,1,0,0:0:0:1:
298,192,83859,1,0,0:0:0:1:
128,192,83959,1,0,0:0:0:1:
384,192,83959,1,0,0:0:0:1:
213,192,84060,1,0,0:0:0:1:
298,192,84161,1,0,0:0:0:1:
469,192,84161,1,0,0:0:0:1:
42,192,84161,1,0,0:0:0:1:
213,192,84362,1,0,0:0:0:1:
469,192,84362,1,0,0:0:0:1:
128,192,84463,1,0,0:0:0:1:
298,192,84563,1,0,0:0:0:1:
384,192,84563,1,0,0:0:0:1:
42,192,84563,1,0,0:0:0:1:
213,192,84664,1,0,0:0:0:1:
128,192,84765,1,0,0:0:0:1:
384,192,84765,1,0,0:0:0:1:
213,192,84966,1,0,0:0:0:1:
469,192,84966,1,0,0:0:0:1:
42,192,84966,1,0,0:0:0:1:
128,192,85167,1,0,0:0:0:1:
298,192,85167,1,0,0:0:0:1:
128,192,85369,1,0,0:0:0:1:
384,192,85369,1,0,0:0:0:1:
42,192,85369,1,0,0:0:0:1:
213,192,85469,1,0,0:0:0:1:
298,192,85570,1,0,0:0:0:1:
384,192,85570,1,0,0:0:0:1:
128,192,85671,1,0,0:0:0:1:
298,192,85771,1,0,0:0:0:1:
469,192,85771,1,0,0:0:0:1:
42,192,85771,1,0,0:0:0:1:
128,192,85973,1,0,0:0:0:1:
384,192,85973,1,0,0:0:0:1:
298,192,86073,1,0,0:0:0:1:
213,192,86174,1,0,0:0:0:1:
469,192,86174,1,0,0:0:0:1:
128,192,86275,1,0,0:0:0:1:
384,192,86275,1,0,0:0:0:1:
213,192,86375,1,0,0:0:0:1:
298,192,86375,1,0,0:0:0:1:
42,192,86375,1,0,0:0:0:1:
128,192,86476,1,0,0:0:0:1:
128,192,86577,1,0,0:0:0:1:
298,192,86577,1,0,0:0:0:1:
469,192,86577,1,0,0:0:0:1:
213,192,86778,1,0,0:0:0:1:
42,192,86828,1,0,0:0:0:1:
298,192,86879,1,0,0:0:0:1:
128,192,86979,1,0,0:0:0:1:
384,192,86979,1,0,0:0:0:1:
42,192,86979,1,0,0:0:0:1:
298,192,87080,1,0,0:0:0:1:
213,192,87181,1,0,0:0:0:1:
469,192,87181,1,0,0:0:0:1:
298,192,87281,1,0,0:0:0:1:
384,192,87382,1,0,0:0:0:1:
469,192,87382,1,0,0:0:0:1:
42,192,87382,1,0,0:0:0:1:
128,192,87583,1,0,0:0:0:1:
384,192,87583,1,0,0:0:0:1:
213,192,87684,1,0,0:0:0:1:
128,192,87785,1,0,0:0:0:1:
298,192,87785,1,0,0:0:0:1:
469,192,87785,1,0,0:0:0:1:
213,192,87885,1,0,0:0:0:1:
298,192,87986,1,0,0:0:0:1:
42,192,87986,1,0,0:0:0:1:
384,192,88087,1,0,0:0:0:1:
213,192,88187,1,0,0:0:0:1:
469,192,88187,1,0,0:0:0:1:
42,192,88187,1,0,0:0:0:1:
213,192,88389,1,0,0:0:0:1:
384,192,88389,1,0,0:0:0:1:
298,192,88590,1,0,0:0:0:1:
469,192,88590,1,0,0:0:0:1:
42,192,88590,1,0,0:0:0:1:
128,192,88691,1,0,0:0:0:1:
213,192,88791,1,0,0:0:0:1:
298,192,88892,1,0,0:0:0:1:
213,192,88993,1,0,0:0:0:1:
469,192,88993,1,0,0:0:0:1:
42,192,88993,1,0,0:0:0:1:
128,192,89194,1,0,0:0:0:1:
298,192,89295,128,0,89395:0:0:0:1:
128,192,89395,128,0,90000:0:0:0:1:
213,192,89395,128,0,89899:0:0:0:1:
384,192,89395,128,0,89496:0:0:0:1:
469,192,89395,128,0,89597:0:0:0:1:
42,192,89395,128,0,90100:0:0:0:1:
298,192,89496,128,0,89798:0:0:0:1:
384,192,89597,128,0,89697:0:0:0:1:
469,192,89697,1,0,0:0:0:1:
384,192,89798,1,0,0:0:0:1:
298,192,89899,1,0,0:0:0:1:
213,192,90000,1,0,0:0:0:1:
128,192,90100,1,0,0:0:0:1:
298,192,90201,1,0,0:0:0:1:
469,192,90201,1,0,0:0:0:1:
42,192,90201,1,0,0:0:0:1:
213,192,90302,1,0,0:0:0:1:
128,192,90402,1,0,0:0:0:1:
384,192,90402,1,0,0:0:0:1:
213,192,90503,1,0,0:0:0:1:
298,192,90604,1,0,0:0:0:1:
469,192,90604,1,0,0:0:0:1:
42,192,90604,1,0,0:0:0:1:
128,192,90805,1,0,0:0:0:1:
298,192,90805,1,0,0:0:0:1:
213,192,90906,1,0,0:0:0:1:
42,192,90906,1,0,0:0:0:1:
128,192,91006,1,0,0:0:0:1:
384,192,91006,1,0,0:0:0:1:
298,192,91208,1,0,0:0:0:1:
213,192,91409,1,0,0:0:0:1:
469,192,91409,1,0,0:0:0:1:
42,192,91409,1,0,0:0:0:1:
213,192,91610,1,0,0:0:0:1:
384,192,91610,1,0,0:0:0:1:
298,192,91711,1,0,0:0:0:1:
469,192,91711,1,0,0:0:0:1:
128,192,91812,1,0,0:0:0:1:
384,192,91812,1,0,0:0:0:1:
42,192,91812,1,0,0:0:0:1:
213,192,91912,1,0,0:0:0:1:
298,192,92013,1,0,0:0:0:1:
384,192,92013,1,0,0:0:0:1:
128,192,92114,1,0,0:0:0:1:
298,192,92214,1,0,0:0:0:1:
469,192,92214,1,0,0:0:0:1:
42,192,92214,1,0,0:0:0:1:
298,192,92416,1,0,0:0:0:1:
213,192,92516,1,0,0:0:0:1:
128,192,92617,1,0,0:0:0:1:
384,192,92617,1,0,0:0:0:1:
298,192,92718,1,0,0:0:0:1:
469,192,92718,1,0,0:0:0:1:
213,192,92818,1,0,0:0:0:1:
384,192,92818,1,0,0:0:0:1:
128,192,92919,1,0,0:0:0:1:
128,192,93020,1,0,0:0:0:1:
298,192,93020,1,0,0:0:0:1:
469,192,93020,1,0,0:0:0:1:
213,192,93221,1,0,0:0:0:1:
384,192,93221,1,0,0:0:0:1:
298,192,93322,1,0,0:0:0:1:
42,192,93322,1,0,0:0:0:1:
128,192,93422,1,0,0:0:0:1:
213,192,93422,1,0,0:0:0:1:
469,192,93422,1,0,0:0:0:1:
128,192,93624,1,0,0:0:0:1:
384,192,93624,1,0,0:0:0:1:
213,192,93724,1,0,0:0:0:1:
298,192,93825,1,0,0:0:0:1:
469,192,93825,1,0,0:0:0:1:
42,192,93825,1,0,0:0:0:1:
384,192,94026,1,0,0:0:0:1:
384,192,94127,1,0,0:0:0:1:
128,192,94228,1,0,0:0:0:1:
298,192,94228,1,0,0:0:0:1:
469,192,94228,1,0,0:0:0:1:
213,192,94328,1,0,0:0:0:1:
298,192,94429,1,0,0:0:0:1:
213,192,94630,1,0,0:0:0:1:
384,192,94630,1,0,0:0:0:1:
42,192,94630,1,0,0:0:0:1:
213,192,94731,1,0,0:0:0:1:
298,192,94832,1,0,0:0:0:1:
469,192,94832,1,0,0:0:0:1:
128,192,95033,1,0,0:0:0:1:
213,192,95033,1,0,0:0:0:1:
384,192,95033,1,0,0:0:0:1:
298,192,95134,1,0,0:0:0:1:
469,192,95234,1,0,0:0:0:1:
42,192,95234,1,0,0:0:0:1:
213,192,95335,1,0,0:0:0:1:
384,192,95335,1,0,0:0:0:1:
128,192,95436,1,0,0:0:0:1:
298,192,95436,1,0,0:0:0:1:
213,192,95536,1,0,0:0:0:1:
298,192,95637,1,0,0:0:0:1:
42,192,95637,1,0,0:0:0:1:
384,192,95738,1,0,0:0:0:1:
298,192,95838,1,0,0:0:0:1:
469,192,95838,1,0,0:0:0:1:
213,192,95889,1,0,0:0:0:1:
128,192,95939,1,0,0:0:0:1:
42,192,95989,1,0,0:0:0:1:
384,192,96040,1,0,0:0:0:1:
469,192,96040,1,0,0:0:0:1:
213,192,96140,1,0,0:0:0:1:
298,192,96140,1,0,0:0:0:1:
128,192,96241,1,0,0:0:0:1:
469,192,96241,1,0,0:0:0:1:
42,192,96241,1,0,0:0:0:1:
298,192,96442,1,0,0:0:0:1:
213,192,96644,1,0,0:0:0:1:
384,192,96644,1,0,0:0:0:1:
42,192,96644,1,0,0:0:0:1:
213,192,96845,1,0,0:0:0:1:
469,192,96845,1,0,0:0:0:1:
128,192,97046,1,0,0:0:0:1:
298,192,97046,1,0,0:0:0:1:
469,192,97046,1,0,0:0:0:1:
213,192,97147,1,0,0:0:0:1:
128,192,97248,1,0,0:0:0:1:
384,192,97248,1,0,0:0:0:1:
384,192,97348,1,0,0:0:0:1:
298,192,97449,1,0,0:0:0:1:
469,192,97449,1,0,0:0:0:1:
42,192,97449,1,0,0:0:0:1:
213,192,97550,1,0,0:0:0:1:
128,192,97651,1,0,0:0:0:1:
213,192,97751,1,0,0:0:0:1:
298,192,97852,1,0,0:0:0:1:
384,192,97852,1,0,0:0:0:1:
42,192,97852,1,0,0:0:0:1:
213,192,98053,1,0,0:0:0:1:
384,192,98154,1,0,0:0:0:1:
128,192,98255,1,0,0:0:0:1:
298,192,98255,1,0,0:0:0:1:
469,192,98255,1,0,0:0:0:1:
384,192,98456,1,0,0:0:0:1:
213,192,98557,1,0,0:0:0:1:
298,192,98657,1,0,0:0:0:1:
384,192,98657,1,0,0:0:0:1:
42,192,98657,1,0,0:0:0:1:
213,192,98859,1,0,0:0:0:1:
384,192,98859,1,0,0:0:0:1:
128,192,98959,1,0,0:0:0:1:
298,192,98959,1,0,0:0:0:1:
213,192,99060,1,0,0:0:0:1:
469,192,99060,1,0,0:0:0:1:
42,192,99060,1,0,0:0:0:1:
298,192,99161,1,0,0:0:0:1:
128,192,99261,1,0,0:0:0:1:
384,192,99261,1,0,0:0:0:1:
213,192,99362,1,0,0:0:0:1:
298,192,99463,1,0,0:0:0:1:
469,192,99463,1,0,0:0:0:1:
42,192,99463,1,0,0:0:0:1:
128,192,99664,1,0,0:0:0:1:
128,192,99765,1,0,0:0:0:1:
384,192,99865,1,0,0:0:0:1:
42,192,99865,1,0,0:0:0:1:
213,192,99865,128,0,100067:0:0:0:1:
128,192,100067,1,0,0:0:0:1:
298,192,100067,128,0,100268:0:0:0:1:
213,192,100268,1,0,0:0:0:1:
384,192,100268,128,0,100469:0:0:0:1:
298,192,100469,1,0,0:0:0:1:
42,192,100469,128,0,100671:0:0:0:1:
213,192,100570,1,0,0:0:0:1:
128,192,100671,1,0,0:0:0:1:
298,192,100671,1,0,0:0:0:1:
469,192,100671,128,0,100872:0:0:0:1:
213,192,100872,1,0,0:0:0:1:
384,192,100872,128,0,101073:0:0:0:1:
128,192,101073,1,0,0:0:0:1:
298,192,101073,128,0,101275:0:0:0:1:
42,192,101275,1,0,0:0:0:1:
213,192,101275,128,0,101476:0:0:0:1:
128,192,101476,1,0,0:0:0:1:
298,192,101476,1,0,0:0:0:1:
469,192,101476,1,0,0:0:0:1:
213,192,101677,1,0,0:0:0:1:
384,192,101677,1,0,0:0:0:1:
298,192,101778,1,0,0:0:0:1:
213,192,101879,1,0,0:0:0:1:
469,192,101879,1,0,0:0:0:1:
42,192,101879,1,0,0:0:0:1:
128,192,102080,1,0,0:0:0:1:
298,192,102080,1,0,0:0:0:1:
213,192,102281,1,0,0:0:0:1:
469,192,102281,128,0,103087:0:0:0:1:
213,192,102483,1,0,0:0:0:1:
128,192,102684,1,0,0:0:0:1:
298,192,102684,1,0,0:0:0:1:
128,192,102885,1,0,0:0:0:1:
213,192,103087,1,0,0:0:0:1:
384,192,103087,1,0,0:0:0:1:
42,192,103087,1,0,0:0:0:1:
384,192,103389,1,0,0:0:0:1:
384,192,103691,1,0,0:0:0:1:
128,192,103892,128,0,103993:0:0:0:1:
298,192,103892,128,0,104093:0:0:0:1:
384,192,103892,128,0,103993:0:0:0:1:
42,192,103892,128,0,104093:0:0:0:1:
213,192,103993,128,0,104295:0:0:0:1:
469,192,103993,128,0,104194:0:0:0:1:
128,192,104093,128,0,104194:0:0:0:1:
384,192,104093,128,0,104295:0:0:0:1:
298,192,104194,128,0,104395:0:0:0:1:
42,192,104194,128,0,104395:0:0:0:1:
128,192,104295,128,0,104496:0:0:0:1:
469,192,104295,128,0,104496:0:0:0:1:
213,192,104395,128,0,104597:0:0:0:1:
384,192,104395,128,0,104496:0:0:0:1:
298,192,104496,128,0,104697:0:0:0:1:
42,192,104496,128,0,104597:0:0:0:1:
469,192,104597,128,0,104697:0:0:0:1:
128,192,104697,1,0,0:0:0:1:
384,192,104697,1,0,0:0:0:1:
42,192,104697,1,0,0:0:0:1:
213,192,104798,1,0,0:0:0:1:
298,192,104899,1,0,0:0:0:1:
469,192,104899,1,0,0:0:0:1:
213,192,105000,1,0,0:0:0:1:
384,192,105000,1,0,0:0:0:1:
298,192,105100,1,0,0:0:0:1:
469,192,105100,1,0,0:0:0:1:
42,192,105100,1,0,0:0:0:1:
128,192,105201,1,0,0:0:0:1:
298,192,105302,1,0,0:0:0:1:
469,192,105302,1,0,0:0:0:1:
213,192,105402,1,0,0:0:0:1:
128,192,105503,1,0,0:0:0:1:
384,192,105503,1,0,0:0:0:1:
42,192,105503,1,0,0:0:0:1:
213,192,105604,1,0,0:0:0:1:
298,192,105704,1,0,0:0:0:1:
469,192,105704,1,0,0:0:0:1:
128,192,105805,1,0,0:0:0:1:
213,192,105906,1,0,0:0:0:1:
469,192,105906,1,0,0:0:0:1:
42,192,105906,1,0,0:0:0:1:
298,192,106006,1,0,0:0:0:1:
128,192,106107,1,0,0:0:0:1:
384,192,106107,1,0,0:0:0:1:
213,192,106208,1,0,0:0:0:1:
128,192,106308,1,0,0:0:0:1:
384,192,106308,1,0,0:0:0:1:
42,192,106308,1,0,0:0:0:1:
213,192,106409,1,0,0:0:0:1:
298,192,106510,1,0,0:0:0:1:
469,192,106510,1,0,0:0:0:1:
213,192,106610,1,0,0:0:0:1:
384,192,106610,1,0,0:0:0:1:
298,192,106711,1,0,0:0:0:1:
469,192,106711,1,0,0:0:0:1:
42,192,106711,1,0,0:0:0:1:
128,192,106812,1,0,0:0:0:1:
298,192,106912,1,0,0:0:0:1:
469,192,106912,1,0,0:0:0:1:
213,192,107013,1,0,0:0:0:1:
128,192,107114,1,0,0:0:0:1:
384,192,107114,1,0,0:0:0:1:
42,192,107114,1,0,0:0:0:1:
298,192,107214,1,0,0:0:0:1:
213,192,107315,1,0,0:0:0:1:
469,192,107315,1,0,0:0:0:1:
128,192,107416,1,0,0:0:0:1:
298,192,107516,1,0,0:0:0:1:
469,192,107516,1,0,0:0:0:1:
42,192,107516,1,0,0:0:0:1:
213,192,107617,1,0,0:0:0:1:
128,192,107718,1,0,0:0:0:1:
384,192,107718,1,0,0:0:0:1:
298,192,107818,1,0,0:0:0:1:
213,192,107919,1,0,0:0:0:1:
469,192,107919,1,0,0:0:0:1:
42,192,107919,1,0,0:0:0:1:
128,192,108120,1,0,0:0:0:1:
384,192,108120,1,0,0:0:0:1:
298,192,108221,1,0,0:0:0:1:
213,192,108322,1,0,0:0:0:1:
469,192,108322,1,0,0:0:0:1:
42,192,108322,1,0,0:0:0:1:
384,192,108422,1,0,0:0:0:1:
128,192,108523,1,0,0:0:0:1:
298,192,108523,1,0,0:0:0:1:
213,192,108724,1,0,0:0:0:1:
384,192,108724,1,0,0:0:0:1:
42,192,108724,1,0,0:0:0:1:
298,192,108825,1,0,0:0:0:1:
128,192,108926,1,0,0:0:0:1:
384,192,108926,1,0,0:0:0:1:
213,192,109026,1,0,0:0:0:1:
128,192,109127,1,0,0:0:0:1:
298,192,109127,1,0,0:0:0:1:
469,192,109127,1,0,0:0:0:1:
213,192,109228,1,0,0:0:0:1:
298,192,109328,1,0,0:0:0:1:
42,192,109328,1,0,0:0:0:1:
128,192,109429,1,0,0:0:0:1:
213,192,109530,1,0,0:0:0:1:
469,192,109530,128,0,110637:0:0:0:1:
42,192,109530,128,0,110234:0:0:0:1:
384,192,109630,128,0,109832:0:0:0:1:
298,192,109731,128,0,109932:0:0:0:1:
213,192,109832,128,0,110033:0:0:0:1:
128,192,109932,128,0,110134:0:0:0:1:
384,192,109932,128,0,110738:0:0:0:1:
298,192,110033,128,0,110234:0:0:0:1:
213,192,110134,128,0,110335:0:0:0:1:
128,192,110234,128,0,110436:0:0:0:1:
298,192,110335,128,0,110838:0:0:0:1:
42,192,110335,128,0,110536:0:0:0:1:
213,192,110436,128,0,110939:0:0:0:1:
128,192,110536,128,0,111040:0:0:0:1:
42,192,110637,128,0,111140:0:0:0:1:
469,192,110738,1,0,0:0:0:1:
384,192,110838,1,0,0:0:0:1:
298,192,110939,1,0,0:0:0:1:
469,192,110939,1,0,0:0:0:1:
213,192,111040,1,0,0:0:0:1:
128,192,111140,1,0,0:0:0:1:
469,192,111140,1,0,0:0:0:1:
298,192,111241,1,0,0:0:0:1:
128,192,111342,1,0,0:0:0:1:
384,192,111342,1,0,0:0:0:1:
298,192,111442,1,0,0:0:0:1:
213,192,111543,1,0,0:0:0:1:
469,192,111543,1,0,0:0:0:1:
42,192,111543,1,0,0:0:0:1:
384,192,111644,1,0,0:0:0:1:
213,192,111744,1,0,0:0:0:1:
42,192,111744,1,0,0:0:0:1:
128,192,111845,1,0,0:0:0:1:
298,192,111845,1,0,0:0:0:1:
213,192,111946,1,0,0:0:0:1:
384,192,111946,1,0,0:0:0:1:
42,192,111946,1,0,0:0:0:1:
469,192,112046,1,0,0:0:0:1:
128,192,112147,1,0,0:0:0:1:
298,192,112147,1,0,0:0:0:1:
213,192,112248,1,0,0:0:0:1:
128,192,112348,1,0,0:0:0:1:
469,192,112348,1,0,0:0:0:1:
42,192,112348,1,0,0:0:0:1:
298,192,112449,1,0,0:0:0:1:
128,192,112550,1,0,0:0:0:1:
469,192,112550,1,0,0:0:0:1:
384,192,112651,1,0,0:0:0:1:
213,192,112751,1,0,0:0:0:1:
469,192,112751,1,0,0:0:0:1:
42,192,112751,1,0,0:0:0:1:
298,192,112852,1,0,0:0:0:1:
128,192,112953,1,0,0:0:0:1:
384,192,112953,1,0,0:0:0:1:
298,192,113053,1,0,0:0:0:1:
213,192,113154,1,0,0:0:0:1:
469,192,113154,1,0,0:0:0:1:
42,192,113154,1,0,0:0:0:1:
384,192,113255,1,0,0:0:0:1:
213,192,113355,1,0,0:0:0:1:
42,192,113355,1,0,0:0:0:1:
128,192,113456,1,0,0:0:0:1:
298,192,113456,1,0,0:0:0:1:
213,192,113557,1,0,0:0:0:1:
384,192,113557,1,0,0:0:0:1:
42,192,113557,1,0,0:0:0:1:
469,192,113657,1,0,0:0:0:1:
128,192,113758,1,0,0:0:0:1:
298,192,113758,1,0,0:0:0:1:
213,192,113859,1,0,0:0:0:1:
128,192,113959,1,0,0:0:0:1:
469,192,113959,1,0,0:0:0:1:
42,192,113959,1,0,0:0:0:1:
298,192,114060,1,0,0:0:0:1:
213,192,114161,1,0,0:0:0:1:
469,192,114161,1,0,0:0:0:1:
42,192,114261,1,0,0:0:0:1:
128,192,114362,1,0,0:0:0:1:
298,192,114362,1,0,0:0:0:1:
384,192,114362,1,0,0:0:0:1:
213,192,114463,1,0,0:0:0:1:
298,192,114563,1,0,0:0:0:1:
42,192,114563,1,0,0:0:0:1:
213,192,114664,1,0,0:0:0:1:
469,192,114664,1,0,0:0:0:1:
128,192,114765,1,0,0:0:0:1:
384,192,114765,1,0,0:0:0:1:
42,192,114765,1,0,0:0:0:1:
298,192,114865,1,0,0:0:0:1:
213,192,114966,1,0,0:0:0:1:
384,192,114966,1,0,0:0:0:1:
128,192,115067,1,0,0:0:0:1:
384,192,115067,1,0,0:0:0:1:
42,192,115067,1,0,0:0:0:1:
298,192,115167,1,0,0:0:0:1:
213,192,115268,1,0,0:0:0:1:
128,192,115369,1,0,0:0:0:1:
469,192,115369,1,0,0:0:0:1:
42,192,115369,1,0,0:0:0:1:
298,192,115469,1,0,0:0:0:1:
128,192,115570,1,0,0:0:0:1:
384,192,115570,1,0,0:0:0:1:
42,192,115570,1,0,0:0:0:1:
298,192,115671,1,0,0:0:0:1:
128,192,115771,1,0,0:0:0:1:
469,192,115771,1,0,0:0:0:1:
42,192,115771,1,0,0:0:0:1:
384,192,115872,1,0,0:0:0:1:
469,192,115973,1,0,0:0:0:1:
42,192,115973,128,0,116677:0:0:0:1:
128,192,116073,128,0,116275:0:0:0:1:
469,192,116174,1,0,0:0:0:1:
213,192,116174,128,0,116375:0:0:0:1:
298,192,116275,128,0,116476:0:0:0:1:
469,192,116375,1,0,0:0:0:1:
128,192,116375,128,0,116778:0:0:0:1:
213,192,116476,128,0,116879:0:0:0:1:
469,192,116577,1,0,0:0:0:1:
298,192,116577,128,0,116979:0:0:0:1:
384,192,116677,128,0,117181:0:0:0:1:
469,192,116778,128,0,117080:0:0:0:1:
42,192,116778,128,0,117583:0:0:0:1:
128,192,116879,128,0,117483:0:0:0:1:
213,192,116979,128,0,117382:0:0:0:1:
298,192,117080,128,0,117281:0:0:0:1:
469,192,117181,128,0,117382:0:0:0:1:
384,192,117281,128,0,117483:0:0:0:1:
298,192,117382,128,0,117583:0:0:0:1:
213,192,117483,128,0,117684:0:0:0:1:
128,192,117583,128,0,117785:0:0:0:1:
469,192,117583,128,0,118389:0:0:0:1:
298,192,117986,1,0,0:0:0:1:
298,192,118389,1,0,0:0:0:1:
42,192,118389,1,0,0:0:0:1:
42,192,118590,1,0,0:0:0:1:
384,192,118791,1,0,0:0:0:1:
42,192,118791,1,0,0:0:0:1:
42,192,118993,1,0,0:0:0:1:
384,192,119194,128,0,119295:0:0:0:1:
469,192,119194,128,0,119899:0:0:0:1:
42,192,119194,128,0,120000:0:0:0:1:
298,192,119295,128,0,119395:0:0:0:1:
384,192,119395,128,0,119899:0:0:0:1:
298,192,119496,128,0,119597:0:0:0:1:
213,192,119597,128,0,119697:0:0:0:1:
298,192,119697,128,0,119899:0:0:0:1:
213,192,119798,128,0,119899:0:0:0:1:
128,192,119899,128,0,120000:0:0:0:1:
469,192,120000,1,0,0:0:0:1:
384,192,120050,1,0,0:0:0:1:
298,192,120100,1,0,0:0:0:1:
213,192,120151,1,0,0:0:0:1:
384,192,120201,1,0,0:0:0:1:
469,192,120201,1,0,0:0:0:1:
213,192,120302,1,0,0:0:0:1:
298,192,120302,1,0,0:0:0:1:
128,192,120402,1,0,0:0:0:1:
42,192,120402,1,0,0:0:0:1:
298,192,120503,1,0,0:0:0:1:
384,192,120503,1,0,0:0:0:1:
128,192,120604,1,0,0:0:0:1:
213,192,120604,1,0,0:0:0:1:
384,192,120704,1,0,0:0:0:1:
469,192,120704,1,0,0:0:0:1:
42,192,120805,1,0,0:0:0:1:
298,192,120805,128,0,121409:0:0:0:1:
213,192,121006,1,0,0:0:0:1:
128,192,121208,1,0,0:0:0:1:
469,192,121208,1,0,0:0:0:1:
384,192,121308,1,0,0:0:0:1:
213,192,121409,1,0,0:0:0:1:
128,192,121510,1,0,0:0:0:1:
384,192,121610,1,0,0:0:0:1:
42,192,121610,1,0,0:0:0:1:
298,192,121610,128,0,122013:0:0:0:1:
213,192,121812,1,0,0:0:0:1:
469,192,122013,1,0,0:0:0:1:
42,192,122013,1,0,0:0:0:1:
128,192,122013,128,0,122416:0:0:0:1:
213,192,122214,1,0,0:0:0:1:
469,192,122214,128,0,122617:0:0:0:1:
298,192,122315,1,0,0:0:0:1:
384,192,122416,1,0,0:0:0:1:
42,192,122416,128,0,122718:0:0:0:1:
298,192,122617,1,0,0:0:0:1:
128,192,122718,128,0,123020:0:0:0:1:
213,192,122818,1,0,0:0:0:1:
469,192,122818,1,0,0:0:0:1:
298,192,122919,1,0,0:0:0:1:
384,192,123020,1,0,0:0:0:1:
213,192,123020,128,0,123624:0:0:0:1:
298,192,123120,1,0,0:0:0:1:
469,192,123221,1,0,0:0:0:1:
42,192,123221,128,0,123422:0:0:0:1:
384,192,123322,1,0,0:0:0:1:
298,192,123422,1,0,0:0:0:1:
42,192,123624,1,0,0:0:0:1:
128,192,123624,128,0,124630:0:0:0:1:
384,192,123624,128,0,123825:0:0:0:1:
298,192,123825,128,0,124832:0:0:0:1:
213,192,124026,1,0,0:0:0:1:
384,192,124026,1,0,0:0:0:1:
469,192,124026,128,0,124932:0:0:0:1:
42,192,124228,1,0,0:0:0:1:
384,192,124429,1,0,0:0:0:1:
42,192,124429,1,0,0:0:0:1:
213,192,124630,128,0,125134:0:0:0:1:
42,192,124731,128,0,125134:0:0:0:1:
384,192,124832,128,0,125234:0:0:0:1:
128,192,124932,128,0,125335:0:0:0:1:
298,192,125033,128,0,125436:0:0:0:1:
469,192,125134,128,0,127147:0:0:0:1:
213,192,125234,128,0,125939:0:0:0:1:
42,192,125234,128,0,125536:0:0:0:1:
384,192,125335,128,0,126543:0:0:0:1:
128,192,125436,128,0,125637:0:0:0:1:
298,192,125536,128,0,126241:0:0:0:1:
42,192,125637,128,0,125738:0:0:0:1:
128,192,125738,128,0,125838:0:0:0:1:
42,192,125838,128,0,126744:0:0:0:1:
128,192,125939,128,0,126040:0:0:0:1:
213,192,126040,128,0,126140:0:0:0:1:
128,192,126140,128,0,126946:0:0:0:1:
213,192,126241,128,0,126342:0:0:0:1:
298,192,126342,128,0,126442:0:0:0:1:
213,192,126442,128,0,126845:0:0:0:1:
298,192,126543,128,0,126644:0:0:0:1:
384,192,126644,128,0,126744:0:0:0:1:
298,192,126744,128,0,127046:0:0:0:1:
384,192,126845,128,0,128959:0:0:0:1:
42,192,126845,128,0,127953:0:0:0:1:
213,192,126946,128,0,127147:0:0:0:1:
128,192,127046,128,0,129563:0:0:0:1:
298,192,127147,128,0,127953:0:0:0:1:
213,192,127248,128,0,130369:0:0:0:1:
469,192,127248,128,0,128758:0:0:0:1:
298,192,128053,128,0,131174:0:0:0:1:
42,192,128053,128,0,130369:0:0:0:1:
469,192,128859,128,0,130369:0:0:0:1:
384,192,129060,128,0,131577:0:0:0:1:
128,192,129664,128,0,131375:0:0:0:1:
213,192,130469,128,0,132080:0:0:0:1:
469,192,130469,128,0,132181:0:0:0:1:
42,192,130469,128,0,130771:0:0:0:1:
42,192,130872,128,0,131979:0:0:0:1:
298,192,131275,128,0,131778:0:0:0:1:
128,192,131476,128,0,131979:0:0:0:1:
384,192,131677,128,0,131979:0:0:0:1:
298,192,131879,128,0,132080:0:0:0:1:
128,192,132080,128,0,132885:0:0:0:1:
384,192,132080,128,0,132382:0:0:0:1:
42,192,132080,128,0,132181:0:0:0:1:
298,192,132181,128,0,132483:0:0:0:1:
469,192,132281,128,0,132583:0:0:0:1:
42,192,132281,128,0,132382:0:0:0:1:
213,192,132382,128,0,132684:0:0:0:1:
384,192,132483,128,0,132785:0:0:0:1:
42,192,132483,128,0,132583:0:0:0:1:
298,192,132583,128,0,132785:0:0:0:1:
469,192,132684,128,0,132885:0:0:0:1:
42,192,132684,128,0,132785:0:0:0:1:
213,192,132785,128,0,132885:0:0:0:1:
298,192,132885,128,0,132986:0:0:0:1:
384,192,132885,128,0,132986:0:0:0:1:
42,192,132885,128,0,133691:0:0:0:1:
213,192,132986,128,0,133087:0:0:0:1:
469,192,132986,128,0,133087:0:0:0:1:
128,192,133087,128,0,133187:0:0:0:1:
384,192,133087,128,0,133187:0:0:0:1:
213,192,133187,128,0,133288:0:0:0:1:
298,192,133187,128,0,133288:0:0:0:1:
384,192,133288,128,0,133389:0:0:0:1:
128,192,133389,128,0,133489:0:0:0:1:
469,192,133389,128,0,133489:0:0:0:1:
213,192,133489,128,0,133590:0:0:0:1:
298,192,133489,128,0,133590:0:0:0:1:
384,192,133590,128,0,133691:0:0:0:1:
469,192,133590,128,0,133691:0:0:0:1:
128,192,133691,1,0,0:0:0:1:
298,192,133691,128,0,134546:0:0:0:1:
213,192,133892,1,0,0:0:0:1:
384,192,134093,1,0,0:0:0:1:
42,192,134093,1,0,0:0:0:1:
128,192,134295,1,0,0:0:0:1:
469,192,134496,1,0,0:0:0:1:
42,192,134496,1,0,0:0:0:1:
213,192,134496,128,0,135302:0:0:0:1:
469,192,134697,1,0,0:0:0:1:
469,192,134899,1,0,0:0:0:1:
128,192,134899,128,0,135302:0:0:0:1:
469,192,135100,1,0,0:0:0:1:
42,192,135100,128,0,135302:0:0:0:1:
469,192,135302,1,0,0:0:0:1:
298,192,135402,1,0,0:0:0:1:
128,192,135503,1,0,0:0:0:1:
384,192,135503,1,0,0:0:0:1:
213,192,135604,1,0,0:0:0:1:
298,192,135704,1,0,0:0:0:1:
42,192,135704,1,0,0:0:0:1:
128,192,135805,1,0,0:0:0:1:
213,192,135906,1,0,0:0:0:1:
298,192,136006,1,0,0:0:0:1:
42,192,136006,1,0,0:0:0:1:
128,192,136107,1,0,0:0:0:1:
384,192,136157,1,0,0:0:0:1:
128,192,136208,1,0,0:0:0:1:
384,192,136258,1,0,0:0:0:1:
298,192,136308,1,0,0:0:0:1:
42,192,136308,1,0,0:0:0:1:
213,192,136409,1,0,0:0:0:1:
469,192,136409,1,0,0:0:0:1:
128,192,136510,1,0,0:0:0:1:
384,192,136510,1,0,0:0:0:1:
42,192,136510,1,0,0:0:0:1:
298,192,136610,1,0,0:0:0:1:
213,192,136711,1,0,0:0:0:1:
384,192,136711,1,0,0:0:0:1:
128,192,136812,1,0,0:0:0:1:
469,192,136812,1,0,0:0:0:1:
298,192,136912,1,0,0:0:0:1:
384,192,137013,1,0,0:0:0:1:
213,192,137114,1,0,0:0:0:1:
42,192,137114,1,0,0:0:0:1:
469,192,137214,1,0,0:0:0:1:
128,192,137315,1,0,0:0:0:1:
298,192,137416,1,0,0:0:0:1:
384,192,137516,1,0,0:0:0:1:
42,192,137516,1,0,0:0:0:1:
42,192,137919,1,0,0:0:0:1:
298,192,138120,1,0,0:0:0:1:
469,192,138120,1,0,0:0:0:1:
213,192,138322,1,0,0:0:0:1:
384,192,138322,1,0,0:0:0:1:
42,192,138322,1,0,0:0:0:1:
128,192,138523,1,0,0:0:0:1:
298,192,138624,1,0,0:0:0:1:
213,192,138724,1,0,0:0:0:1:
42,192,138724,1,0,0:0:0:1:
384,192,138825,1,0,0:0:0:1:
298,192,138926,1,0,0:0:0:1:
469,192,139026,1,0,0:0:0:1:
384,192,139127,1,0,0:0:0:1:
42,192,139127,1,0,0:0:0:1:
42,192,139530,1,0,0:0:0:1:
128,192,139731,1,0,0:0:0:1:
298,192,139731,1,0,0:0:0:1:
213,192,139932,1,0,0:0:0:1:
384,192,139932,1,0,0:0:0:1:
42,192,139932,1,0,0:0:0:1:
298,192,140134,1,0,0:0:0:1:
384,192,140134,1,0,0:0:0:1:
42,192,140134,1,0,0:0:0:1:
213,192,140234,1,0,0:0:0:1:
128,192,140335,1,0,0:0:0:1:
469,192,140335,1,0,0:0:0:1:
298,192,140436,1,0,0:0:0:1:
213,192,140536,1,0,0:0:0:1:
384,192,140637,1,0,0:0:0:1:
298,192,140738,1,0,0:0:0:1:
469,192,140738,1,0,0:0:0:1:
469,192,141140,1,0,0:0:0:1:
213,192,141342,1,0,0:0:0:1:
42,192,141342,1,0,0:0:0:1:
128,192,141543,1,0,0:0:0:1:
298,192,141543,1,0,0:0:0:1:
469,192,141543,1,0,0:0:0:1:
213,192,141744,1,0,0:0:0:1:
298,192,141845,1,0,0:0:0:1:
128,192,141946,1,0,0:0:0:1:
469,192,141946,1,0,0:0:0:1:
42,192,142147,1,0,0:0:0:1:
213,192,142348,1,0,0:0:0:1:
469,192,142348,1,0,0:0:0:1:
469,192,142751,1,0,0:0:0:1:
128,192,142953,1,0,0:0:0:1:
298,192,142953,1,0,0:0:0:1:
213,192,143154,1,0,0:0:0:1:
469,192,143154,1,0,0:0:0:1:
42,192,143154,1,0,0:0:0:1:
298,192,143355,1,0,0:0:0:1:
42,192,143355,128,0,143657:0:0:0:1:
469,192,143557,1,0,0:0:0:1:
128,192,143657,128,0,143959:0:0:0:1:
469,192,143959,1,0,0:0:0:1:
213,192,143959,128,0,144563:0:0:0:1:
469,192,144362,1,0,0:0:0:1:
298,192,144563,128,0,144966:0:0:0:1:
469,192,144765,1,0,0:0:0:1:
128,192,144966,128,0,145268:0:0:0:1:
469,192,145167,1,0,0:0:0:1:
42,192,145268,128,0,145771:0:0:0:1:
213,192,145570,1,0,0:0:0:1:
469,192,145570,1,0,0:0:0:1:
384,192,145671,1,0,0:0:0:1:
298,192,145771,1,0,0:0:0:1:
213,192,145872,1,0,0:0:0:1:
298,192,145973,1,0,0:0:0:1:
213,192,146073,1,0,0:0:0:1:
128,192,146174,1,0,0:0:0:1:
384,192,146174,1,0,0:0:0:1:
42,192,146174,1,0,0:0:0:1:
128,192,147785,1,0,0:0:0:1:
213,192,147986,1,0,0:0:0:1:
469,192,148187,1,0,0:0:0:1:
42,192,148187,1,0,0:0:0:1:
128,192,148590,1,0,0:0:0:1:
384,192,148590,1,0,0:0:0:1:
213,192,148791,1,0,0:0:0:1:
298,192,148892,1,0,0:0:0:1:
128,192,148993,1,0,0:0:0:1:
384,192,148993,1,0,0:0:0:1:
128,192,149395,1,0,0:0:0:1:
213,192,149597,1,0,0:0:0:1:
469,192,149798,1,0,0:0:0:1:
42,192,149798,1,0,0:0:0:1:
128,192,150201,1,0,0:0:0:1:
384,192,150201,1,0,0:0:0:1:
298,192,150402,1,0,0:0:0:1:
213,192,150503,1,0,0:0:0:1:
128,192,150604,1,0,0:0:0:1:
384,192,150604,1,0,0:0:0:1:
298,192,151006,1,0,0:0:0:1:
384,192,151208,1,0,0:0:0:1:
469,192,151409,1,0,0:0:0:1:
42,192,151409,1,0,0:0:0:1:
128,192,151711,1,0,0:0:0:1:
42,192,152214,1,0,0:0:0:1:
298,192,152416,1,0,0:0:0:1:
128,192,152617,1,0,0:0:0:1:
298,192,152818,1,0,0:0:0:1:
469,192,153020,128,0,154127:0:0:0:1:
384,192,153120,128,0,154026:0:0:0:1:
298,192,153221,128,0,153322:0:0:0:1:
213,192,153322,128,0,153422:0:0:0:1:
298,192,153422,128,0,153926:0:0:0:1:
213,192,153523,128,0,153825:0:0:0:1:
128,192,153624,128,0,153724:0:0:0:1:
42,192,153724,128,0,154026:0:0:0:1:
128,192,153825,128,0,154127:0:0:0:1:
213,192,153926,128,0,154429:0:0:0:1:
298,192,154026,128,0,154328:0:0:0:1:
384,192,154127,128,0,154228:0:0:0:1:
42,192,154228,1,0,0:0:0:1:
469,192,154228,128,0,154328:0:0:0:1:
384,192,154328,128,0,154429:0:0:0:1:
42,192,154429,1,0,0:0:0:1:
298,192,154429,128,0,154530:0:0:0:1:
213,192,154530,128,0,154630:0:0:0:1:
128,192,154630,1,0,0:0:0:1:
469,192,154630,1,0,0:0:0:1:
298,192,154832,1,0,0:0:0:1:
384,192,154932,1,0,0:0:0:1:
213,192,155033,1,0,0:0:0:1:
469,192,155033,1,0,0:0:0:1:
42,192,155033,1,0,0:0:0:1:
298,192,155234,1,0,0:0:0:1:
469,192,155234,1,0,0:0:0:1:
213,192,155335,1,0,0:0:0:1:
128,192,155436,1,0,0:0:0:1:
384,192,155436,1,0,0:0:0:1:
298,192,155536,1,0,0:0:0:1:
42,192,155637,1,0,0:0:0:1:
128,192,155838,1,0,0:0:0:1:
298,192,155838,1,0,0:0:0:1:
469,192,155838,1,0,0:0:0:1:
213,192,156040,1,0,0:0:0:1:
128,192,156241,1,0,0:0:0:1:
469,192,156241,1,0,0:0:0:1:
298,192,156442,1,0,0:0:0:1:
384,192,156543,1,0,0:0:0:1:
213,192,156644,1,0,0:0:0:1:
469,192,156644,1,0,0:0:0:1:
42,192,156644,1,0,0:0:0:1:
298,192,156845,1,0,0:0:0:1:
469,192,156845,1,0,0:0:0:1:
213,192,156946,1,0,0:0:0:1:
128,192,157046,1,0,0:0:0:1:
384,192,157046,1,0,0:0:0:1:
298,192,157147,1,0,0:0:0:1:
42,192,157248,1,0,0:0:0:1:
128,192,157449,1,0,0:0:0:1:
298,192,157449,1,0,0:0:0:1:
469,192,157449,1,0,0:0:0:1:
213,192,157651,1,0,0:0:0:1:
298,192,157852,1,0,0:0:0:1:
469,192,157852,1,0,0:0:0:1:
42,192,157852,1,0,0:0:0:1:
213,192,157953,1,0,0:0:0:1:
128,192,158053,1,0,0:0:0:1:
298,192,158154,1,0,0:0:0:1:
213,192,158255,1,0,0:0:0:1:
384,192,158255,1,0,0:0:0:1:
128,192,158456,1,0,0:0:0:1:
298,192,158456,1,0,0:0:0:1:
213,192,158557,1,0,0:0:0:1:
42,192,158557,1,0,0:0:0:1:
128,192,158657,1,0,0:0:0:1:
469,192,158657,1,0,0:0:0:1:
213,192,158859,1,0,0:0:0:1:
384,192,158859,1,0,0:0:0:1:
298,192,159060,1,0,0:0:0:1:
469,192,159060,1,0,0:0:0:1:
42,192,159060,1,0,0:0:0:1:
128,192,159261,1,0,0:0:0:1:
384,192,159261,1,0,0:0:0:1:
298,192,159463,1,0,0:0:0:1:
469,192,159463,1,0,0:0:0:1:
42,192,159463,1,0,0:0:0:1:
128,192,159563,1,0,0:0:0:1:
213,192,159664,1,0,0:0:0:1:
384,192,159664,1,0,0:0:0:1:
469,192,159765,1,0,0:0:0:1:
128,192,159865,1,0,0:0:0:1:
298,192,159865,1,0,0:0:0:1:
384,192,159966,1,0,0:0:0:1:
213,192,160067,1,0,0:0:0:1:
42,192,160067,1,0,0:0:0:1:
469,192,160167,1,0,0:0:0:1:
469,192,160268,128,0,161073:0:0:0:1:
42,192,160268,128,0,160973:0:0:0:1:
128,192,160369,128,0,160872:0:0:0:1:
213,192,160469,128,0,160771:0:0:0:1:
298,192,160570,128,0,160671:0:0:0:1:
384,192,160671,1,0,0:0:0:1:
298,192,160771,1,0,0:0:0:1:
213,192,160872,1,0,0:0:0:1:
128,192,160973,1,0,0:0:0:1:
298,192,161073,1,0,0:0:0:1:
384,192,161073,1,0,0:0:0:1:
42,192,161073,1,0,0:0:0:1:
213,192,161174,1,0,0:0:0:1:
128,192,161275,1,0,0:0:0:1:
298,192,161275,1,0,0:0:0:1:
213,192,161375,1,0,0:0:0:1:
384,192,161375,1,0,0:0:0:1:
128,192,161476,1,0,0:0:0:1:
469,192,161476,1,0,0:0:0:1:
42,192,161476,1,0,0:0:0:1:
384,192,161577,1,0,0:0:0:1:
128,192,161677,1,0,0:0:0:1:
298,192,161677,1,0,0:0:0:1:
213,192,161778,1,0,0:0:0:1:
384,192,161778,1,0,0:0:0:1:
298,192,161879,1,0,0:0:0:1:
469,192,161879,1,0,0:0:0:1:
42,192,161879,1,0,0:0:0:1:
213,192,161979,1,0,0:0:0:1:
128,192,162080,1,0,0:0:0:1:
384,192,162080,1,0,0:0:0:1:
298,192,162181,1,0,0:0:0:1:
213,192,162281,1,0,0:0:0:1:
469,192,162281,1,0,0:0:0:1:
42,192,162281,1,0,0:0:0:1:
384,192,162382,1,0,0:0:0:1:
128,192,162483,1,0,0:0:0:1:
469,192,162483,1,0,0:0:0:1:
213,192,162583,1,0,0:0:0:1:
128,192,162684,1,0,0:0:0:1:
384,192,162684,1,0,0:0:0:1:
42,192,162684,1,0,0:0:0:1:
298,192,162785,1,0,0:0:0:1:
213,192,162885,1,0,0:0:0:1:
469,192,162885,1,0,0:0:0:1:
128,192,162986,1,0,0:0:0:1:
384,192,162986,1,0,0:0:0:1:
298,192,163087,1,0,0:0:0:1:
469,192,163087,1,0,0:0:0:1:
42,192,163087,1,0,0:0:0:1:
213,192,163187,1,0,0:0:0:1:
128,192,163288,1,0,0:0:0:1:
298,192,163288,1,0,0:0:0:1:
213,192,163389,1,0,0:0:0:1:
384,192,163389,1,0,0:0:0:1:
298,192,163489,1,0,0:0:0:1:
469,192,163489,1,0,0:0:0:1:
42,192,163489,1,0,0:0:0:1:
213,192,163590,1,0,0:0:0:1:
128,192,163691,1,0,0:0:0:1:
469,192,163691,1,0,0:0:0:1:
298,192,163791,1,0,0:0:0:1:
384,192,163892,1,0,0:0:0:1:
469,192,163892,1,0,0:0:0:1:
42,192,163892,1,0,0:0:0:1:
213,192,163993,1,0,0:0:0:1:
128,192,164093,1,0,0:0:0:1:
384,192,164093,1,0,0:0:0:1:
298,192,164194,1,0,0:0:0:1:
213,192,164295,1,0,0:0:0:1:
469,192,164295,1,0,0:0:0:1:
42,192,164295,1,0,0:0:0:1:
384,192,164395,1,0,0:0:0:1:
128,192,164496,1,0,0:0:0:1:
298,192,164496,1,0,0:0:0:1:
213,192,164597,1,0,0:0:0:1:
42,192,164597,1,0,0:0:0:1:
128,192,164697,1,0,0:0:0:1:
384,192,164697,1,0,0:0:0:1:
469,192,164697,1,0,0:0:0:1:
298,192,164798,1,0,0:0:0:1:
213,192,164899,1,0,0:0:0:1:
469,192,164899,1,0,0:0:0:1:
128,192,165000,1,0,0:0:0:1:
298,192,165000,1,0,0:0:0:1:
384,192,165100,1,0,0:0:0:1:
469,192,165100,1,0,0:0:0:1:
42,192,165100,1,0,0:0:0:1:
213,192,165201,1,0,0:0:0:1:
298,192,165201,1,0,0:0:0:1:
128,192,165302,1,0,0:0:0:1:
384,192,165302,1,0,0:0:0:1:
213,192,165402,1,0,0:0:0:1:
298,192,165503,1,0,0:0:0:1:
469,192,165503,1,0,0:0:0:1:
42,192,165503,1,0,0:0:0:1:
213,192,165604,1,0,0:0:0:1:
128,192,165704,1,0,0:0:0:1:
384,192,165704,1,0,0:0:0:1:
42,192,165805,1,0,0:0:0:1:
128,192,165906,1,0,0:0:0:1:
298,192,165906,1,0,0:0:0:1:
469,192,165906,1,0,0:0:0:1:
384,192,166006,1,0,0:0:0:1:
213,192,166107,1,0,0:0:0:1:
469,192,166107,1,0,0:0:0:1:
128,192,166208,1,0,0:0:0:1:
298,192,166208,1,0,0:0:0:1:
384,192,166308,1,0,0:0:0:1:
469,192,166308,1,0,0:0:0:1:
42,192,166308,1,0,0:0:0:1:
298,192,166409,1,0,0:0:0:1:
213,192,166510,1,0,0:0:0:1:
469,192,166510,1,0,0:0:0:1:
128,192,166610,1,0,0:0:0:1:
298,192,166711,1,0,0:0:0:1:
384,192,166711,1,0,0:0:0:1:
42,192,166711,1,0,0:0:0:1:
213,192,166812,1,0,0:0:0:1:
469,192,166812,1,0,0:0:0:1:
128,192,166912,1,0,0:0:0:1:
298,192,166912,1,0,0:0:0:1:
213,192,167013,1,0,0:0:0:1:
128,192,167114,1,0,0:0:0:1:
384,192,167114,1,0,0:0:0:1:
42,192,167114,1,0,0:0:0:1:
298,192,167214,1,0,0:0:0:1:
213,192,167315,1,0,0:0:0:1:
469,192,167315,1,0,0:0:0:1:
384,192,167416,1,0,0:0:0:1:
213,192,167516,1,0,0:0:0:1:
469,192,167516,1,0,0:0:0:1:
42,192,167516,1,0,0:0:0:1:
298,192,167617,1,0,0:0:0:1:
213,192,167718,1,0,0:0:0:1:
384,192,167718,1,0,0:0:0:1:
128,192,167818,1,0,0:0:0:1:
298,192,167818,1,0,0:0:0:1:
384,192,167919,1,0,0:0:0:1:
469,192,167919,1,0,0:0:0:1:
42,192,167919,1,0,0:0:0:1:
128,192,168020,1,0,0:0:0:1:
213,192,168120,1,0,0:0:0:1:
384,192,168120,1,0,0:0:0:1:
128,192,168221,1,0,0:0:0:1:
298,192,168221,1,0,0:0:0:1:
213,192,168322,1,0,0:0:0:1:
469,192,168322,1,0,0:0:0:1:
42,192,168322,1,0,0:0:0:1:
298,192,168422,1,0,0:0:0:1:
128,192,168523,1,0,0:0:0:1:
384,192,168523,1,0,0:0:0:1:
213,192,168624,1,0,0:0:0:1:
298,192,168724,1,0,0:0:0:1:
469,192,168724,1,0,0:0:0:1:
42,192,168724,1,0,0:0:0:1:
128,192,168825,1,0,0:0:0:1:
384,192,168926,1,0,0:0:0:1:
42,192,168926,1,0,0:0:0:1:
298,192,169026,1,0,0:0:0:1:
128,192,169127,1,0,0:0:0:1:
384,192,169127,1,0,0:0:0:1:
469,192,169127,1,0,0:0:0:1:
213,192,169228,1,0,0:0:0:1:
298,192,169328,1,0,0:0:0:1:
42,192,169328,1,0,0:0:0:1:
128,192,169429,1,0,0:0:0:1:
384,192,169429,1,0,0:0:0:1:
213,192,169530,1,0,0:0:0:1:
469,192,169530,1,0,0:0:0:1:
42,192,169530,1,0,0:0:0:1:
298,192,169630,1,0,0:0:0:1:
213,192,169731,1,0,0:0:0:1:
384,192,169731,1,0,0:0:0:1:
128,192,169832,1,0,0:0:0:1:
298,192,169832,1,0,0:0:0:1:
213,192,169932,1,0,0:0:0:1:
469,192,169932,1,0,0:0:0:1:
42,192,169932,1,0,0:0:0:1:
298,192,170033,1,0,0:0:0:1:
384,192,170134,1,0,0:0:0:1:
42,192,170134,1,0,0:0:0:1:
213,192,170234,1,0,0:0:0:1:
128,192,170335,1,0,0:0:0:1:
469,192,170335,1,0,0:0:0:1:
42,192,170335,1,0,0:0:0:1:
298,192,170436,1,0,0:0:0:1:
128,192,170536,1,0,0:0:0:1:
384,192,170536,1,0,0:0:0:1:
213,192,170637,1,0,0:0:0:1:
298,192,170738,1,0,0:0:0:1:
469,192,170738,1,0,0:0:0:1:
42,192,170738,1,0,0:0:0:1:
128,192,170838,1,0,0:0:0:1:
213,192,170939,1,0,0:0:0:1:
384,192,170939,1,0,0:0:0:1:
298,192,171040,1,0,0:0:0:1:
469,192,171040,1,0,0:0:0:1:
128,192,171140,1,0,0:0:0:1:
384,192,171140,1,0,0:0:0:1:
42,192,171140,1,0,0:0:0:1:
213,192,171241,1,0,0:0:0:1:
298,192,171342,1,0,0:0:0:1:
42,192,171342,1,0,0:0:0:1:
213,192,171442,1,0,0:0:0:1:
384,192,171442,1,0,0:0:0:1:
128,192,171543,1,0,0:0:0:1:
469,192,171543,1,0,0:0:0:1:
42,192,171543,1,0,0:0:0:1:
213,192,171644,1,0,0:0:0:1:
298,192,171644,1,0,0:0:0:1:
128,192,171744,1,0,0:0:0:1:
384,192,171744,1,0,0:0:0:1:
298,192,171845,1,0,0:0:0:1:
213,192,171946,1,0,0:0:0:1:
469,192,171946,1,0,0:0:0:1:
42,192,171946,1,0,0:0:0:1:
298,192,172046,1,0,0:0:0:1:
128,192,172147,1,0,0:0:0:1:
384,192,172147,1,0,0:0:0:1:
469,192,172248,1,0,0:0:0:1:
213,192,172348,1,0,0:0:0:1:
384,192,172348,1,0,0:0:0:1:
42,192,172348,1,0,0:0:0:1:
128,192,172449,1,0,0:0:0:1:
298,192,172550,1,0,0:0:0:1:
42,192,172550,1,0,0:0:0:1:
213,192,172651,1,0,0:0:0:1:
384,192,172651,1,0,0:0:0:1:
128,192,172751,1,0,0:0:0:1:
469,192,172751,1,0,0:0:0:1:
42,192,172751,1,0,0:0:0:1:
213,192,172852,1,0,0:0:0:1:
298,192,172953,1,0,0:0:0:1:
42,192,172953,1,0,0:0:0:1:
384,192,173053,1,0,0:0:0:1:
128,192,173154,1,0,0:0:0:1:
213,192,173154,1,0,0:0:0:1:
469,192,173154,1,0,0:0:0:1:
298,192,173255,1,0,0:0:0:1:
42,192,173255,1,0,0:0:0:1:
213,192,173355,1,0,0:0:0:1:
384,192,173355,1,0,0:0:0:1:
298,192,173456,1,0,0:0:0:1:
42,192,173456,1,0,0:0:0:1:
128,192,173557,1,0,0:0:0:1:
384,192,173557,1,0,0:0:0:1:
469,192,173557,1,0,0:0:0:1:
213,192,173657,1,0,0:0:0:1:
298,192,173657,1,0,0:0:0:1:
384,192,173758,1,0,0:0:0:1:
42,192,173758,1,0,0:0:0:1:
128,192,173859,1,0,0:0:0:1:
213,192,173859,1,0,0:0:0:1:
298,192,173959,1,0,0:0:0:1:
469,192,173959,1,0,0:0:0:1:
42,192,173959,1,0,0:0:0:1:
213,192,174060,1,0,0:0:0:1:
128,192,174161,1,0,0:0:0:1:
298,192,174161,1,0,0:0:0:1:
213,192,174261,1,0,0:0:0:1:
384,192,174261,1,0,0:0:0:1:
128,192,174362,1,0,0:0:0:1:
469,192,174362,1,0,0:0:0:1:
42,192,174362,1,0,0:0:0:1:
384,192,174463,1,0,0:0:0:1:
128,192,174563,1,0,0:0:0:1:
298,192,174563,1,0,0:0:0:1:
213,192,174664,1,0,0:0:0:1:
384,192,174664,1,0,0:0:0:1:
298,192,174765,1,0,0:0:0:1:
469,192,174765,1,0,0:0:0:1:
42,192,174765,1,0,0:0:0:1:
213,192,174865,1,0,0:0:0:1:
128,192,174966,1,0,0:0:0:1:
384,192,174966,1,0,0:0:0:1:
298,192,175067,1,0,0:0:0:1:
213,192,175167,1,0,0:0:0:1:
469,192,175167,1,0,0:0:0:1:
42,192,175167,1,0,0:0:0:1:
384,192,175268,1,0,0:0:0:1:
128,192,175369,1,0,0:0:0:1:
469,192,175369,1,0,0:0:0:1:
213,192,175469,1,0,0:0:0:1:
128,192,175570,1,0,0:0:0:1:
384,192,175570,1,0,0:0:0:1:
42,192,175570,1,0,0:0:0:1:
298,192,175671,1,0,0:0:0:1:
213,192,175771,1,0,0:0:0:1:
469,192,175771,1,0,0:0:0:1:
128,192,175872,1,0,0:0:0:1:
384,192,175872,1,0,0:0:0:1:
298,192,175973,1,0,0:0:0:1:
469,192,175973,1,0,0:0:0:1:
42,192,175973,1,0,0:0:0:1:
213,192,176073,1,0,0:0:0:1:
128,192,176174,1,0,0:0:0:1:
298,192,176174,1,0,0:0:0:1:
213,192,176275,1,0,0:0:0:1:
384,192,176275,1,0,0:0:0:1:
298,192,176375,1,0,0:0:0:1:
469,192,176375,1,0,0:0:0:1:
42,192,176375,1,0,0:0:0:1:
213,192,176476,1,0,0:0:0:1:
128,192,176577,1,0,0:0:0:1:
469,192,176577,1,0,0:0:0:1:
298,192,176677,1,0,0:0:0:1:
384,192,176778,1,0,0:0:0:1:
469,192,176778,1,0,0:0:0:1:
42,192,176778,1,0,0:0:0:1:
213,192,176879,1,0,0:0:0:1:
128,192,176979,1,0,0:0:0:1:
384,192,176979,1,0,0:0:0:1:
298,192,177080,1,0,0:0:0:1:
213,192,177181,1,0,0:0:0:1:
469,192,177181,1,0,0:0:0:1:
42,192,177181,1,0,0:0:0:1:
384,192,177281,1,0,0:0:0:1:
128,192,177382,1,0,0:0:0:1:
298,192,177382,1,0,0:0:0:1:
213,192,177483,1,0,0:0:0:1:
42,192,177483,1,0,0:0:0:1:
128,192,177583,1,0,0:0:0:1:
384,192,177583,1,0,0:0:0:1:
469,192,177583,1,0,0:0:0:1:
298,192,177684,1,0,0:0:0:1:
213,192,177785,1,0,0:0:0:1:
469,192,177785,1,0,0:0:0:1:
128,192,177885,1,0,0:0:0:1:
298,192,177885,1,0,0:0:0:1:
384,192,177986,1,0,0:0:0:1:
469,192,177986,1,0,0:0:0:1:
42,192,177986,1,0,0:0:0:1:
213,192,178087,1,0,0:0:0:1:
298,192,178087,1,0,0:0:0:1:
128,192,178187,1,0,0:0:0:1:
384,192,178187,1,0,0:0:0:1:
213,192,178288,1,0,0:0:0:1:
298,192,178389,1,0,0:0:0:1:
469,192,178389,1,0,0:0:0:1:
42,192,178389,1,0,0:0:0:1:
213,192,178489,1,0,0:0:0:1:
128,192,178590,1,0,0:0:0:1:
384,192,178590,1,0,0:0:0:1:
42,192,178691,1,0,0:0:0:1:
128,192,178791,1,0,0:0:0:1:
298,192,178791,1,0,0:0:0:1:
469,192,178791,1,0,0:0:0:1:
384,192,178892,1,0,0:0:0:1:
213,192,178993,1,0,0:0:0:1:
469,192,178993,1,0,0:0:0:1:
128,192,179093,1,0,0:0:0:1:
298,192,179093,1,0,0:0:0:1:
384,192,179194,1,0,0:0:0:1:
469,192,179194,1,0,0:0:0:1:
42,192,179194,1,0,0:0:0:1:
298,192,179295,1,0,0:0:0:1:
213,192,179395,1,0,0:0:0:1:
469,192,179395,1,0,0:0:0:1:
128,192,179496,1,0,0:0:0:1:
298,192,179597,1,0,0:0:0:1:
384,192,179597,1,0,0:0:0:1:
42,192,179597,1,0,0:0:0:1:
213,192,179697,1,0,0:0:0:1:
469,192,179697,1,0,0:0:0:1:
128,192,179798,1,0,0:0:0:1:
298,192,179798,1,0,0:0:0:1:
213,192,179899,1,0,0:0:0:1:
128,192,180000,1,0,0:0:0:1:
384,192,180000,1,0,0:0:0:1:
42,192,180000,1,0,0:0:0:1:
298,192,180100,1,0,0:0:0:1:
213,192,180201,1,0,0:0:0:1:
469,192,180201,1,0,0:0:0:1:
384,192,180302,1,0,0:0:0:1:
213,192,180402,1,0,0:0:0:1:
469,192,180402,1,0,0:0:0:1:
42,192,180402,1,0,0:0:0:1:
298,192,180503,1,0,0:0:0:1:
213,192,180604,1,0,0:0:0:1:
384,192,180604,1,0,0:0:0:1:
128,192,180704,1,0,0:0:0:1:
298,192,180704,1,0,0:0:0:1:
384,192,180805,1,0,0:0:0:1:
469,192,180805,1,0,0:0:0:1:
42,192,180805,1,0,0:0:0:1:
128,192,180906,1,0,0:0:0:1:
213,192,181006,1,0,0:0:0:1:
384,192,181006,1,0,0:0:0:1:
128,192,181107,1,0,0:0:0:1:
298,192,181107,1,0,0:0:0:1:
213,192,181208,1,0,0:0:0:1:
469,192,181208,1,0,0:0:0:1:
42,192,181208,1,0,0:0:0:1:
298,192,181308,1,0,0:0:0:1:
128,192,181409,1,0,0:0:0:1:
384,192,181409,1,0,0:0:0:1:
213,192,181510,1,0,0:0:0:1:
298,192,181610,1,0,0:0:0:1:
469,192,181610,1,0,0:0:0:1:
42,192,181610,1,0,0:0:0:1:
128,192,181711,1,0,0:0:0:1:
384,192,181812,1,0,0:0:0:1:
42,192,181812,1,0,0:0:0:1:
298,192,181912,1,0,0:0:0:1:
128,192,182013,1,0,0:0:0:1:
384,192,182013,1,0,0:0:0:1:
469,192,182013,1,0,0:0:0:1:
213,192,182114,1,0,0:0:0:1:
298,192,182214,1,0,0:0:0:1:
42,192,182214,1,0,0:0:0:1:
128,192,182315,1,0,0:0:0:1:
384,192,182315,1,0,0:0:0:1:
213,192,182416,1,0,0:0:0:1:
469,192,182416,1,0,0:0:0:1:
42,192,182416,1,0,0:0:0:1:
298,192,182516,1,0,0:0:0:1:
213,192,182617,1,0,0:0:0:1:
384,192,182617,1,0,0:0:0:1:
128,192,182718,1,0,0:0:0:1:
298,192,182718,1,0,0:0:0:1:
213,192,182818,1,0,0:0:0:1:
469,192,182818,1,0,0:0:0:1:
42,192,182818,1,0,0:0:0:1:
298,192,182919,1,0,0:0:0:1:
384,192,183020,1,0,0:0:0:1:
42,192,183020,1,0,0:0:0:1:
213,192,183120,1,0,0:0:0:1:
128,192,183221,1,0,0:0:0:1:
469,192,183221,1,0,0:0:0:1:
42,192,183221,1,0,0:0:0:1:
298,192,183322,1,0,0:0:0:1:
128,192,183422,1,0,0:0:0:1:
384,192,183422,1,0,0:0:0:1:
213,192,183523,1,0,0:0:0:1:
298,192,183624,1,0,0:0:0:1:
469,192,183624,1,0,0:0:0:1:
42,192,183624,1,0,0:0:0:1:
128,192,183724,1,0,0:0:0:1:
213,192,183825,1,0,0:0:0:1:
384,192,183825,1,0,0:0:0:1:
298,192,183926,1,0,0:0:0:1:
469,192,183926,1,0,0:0:0:1:
128,192,184026,1,0,0:0:0:1:
384,192,184026,1,0,0:0:0:1:
42,192,184026,1,0,0:0:0:1:
213,192,184127,1,0,0:0:0:1:
298,192,184228,1,0,0:0:0:1:
42,192,184228,1,0,0:0:0:1:
213,192,184328,1,0,0:0:0:1:
384,192,184328,1,0,0:0:0:1:
128,192,184429,1,0,0:0:0:1:
469,192,184429,1,0,0:0:0:1:
42,192,184429,1,0,0:0:0:1:
213,192,184530,1,0,0:0:0:1:
298,192,184530,1,0,0:0:0:1:
128,192,184630,1,0,0:0:0:1:
384,192,184630,1,0,0:0:0:1:
298,192,184731,1,0,0:0:0:1:
213,192,184832,1,0,0:0:0:1:
469,192,184832,1,0,0:0:0:1:
42,192,184832,1,0,0:0:0:1:
298,192,184932,1,0,0:0:0:1:
128,192,185033,1,0,0:0:0:1:
384,192,185033,1,0,0:0:0:1:
469,192,185134,1,0,0:0:0:1:
213,192,185234,1,0,0:0:0:1:
384,192,185234,1,0,0:0:0:1:
42,192,185234,1,0,0:0:0:1:
128,192,185335,1,0,0:0:0:1:
298,192,185436,1,0,0:0:0:1:
42,192,185436,1,0,0:0:0:1:
213,192,185536,1,0,0:0:0:1:
384,192,185536,1,0,0:0:0:1:
128,192,185637,1,0,0:0:0:1:
469,192,185637,1,0,0:0:0:1:
42,192,185637,1,0,0:0:0:1:
213,192,185738,1,0,0:0:0:1:
298,192,185838,1,0,0:0:0:1:
42,192,185838,1,0,0:0:0:1:
384,192,185939,1,0,0:0:0:1:
213,192,186040,1,0,0:0:0:1:
469,192,186040,1,0,0:0:0:1:
128,192,186040,128,0,186090:0:0:0:1:
42,192,186140,1,0,0:0:0:1:
298,192,186140,128,0,186191:0:0:0:1:
213,192,186241,128,0,186291:0:0:0:1:
298,192,186342,1,0,0:0:0:1:
42,192,186342,128,0,186392:0:0:0:1:
128,192,186442,1,0,0:0:0:1:
384,192,186442,1,0,0:0:0:1:
469,192,186442,128,0,186493:0:0:0:1:
213,192,186543,1,0,0:0:0:1:
298,192,186543,128,0,186593:0:0:0:1:
384,192,186644,1,0,0:0:0:1:
42,192,186644,128,0,186694:0:0:0:1:
128,192,186744,1,0,0:0:0:1:
213,192,186744,128,0,186795:0:0:0:1:
298,192,186845,1,0,0:0:0:1:
42,192,186845,1,0,0:0:0:1:
384,192,186845,128,0,188456:0:0:0:1:
469,192,186845,128,0,188456:0:0:0:1:
213,192,187046,1,0,0:0:0:1:
128,192,187248,1,0,0:0:0:1:
298,192,187248,1,0,0:0:0:1:
42,192,187449,1,0,0:0:0:1:
128,192,187651,1,0,0:0:0:1:
213,192,187651,1,0,0:0:0:1:
298,192,187852,1,0,0:0:0:1:
213,192,188053,1,0,0:0:0:1:
42,192,188053,1,0,0:0:0:1:
128,192,188255,1,0,0:0:0:1:
298,192,188456,1,0,0:0:0:1:
42,192,188456,1,0,0:0:0:1:
213,192,188657,1,0,0:0:0:1:
128,192,188859,1,0,0:0:0:1:
469,192,188859,1,0,0:0:0:1:
298,192,189060,1,0,0:0:0:1:
384,192,189261,1,0,0:0:0:1:
42,192,189261,1,0,0:0:0:1:
213,192,189463,1,0,0:0:0:1:
384,192,189463,1,0,0:0:0:1:
128,192,189664,1,0,0:0:0:1:
469,192,189664,1,0,0:0:0:1:
298,192,189865,1,0,0:0:0:1:
42,192,189865,1,0,0:0:0:1:
213,192,190067,1,0,0:0:0:1:
384,192,190067,1,0,0:0:0:1:
128,192,190067,128,0,191677:0:0:0:1:
42,192,190067,128,0,191677:0:0:0:1:
469,192,190268,1,0,0:0:0:1:
298,192,190469,1,0,0:0:0:1:
384,192,190469,1,0,0:0:0:1:
213,192,190671,1,0,0:0:0:1:
298,192,190872,1,0,0:0:0:1:
469,192,190872,1,0,0:0:0:1:
384,192,191073,1,0,0:0:0:1:
213,192,191275,1,0,0:0:0:1:
469,192,191275,1,0,0:0:0:1:
298,192,191476,1,0,0:0:0:1:
213,192,191677,1,0,0:0:0:1:
384,192,191677,1,0,0:0:0:1:
469,192,191677,128,0,193187:0:0:0:1:
128,192,191879,1,0,0:0:0:1:
298,192,192080,1,0,0:0:0:1:
42,192,192080,1,0,0:0:0:1:
213,192,192281,1,0,0:0:0:1:
128,192,192483,1,0,0:0:0:1:
384,192,192483,1,0,0:0:0:1:
213,192,192684,1,0,0:0:0:1:
298,192,192885,1,0,0:0:0:1:
42,192,192885,1,0,0:0:0:1:
128,192,193087,1,0,0:0:0:1:
298,192,193288,1,0,0:0:0:1:
42,192,193288,1,0,0:0:0:1:
384,192,193489,1,0,0:0:0:1:
213,192,193691,1,0,0:0:0:1:
469,192,193691,1,0,0:0:0:1:
298,192,193892,1,0,0:0:0:1:
128,192,194093,1,0,0:0:0:1:
384,192,194093,1,0,0:0:0:1:
213,192,194295,1,0,0:0:0:1:
469,192,194496,1,0,0:0:0:1:
42,192,194496,1,0,0:0:0:1:
298,192,194697,1,0,0:0:0:1:
128,192,194899,1,0,0:0:0:1:
384,192,194899,1,0,0:0:0:1:
298,192,195100,1,0,0:0:0:1:
213,192,195302,1,0,0:0:0:1:
42,192,195302,1,0,0:0:0:1:
128,192,195503,1,0,0:0:0:1:
384,192,195704,1,0,0:0:0:1:
42,192,195704,1,0,0:0:0:1:
213,192,195906,1,0,0:0:0:1:
128,192,196107,1,0,0:0:0:1:
469,192,196107,1,0,0:0:0:1:
213,192,196308,1,0,0:0:0:1:
298,192,196510,1,0,0:0:0:1:
42,192,196510,1,0,0:0:0:1:
384,192,196711,1,0,0:0:0:1:
213,192,196912,1,0,0:0:0:1:
469,192,196912,1,0,0:0:0:1:
298,192,197114,1,0,0:0:0:1:
128,192,197315,1,0,0:0:0:1:
384,192,197315,1,0,0:0:0:1:
213,192,197516,1,0,0:0:0:1:
469,192,197718,1,0,0:0:0:1:
42,192,197718,1,0,0:0:0:1:
298,192,197919,1,0,0:0:0:1:
128,192,198120,1,0,0:0:0:1:
384,192,198120,1,0,0:0:0:1:
298,192,198322,1,0,0:0:0:1:
213,192,198523,1,0,0:0:0:1:
42,192,198523,1,0,0:0:0:1:
128,192,198724,1,0,0:0:0:1:
384,192,198926,1,0,0:0:0:1:
42,192,198926,1,0,0:0:0:1:
213,192,199127,1,0,0:0:0:1:
128,192,199328,1,0,0:0:0:1:
469,192,199328,1,0,0:0:0:1:
213,192,199530,1,0,0:0:0:1:
298,192,199731,1,0,0:0:0:1:
42,192,199731,1,0,0:0:0:1:
384,192,199932,1,0,0:0:0:1:
213,192,200134,1,0,0:0:0:1:
469,192,200134,1,0,0:0:0:1:
298,192,200335,1,0,0:0:0:1:
128,192,200536,1,0,0:0:0:1:
384,192,200536,1,0,0:0:0:1:
213,192,200738,1,0,0:0:0:1:
469,192,200939,1,0,0:0:0:1:
42,192,200939,1,0,0:0:0:1:
298,192,201140,1,0,0:0:0:1:
128,192,201342,1,0,0:0:0:1:
384,192,201342,1,0,0:0:0:1:
298,192,201543,1,0,0:0:0:1:
213,192,201744,1,0,0:0:0:1:
42,192,201744,1,0,0:0:0:1:
128,192,201946,1,0,0:0:0:1:
384,192,202147,1,0,0:0:0:1:
42,192,202147,1,0,0:0:0:1:
213,192,202348,1,0,0:0:0:1:
128,192,202550,1,0,0:0:0:1:
469,192,202550,1,0,0:0:0:1:
213,192,202751,1,0,0:0:0:1:
298,192,202953,1,0,0:0:0:1:
42,192,202953,1,0,0:0:0:1:
384,192,203154,1,0,0:0:0:1:
213,192,203355,1,0,0:0:0:1:
469,192,203355,1,0,0:0:0:1:
298,192,203557,1,0,0:0:0:1:
128,192,203758,1,0,0:0:0:1:
384,192,203758,1,0,0:0:0:1:
213,192,203959,1,0,0:0:0:1:
469,192,204161,1,0,0:0:0:1:
42,192,204161,1,0,0:0:0:1:
298,192,204362,1,0,0:0:0:1:
128,192,204563,1,0,0:0:0:1:
384,192,204563,1,0,0:0:0:1:
298,192,204765,1,0,0:0:0:1:
213,192,204966,1,0,0:0:0:1:
42,192,204966,1,0,0:0:0:1:
128,192,205167,1,0,0:0:0:1:
384,192,205369,1,0,0:0:0:1:
42,192,205369,1,0,0:0:0:1:
213,192,205570,1,0,0:0:0:1:
128,192,205771,1,0,0:0:0:1:
469,192,205771,1,0,0:0:0:1:
298,192,205973,1,0,0:0:0:1:
