osu file format v14

[General]
AudioFilename: MySunset.mp3
AudioLeadIn: 0
PreviewTime: -1
Countdown: 1
SampleSet: None
StackLeniency: 0.7
Mode: 3
LetterboxInBreaks: 1
SpecialStyle: 1
WidescreenStoryboard: 1

[Editor]
DistanceSpacing: 1.3
BeatDivisor: 4
GridSize: 8
TimelineZoom: 1

[Metadata]
Title:Derrick 6K Exercise Pack
TitleUnicode:Derrick 6K Exercise Pack
Artist:Various Artists
ArtistUnicode:Various Artists
Creator:[Crz]Derrick
Version:Feint - My Sunset [16]
Source:
Tags:
BeatmapID:998933
BeatmapSetID:466803

[Difficulty]
HPDrainRate:8.5
CircleSize:6
OverallDifficulty:8.5
ApproachRate:5
SliderMultiplier:1.4
SliderTickRate:1

[Events]
//Background and Video events
0,0,"6337772e9c12229b841a2270e73d25ef.jpg",0,0
//Break Periods
//Storyboard Layer 0 (Background)
//Storyboard Layer 1 (Fail)
//Storyboard Layer 2 (Pass)
//Storyboard Layer 3 (Foreground)
//Storyboard Sound Samples

[TimingPoints]
0,352.941176470588,4,2,0,70,1,0

[HitObjects]
469,192,1411,1,0,0:0:0:1:
42,192,1411,1,0,0:0:0:1:
128,192,1764,1,0,0:0:0:1:
213,192,2117,1,0,0:0:0:1:
213,192,2470,1,0,0:0:0:1:
384,192,2823,1,0,0:0:0:1:
42,192,2823,1,0,0:0:0:1:
128,192,3176,1,0,0:0:0:1:
298,192,3352,1,0,0:0:0:1:
128,192,3529,1,0,0:0:0:1:
298,192,3705,1,0,0:0:0:1:
128,192,3882,1,0,0:0:0:1:
384,192,3882,1,0,0:0:0:1:
469,192,4235,1,0,0:0:0:1:
42,192,4235,1,0,0:0:0:1:
128,192,4588,1,0,0:0:0:1:
213,192,4941,1,0,0:0:0:1:
213,192,5294,1,0,0:0:0:1:
384,192,5647,1,0,0:0:0:1:
42,192,5647,1,0,0:0:0:1:
298,192,6000,1,0,0:0:0:1:
128,192,6176,1,0,0:0:0:1:
298,192,6352,1,0,0:0:0:1:
128,192,6529,1,0,0:0:0:1:
213,192,6705,1,0,0:0:0:1:
384,192,6705,1,0,0:0:0:1:
469,192,7058,1,0,0:0:0:1:
42,192,7058,1,0,0:0:0:1:
384,192,7411,1,0,0:0:0:1:
298,192,7764,1,0,0:0:0:1:
298,192,8117,1,0,0:0:0:1:
128,192,8470,1,0,0:0:0:1:
469,192,8470,1,0,0:0:0:1:
213,192,8823,1,0,0:0:0:1:
384,192,9000,1,0,0:0:0:1:
213,192,9176,1,0,0:0:0:1:
384,192,9352,1,0,0:0:0:1:
298,192,9529,1,0,0:0:0:1:
42,192,9529,1,0,0:0:0:1:
469,192,9882,1,0,0:0:0:1:
42,192,9882,1,0,0:0:0:1:
128,192,10235,1,0,0:0:0:1:
213,192,10588,1,0,0:0:0:1:
213,192,10941,1,0,0:0:0:1:
128,192,11294,1,0,0:0:0:1:
42,192,11294,128,0,12705:0:0:0:1:
298,192,11470,1,0,0:0:0:1:
128,192,11647,1,0,0:0:0:1:
298,192,11823,1,0,0:0:0:1:
128,192,12000,1,0,0:0:0:1:
298,192,12176,1,0,0:0:0:1:
213,192,12352,1,0,0:0:0:1:
384,192,12529,1,0,0:0:0:1:
128,192,12705,1,0,0:0:0:1:
469,192,12705,1,0,0:0:0:1:
128,192,13058,1,0,0:0:0:1:
213,192,13411,1,0,0:0:0:1:
469,192,13411,1,0,0:0:0:1:
213,192,13764,1,0,0:0:0:1:
469,192,14117,1,0,0:0:0:1:
42,192,14117,1,0,0:0:0:1:
128,192,14470,1,0,0:0:0:1:
298,192,14647,1,0,0:0:0:1:
128,192,14823,1,0,0:0:0:1:
469,192,14823,1,0,0:0:0:1:
298,192,15000,1,0,0:0:0:1:
128,192,15176,1,0,0:0:0:1:
384,192,15176,1,0,0:0:0:1:
469,192,15529,1,0,0:0:0:1:
42,192,15529,1,0,0:0:0:1:
128,192,15551,1,0,0:0:0:1:
213,192,15573,1,0,0:0:0:1:
128,192,15882,1,0,0:0:0:1:
213,192,16235,1,0,0:0:0:1:
469,192,16235,1,0,0:0:0:1:
213,192,16588,1,0,0:0:0:1:
42,192,16941,1,0,0:0:0:1:
469,192,16941,128,0,16963:0:0:0:1:
298,192,17294,1,0,0:0:0:1:
128,192,17470,1,0,0:0:0:1:
298,192,17647,1,0,0:0:0:1:
469,192,17647,1,0,0:0:0:1:
128,192,17823,1,0,0:0:0:1:
213,192,18000,1,0,0:0:0:1:
384,192,18000,1,0,0:0:0:1:
469,192,18352,1,0,0:0:0:1:
42,192,18352,1,0,0:0:0:1:
384,192,18397,1,0,0:0:0:1:
298,192,18441,1,0,0:0:0:1:
384,192,18705,1,0,0:0:0:1:
298,192,19058,1,0,0:0:0:1:
469,192,19058,1,0,0:0:0:1:
298,192,19411,1,0,0:0:0:1:
128,192,19764,1,0,0:0:0:1:
469,192,19764,1,0,0:0:0:1:
213,192,20117,1,0,0:0:0:1:
384,192,20294,1,0,0:0:0:1:
469,192,20470,1,0,0:0:0:1:
213,192,20470,128,0,20492:0:0:0:1:
384,192,20647,1,0,0:0:0:1:
298,192,20823,1,0,0:0:0:1:
42,192,20823,1,0,0:0:0:1:
469,192,21176,1,0,0:0:0:1:
42,192,21176,1,0,0:0:0:1:
384,192,21220,1,0,0:0:0:1:
298,192,21264,1,0,0:0:0:1:
128,192,21529,1,0,0:0:0:1:
213,192,21882,1,0,0:0:0:1:
469,192,21882,1,0,0:0:0:1:
213,192,22235,1,0,0:0:0:1:
128,192,22588,1,0,0:0:0:1:
469,192,22588,128,0,22610:0:0:0:1:
298,192,22764,1,0,0:0:0:1:
128,192,22941,1,0,0:0:0:1:
298,192,23117,1,0,0:0:0:1:
128,192,23294,1,0,0:0:0:1:
469,192,23294,1,0,0:0:0:1:
298,192,23470,1,0,0:0:0:1:
213,192,23647,1,0,0:0:0:1:
384,192,23823,1,0,0:0:0:1:
469,192,24000,1,0,0:0:0:1:
42,192,24000,1,0,0:0:0:1:
128,192,24022,1,0,0:0:0:1:
213,192,24044,1,0,0:0:0:1:
384,192,24352,1,0,0:0:0:1:
298,192,24705,1,0,0:0:0:1:
42,192,24705,1,0,0:0:0:1:
298,192,25058,1,0,0:0:0:1:
469,192,25411,1,0,0:0:0:1:
42,192,25411,128,0,25433:0:0:0:1:
384,192,25764,1,0,0:0:0:1:
213,192,25941,1,0,0:0:0:1:
384,192,26117,1,0,0:0:0:1:
42,192,26117,1,0,0:0:0:1:
213,192,26294,1,0,0:0:0:1:
128,192,26470,1,0,0:0:0:1:
384,192,26470,1,0,0:0:0:1:
469,192,26823,1,0,0:0:0:1:
42,192,26823,1,0,0:0:0:1:
384,192,26845,1,0,0:0:0:1:
298,192,26867,1,0,0:0:0:1:
384,192,27176,1,0,0:0:0:1:
298,192,27529,1,0,0:0:0:1:
42,192,27529,1,0,0:0:0:1:
298,192,27882,1,0,0:0:0:1:
469,192,28235,1,0,0:0:0:1:
42,192,28235,128,0,28257:0:0:0:1:
213,192,28588,1,0,0:0:0:1:
384,192,28764,1,0,0:0:0:1:
213,192,28941,1,0,0:0:0:1:
42,192,28941,1,0,0:0:0:1:
384,192,29117,1,0,0:0:0:1:
128,192,29294,1,0,0:0:0:1:
298,192,29294,1,0,0:0:0:1:
469,192,29647,1,0,0:0:0:1:
42,192,29647,1,0,0:0:0:1:
128,192,29669,1,0,0:0:0:1:
213,192,29691,1,0,0:0:0:1:
128,192,30000,1,0,0:0:0:1:
384,192,30000,1,0,0:0:0:1:
213,192,30352,1,0,0:0:0:1:
42,192,30352,1,0,0:0:0:1:
213,192,30705,1,0,0:0:0:1:
469,192,30705,1,0,0:0:0:1:
384,192,31058,1,0,0:0:0:1:
42,192,31058,1,0,0:0:0:1:
298,192,31411,1,0,0:0:0:1:
469,192,31411,1,0,0:0:0:1:
128,192,31588,1,0,0:0:0:1:
42,192,31764,1,0,0:0:0:1:
298,192,31764,128,0,31786:0:0:0:1:
128,192,31941,1,0,0:0:0:1:
213,192,32117,1,0,0:0:0:1:
469,192,32117,1,0,0:0:0:1:
469,192,32470,1,0,0:0:0:1:
42,192,32470,1,0,0:0:0:1:
128,192,32647,1,0,0:0:0:1:
298,192,32647,1,0,0:0:0:1:
213,192,32823,1,0,0:0:0:1:
384,192,32823,1,0,0:0:0:1:
213,192,33000,1,0,0:0:0:1:
469,192,33000,1,0,0:0:0:1:
298,192,33176,1,0,0:0:0:1:
42,192,33176,1,0,0:0:0:1:
128,192,33352,1,0,0:0:0:1:
384,192,33352,1,0,0:0:0:1:
128,192,33529,1,0,0:0:0:1:
298,192,33529,1,0,0:0:0:1:
213,192,33705,1,0,0:0:0:1:
469,192,33705,1,0,0:0:0:1:
298,192,33882,1,0,0:0:0:1:
42,192,33882,1,0,0:0:0:1:
128,192,33970,1,0,0:0:0:1:
469,192,33970,1,0,0:0:0:1:
213,192,34058,1,0,0:0:0:1:
298,192,34058,1,0,0:0:0:1:
128,192,34147,1,0,0:0:0:1:
384,192,34147,1,0,0:0:0:1:
298,192,34235,1,0,0:0:0:1:
42,192,34235,1,0,0:0:0:1:
128,192,34323,1,0,0:0:0:1:
469,192,34323,1,0,0:0:0:1:
213,192,34411,1,0,0:0:0:1:
298,192,34411,1,0,0:0:0:1:
128,192,34500,1,0,0:0:0:1:
384,192,34500,1,0,0:0:0:1:
298,192,34588,1,0,0:0:0:1:
42,192,34588,1,0,0:0:0:1:
128,192,34676,1,0,0:0:0:1:
469,192,34676,1,0,0:0:0:1:
213,192,34764,1,0,0:0:0:1:
298,192,34764,1,0,0:0:0:1:
128,192,34852,1,0,0:0:0:1:
384,192,34852,1,0,0:0:0:1:
42,192,34897,128,0,35250:0:0:0:1:
213,192,34941,1,0,0:0:0:1:
298,192,34941,1,0,0:0:0:1:
128,192,35029,1,0,0:0:0:1:
469,192,35029,1,0,0:0:0:1:
213,192,35117,1,0,0:0:0:1:
298,192,35117,1,0,0:0:0:1:
128,192,35205,1,0,0:0:0:1:
384,192,35205,1,0,0:0:0:1:
213,192,35294,1,0,0:0:0:1:
469,192,35294,1,0,0:0:0:1:
128,192,35382,1,0,0:0:0:1:
298,192,35382,1,0,0:0:0:1:
213,192,35470,1,0,0:0:0:1:
42,192,35470,1,0,0:0:0:1:
128,192,35558,1,0,0:0:0:1:
384,192,35558,1,0,0:0:0:1:
298,192,35647,1,0,0:0:0:1:
469,192,35647,1,0,0:0:0:1:
42,192,35647,1,0,0:0:0:1:
213,192,35735,1,0,0:0:0:1:
128,192,35823,1,0,0:0:0:1:
384,192,35823,1,0,0:0:0:1:
298,192,35911,1,0,0:0:0:1:
469,192,35911,1,0,0:0:0:1:
213,192,36000,1,0,0:0:0:1:
384,192,36000,1,0,0:0:0:1:
128,192,36088,1,0,0:0:0:1:
469,192,36088,1,0,0:0:0:1:
298,192,36176,1,0,0:0:0:1:
42,192,36176,1,0,0:0:0:1:
213,192,36264,1,0,0:0:0:1:
128,192,36352,1,0,0:0:0:1:
384,192,36352,1,0,0:0:0:1:
469,192,36352,1,0,0:0:0:1:
213,192,36441,1,0,0:0:0:1:
298,192,36529,1,0,0:0:0:1:
42,192,36529,1,0,0:0:0:1:
213,192,36617,1,0,0:0:0:1:
384,192,36617,1,0,0:0:0:1:
128,192,36705,1,0,0:0:0:1:
469,192,36705,1,0,0:0:0:1:
298,192,36794,1,0,0:0:0:1:
384,192,36794,1,0,0:0:0:1:
213,192,36882,1,0,0:0:0:1:
469,192,36882,1,0,0:0:0:1:
128,192,36970,1,0,0:0:0:1:
298,192,36970,1,0,0:0:0:1:
213,192,37058,1,0,0:0:0:1:
384,192,37058,1,0,0:0:0:1:
42,192,37058,1,0,0:0:0:1:
298,192,37147,1,0,0:0:0:1:
128,192,37235,1,0,0:0:0:1:
213,192,37235,1,0,0:0:0:1:
384,192,37323,1,0,0:0:0:1:
42,192,37323,1,0,0:0:0:1:
213,192,37411,1,0,0:0:0:1:
298,192,37411,1,0,0:0:0:1:
128,192,37500,1,0,0:0:0:1:
469,192,37500,1,0,0:0:0:1:
213,192,37588,1,0,0:0:0:1:
384,192,37588,1,0,0:0:0:1:
298,192,37676,1,0,0:0:0:1:
384,192,37764,1,0,0:0:0:1:
469,192,37764,1,0,0:0:0:1:
42,192,37764,1,0,0:0:0:1:
128,192,37852,1,0,0:0:0:1:
213,192,37941,1,0,0:0:0:1:
298,192,37941,1,0,0:0:0:1:
128,192,38029,1,0,0:0:0:1:
384,192,38029,1,0,0:0:0:1:
298,192,38117,1,0,0:0:0:1:
42,192,38117,1,0,0:0:0:1:
213,192,38205,1,0,0:0:0:1:
384,192,38205,1,0,0:0:0:1:
128,192,38294,1,0,0:0:0:1:
298,192,38294,1,0,0:0:0:1:
213,192,38382,1,0,0:0:0:1:
469,192,38382,1,0,0:0:0:1:
298,192,38470,1,0,0:0:0:1:
384,192,38470,1,0,0:0:0:1:
42,192,38470,1,0,0:0:0:1:
213,192,38558,1,0,0:0:0:1:
128,192,38647,1,0,0:0:0:1:
469,192,38647,1,0,0:0:0:1:
298,192,38735,1,0,0:0:0:1:
42,192,38735,1,0,0:0:0:1:
213,192,38823,1,0,0:0:0:1:
384,192,38823,1,0,0:0:0:1:
128,192,38911,1,0,0:0:0:1:
298,192,38911,1,0,0:0:0:1:
469,192,39000,1,0,0:0:0:1:
42,192,39000,1,0,0:0:0:1:
213,192,39088,1,0,0:0:0:1:
384,192,39088,1,0,0:0:0:1:
128,192,39176,1,0,0:0:0:1:
298,192,39176,1,0,0:0:0:1:
42,192,39176,1,0,0:0:0:1:
384,192,39264,1,0,0:0:0:1:
213,192,39352,1,0,0:0:0:1:
469,192,39352,1,0,0:0:0:1:
298,192,39441,1,0,0:0:0:1:
384,192,39441,1,0,0:0:0:1:
128,192,39529,1,0,0:0:0:1:
469,192,39529,1,0,0:0:0:1:
213,192,39617,1,0,0:0:0:1:
42,192,39617,1,0,0:0:0:1:
128,192,39705,1,0,0:0:0:1:
298,192,39705,1,0,0:0:0:1:
213,192,39794,1,0,0:0:0:1:
384,192,39794,1,0,0:0:0:1:
128,192,39882,1,0,0:0:0:1:
469,192,39882,1,0,0:0:0:1:
42,192,39882,1,0,0:0:0:1:
298,192,39970,1,0,0:0:0:1:
213,192,40058,1,0,0:0:0:1:
469,192,40058,1,0,0:0:0:1:
128,192,40147,1,0,0:0:0:1:
384,192,40147,1,0,0:0:0:1:
298,192,40235,1,0,0:0:0:1:
42,192,40235,1,0,0:0:0:1:
213,192,40323,1,0,0:0:0:1:
384,192,40323,1,0,0:0:0:1:
128,192,40411,1,0,0:0:0:1:
469,192,40411,1,0,0:0:0:1:
298,192,40500,1,0,0:0:0:1:
213,192,40588,1,0,0:0:0:1:
384,192,40588,1,0,0:0:0:1:
42,192,40588,1,0,0:0:0:1:
128,192,40676,1,0,0:0:0:1:
213,192,40764,1,0,0:0:0:1:
298,192,40764,1,0,0:0:0:1:
128,192,40852,1,0,0:0:0:1:
384,192,40852,1,0,0:0:0:1:
213,192,40941,1,0,0:0:0:1:
469,192,40941,1,0,0:0:0:1:
128,192,41029,1,0,0:0:0:1:
298,192,41029,1,0,0:0:0:1:
213,192,41117,1,0,0:0:0:1:
42,192,41117,1,0,0:0:0:1:
128,192,41205,1,0,0:0:0:1:
384,192,41205,1,0,0:0:0:1:
298,192,41294,1,0,0:0:0:1:
469,192,41294,1,0,0:0:0:1:
42,192,41294,1,0,0:0:0:1:
213,192,41382,1,0,0:0:0:1:
128,192,41470,1,0,0:0:0:1:
384,192,41470,1,0,0:0:0:1:
298,192,41558,1,0,0:0:0:1:
469,192,41558,1,0,0:0:0:1:
213,192,41647,1,0,0:0:0:1:
384,192,41647,1,0,0:0:0:1:
128,192,41735,1,0,0:0:0:1:
469,192,41735,1,0,0:0:0:1:
298,192,41823,1,0,0:0:0:1:
42,192,41823,1,0,0:0:0:1:
213,192,41911,1,0,0:0:0:1:
128,192,42000,1,0,0:0:0:1:
384,192,42000,1,0,0:0:0:1:
469,192,42000,1,0,0:0:0:1:
213,192,42088,1,0,0:0:0:1:
298,192,42176,1,0,0:0:0:1:
42,192,42176,1,0,0:0:0:1:
213,192,42264,1,0,0:0:0:1:
384,192,42264,1,0,0:0:0:1:
128,192,42352,1,0,0:0:0:1:
469,192,42352,1,0,0:0:0:1:
298,192,42441,1,0,0:0:0:1:
384,192,42441,1,0,0:0:0:1:
213,192,42529,1,0,0:0:0:1:
469,192,42529,1,0,0:0:0:1:
128,192,42617,1,0,0:0:0:1:
298,192,42617,1,0,0:0:0:1:
213,192,42705,1,0,0:0:0:1:
384,192,42705,1,0,0:0:0:1:
42,192,42705,1,0,0:0:0:1:
298,192,42794,1,0,0:0:0:1:
128,192,42882,1,0,0:0:0:1:
213,192,42882,1,0,0:0:0:1:
384,192,42970,1,0,0:0:0:1:
42,192,42970,1,0,0:0:0:1:
213,192,43058,1,0,0:0:0:1:
298,192,43058,1,0,0:0:0:1:
128,192,43147,1,0,0:0:0:1:
469,192,43147,1,0,0:0:0:1:
213,192,43235,1,0,0:0:0:1:
384,192,43235,1,0,0:0:0:1:
298,192,43323,1,0,0:0:0:1:
384,192,43411,1,0,0:0:0:1:
469,192,43411,1,0,0:0:0:1:
42,192,43411,1,0,0:0:0:1:
128,192,43500,1,0,0:0:0:1:
213,192,43588,1,0,0:0:0:1:
298,192,43588,1,0,0:0:0:1:
128,192,43676,1,0,0:0:0:1:
384,192,43676,1,0,0:0:0:1:
298,192,43764,1,0,0:0:0:1:
42,192,43764,1,0,0:0:0:1:
213,192,43852,1,0,0:0:0:1:
384,192,43852,1,0,0:0:0:1:
128,192,43941,1,0,0:0:0:1:
298,192,43941,1,0,0:0:0:1:
213,192,44029,1,0,0:0:0:1:
469,192,44029,1,0,0:0:0:1:
298,192,44117,1,0,0:0:0:1:
384,192,44117,1,0,0:0:0:1:
42,192,44117,1,0,0:0:0:1:
213,192,44205,1,0,0:0:0:1:
128,192,44294,1,0,0:0:0:1:
469,192,44294,1,0,0:0:0:1:
298,192,44382,1,0,0:0:0:1:
42,192,44382,1,0,0:0:0:1:
213,192,44470,1,0,0:0:0:1:
384,192,44470,1,0,0:0:0:1:
128,192,44558,1,0,0:0:0:1:
298,192,44558,1,0,0:0:0:1:
469,192,44647,1,0,0:0:0:1:
42,192,44647,1,0,0:0:0:1:
213,192,44735,1,0,0:0:0:1:
384,192,44735,1,0,0:0:0:1:
128,192,44823,1,0,0:0:0:1:
298,192,44823,1,0,0:0:0:1:
42,192,44823,1,0,0:0:0:1:
384,192,44911,1,0,0:0:0:1:
213,192,45000,1,0,0:0:0:1:
469,192,45000,1,0,0:0:0:1:
298,192,45088,1,0,0:0:0:1:
384,192,45088,1,0,0:0:0:1:
128,192,45176,1,0,0:0:0:1:
469,192,45176,1,0,0:0:0:1:
213,192,45264,1,0,0:0:0:1:
42,192,45264,1,0,0:0:0:1:
128,192,45352,1,0,0:0:0:1:
298,192,45352,1,0,0:0:0:1:
213,192,45441,1,0,0:0:0:1:
384,192,45441,1,0,0:0:0:1:
128,192,45529,1,0,0:0:0:1:
469,192,45529,1,0,0:0:0:1:
42,192,45529,1,0,0:0:0:1:
298,192,45617,1,0,0:0:0:1:
213,192,45705,1,0,0:0:0:1:
469,192,45705,1,0,0:0:0:1:
128,192,45794,1,0,0:0:0:1:
384,192,45794,1,0,0:0:0:1:
298,192,45882,1,0,0:0:0:1:
42,192,45882,1,0,0:0:0:1:
213,192,45970,1,0,0:0:0:1:
384,192,45970,1,0,0:0:0:1:
128,192,46058,1,0,0:0:0:1:
469,192,46058,1,0,0:0:0:1:
298,192,46147,1,0,0:0:0:1:
213,192,46235,1,0,0:0:0:1:
384,192,46235,1,0,0:0:0:1:
42,192,46235,1,0,0:0:0:1:
128,192,46323,1,0,0:0:0:1:
213,192,46411,1,0,0:0:0:1:
298,192,46411,1,0,0:0:0:1:
128,192,46500,1,0,0:0:0:1:
384,192,46500,1,0,0:0:0:1:
213,192,46588,1,0,0:0:0:1:
469,192,46588,1,0,0:0:0:1:
128,192,46676,1,0,0:0:0:1:
298,192,46676,1,0,0:0:0:1:
213,192,46764,1,0,0:0:0:1:
42,192,46764,1,0,0:0:0:1:
128,192,46852,1,0,0:0:0:1:
384,192,46852,1,0,0:0:0:1:
298,192,46941,1,0,0:0:0:1:
469,192,46941,1,0,0:0:0:1:
42,192,46941,1,0,0:0:0:1:
213,192,47029,1,0,0:0:0:1:
128,192,47117,1,0,0:0:0:1:
384,192,47117,1,0,0:0:0:1:
298,192,47205,1,0,0:0:0:1:
469,192,47205,1,0,0:0:0:1:
213,192,47294,1,0,0:0:0:1:
384,192,47294,1,0,0:0:0:1:
128,192,47382,1,0,0:0:0:1:
469,192,47382,1,0,0:0:0:1:
298,192,47470,1,0,0:0:0:1:
42,192,47470,1,0,0:0:0:1:
213,192,47558,1,0,0:0:0:1:
128,192,47647,1,0,0:0:0:1:
384,192,47647,1,0,0:0:0:1:
469,192,47647,1,0,0:0:0:1:
213,192,47735,1,0,0:0:0:1:
298,192,47823,1,0,0:0:0:1:
42,192,47823,1,0,0:0:0:1:
213,192,47911,1,0,0:0:0:1:
384,192,47911,1,0,0:0:0:1:
128,192,48000,1,0,0:0:0:1:
469,192,48000,1,0,0:0:0:1:
298,192,48088,1,0,0:0:0:1:
384,192,48088,1,0,0:0:0:1:
213,192,48176,1,0,0:0:0:1:
469,192,48176,1,0,0:0:0:1:
128,192,48264,1,0,0:0:0:1:
298,192,48264,1,0,0:0:0:1:
213,192,48352,1,0,0:0:0:1:
384,192,48352,1,0,0:0:0:1:
42,192,48352,1,0,0:0:0:1:
298,192,48441,1,0,0:0:0:1:
128,192,48529,1,0,0:0:0:1:
213,192,48529,1,0,0:0:0:1:
384,192,48617,1,0,0:0:0:1:
42,192,48617,1,0,0:0:0:1:
213,192,48705,1,0,0:0:0:1:
298,192,48705,1,0,0:0:0:1:
128,192,48794,1,0,0:0:0:1:
469,192,48794,1,0,0:0:0:1:
213,192,48882,1,0,0:0:0:1:
384,192,48882,1,0,0:0:0:1:
298,192,48970,1,0,0:0:0:1:
384,192,49058,1,0,0:0:0:1:
469,192,49058,1,0,0:0:0:1:
42,192,49058,1,0,0:0:0:1:
128,192,49147,1,0,0:0:0:1:
213,192,49235,1,0,0:0:0:1:
298,192,49235,1,0,0:0:0:1:
128,192,49323,1,0,0:0:0:1:
384,192,49323,1,0,0:0:0:1:
298,192,49411,1,0,0:0:0:1:
42,192,49411,1,0,0:0:0:1:
213,192,49500,1,0,0:0:0:1:
384,192,49500,1,0,0:0:0:1:
128,192,49588,1,0,0:0:0:1:
298,192,49588,1,0,0:0:0:1:
213,192,49676,1,0,0:0:0:1:
469,192,49676,1,0,0:0:0:1:
298,192,49764,1,0,0:0:0:1:
384,192,49764,1,0,0:0:0:1:
42,192,49764,1,0,0:0:0:1:
213,192,49852,1,0,0:0:0:1:
128,192,49941,1,0,0:0:0:1:
469,192,49941,1,0,0:0:0:1:
298,192,50029,1,0,0:0:0:1:
42,192,50029,1,0,0:0:0:1:
213,192,50117,1,0,0:0:0:1:
384,192,50117,1,0,0:0:0:1:
128,192,50205,1,0,0:0:0:1:
298,192,50205,1,0,0:0:0:1:
469,192,50294,1,0,0:0:0:1:
42,192,50294,1,0,0:0:0:1:
213,192,50382,1,0,0:0:0:1:
384,192,50382,1,0,0:0:0:1:
128,192,50470,1,0,0:0:0:1:
298,192,50470,1,0,0:0:0:1:
42,192,50470,1,0,0:0:0:1:
384,192,50558,1,0,0:0:0:1:
213,192,50647,1,0,0:0:0:1:
469,192,50647,1,0,0:0:0:1:
298,192,50735,1,0,0:0:0:1:
384,192,50735,1,0,0:0:0:1:
128,192,50823,1,0,0:0:0:1:
469,192,50823,1,0,0:0:0:1:
213,192,50911,1,0,0:0:0:1:
42,192,50911,1,0,0:0:0:1:
128,192,51000,1,0,0:0:0:1:
298,192,51000,1,0,0:0:0:1:
213,192,51088,1,0,0:0:0:1:
384,192,51088,1,0,0:0:0:1:
128,192,51176,1,0,0:0:0:1:
469,192,51176,1,0,0:0:0:1:
42,192,51176,1,0,0:0:0:1:
298,192,51264,1,0,0:0:0:1:
213,192,51352,1,0,0:0:0:1:
469,192,51352,1,0,0:0:0:1:
128,192,51441,1,0,0:0:0:1:
384,192,51441,1,0,0:0:0:1:
298,192,51529,1,0,0:0:0:1:
42,192,51529,1,0,0:0:0:1:
213,192,51617,1,0,0:0:0:1:
384,192,51617,1,0,0:0:0:1:
128,192,51705,1,0,0:0:0:1:
469,192,51705,1,0,0:0:0:1:
298,192,51794,1,0,0:0:0:1:
213,192,51882,1,0,0:0:0:1:
384,192,51882,1,0,0:0:0:1:
42,192,51882,1,0,0:0:0:1:
128,192,51970,1,0,0:0:0:1:
213,192,52058,1,0,0:0:0:1:
298,192,52058,1,0,0:0:0:1:
128,192,52147,1,0,0:0:0:1:
384,192,52147,1,0,0:0:0:1:
213,192,52235,1,0,0:0:0:1:
469,192,52235,1,0,0:0:0:1:
128,192,52323,1,0,0:0:0:1:
298,192,52323,1,0,0:0:0:1:
213,192,52411,1,0,0:0:0:1:
42,192,52411,1,0,0:0:0:1:
128,192,52500,1,0,0:0:0:1:
384,192,52500,1,0,0:0:0:1:
298,192,52588,1,0,0:0:0:1:
469,192,52588,1,0,0:0:0:1:
42,192,52588,1,0,0:0:0:1:
213,192,52676,1,0,0:0:0:1:
128,192,52764,1,0,0:0:0:1:
384,192,52764,1,0,0:0:0:1:
298,192,52852,1,0,0:0:0:1:
469,192,52852,1,0,0:0:0:1:
213,192,52941,1,0,0:0:0:1:
384,192,52941,1,0,0:0:0:1:
128,192,53029,1,0,0:0:0:1:
469,192,53029,1,0,0:0:0:1:
298,192,53117,1,0,0:0:0:1:
42,192,53117,1,0,0:0:0:1:
213,192,53205,1,0,0:0:0:1:
128,192,53294,1,0,0:0:0:1:
384,192,53294,1,0,0:0:0:1:
469,192,53294,1,0,0:0:0:1:
213,192,53382,1,0,0:0:0:1:
298,192,53470,1,0,0:0:0:1:
42,192,53470,1,0,0:0:0:1:
213,192,53558,1,0,0:0:0:1:
384,192,53558,1,0,0:0:0:1:
128,192,53647,1,0,0:0:0:1:
469,192,53647,1,0,0:0:0:1:
298,192,53735,1,0,0:0:0:1:
384,192,53735,1,0,0:0:0:1:
213,192,53823,1,0,0:0:0:1:
469,192,53823,1,0,0:0:0:1:
128,192,53911,1,0,0:0:0:1:
298,192,53911,1,0,0:0:0:1:
213,192,54000,1,0,0:0:0:1:
384,192,54000,1,0,0:0:0:1:
42,192,54000,1,0,0:0:0:1:
298,192,54088,1,0,0:0:0:1:
128,192,54176,1,0,0:0:0:1:
213,192,54176,1,0,0:0:0:1:
384,192,54264,1,0,0:0:0:1:
42,192,54264,1,0,0:0:0:1:
213,192,54352,1,0,0:0:0:1:
298,192,54352,1,0,0:0:0:1:
128,192,54441,1,0,0:0:0:1:
469,192,54441,1,0,0:0:0:1:
213,192,54529,1,0,0:0:0:1:
384,192,54529,1,0,0:0:0:1:
298,192,54617,1,0,0:0:0:1:
384,192,54705,1,0,0:0:0:1:
469,192,54705,1,0,0:0:0:1:
42,192,54705,1,0,0:0:0:1:
128,192,54794,1,0,0:0:0:1:
213,192,54882,1,0,0:0:0:1:
298,192,54882,1,0,0:0:0:1:
128,192,54970,1,0,0:0:0:1:
384,192,54970,1,0,0:0:0:1:
298,192,55058,1,0,0:0:0:1:
42,192,55058,1,0,0:0:0:1:
213,192,55147,1,0,0:0:0:1:
384,192,55147,1,0,0:0:0:1:
128,192,55235,1,0,0:0:0:1:
298,192,55235,1,0,0:0:0:1:
213,192,55323,1,0,0:0:0:1:
469,192,55323,1,0,0:0:0:1:
298,192,55411,1,0,0:0:0:1:
384,192,55411,1,0,0:0:0:1:
42,192,55411,1,0,0:0:0:1:
213,192,55500,1,0,0:0:0:1:
128,192,55588,1,0,0:0:0:1:
469,192,55588,1,0,0:0:0:1:
298,192,55676,1,0,0:0:0:1:
42,192,55676,1,0,0:0:0:1:
213,192,55764,1,0,0:0:0:1:
384,192,55764,1,0,0:0:0:1:
128,192,55852,1,0,0:0:0:1:
298,192,55852,1,0,0:0:0:1:
469,192,55941,1,0,0:0:0:1:
42,192,55941,1,0,0:0:0:1:
213,192,56029,1,0,0:0:0:1:
384,192,56029,1,0,0:0:0:1:
128,192,56117,1,0,0:0:0:1:
298,192,56117,1,0,0:0:0:1:
42,192,56117,1,0,0:0:0:1:
384,192,56205,1,0,0:0:0:1:
213,192,56294,1,0,0:0:0:1:
469,192,56294,1,0,0:0:0:1:
298,192,56382,1,0,0:0:0:1:
384,192,56382,1,0,0:0:0:1:
128,192,56470,1,0,0:0:0:1:
469,192,56470,1,0,0:0:0:1:
213,192,56558,1,0,0:0:0:1:
42,192,56558,1,0,0:0:0:1:
128,192,56647,1,0,0:0:0:1:
298,192,56647,1,0,0:0:0:1:
213,192,56735,1,0,0:0:0:1:
384,192,56735,1,0,0:0:0:1:
128,192,56823,1,0,0:0:0:1:
469,192,56823,1,0,0:0:0:1:
42,192,56823,1,0,0:0:0:1:
298,192,56911,1,0,0:0:0:1:
213,192,57000,1,0,0:0:0:1:
469,192,57000,1,0,0:0:0:1:
128,192,57088,1,0,0:0:0:1:
384,192,57088,1,0,0:0:0:1:
298,192,57176,1,0,0:0:0:1:
42,192,57176,1,0,0:0:0:1:
213,192,57264,1,0,0:0:0:1:
384,192,57264,1,0,0:0:0:1:
128,192,57352,1,0,0:0:0:1:
469,192,57352,1,0,0:0:0:1:
298,192,57441,1,0,0:0:0:1:
213,192,57529,1,0,0:0:0:1:
384,192,57529,1,0,0:0:0:1:
42,192,57529,1,0,0:0:0:1:
128,192,57617,1,0,0:0:0:1:
213,192,57705,1,0,0:0:0:1:
298,192,57705,1,0,0:0:0:1:
128,192,57794,1,0,0:0:0:1:
384,192,57794,1,0,0:0:0:1:
213,192,57882,1,0,0:0:0:1:
469,192,57882,1,0,0:0:0:1:
128,192,57970,1,0,0:0:0:1:
298,192,57970,1,0,0:0:0:1:
213,192,58058,1,0,0:0:0:1:
42,192,58058,1,0,0:0:0:1:
128,192,58147,1,0,0:0:0:1:
384,192,58147,1,0,0:0:0:1:
298,192,58235,1,0,0:0:0:1:
469,192,58235,1,0,0:0:0:1:
42,192,58235,1,0,0:0:0:1:
213,192,58323,1,0,0:0:0:1:
128,192,58411,1,0,0:0:0:1:
384,192,58411,1,0,0:0:0:1:
298,192,58500,1,0,0:0:0:1:
469,192,58500,1,0,0:0:0:1:
213,192,58588,1,0,0:0:0:1:
384,192,58588,1,0,0:0:0:1:
128,192,58676,1,0,0:0:0:1:
469,192,58676,1,0,0:0:0:1:
298,192,58764,1,0,0:0:0:1:
42,192,58764,1,0,0:0:0:1:
213,192,58852,1,0,0:0:0:1:
128,192,58941,1,0,0:0:0:1:
384,192,58941,1,0,0:0:0:1:
469,192,58941,1,0,0:0:0:1:
213,192,59029,1,0,0:0:0:1:
298,192,59117,1,0,0:0:0:1:
42,192,59117,1,0,0:0:0:1:
213,192,59205,1,0,0:0:0:1:
384,192,59205,1,0,0:0:0:1:
128,192,59294,1,0,0:0:0:1:
469,192,59294,1,0,0:0:0:1:
298,192,59382,1,0,0:0:0:1:
384,192,59382,1,0,0:0:0:1:
213,192,59470,1,0,0:0:0:1:
469,192,59470,1,0,0:0:0:1:
128,192,59558,1,0,0:0:0:1:
298,192,59558,1,0,0:0:0:1:
213,192,59647,1,0,0:0:0:1:
384,192,59647,1,0,0:0:0:1:
42,192,59647,1,0,0:0:0:1:
298,192,59735,1,0,0:0:0:1:
128,192,59823,1,0,0:0:0:1:
213,192,59823,1,0,0:0:0:1:
384,192,59911,1,0,0:0:0:1:
42,192,59911,1,0,0:0:0:1:
213,192,60000,1,0,0:0:0:1:
298,192,60000,1,0,0:0:0:1:
128,192,60088,1,0,0:0:0:1:
469,192,60088,1,0,0:0:0:1:
213,192,60176,1,0,0:0:0:1:
384,192,60176,1,0,0:0:0:1:
298,192,60264,1,0,0:0:0:1:
384,192,60352,1,0,0:0:0:1:
469,192,60352,1,0,0:0:0:1:
42,192,60352,1,0,0:0:0:1:
128,192,60441,1,0,0:0:0:1:
213,192,60529,1,0,0:0:0:1:
298,192,60529,1,0,0:0:0:1:
128,192,60617,1,0,0:0:0:1:
384,192,60617,1,0,0:0:0:1:
298,192,60705,1,0,0:0:0:1:
42,192,60705,1,0,0:0:0:1:
213,192,60794,1,0,0:0:0:1:
384,192,60794,1,0,0:0:0:1:
128,192,60882,1,0,0:0:0:1:
298,192,60882,1,0,0:0:0:1:
213,192,60970,1,0,0:0:0:1:
469,192,60970,1,0,0:0:0:1:
298,192,61058,1,0,0:0:0:1:
384,192,61058,1,0,0:0:0:1:
42,192,61058,1,0,0:0:0:1:
213,192,61147,1,0,0:0:0:1:
128,192,61235,1,0,0:0:0:1:
469,192,61235,1,0,0:0:0:1:
298,192,61323,1,0,0:0:0:1:
42,192,61323,1,0,0:0:0:1:
213,192,61411,1,0,0:0:0:1:
384,192,61411,1,0,0:0:0:1:
128,192,61500,1,0,0:0:0:1:
298,192,61500,1,0,0:0:0:1:
469,192,61588,1,0,0:0:0:1:
42,192,61588,1,0,0:0:0:1:
213,192,61676,1,0,0:0:0:1:
384,192,61676,1,0,0:0:0:1:
128,192,61764,1,0,0:0:0:1:
298,192,61764,1,0,0:0:0:1:
42,192,61764,1,0,0:0:0:1:
384,192,61852,1,0,0:0:0:1:
213,192,61941,1,0,0:0:0:1:
469,192,61941,1,0,0:0:0:1:
298,192,62029,1,0,0:0:0:1:
384,192,62029,1,0,0:0:0:1:
128,192,62117,1,0,0:0:0:1:
469,192,62117,1,0,0:0:0:1:
213,192,62205,1,0,0:0:0:1:
42,192,62205,1,0,0:0:0:1:
128,192,62294,1,0,0:0:0:1:
298,192,62294,1,0,0:0:0:1:
213,192,62382,1,0,0:0:0:1:
384,192,62382,1,0,0:0:0:1:
128,192,62470,1,0,0:0:0:1:
469,192,62470,1,0,0:0:0:1:
42,192,62470,1,0,0:0:0:1:
298,192,62558,1,0,0:0:0:1:
213,192,62647,1,0,0:0:0:1:
469,192,62647,1,0,0:0:0:1:
128,192,62735,1,0,0:0:0:1:
384,192,62735,1,0,0:0:0:1:
298,192,62823,1,0,0:0:0:1:
42,192,62823,1,0,0:0:0:1:
213,192,62911,1,0,0:0:0:1:
384,192,62911,1,0,0:0:0:1:
128,192,63000,1,0,0:0:0:1:
469,192,63000,1,0,0:0:0:1:
298,192,63088,1,0,0:0:0:1:
213,192,63176,1,0,0:0:0:1:
384,192,63176,1,0,0:0:0:1:
42,192,63176,1,0,0:0:0:1:
128,192,63264,1,0,0:0:0:1:
213,192,63352,1,0,0:0:0:1:
298,192,63352,1,0,0:0:0:1:
128,192,63441,1,0,0:0:0:1:
384,192,63441,1,0,0:0:0:1:
213,192,63529,1,0,0:0:0:1:
469,192,63529,1,0,0:0:0:1:
128,192,63617,1,0,0:0:0:1:
298,192,63617,1,0,0:0:0:1:
213,192,63705,1,0,0:0:0:1:
42,192,63705,1,0,0:0:0:1:
128,192,63794,1,0,0:0:0:1:
384,192,63794,1,0,0:0:0:1:
298,192,63882,1,0,0:0:0:1:
469,192,63882,1,0,0:0:0:1:
42,192,63882,1,0,0:0:0:1:
213,192,63970,1,0,0:0:0:1:
128,192,64058,1,0,0:0:0:1:
384,192,64058,1,0,0:0:0:1:
298,192,64147,1,0,0:0:0:1:
469,192,64147,1,0,0:0:0:1:
213,192,64235,1,0,0:0:0:1:
384,192,64235,1,0,0:0:0:1:
128,192,64323,1,0,0:0:0:1:
469,192,64323,1,0,0:0:0:1:
298,192,64411,1,0,0:0:0:1:
42,192,64411,1,0,0:0:0:1:
213,192,64500,1,0,0:0:0:1:
128,192,64588,1,0,0:0:0:1:
384,192,64588,1,0,0:0:0:1:
469,192,64588,1,0,0:0:0:1:
213,192,64676,1,0,0:0:0:1:
298,192,64764,1,0,0:0:0:1:
42,192,64764,1,0,0:0:0:1:
213,192,64852,1,0,0:0:0:1:
384,192,64852,1,0,0:0:0:1:
128,192,64941,1,0,0:0:0:1:
469,192,64941,1,0,0:0:0:1:
298,192,65029,1,0,0:0:0:1:
384,192,65029,1,0,0:0:0:1:
213,192,65117,1,0,0:0:0:1:
469,192,65117,1,0,0:0:0:1:
128,192,65205,1,0,0:0:0:1:
298,192,65205,1,0,0:0:0:1:
213,192,65294,1,0,0:0:0:1:
384,192,65294,1,0,0:0:0:1:
42,192,65294,1,0,0:0:0:1:
298,192,65382,1,0,0:0:0:1:
128,192,65470,1,0,0:0:0:1:
213,192,65470,1,0,0:0:0:1:
384,192,65558,1,0,0:0:0:1:
42,192,65558,1,0,0:0:0:1:
213,192,65647,1,0,0:0:0:1:
298,192,65647,1,0,0:0:0:1:
128,192,65735,1,0,0:0:0:1:
469,192,65735,1,0,0:0:0:1:
213,192,65823,1,0,0:0:0:1:
384,192,65823,1,0,0:0:0:1:
298,192,65911,1,0,0:0:0:1:
384,192,66000,1,0,0:0:0:1:
469,192,66000,1,0,0:0:0:1:
42,192,66000,1,0,0:0:0:1:
128,192,66088,1,0,0:0:0:1:
213,192,66176,1,0,0:0:0:1:
298,192,66176,1,0,0:0:0:1:
128,192,66264,1,0,0:0:0:1:
384,192,66264,1,0,0:0:0:1:
298,192,66352,1,0,0:0:0:1:
42,192,66352,1,0,0:0:0:1:
213,192,66441,1,0,0:0:0:1:
384,192,66441,1,0,0:0:0:1:
128,192,66529,1,0,0:0:0:1:
298,192,66529,1,0,0:0:0:1:
213,192,66617,1,0,0:0:0:1:
469,192,66617,1,0,0:0:0:1:
298,192,66705,1,0,0:0:0:1:
384,192,66705,1,0,0:0:0:1:
42,192,66705,1,0,0:0:0:1:
213,192,66794,1,0,0:0:0:1:
128,192,66882,1,0,0:0:0:1:
469,192,66882,1,0,0:0:0:1:
298,192,66970,1,0,0:0:0:1:
42,192,66970,1,0,0:0:0:1:
213,192,67058,1,0,0:0:0:1:
384,192,67058,1,0,0:0:0:1:
128,192,67147,1,0,0:0:0:1:
298,192,67147,1,0,0:0:0:1:
469,192,67235,1,0,0:0:0:1:
42,192,67235,1,0,0:0:0:1:
213,192,67323,1,0,0:0:0:1:
384,192,67323,1,0,0:0:0:1:
128,192,67411,1,0,0:0:0:1:
298,192,67411,1,0,0:0:0:1:
42,192,67411,1,0,0:0:0:1:
384,192,67500,1,0,0:0:0:1:
213,192,67588,1,0,0:0:0:1:
469,192,67588,1,0,0:0:0:1:
298,192,67676,1,0,0:0:0:1:
384,192,67676,1,0,0:0:0:1:
128,192,67764,1,0,0:0:0:1:
469,192,67764,1,0,0:0:0:1:
213,192,67852,1,0,0:0:0:1:
42,192,67852,1,0,0:0:0:1:
128,192,67941,1,0,0:0:0:1:
298,192,67941,1,0,0:0:0:1:
213,192,68029,1,0,0:0:0:1:
384,192,68029,1,0,0:0:0:1:
128,192,68117,1,0,0:0:0:1:
469,192,68117,1,0,0:0:0:1:
42,192,68117,1,0,0:0:0:1:
298,192,68205,1,0,0:0:0:1:
213,192,68294,1,0,0:0:0:1:
469,192,68294,1,0,0:0:0:1:
128,192,68382,1,0,0:0:0:1:
384,192,68382,1,0,0:0:0:1:
298,192,68470,1,0,0:0:0:1:
42,192,68470,1,0,0:0:0:1:
213,192,68558,1,0,0:0:0:1:
384,192,68558,1,0,0:0:0:1:
128,192,68647,1,0,0:0:0:1:
469,192,68647,1,0,0:0:0:1:
298,192,68735,1,0,0:0:0:1:
213,192,68823,1,0,0:0:0:1:
384,192,68823,1,0,0:0:0:1:
42,192,68823,1,0,0:0:0:1:
128,192,68911,1,0,0:0:0:1:
213,192,69000,1,0,0:0:0:1:
298,192,69000,1,0,0:0:0:1:
128,192,69088,1,0,0:0:0:1:
384,192,69088,1,0,0:0:0:1:
213,192,69176,1,0,0:0:0:1:
469,192,69176,1,0,0:0:0:1:
128,192,69264,1,0,0:0:0:1:
298,192,69264,1,0,0:0:0:1:
213,192,69352,1,0,0:0:0:1:
42,192,69352,1,0,0:0:0:1:
128,192,69441,1,0,0:0:0:1:
384,192,69441,1,0,0:0:0:1:
298,192,69529,1,0,0:0:0:1:
469,192,69529,1,0,0:0:0:1:
42,192,69529,1,0,0:0:0:1:
213,192,69617,1,0,0:0:0:1:
128,192,69705,1,0,0:0:0:1:
384,192,69705,1,0,0:0:0:1:
298,192,69794,1,0,0:0:0:1:
469,192,69794,1,0,0:0:0:1:
213,192,69882,1,0,0:0:0:1:
384,192,69882,1,0,0:0:0:1:
128,192,69970,1,0,0:0:0:1:
469,192,69970,1,0,0:0:0:1:
298,192,70058,1,0,0:0:0:1:
42,192,70058,1,0,0:0:0:1:
213,192,70147,1,0,0:0:0:1:
128,192,70235,1,0,0:0:0:1:
384,192,70235,1,0,0:0:0:1:
469,192,70235,1,0,0:0:0:1:
213,192,70323,1,0,0:0:0:1:
298,192,70411,1,0,0:0:0:1:
42,192,70411,1,0,0:0:0:1:
213,192,70500,1,0,0:0:0:1:
384,192,70500,1,0,0:0:0:1:
128,192,70588,1,0,0:0:0:1:
469,192,70588,1,0,0:0:0:1:
298,192,70676,1,0,0:0:0:1:
384,192,70676,1,0,0:0:0:1:
213,192,70764,1,0,0:0:0:1:
469,192,70764,1,0,0:0:0:1:
128,192,70852,1,0,0:0:0:1:
298,192,70852,1,0,0:0:0:1:
213,192,70941,1,0,0:0:0:1:
384,192,70941,1,0,0:0:0:1:
42,192,70941,1,0,0:0:0:1:
298,192,71029,1,0,0:0:0:1:
128,192,71117,1,0,0:0:0:1:
213,192,71117,1,0,0:0:0:1:
384,192,71205,1,0,0:0:0:1:
42,192,71205,1,0,0:0:0:1:
213,192,71294,1,0,0:0:0:1:
298,192,71294,1,0,0:0:0:1:
128,192,71382,1,0,0:0:0:1:
469,192,71382,1,0,0:0:0:1:
213,192,71470,1,0,0:0:0:1:
384,192,71470,1,0,0:0:0:1:
298,192,71558,1,0,0:0:0:1:
384,192,71647,1,0,0:0:0:1:
469,192,71647,1,0,0:0:0:1:
42,192,71647,1,0,0:0:0:1:
128,192,71735,1,0,0:0:0:1:
213,192,71823,1,0,0:0:0:1:
298,192,71823,1,0,0:0:0:1:
128,192,71911,1,0,0:0:0:1:
384,192,71911,1,0,0:0:0:1:
298,192,72000,1,0,0:0:0:1:
42,192,72000,1,0,0:0:0:1:
213,192,72088,1,0,0:0:0:1:
384,192,72088,1,0,0:0:0:1:
128,192,72176,1,0,0:0:0:1:
298,192,72176,1,0,0:0:0:1:
213,192,72264,1,0,0:0:0:1:
469,192,72264,1,0,0:0:0:1:
298,192,72352,1,0,0:0:0:1:
384,192,72352,1,0,0:0:0:1:
42,192,72352,1,0,0:0:0:1:
213,192,72441,1,0,0:0:0:1:
128,192,72529,1,0,0:0:0:1:
469,192,72529,1,0,0:0:0:1:
298,192,72617,1,0,0:0:0:1:
42,192,72617,1,0,0:0:0:1:
213,192,72705,1,0,0:0:0:1:
384,192,72705,1,0,0:0:0:1:
128,192,72794,1,0,0:0:0:1:
298,192,72794,1,0,0:0:0:1:
469,192,72882,1,0,0:0:0:1:
42,192,72882,1,0,0:0:0:1:
213,192,72970,1,0,0:0:0:1:
384,192,72970,1,0,0:0:0:1:
128,192,73058,1,0,0:0:0:1:
298,192,73058,1,0,0:0:0:1:
42,192,73058,1,0,0:0:0:1:
384,192,73147,1,0,0:0:0:1:
213,192,73235,1,0,0:0:0:1:
469,192,73235,1,0,0:0:0:1:
298,192,73323,1,0,0:0:0:1:
384,192,73323,1,0,0:0:0:1:
128,192,73411,1,0,0:0:0:1:
469,192,73411,1,0,0:0:0:1:
213,192,73500,1,0,0:0:0:1:
42,192,73500,1,0,0:0:0:1:
128,192,73588,1,0,0:0:0:1:
298,192,73588,1,0,0:0:0:1:
213,192,73676,1,0,0:0:0:1:
384,192,73676,1,0,0:0:0:1:
128,192,73764,1,0,0:0:0:1:
469,192,73764,1,0,0:0:0:1:
42,192,73764,1,0,0:0:0:1:
298,192,73852,1,0,0:0:0:1:
213,192,73941,1,0,0:0:0:1:
469,192,73941,1,0,0:0:0:1:
128,192,74029,1,0,0:0:0:1:
384,192,74029,1,0,0:0:0:1:
298,192,74117,1,0,0:0:0:1:
42,192,74117,1,0,0:0:0:1:
213,192,74205,1,0,0:0:0:1:
384,192,74205,1,0,0:0:0:1:
128,192,74294,1,0,0:0:0:1:
469,192,74294,1,0,0:0:0:1:
298,192,74382,1,0,0:0:0:1:
213,192,74470,1,0,0:0:0:1:
384,192,74470,1,0,0:0:0:1:
42,192,74470,1,0,0:0:0:1:
128,192,74558,1,0,0:0:0:1:
213,192,74647,1,0,0:0:0:1:
298,192,74647,1,0,0:0:0:1:
128,192,74735,1,0,0:0:0:1:
384,192,74735,1,0,0:0:0:1:
213,192,74823,1,0,0:0:0:1:
469,192,74823,1,0,0:0:0:1:
128,192,74911,1,0,0:0:0:1:
298,192,74911,1,0,0:0:0:1:
213,192,75000,1,0,0:0:0:1:
42,192,75000,1,0,0:0:0:1:
128,192,75088,1,0,0:0:0:1:
384,192,75088,1,0,0:0:0:1:
298,192,75176,1,0,0:0:0:1:
469,192,75176,1,0,0:0:0:1:
42,192,75176,1,0,0:0:0:1:
213,192,75264,1,0,0:0:0:1:
128,192,75352,1,0,0:0:0:1:
384,192,75352,1,0,0:0:0:1:
298,192,75441,1,0,0:0:0:1:
469,192,75441,1,0,0:0:0:1:
213,192,75529,1,0,0:0:0:1:
384,192,75529,1,0,0:0:0:1:
128,192,75617,1,0,0:0:0:1:
469,192,75617,1,0,0:0:0:1:
298,192,75705,1,0,0:0:0:1:
42,192,75705,1,0,0:0:0:1:
213,192,75794,1,0,0:0:0:1:
128,192,75882,1,0,0:0:0:1:
384,192,75882,1,0,0:0:0:1:
469,192,75882,1,0,0:0:0:1:
213,192,75970,1,0,0:0:0:1:
298,192,76058,1,0,0:0:0:1:
42,192,76058,1,0,0:0:0:1:
213,192,76147,1,0,0:0:0:1:
384,192,76147,1,0,0:0:0:1:
128,192,76235,1,0,0:0:0:1:
469,192,76235,1,0,0:0:0:1:
298,192,76323,1,0,0:0:0:1:
384,192,76323,1,0,0:0:0:1:
213,192,76411,1,0,0:0:0:1:
469,192,76411,1,0,0:0:0:1:
128,192,76500,1,0,0:0:0:1:
298,192,76500,1,0,0:0:0:1:
213,192,76588,1,0,0:0:0:1:
384,192,76588,1,0,0:0:0:1:
42,192,76588,1,0,0:0:0:1:
298,192,76676,1,0,0:0:0:1:
128,192,76764,1,0,0:0:0:1:
213,192,76764,1,0,0:0:0:1:
384,192,76852,1,0,0:0:0:1:
42,192,76852,1,0,0:0:0:1:
213,192,76941,1,0,0:0:0:1:
298,192,76941,1,0,0:0:0:1:
128,192,77029,1,0,0:0:0:1:
469,192,77029,1,0,0:0:0:1:
213,192,77117,1,0,0:0:0:1:
384,192,77117,1,0,0:0:0:1:
298,192,77205,1,0,0:0:0:1:
384,192,77294,1,0,0:0:0:1:
469,192,77294,1,0,0:0:0:1:
42,192,77294,1,0,0:0:0:1:
128,192,77382,1,0,0:0:0:1:
213,192,77470,1,0,0:0:0:1:
298,192,77470,1,0,0:0:0:1:
128,192,77558,1,0,0:0:0:1:
384,192,77558,1,0,0:0:0:1:
298,192,77647,1,0,0:0:0:1:
42,192,77647,1,0,0:0:0:1:
213,192,77735,1,0,0:0:0:1:
384,192,77735,1,0,0:0:0:1:
128,192,77823,1,0,0:0:0:1:
298,192,77823,1,0,0:0:0:1:
213,192,77911,1,0,0:0:0:1:
469,192,77911,1,0,0:0:0:1:
298,192,78000,1,0,0:0:0:1:
384,192,78000,1,0,0:0:0:1:
42,192,78000,1,0,0:0:0:1:
213,192,78088,1,0,0:0:0:1:
128,192,78176,1,0,0:0:0:1:
469,192,78176,1,0,0:0:0:1:
298,192,78264,1,0,0:0:0:1:
42,192,78264,1,0,0:0:0:1:
213,192,78352,1,0,0:0:0:1:
384,192,78352,1,0,0:0:0:1:
128,192,78441,1,0,0:0:0:1:
298,192,78441,1,0,0:0:0:1:
469,192,78529,1,0,0:0:0:1:
42,192,78529,1,0,0:0:0:1:
213,192,78617,1,0,0:0:0:1:
384,192,78617,1,0,0:0:0:1:
128,192,78705,1,0,0:0:0:1:
298,192,78705,1,0,0:0:0:1:
42,192,78705,1,0,0:0:0:1:
384,192,78794,1,0,0:0:0:1:
213,192,78882,1,0,0:0:0:1:
469,192,78882,1,0,0:0:0:1:
298,192,78970,1,0,0:0:0:1:
384,192,78970,1,0,0:0:0:1:
128,192,79058,1,0,0:0:0:1:
469,192,79058,1,0,0:0:0:1:
213,192,79147,1,0,0:0:0:1:
42,192,79147,1,0,0:0:0:1:
128,192,79235,1,0,0:0:0:1:
298,192,79235,1,0,0:0:0:1:
213,192,79323,1,0,0:0:0:1:
384,192,79323,1,0,0:0:0:1:
128,192,79411,1,0,0:0:0:1:
469,192,79411,1,0,0:0:0:1:
42,192,79411,1,0,0:0:0:1:
298,192,79500,1,0,0:0:0:1:
213,192,79588,1,0,0:0:0:1:
469,192,79588,1,0,0:0:0:1:
128,192,79676,1,0,0:0:0:1:
384,192,79676,1,0,0:0:0:1:
298,192,79764,1,0,0:0:0:1:
42,192,79764,1,0,0:0:0:1:
213,192,79852,1,0,0:0:0:1:
384,192,79852,1,0,0:0:0:1:
128,192,79941,1,0,0:0:0:1:
469,192,79941,1,0,0:0:0:1:
298,192,80029,1,0,0:0:0:1:
213,192,80117,1,0,0:0:0:1:
384,192,80117,1,0,0:0:0:1:
42,192,80117,1,0,0:0:0:1:
128,192,80205,1,0,0:0:0:1:
213,192,80294,1,0,0:0:0:1:
298,192,80294,1,0,0:0:0:1:
128,192,80382,1,0,0:0:0:1:
384,192,80382,1,0,0:0:0:1:
213,192,80470,1,0,0:0:0:1:
469,192,80470,1,0,0:0:0:1:
42,192,80470,1,0,0:0:0:1:
128,192,80823,1,0,0:0:0:1:
213,192,81176,1,0,0:0:0:1:
469,192,81176,1,0,0:0:0:1:
213,192,81529,1,0,0:0:0:1:
469,192,81882,1,0,0:0:0:1:
42,192,81882,1,0,0:0:0:1:
128,192,82235,1,0,0:0:0:1:
298,192,82411,1,0,0:0:0:1:
128,192,82588,1,0,0:0:0:1:
469,192,82588,1,0,0:0:0:1:
298,192,82764,1,0,0:0:0:1:
128,192,82941,1,0,0:0:0:1:
384,192,82941,1,0,0:0:0:1:
469,192,83294,1,0,0:0:0:1:
42,192,83294,1,0,0:0:0:1:
128,192,83316,1,0,0:0:0:1:
213,192,83338,1,0,0:0:0:1:
128,192,83647,1,0,0:0:0:1:
213,192,84000,1,0,0:0:0:1:
469,192,84000,1,0,0:0:0:1:
213,192,84352,1,0,0:0:0:1:
42,192,84705,1,0,0:0:0:1:
469,192,84705,128,0,84727:0:0:0:1:
298,192,85058,1,0,0:0:0:1:
128,192,85235,1,0,0:0:0:1:
298,192,85411,1,0,0:0:0:1:
469,192,85411,1,0,0:0:0:1:
128,192,85588,1,0,0:0:0:1:
213,192,85764,1,0,0:0:0:1:
384,192,85764,1,0,0:0:0:1:
469,192,86117,1,0,0:0:0:1:
42,192,86117,1,0,0:0:0:1:
384,192,86161,1,0,0:0:0:1:
298,192,86205,1,0,0:0:0:1:
384,192,86470,1,0,0:0:0:1:
298,192,86823,1,0,0:0:0:1:
469,192,86823,1,0,0:0:0:1:
298,192,87176,1,0,0:0:0:1:
128,192,87529,1,0,0:0:0:1:
469,192,87529,1,0,0:0:0:1:
213,192,87882,1,0,0:0:0:1:
384,192,88058,1,0,0:0:0:1:
469,192,88235,1,0,0:0:0:1:
213,192,88235,128,0,88257:0:0:0:1:
384,192,88411,1,0,0:0:0:1:
298,192,88588,1,0,0:0:0:1:
42,192,88588,1,0,0:0:0:1:
469,192,88941,1,0,0:0:0:1:
42,192,88941,1,0,0:0:0:1:
384,192,88985,1,0,0:0:0:1:
298,192,89029,1,0,0:0:0:1:
128,192,89294,1,0,0:0:0:1:
213,192,89647,1,0,0:0:0:1:
469,192,89647,1,0,0:0:0:1:
213,192,90000,1,0,0:0:0:1:
128,192,90352,1,0,0:0:0:1:
469,192,90352,128,0,90375:0:0:0:1:
298,192,90529,1,0,0:0:0:1:
128,192,90705,1,0,0:0:0:1:
298,192,90882,1,0,0:0:0:1:
128,192,91058,1,0,0:0:0:1:
469,192,91058,1,0,0:0:0:1:
298,192,91235,1,0,0:0:0:1:
213,192,91411,1,0,0:0:0:1:
384,192,91588,1,0,0:0:0:1:
469,192,91764,1,0,0:0:0:1:
42,192,91764,1,0,0:0:0:1:
128,192,91786,1,0,0:0:0:1:
213,192,91808,1,0,0:0:0:1:
128,192,92117,1,0,0:0:0:1:
213,192,92470,1,0,0:0:0:1:
213,192,92823,1,0,0:0:0:1:
384,192,93176,1,0,0:0:0:1:
42,192,93176,1,0,0:0:0:1:
128,192,93529,1,0,0:0:0:1:
298,192,93705,1,0,0:0:0:1:
128,192,93882,1,0,0:0:0:1:
298,192,94058,1,0,0:0:0:1:
128,192,94235,1,0,0:0:0:1:
384,192,94235,1,0,0:0:0:1:
469,192,94588,1,0,0:0:0:1:
42,192,94588,1,0,0:0:0:1:
128,192,94941,1,0,0:0:0:1:
213,192,95294,1,0,0:0:0:1:
213,192,95647,1,0,0:0:0:1:
384,192,96000,1,0,0:0:0:1:
42,192,96000,1,0,0:0:0:1:
298,192,96352,1,0,0:0:0:1:
128,192,96529,1,0,0:0:0:1:
298,192,96705,1,0,0:0:0:1:
128,192,96882,1,0,0:0:0:1:
213,192,97058,1,0,0:0:0:1:
384,192,97058,1,0,0:0:0:1:
469,192,97411,1,0,0:0:0:1:
42,192,97411,1,0,0:0:0:1:
384,192,97764,1,0,0:0:0:1:
298,192,98117,1,0,0:0:0:1:
298,192,98470,1,0,0:0:0:1:
128,192,98823,1,0,0:0:0:1:
469,192,98823,1,0,0:0:0:1:
213,192,99176,1,0,0:0:0:1:
384,192,99352,1,0,0:0:0:1:
213,192,99529,1,0,0:0:0:1:
384,192,99705,1,0,0:0:0:1:
298,192,99882,1,0,0:0:0:1:
42,192,99882,1,0,0:0:0:1:
469,192,100235,1,0,0:0:0:1:
42,192,100235,1,0,0:0:0:1:
128,192,100588,1,0,0:0:0:1:
213,192,100941,1,0,0:0:0:1:
213,192,101294,1,0,0:0:0:1:
128,192,101647,1,0,0:0:0:1:
298,192,101823,1,0,0:0:0:1:
128,192,102000,1,0,0:0:0:1:
298,192,102176,1,0,0:0:0:1:
128,192,102352,1,0,0:0:0:1:
298,192,102529,1,0,0:0:0:1:
213,192,102705,1,0,0:0:0:1:
42,192,102705,1,0,0:0:0:1:
384,192,102882,1,0,0:0:0:1:
213,192,103058,1,0,0:0:0:1:
469,192,103058,1,0,0:0:0:1:
42,192,103058,1,0,0:0:0:1:
128,192,103411,1,0,0:0:0:1:
469,192,103411,1,0,0:0:0:1:
213,192,103764,1,0,0:0:0:1:
384,192,103764,1,0,0:0:0:1:
384,192,103941,1,0,0:0:0:1:
213,192,104117,1,0,0:0:0:1:
298,192,104117,1,0,0:0:0:1:
384,192,104470,1,0,0:0:0:1:
469,192,104470,1,0,0:0:0:1:
42,192,104470,1,0,0:0:0:1:
128,192,104823,1,0,0:0:0:1:
469,192,104823,1,0,0:0:0:1:
298,192,105000,1,0,0:0:0:1:
469,192,105000,1,0,0:0:0:1:
128,192,105176,1,0,0:0:0:1:
384,192,105176,1,0,0:0:0:1:
298,192,105352,1,0,0:0:0:1:
469,192,105352,1,0,0:0:0:1:
128,192,105529,1,0,0:0:0:1:
298,192,105529,1,0,0:0:0:1:
213,192,105882,1,0,0:0:0:1:
469,192,105882,1,0,0:0:0:1:
42,192,105882,1,0,0:0:0:1:
128,192,106235,1,0,0:0:0:1:
469,192,106235,1,0,0:0:0:1:
213,192,106588,1,0,0:0:0:1:
42,192,106588,1,0,0:0:0:1:
42,192,106764,1,0,0:0:0:1:
213,192,106941,1,0,0:0:0:1:
384,192,106941,1,0,0:0:0:1:
213,192,107294,1,0,0:0:0:1:
384,192,107294,1,0,0:0:0:1:
42,192,107294,1,0,0:0:0:1:
298,192,107647,1,0,0:0:0:1:
42,192,107647,1,0,0:0:0:1:
128,192,107823,1,0,0:0:0:1:
469,192,107823,1,0,0:0:0:1:
298,192,108000,1,0,0:0:0:1:
469,192,108000,1,0,0:0:0:1:
128,192,108176,1,0,0:0:0:1:
42,192,108176,1,0,0:0:0:1:
213,192,108352,1,0,0:0:0:1:
384,192,108352,1,0,0:0:0:1:
298,192,108705,1,0,0:0:0:1:
469,192,108705,1,0,0:0:0:1:
42,192,108705,1,0,0:0:0:1:
128,192,109058,1,0,0:0:0:1:
384,192,109058,1,0,0:0:0:1:
298,192,109411,1,0,0:0:0:1:
42,192,109411,1,0,0:0:0:1:
42,192,109588,1,0,0:0:0:1:
128,192,109764,1,0,0:0:0:1:
298,192,109764,1,0,0:0:0:1:
128,192,110117,1,0,0:0:0:1:
213,192,110117,1,0,0:0:0:1:
469,192,110117,1,0,0:0:0:1:
213,192,110470,1,0,0:0:0:1:
42,192,110470,1,0,0:0:0:1:
128,192,110647,1,0,0:0:0:1:
384,192,110647,1,0,0:0:0:1:
213,192,110823,1,0,0:0:0:1:
42,192,110823,1,0,0:0:0:1:
213,192,111000,1,0,0:0:0:1:
384,192,111000,1,0,0:0:0:1:
298,192,111176,1,0,0:0:0:1:
42,192,111176,1,0,0:0:0:1:
469,192,111529,1,0,0:0:0:1:
42,192,111529,1,0,0:0:0:1:
384,192,111529,128,0,114352:0:0:0:1:
128,192,111882,1,0,0:0:0:1:
469,192,111882,1,0,0:0:0:1:
213,192,112235,1,0,0:0:0:1:
469,192,112235,1,0,0:0:0:1:
298,192,112411,1,0,0:0:0:1:
213,192,112588,1,0,0:0:0:1:
469,192,112588,1,0,0:0:0:1:
128,192,112941,1,0,0:0:0:1:
469,192,112941,1,0,0:0:0:1:
298,192,113117,1,0,0:0:0:1:
128,192,113294,1,0,0:0:0:1:
469,192,113294,1,0,0:0:0:1:
298,192,113470,1,0,0:0:0:1:
42,192,113470,1,0,0:0:0:1:
128,192,113647,1,0,0:0:0:1:
469,192,113647,1,0,0:0:0:1:
128,192,113823,1,0,0:0:0:1:
298,192,113823,1,0,0:0:0:1:
213,192,114000,1,0,0:0:0:1:
469,192,114000,1,0,0:0:0:1:
298,192,114176,1,0,0:0:0:1:
42,192,114176,1,0,0:0:0:1:
213,192,114352,1,0,0:0:0:1:
469,192,114352,1,0,0:0:0:1:
42,192,114352,1,0,0:0:0:1:
128,192,114441,1,0,0:0:0:1:
298,192,114441,1,0,0:0:0:1:
213,192,114529,1,0,0:0:0:1:
384,192,114529,1,0,0:0:0:1:
128,192,114617,1,0,0:0:0:1:
298,192,114617,1,0,0:0:0:1:
213,192,114705,1,0,0:0:0:1:
469,192,114705,1,0,0:0:0:1:
42,192,114705,1,0,0:0:0:1:
384,192,114794,1,0,0:0:0:1:
128,192,114882,1,0,0:0:0:1:
298,192,114882,1,0,0:0:0:1:
213,192,114970,1,0,0:0:0:1:
469,192,114970,1,0,0:0:0:1:
128,192,115058,1,0,0:0:0:1:
298,192,115058,1,0,0:0:0:1:
384,192,115147,1,0,0:0:0:1:
42,192,115147,1,0,0:0:0:1:
128,192,115235,1,0,0:0:0:1:
298,192,115235,1,0,0:0:0:1:
213,192,115323,1,0,0:0:0:1:
384,192,115411,1,0,0:0:0:1:
469,192,115411,1,0,0:0:0:1:
42,192,115411,1,0,0:0:0:1:
298,192,115500,1,0,0:0:0:1:
213,192,115588,1,0,0:0:0:1:
384,192,115588,1,0,0:0:0:1:
298,192,115676,1,0,0:0:0:1:
469,192,115676,1,0,0:0:0:1:
213,192,115764,1,0,0:0:0:1:
384,192,115764,1,0,0:0:0:1:
128,192,115852,1,0,0:0:0:1:
469,192,115852,1,0,0:0:0:1:
298,192,115941,1,0,0:0:0:1:
42,192,115941,1,0,0:0:0:1:
128,192,116029,1,0,0:0:0:1:
384,192,116029,1,0,0:0:0:1:
213,192,116117,1,0,0:0:0:1:
469,192,116117,1,0,0:0:0:1:
42,192,116117,1,0,0:0:0:1:
298,192,116205,1,0,0:0:0:1:
213,192,116294,1,0,0:0:0:1:
384,192,116294,1,0,0:0:0:1:
128,192,116382,1,0,0:0:0:1:
298,192,116382,1,0,0:0:0:1:
213,192,116470,1,0,0:0:0:1:
384,192,116470,1,0,0:0:0:1:
298,192,116558,1,0,0:0:0:1:
42,192,116558,1,0,0:0:0:1:
213,192,116647,1,0,0:0:0:1:
384,192,116647,1,0,0:0:0:1:
128,192,116735,1,0,0:0:0:1:
298,192,116823,1,0,0:0:0:1:
469,192,116823,1,0,0:0:0:1:
42,192,116823,1,0,0:0:0:1:
213,192,116911,1,0,0:0:0:1:
128,192,117000,1,0,0:0:0:1:
384,192,117000,1,0,0:0:0:1:
298,192,117088,1,0,0:0:0:1:
128,192,117176,1,0,0:0:0:1:
384,192,117176,1,0,0:0:0:1:
213,192,117264,1,0,0:0:0:1:
469,192,117264,1,0,0:0:0:1:
298,192,117352,1,0,0:0:0:1:
42,192,117352,1,0,0:0:0:1:
213,192,117441,1,0,0:0:0:1:
469,192,117441,1,0,0:0:0:1:
128,192,117529,1,0,0:0:0:1:
384,192,117529,1,0,0:0:0:1:
42,192,117529,1,0,0:0:0:1:
298,192,117617,1,0,0:0:0:1:
213,192,117705,1,0,0:0:0:1:
42,192,117705,1,0,0:0:0:1:
128,192,117794,1,0,0:0:0:1:
384,192,117794,1,0,0:0:0:1:
213,192,117882,1,0,0:0:0:1:
42,192,117882,1,0,0:0:0:1:
128,192,117970,1,0,0:0:0:1:
298,192,117970,1,0,0:0:0:1:
213,192,118058,1,0,0:0:0:1:
42,192,118058,1,0,0:0:0:1:
384,192,118147,1,0,0:0:0:1:
128,192,118235,1,0,0:0:0:1:
298,192,118235,1,0,0:0:0:1:
469,192,118235,1,0,0:0:0:1:
213,192,118323,1,0,0:0:0:1:
298,192,118411,1,0,0:0:0:1:
42,192,118411,1,0,0:0:0:1:
213,192,118500,1,0,0:0:0:1:
298,192,118588,1,0,0:0:0:1:
469,192,118588,1,0,0:0:0:1:
128,192,118676,1,0,0:0:0:1:
384,192,118676,1,0,0:0:0:1:
298,192,118764,1,0,0:0:0:1:
469,192,118764,1,0,0:0:0:1:
384,192,118852,1,0,0:0:0:1:
42,192,118852,1,0,0:0:0:1:
128,192,118941,1,0,0:0:0:1:
213,192,118941,1,0,0:0:0:1:
469,192,118941,1,0,0:0:0:1:
298,192,119029,1,0,0:0:0:1:
128,192,119117,1,0,0:0:0:1:
42,192,119117,1,0,0:0:0:1:
213,192,119205,1,0,0:0:0:1:
384,192,119205,1,0,0:0:0:1:
128,192,119294,1,0,0:0:0:1:
42,192,119294,1,0,0:0:0:1:
213,192,119382,1,0,0:0:0:1:
469,192,119382,1,0,0:0:0:1:
128,192,119470,1,0,0:0:0:1:
42,192,119470,1,0,0:0:0:1:
298,192,119558,1,0,0:0:0:1:
128,192,119647,1,0,0:0:0:1:
384,192,119647,1,0,0:0:0:1:
469,192,119647,1,0,0:0:0:1:
213,192,119735,1,0,0:0:0:1:
298,192,119823,1,0,0:0:0:1:
42,192,119823,1,0,0:0:0:1:
128,192,119911,1,0,0:0:0:1:
384,192,119911,1,0,0:0:0:1:
298,192,120000,1,0,0:0:0:1:
42,192,120000,1,0,0:0:0:1:
213,192,120088,1,0,0:0:0:1:
384,192,120088,1,0,0:0:0:1:
128,192,120176,1,0,0:0:0:1:
298,192,120176,1,0,0:0:0:1:
213,192,120264,1,0,0:0:0:1:
384,192,120264,1,0,0:0:0:1:
298,192,120352,1,0,0:0:0:1:
469,192,120352,1,0,0:0:0:1:
42,192,120352,1,0,0:0:0:1:
128,192,120441,1,0,0:0:0:1:
213,192,120529,1,0,0:0:0:1:
384,192,120529,1,0,0:0:0:1:
298,192,120617,1,0,0:0:0:1:
42,192,120617,1,0,0:0:0:1:
213,192,120705,1,0,0:0:0:1:
384,192,120705,1,0,0:0:0:1:
128,192,120794,1,0,0:0:0:1:
469,192,120794,1,0,0:0:0:1:
213,192,120882,1,0,0:0:0:1:
384,192,120882,1,0,0:0:0:1:
298,192,120970,1,0,0:0:0:1:
128,192,121058,1,0,0:0:0:1:
469,192,121058,1,0,0:0:0:1:
42,192,121058,1,0,0:0:0:1:
213,192,121147,1,0,0:0:0:1:
128,192,121235,1,0,0:0:0:1:
298,192,121235,1,0,0:0:0:1:
213,192,121323,1,0,0:0:0:1:
42,192,121323,1,0,0:0:0:1:
128,192,121411,1,0,0:0:0:1:
298,192,121411,1,0,0:0:0:1:
384,192,121500,1,0,0:0:0:1:
42,192,121500,1,0,0:0:0:1:
213,192,121588,1,0,0:0:0:1:
469,192,121588,1,0,0:0:0:1:
128,192,121676,1,0,0:0:0:1:
384,192,121676,1,0,0:0:0:1:
298,192,121764,1,0,0:0:0:1:
469,192,121764,1,0,0:0:0:1:
42,192,121764,1,0,0:0:0:1:
213,192,121852,1,0,0:0:0:1:
128,192,121941,1,0,0:0:0:1:
298,192,121941,1,0,0:0:0:1:
213,192,122029,1,0,0:0:0:1:
384,192,122029,1,0,0:0:0:1:
128,192,122117,1,0,0:0:0:1:
298,192,122117,1,0,0:0:0:1:
213,192,122205,1,0,0:0:0:1:
469,192,122205,1,0,0:0:0:1:
128,192,122294,1,0,0:0:0:1:
298,192,122294,1,0,0:0:0:1:
384,192,122382,1,0,0:0:0:1:
213,192,122470,1,0,0:0:0:1:
469,192,122470,1,0,0:0:0:1:
42,192,122470,1,0,0:0:0:1:
298,192,122558,1,0,0:0:0:1:
128,192,122647,1,0,0:0:0:1:
384,192,122647,1,0,0:0:0:1:
213,192,122735,1,0,0:0:0:1:
128,192,122823,1,0,0:0:0:1:
384,192,122823,1,0,0:0:0:1:
298,192,122911,1,0,0:0:0:1:
42,192,122911,1,0,0:0:0:1:
213,192,123000,1,0,0:0:0:1:
469,192,123000,1,0,0:0:0:1:
298,192,123088,1,0,0:0:0:1:
42,192,123088,1,0,0:0:0:1:
128,192,123176,1,0,0:0:0:1:
384,192,123176,1,0,0:0:0:1:
469,192,123176,1,0,0:0:0:1:
213,192,123264,1,0,0:0:0:1:
298,192,123352,1,0,0:0:0:1:
469,192,123352,1,0,0:0:0:1:
128,192,123441,1,0,0:0:0:1:
384,192,123441,1,0,0:0:0:1:
298,192,123529,1,0,0:0:0:1:
469,192,123529,1,0,0:0:0:1:
213,192,123617,1,0,0:0:0:1:
384,192,123617,1,0,0:0:0:1:
298,192,123705,1,0,0:0:0:1:
469,192,123705,1,0,0:0:0:1:
128,192,123794,1,0,0:0:0:1:
213,192,123882,1,0,0:0:0:1:
384,192,123882,1,0,0:0:0:1:
42,192,123882,1,0,0:0:0:1:
298,192,123970,1,0,0:0:0:1:
213,192,124058,1,0,0:0:0:1:
469,192,124058,1,0,0:0:0:1:
298,192,124147,1,0,0:0:0:1:
213,192,124235,1,0,0:0:0:1:
42,192,124235,1,0,0:0:0:1:
128,192,124323,1,0,0:0:0:1:
384,192,124323,1,0,0:0:0:1:
213,192,124411,1,0,0:0:0:1:
42,192,124411,1,0,0:0:0:1:
128,192,124500,1,0,0:0:0:1:
469,192,124500,1,0,0:0:0:1:
298,192,124588,1,0,0:0:0:1:
384,192,124588,1,0,0:0:0:1:
42,192,124588,1,0,0:0:0:1:
213,192,124676,1,0,0:0:0:1:
384,192,124764,1,0,0:0:0:1:
469,192,124764,1,0,0:0:0:1:
128,192,124852,1,0,0:0:0:1:
298,192,124852,1,0,0:0:0:1:
384,192,124941,1,0,0:0:0:1:
469,192,124941,1,0,0:0:0:1:
298,192,125029,1,0,0:0:0:1:
42,192,125029,1,0,0:0:0:1:
384,192,125117,1,0,0:0:0:1:
469,192,125117,1,0,0:0:0:1:
213,192,125205,1,0,0:0:0:1:
128,192,125294,1,0,0:0:0:1:
384,192,125294,1,0,0:0:0:1:
42,192,125294,1,0,0:0:0:1:
298,192,125382,1,0,0:0:0:1:
213,192,125470,1,0,0:0:0:1:
469,192,125470,1,0,0:0:0:1:
128,192,125558,1,0,0:0:0:1:
384,192,125558,1,0,0:0:0:1:
213,192,125647,1,0,0:0:0:1:
42,192,125647,1,0,0:0:0:1:
128,192,125735,1,0,0:0:0:1:
298,192,125735,1,0,0:0:0:1:
213,192,125823,1,0,0:0:0:1:
384,192,125823,1,0,0:0:0:1:
128,192,125911,1,0,0:0:0:1:
298,192,125911,1,0,0:0:0:1:
213,192,126000,1,0,0:0:0:1:
469,192,126000,1,0,0:0:0:1:
42,192,126000,1,0,0:0:0:1:
384,192,126088,1,0,0:0:0:1:
128,192,126176,1,0,0:0:0:1:
298,192,126176,1,0,0:0:0:1:
213,192,126264,1,0,0:0:0:1:
469,192,126264,1,0,0:0:0:1:
128,192,126352,1,0,0:0:0:1:
298,192,126352,1,0,0:0:0:1:
384,192,126441,1,0,0:0:0:1:
42,192,126441,1,0,0:0:0:1:
128,192,126529,1,0,0:0:0:1:
298,192,126529,1,0,0:0:0:1:
213,192,126617,1,0,0:0:0:1:
384,192,126705,1,0,0:0:0:1:
469,192,126705,1,0,0:0:0:1:
42,192,126705,1,0,0:0:0:1:
298,192,126794,1,0,0:0:0:1:
213,192,126882,1,0,0:0:0:1:
384,192,126882,1,0,0:0:0:1:
298,192,126970,1,0,0:0:0:1:
469,192,126970,1,0,0:0:0:1:
213,192,127058,1,0,0:0:0:1:
384,192,127058,1,0,0:0:0:1:
128,192,127147,1,0,0:0:0:1:
469,192,127147,1,0,0:0:0:1:
298,192,127235,1,0,0:0:0:1:
42,192,127235,1,0,0:0:0:1:
128,192,127323,1,0,0:0:0:1:
384,192,127323,1,0,0:0:0:1:
213,192,127411,1,0,0:0:0:1:
469,192,127411,1,0,0:0:0:1:
42,192,127411,1,0,0:0:0:1:
298,192,127500,1,0,0:0:0:1:
213,192,127588,1,0,0:0:0:1:
384,192,127588,1,0,0:0:0:1:
128,192,127676,1,0,0:0:0:1:
298,192,127676,1,0,0:0:0:1:
213,192,127764,1,0,0:0:0:1:
384,192,127764,1,0,0:0:0:1:
298,192,127852,1,0,0:0:0:1:
42,192,127852,1,0,0:0:0:1:
213,192,127941,1,0,0:0:0:1:
384,192,127941,1,0,0:0:0:1:
128,192,128029,1,0,0:0:0:1:
298,192,128117,1,0,0:0:0:1:
469,192,128117,1,0,0:0:0:1:
42,192,128117,1,0,0:0:0:1:
213,192,128205,1,0,0:0:0:1:
128,192,128294,1,0,0:0:0:1:
384,192,128294,1,0,0:0:0:1:
298,192,128382,1,0,0:0:0:1:
128,192,128470,1,0,0:0:0:1:
384,192,128470,1,0,0:0:0:1:
213,192,128558,1,0,0:0:0:1:
469,192,128558,1,0,0:0:0:1:
298,192,128647,1,0,0:0:0:1:
42,192,128647,1,0,0:0:0:1:
213,192,128735,1,0,0:0:0:1:
469,192,128735,1,0,0:0:0:1:
128,192,128823,1,0,0:0:0:1:
384,192,128823,1,0,0:0:0:1:
42,192,128823,1,0,0:0:0:1:
298,192,128911,1,0,0:0:0:1:
213,192,129000,1,0,0:0:0:1:
42,192,129000,1,0,0:0:0:1:
128,192,129088,1,0,0:0:0:1:
384,192,129088,1,0,0:0:0:1:
213,192,129176,1,0,0:0:0:1:
42,192,129176,1,0,0:0:0:1:
128,192,129264,1,0,0:0:0:1:
298,192,129264,1,0,0:0:0:1:
213,192,129352,1,0,0:0:0:1:
42,192,129352,1,0,0:0:0:1:
384,192,129441,1,0,0:0:0:1:
128,192,129529,1,0,0:0:0:1:
298,192,129529,1,0,0:0:0:1:
469,192,129529,1,0,0:0:0:1:
213,192,129617,1,0,0:0:0:1:
298,192,129705,1,0,0:0:0:1:
42,192,129705,1,0,0:0:0:1:
213,192,129794,1,0,0:0:0:1:
298,192,129882,1,0,0:0:0:1:
469,192,129882,1,0,0:0:0:1:
128,192,129970,1,0,0:0:0:1:
384,192,129970,1,0,0:0:0:1:
298,192,130058,1,0,0:0:0:1:
469,192,130058,1,0,0:0:0:1:
384,192,130147,1,0,0:0:0:1:
42,192,130147,1,0,0:0:0:1:
128,192,130235,1,0,0:0:0:1:
213,192,130235,1,0,0:0:0:1:
469,192,130235,1,0,0:0:0:1:
298,192,130323,1,0,0:0:0:1:
128,192,130411,1,0,0:0:0:1:
42,192,130411,1,0,0:0:0:1:
213,192,130500,1,0,0:0:0:1:
384,192,130500,1,0,0:0:0:1:
128,192,130588,1,0,0:0:0:1:
42,192,130588,1,0,0:0:0:1:
213,192,130676,1,0,0:0:0:1:
469,192,130676,1,0,0:0:0:1:
128,192,130764,1,0,0:0:0:1:
42,192,130764,1,0,0:0:0:1:
298,192,130852,1,0,0:0:0:1:
128,192,130941,1,0,0:0:0:1:
384,192,130941,1,0,0:0:0:1:
469,192,130941,1,0,0:0:0:1:
213,192,131029,1,0,0:0:0:1:
298,192,131117,1,0,0:0:0:1:
42,192,131117,1,0,0:0:0:1:
128,192,131205,1,0,0:0:0:1:
384,192,131205,1,0,0:0:0:1:
298,192,131294,1,0,0:0:0:1:
42,192,131294,1,0,0:0:0:1:
213,192,131382,1,0,0:0:0:1:
384,192,131382,1,0,0:0:0:1:
128,192,131470,1,0,0:0:0:1:
298,192,131470,1,0,0:0:0:1:
213,192,131558,1,0,0:0:0:1:
384,192,131558,1,0,0:0:0:1:
298,192,131647,1,0,0:0:0:1:
469,192,131647,1,0,0:0:0:1:
42,192,131647,1,0,0:0:0:1:
128,192,131735,1,0,0:0:0:1:
213,192,131823,1,0,0:0:0:1:
384,192,131823,1,0,0:0:0:1:
298,192,131911,1,0,0:0:0:1:
42,192,131911,1,0,0:0:0:1:
213,192,132000,1,0,0:0:0:1:
384,192,132000,1,0,0:0:0:1:
128,192,132088,1,0,0:0:0:1:
469,192,132088,1,0,0:0:0:1:
213,192,132176,1,0,0:0:0:1:
384,192,132176,1,0,0:0:0:1:
298,192,132264,1,0,0:0:0:1:
128,192,132352,1,0,0:0:0:1:
469,192,132352,1,0,0:0:0:1:
42,192,132352,1,0,0:0:0:1:
213,192,132441,1,0,0:0:0:1:
128,192,132529,1,0,0:0:0:1:
298,192,132529,1,0,0:0:0:1:
213,192,132617,1,0,0:0:0:1:
42,192,132617,1,0,0:0:0:1:
128,192,132705,1,0,0:0:0:1:
298,192,132705,1,0,0:0:0:1:
384,192,132794,1,0,0:0:0:1:
42,192,132794,1,0,0:0:0:1:
213,192,132882,1,0,0:0:0:1:
469,192,132882,1,0,0:0:0:1:
128,192,132970,1,0,0:0:0:1:
384,192,132970,1,0,0:0:0:1:
298,192,133058,1,0,0:0:0:1:
469,192,133058,1,0,0:0:0:1:
42,192,133058,1,0,0:0:0:1:
213,192,133147,1,0,0:0:0:1:
128,192,133235,1,0,0:0:0:1:
298,192,133235,1,0,0:0:0:1:
213,192,133323,1,0,0:0:0:1:
384,192,133323,1,0,0:0:0:1:
128,192,133411,1,0,0:0:0:1:
298,192,133411,1,0,0:0:0:1:
213,192,133500,1,0,0:0:0:1:
469,192,133500,1,0,0:0:0:1:
128,192,133588,1,0,0:0:0:1:
298,192,133588,1,0,0:0:0:1:
384,192,133676,1,0,0:0:0:1:
213,192,133764,1,0,0:0:0:1:
469,192,133764,1,0,0:0:0:1:
42,192,133764,1,0,0:0:0:1:
298,192,133852,1,0,0:0:0:1:
128,192,133941,1,0,0:0:0:1:
384,192,133941,1,0,0:0:0:1:
213,192,134029,1,0,0:0:0:1:
128,192,134117,1,0,0:0:0:1:
384,192,134117,1,0,0:0:0:1:
298,192,134205,1,0,0:0:0:1:
42,192,134205,1,0,0:0:0:1:
213,192,134294,1,0,0:0:0:1:
469,192,134294,1,0,0:0:0:1:
298,192,134382,1,0,0:0:0:1:
42,192,134382,1,0,0:0:0:1:
128,192,134470,1,0,0:0:0:1:
384,192,134470,1,0,0:0:0:1:
469,192,134470,1,0,0:0:0:1:
213,192,134558,1,0,0:0:0:1:
298,192,134647,1,0,0:0:0:1:
469,192,134647,1,0,0:0:0:1:
128,192,134735,1,0,0:0:0:1:
384,192,134735,1,0,0:0:0:1:
298,192,134823,1,0,0:0:0:1:
469,192,134823,1,0,0:0:0:1:
213,192,134911,1,0,0:0:0:1:
384,192,134911,1,0,0:0:0:1:
298,192,135000,1,0,0:0:0:1:
469,192,135000,1,0,0:0:0:1:
128,192,135088,1,0,0:0:0:1:
213,192,135176,1,0,0:0:0:1:
384,192,135176,1,0,0:0:0:1:
42,192,135176,1,0,0:0:0:1:
298,192,135264,1,0,0:0:0:1:
213,192,135352,1,0,0:0:0:1:
469,192,135352,1,0,0:0:0:1:
298,192,135441,1,0,0:0:0:1:
213,192,135529,1,0,0:0:0:1:
42,192,135529,1,0,0:0:0:1:
128,192,135617,1,0,0:0:0:1:
384,192,135617,1,0,0:0:0:1:
213,192,135705,1,0,0:0:0:1:
42,192,135705,1,0,0:0:0:1:
128,192,135794,1,0,0:0:0:1:
469,192,135794,1,0,0:0:0:1:
298,192,135882,1,0,0:0:0:1:
384,192,135882,1,0,0:0:0:1:
42,192,135882,1,0,0:0:0:1:
213,192,135970,1,0,0:0:0:1:
384,192,136058,1,0,0:0:0:1:
469,192,136058,1,0,0:0:0:1:
128,192,136147,1,0,0:0:0:1:
298,192,136147,1,0,0:0:0:1:
384,192,136235,1,0,0:0:0:1:
469,192,136235,1,0,0:0:0:1:
298,192,136323,1,0,0:0:0:1:
42,192,136323,1,0,0:0:0:1:
384,192,136411,1,0,0:0:0:1:
469,192,136411,1,0,0:0:0:1:
213,192,136500,1,0,0:0:0:1:
128,192,136588,1,0,0:0:0:1:
384,192,136588,1,0,0:0:0:1:
42,192,136588,1,0,0:0:0:1:
298,192,136676,1,0,0:0:0:1:
213,192,136764,1,0,0:0:0:1:
469,192,136764,1,0,0:0:0:1:
128,192,136852,1,0,0:0:0:1:
384,192,136852,1,0,0:0:0:1:
213,192,136941,1,0,0:0:0:1:
42,192,136941,1,0,0:0:0:1:
128,192,137029,1,0,0:0:0:1:
298,192,137029,1,0,0:0:0:1:
213,192,137117,1,0,0:0:0:1:
384,192,137117,1,0,0:0:0:1:
128,192,137205,1,0,0:0:0:1:
298,192,137205,1,0,0:0:0:1:
213,192,137294,1,0,0:0:0:1:
469,192,137294,1,0,0:0:0:1:
42,192,137294,1,0,0:0:0:1:
384,192,137382,1,0,0:0:0:1:
128,192,137470,1,0,0:0:0:1:
298,192,137470,1,0,0:0:0:1:
213,192,137558,1,0,0:0:0:1:
469,192,137558,1,0,0:0:0:1:
128,192,137647,1,0,0:0:0:1:
298,192,137647,1,0,0:0:0:1:
384,192,137735,1,0,0:0:0:1:
42,192,137735,1,0,0:0:0:1:
128,192,137823,1,0,0:0:0:1:
298,192,137823,1,0,0:0:0:1:
213,192,137911,1,0,0:0:0:1:
384,192,138000,1,0,0:0:0:1:
469,192,138000,1,0,0:0:0:1:
42,192,138000,1,0,0:0:0:1:
298,192,138088,1,0,0:0:0:1:
213,192,138176,1,0,0:0:0:1:
384,192,138176,1,0,0:0:0:1:
298,192,138264,1,0,0:0:0:1:
469,192,138264,1,0,0:0:0:1:
213,192,138352,1,0,0:0:0:1:
384,192,138352,1,0,0:0:0:1:
128,192,138441,1,0,0:0:0:1:
469,192,138441,1,0,0:0:0:1:
298,192,138529,1,0,0:0:0:1:
42,192,138529,1,0,0:0:0:1:
128,192,138617,1,0,0:0:0:1:
384,192,138617,1,0,0:0:0:1:
213,192,138705,1,0,0:0:0:1:
469,192,138705,1,0,0:0:0:1:
42,192,138705,1,0,0:0:0:1:
298,192,138794,1,0,0:0:0:1:
213,192,138882,1,0,0:0:0:1:
384,192,138882,1,0,0:0:0:1:
128,192,138970,1,0,0:0:0:1:
298,192,138970,1,0,0:0:0:1:
213,192,139058,1,0,0:0:0:1:
384,192,139058,1,0,0:0:0:1:
298,192,139147,1,0,0:0:0:1:
42,192,139147,1,0,0:0:0:1:
213,192,139235,1,0,0:0:0:1:
384,192,139235,1,0,0:0:0:1:
128,192,139323,1,0,0:0:0:1:
298,192,139411,1,0,0:0:0:1:
469,192,139411,1,0,0:0:0:1:
42,192,139411,1,0,0:0:0:1:
213,192,139500,1,0,0:0:0:1:
128,192,139588,1,0,0:0:0:1:
384,192,139588,1,0,0:0:0:1:
298,192,139676,1,0,0:0:0:1:
128,192,139764,1,0,0:0:0:1:
384,192,139764,1,0,0:0:0:1:
213,192,139852,1,0,0:0:0:1:
469,192,139852,1,0,0:0:0:1:
298,192,139941,1,0,0:0:0:1:
42,192,139941,1,0,0:0:0:1:
213,192,140029,1,0,0:0:0:1:
469,192,140029,1,0,0:0:0:1:
128,192,140117,1,0,0:0:0:1:
384,192,140117,1,0,0:0:0:1:
42,192,140117,1,0,0:0:0:1:
298,192,140205,1,0,0:0:0:1:
213,192,140294,1,0,0:0:0:1:
42,192,140294,1,0,0:0:0:1:
128,192,140382,1,0,0:0:0:1:
384,192,140382,1,0,0:0:0:1:
213,192,140470,1,0,0:0:0:1:
42,192,140470,1,0,0:0:0:1:
128,192,140558,1,0,0:0:0:1:
298,192,140558,1,0,0:0:0:1:
213,192,140647,1,0,0:0:0:1:
42,192,140647,1,0,0:0:0:1:
384,192,140735,1,0,0:0:0:1:
128,192,140823,1,0,0:0:0:1:
298,192,140823,1,0,0:0:0:1:
469,192,140823,1,0,0:0:0:1:
213,192,140911,1,0,0:0:0:1:
298,192,141000,1,0,0:0:0:1:
42,192,141000,1,0,0:0:0:1:
213,192,141088,1,0,0:0:0:1:
298,192,141176,1,0,0:0:0:1:
469,192,141176,1,0,0:0:0:1:
128,192,141264,1,0,0:0:0:1:
384,192,141264,1,0,0:0:0:1:
298,192,141352,1,0,0:0:0:1:
469,192,141352,1,0,0:0:0:1:
384,192,141441,1,0,0:0:0:1:
42,192,141441,1,0,0:0:0:1:
128,192,141529,1,0,0:0:0:1:
213,192,141529,1,0,0:0:0:1:
469,192,141529,1,0,0:0:0:1:
298,192,141617,1,0,0:0:0:1:
128,192,141705,1,0,0:0:0:1:
42,192,141705,1,0,0:0:0:1:
213,192,141794,1,0,0:0:0:1:
384,192,141794,1,0,0:0:0:1:
128,192,141882,1,0,0:0:0:1:
42,192,141882,1,0,0:0:0:1:
213,192,141970,1,0,0:0:0:1:
469,192,141970,1,0,0:0:0:1:
128,192,142058,1,0,0:0:0:1:
42,192,142058,1,0,0:0:0:1:
298,192,142147,1,0,0:0:0:1:
128,192,142235,1,0,0:0:0:1:
384,192,142235,1,0,0:0:0:1:
469,192,142235,1,0,0:0:0:1:
213,192,142323,1,0,0:0:0:1:
298,192,142411,1,0,0:0:0:1:
42,192,142411,1,0,0:0:0:1:
128,192,142500,1,0,0:0:0:1:
384,192,142500,1,0,0:0:0:1:
469,192,142588,1,0,0:0:0:1:
42,192,142588,1,0,0:0:0:1:
213,192,142676,1,0,0:0:0:1:
384,192,142676,1,0,0:0:0:1:
128,192,142764,1,0,0:0:0:1:
298,192,142764,1,0,0:0:0:1:
213,192,142852,1,0,0:0:0:1:
384,192,142852,1,0,0:0:0:1:
298,192,142941,1,0,0:0:0:1:
469,192,142941,1,0,0:0:0:1:
42,192,142941,1,0,0:0:0:1:
128,192,143029,1,0,0:0:0:1:
213,192,143117,1,0,0:0:0:1:
384,192,143117,1,0,0:0:0:1:
298,192,143205,1,0,0:0:0:1:
42,192,143205,1,0,0:0:0:1:
213,192,143294,1,0,0:0:0:1:
384,192,143294,1,0,0:0:0:1:
128,192,143382,1,0,0:0:0:1:
469,192,143382,1,0,0:0:0:1:
213,192,143470,1,0,0:0:0:1:
384,192,143470,1,0,0:0:0:1:
298,192,143558,1,0,0:0:0:1:
128,192,143647,1,0,0:0:0:1:
469,192,143647,1,0,0:0:0:1:
42,192,143647,1,0,0:0:0:1:
213,192,143735,1,0,0:0:0:1:
128,192,143823,1,0,0:0:0:1:
298,192,143823,1,0,0:0:0:1:
213,192,143911,1,0,0:0:0:1:
42,192,143911,1,0,0:0:0:1:
128,192,144000,1,0,0:0:0:1:
298,192,144000,1,0,0:0:0:1:
384,192,144088,1,0,0:0:0:1:
42,192,144088,1,0,0:0:0:1:
213,192,144176,1,0,0:0:0:1:
469,192,144176,1,0,0:0:0:1:
128,192,144264,1,0,0:0:0:1:
384,192,144264,1,0,0:0:0:1:
298,192,144352,1,0,0:0:0:1:
469,192,144352,1,0,0:0:0:1:
42,192,144352,1,0,0:0:0:1:
213,192,144441,1,0,0:0:0:1:
128,192,144529,1,0,0:0:0:1:
298,192,144529,1,0,0:0:0:1:
213,192,144617,1,0,0:0:0:1:
384,192,144617,1,0,0:0:0:1:
128,192,144705,1,0,0:0:0:1:
298,192,144705,1,0,0:0:0:1:
213,192,144794,1,0,0:0:0:1:
469,192,144794,1,0,0:0:0:1:
128,192,144882,1,0,0:0:0:1:
298,192,144882,1,0,0:0:0:1:
384,192,144970,1,0,0:0:0:1:
213,192,145058,1,0,0:0:0:1:
469,192,145058,1,0,0:0:0:1:
42,192,145058,1,0,0:0:0:1:
298,192,145147,1,0,0:0:0:1:
128,192,145235,1,0,0:0:0:1:
384,192,145235,1,0,0:0:0:1:
213,192,145323,1,0,0:0:0:1:
128,192,145411,1,0,0:0:0:1:
384,192,145411,1,0,0:0:0:1:
298,192,145500,1,0,0:0:0:1:
42,192,145500,1,0,0:0:0:1:
213,192,145588,1,0,0:0:0:1:
469,192,145588,1,0,0:0:0:1:
298,192,145676,1,0,0:0:0:1:
42,192,145676,1,0,0:0:0:1:
128,192,145764,1,0,0:0:0:1:
384,192,145764,1,0,0:0:0:1:
469,192,145764,1,0,0:0:0:1:
213,192,145852,1,0,0:0:0:1:
298,192,145941,1,0,0:0:0:1:
469,192,145941,1,0,0:0:0:1:
128,192,146029,1,0,0:0:0:1:
384,192,146029,1,0,0:0:0:1:
298,192,146117,1,0,0:0:0:1:
469,192,146117,1,0,0:0:0:1:
213,192,146205,1,0,0:0:0:1:
384,192,146205,1,0,0:0:0:1:
298,192,146294,1,0,0:0:0:1:
469,192,146294,1,0,0:0:0:1:
128,192,146382,1,0,0:0:0:1:
213,192,146470,1,0,0:0:0:1:
384,192,146470,1,0,0:0:0:1:
42,192,146470,1,0,0:0:0:1:
298,192,146558,1,0,0:0:0:1:
213,192,146647,1,0,0:0:0:1:
469,192,146647,1,0,0:0:0:1:
298,192,146735,1,0,0:0:0:1:
213,192,146823,1,0,0:0:0:1:
42,192,146823,1,0,0:0:0:1:
128,192,146911,1,0,0:0:0:1:
384,192,146911,1,0,0:0:0:1:
213,192,147000,1,0,0:0:0:1:
42,192,147000,1,0,0:0:0:1:
128,192,147088,1,0,0:0:0:1:
469,192,147088,1,0,0:0:0:1:
298,192,147176,1,0,0:0:0:1:
384,192,147176,1,0,0:0:0:1:
42,192,147176,1,0,0:0:0:1:
213,192,147264,1,0,0:0:0:1:
384,192,147352,1,0,0:0:0:1:
469,192,147352,1,0,0:0:0:1:
128,192,147441,1,0,0:0:0:1:
298,192,147441,1,0,0:0:0:1:
384,192,147529,1,0,0:0:0:1:
469,192,147529,1,0,0:0:0:1:
298,192,147617,1,0,0:0:0:1:
42,192,147617,1,0,0:0:0:1:
384,192,147705,1,0,0:0:0:1:
469,192,147705,1,0,0:0:0:1:
213,192,147794,1,0,0:0:0:1:
128,192,147882,1,0,0:0:0:1:
384,192,147882,1,0,0:0:0:1:
42,192,147882,1,0,0:0:0:1:
298,192,147970,1,0,0:0:0:1:
213,192,148058,1,0,0:0:0:1:
469,192,148058,1,0,0:0:0:1:
128,192,148147,1,0,0:0:0:1:
384,192,148147,1,0,0:0:0:1:
213,192,148235,1,0,0:0:0:1:
42,192,148235,1,0,0:0:0:1:
128,192,148323,1,0,0:0:0:1:
298,192,148323,1,0,0:0:0:1:
213,192,148411,1,0,0:0:0:1:
384,192,148411,1,0,0:0:0:1:
128,192,148500,1,0,0:0:0:1:
298,192,148500,1,0,0:0:0:1:
213,192,148588,1,0,0:0:0:1:
469,192,148588,1,0,0:0:0:1:
42,192,148588,1,0,0:0:0:1:
384,192,148676,1,0,0:0:0:1:
128,192,148764,1,0,0:0:0:1:
298,192,148764,1,0,0:0:0:1:
213,192,148852,1,0,0:0:0:1:
469,192,148852,1,0,0:0:0:1:
128,192,148941,1,0,0:0:0:1:
298,192,148941,1,0,0:0:0:1:
384,192,149029,1,0,0:0:0:1:
42,192,149029,1,0,0:0:0:1:
128,192,149117,1,0,0:0:0:1:
298,192,149117,1,0,0:0:0:1:
213,192,149205,1,0,0:0:0:1:
384,192,149294,1,0,0:0:0:1:
469,192,149294,1,0,0:0:0:1:
42,192,149294,1,0,0:0:0:1:
298,192,149382,1,0,0:0:0:1:
213,192,149470,1,0,0:0:0:1:
384,192,149470,1,0,0:0:0:1:
298,192,149558,1,0,0:0:0:1:
469,192,149558,1,0,0:0:0:1:
213,192,149647,1,0,0:0:0:1:
384,192,149647,1,0,0:0:0:1:
128,192,149735,1,0,0:0:0:1:
469,192,149735,1,0,0:0:0:1:
298,192,149823,1,0,0:0:0:1:
42,192,149823,1,0,0:0:0:1:
128,192,149911,1,0,0:0:0:1:
384,192,149911,1,0,0:0:0:1:
213,192,150000,1,0,0:0:0:1:
469,192,150000,1,0,0:0:0:1:
42,192,150000,1,0,0:0:0:1:
298,192,150088,1,0,0:0:0:1:
213,192,150176,1,0,0:0:0:1:
384,192,150176,1,0,0:0:0:1:
128,192,150264,1,0,0:0:0:1:
298,192,150264,1,0,0:0:0:1:
213,192,150352,1,0,0:0:0:1:
384,192,150352,1,0,0:0:0:1:
298,192,150441,1,0,0:0:0:1:
42,192,150441,1,0,0:0:0:1:
213,192,150529,1,0,0:0:0:1:
384,192,150529,1,0,0:0:0:1:
128,192,150617,1,0,0:0:0:1:
298,192,150705,1,0,0:0:0:1:
469,192,150705,1,0,0:0:0:1:
42,192,150705,1,0,0:0:0:1:
213,192,150794,1,0,0:0:0:1:
128,192,150882,1,0,0:0:0:1:
384,192,150882,1,0,0:0:0:1:
298,192,150970,1,0,0:0:0:1:
128,192,151058,1,0,0:0:0:1:
384,192,151058,1,0,0:0:0:1:
213,192,151147,1,0,0:0:0:1:
469,192,151147,1,0,0:0:0:1:
298,192,151235,1,0,0:0:0:1:
42,192,151235,1,0,0:0:0:1:
213,192,151323,1,0,0:0:0:1:
469,192,151323,1,0,0:0:0:1:
128,192,151411,1,0,0:0:0:1:
384,192,151411,1,0,0:0:0:1:
42,192,151411,1,0,0:0:0:1:
298,192,151500,1,0,0:0:0:1:
213,192,151588,1,0,0:0:0:1:
42,192,151588,1,0,0:0:0:1:
128,192,151676,1,0,0:0:0:1:
384,192,151676,1,0,0:0:0:1:
213,192,151764,1,0,0:0:0:1:
42,192,151764,1,0,0:0:0:1:
128,192,151852,1,0,0:0:0:1:
298,192,151852,1,0,0:0:0:1:
213,192,151941,1,0,0:0:0:1:
42,192,151941,1,0,0:0:0:1:
384,192,152029,1,0,0:0:0:1:
128,192,152117,1,0,0:0:0:1:
298,192,152117,1,0,0:0:0:1:
469,192,152117,1,0,0:0:0:1:
213,192,152205,1,0,0:0:0:1:
298,192,152294,1,0,0:0:0:1:
42,192,152294,1,0,0:0:0:1:
213,192,152382,1,0,0:0:0:1:
298,192,152470,1,0,0:0:0:1:
469,192,152470,1,0,0:0:0:1:
128,192,152558,1,0,0:0:0:1:
384,192,152558,1,0,0:0:0:1:
298,192,152647,1,0,0:0:0:1:
469,192,152647,1,0,0:0:0:1:
384,192,152735,1,0,0:0:0:1:
42,192,152735,1,0,0:0:0:1:
128,192,152823,1,0,0:0:0:1:
213,192,152823,1,0,0:0:0:1:
469,192,152823,1,0,0:0:0:1:
298,192,152911,1,0,0:0:0:1:
128,192,153000,1,0,0:0:0:1:
42,192,153000,1,0,0:0:0:1:
213,192,153088,1,0,0:0:0:1:
384,192,153088,1,0,0:0:0:1:
128,192,153176,1,0,0:0:0:1:
42,192,153176,1,0,0:0:0:1:
213,192,153264,1,0,0:0:0:1:
469,192,153264,1,0,0:0:0:1:
128,192,153352,1,0,0:0:0:1:
42,192,153352,1,0,0:0:0:1:
298,192,153441,1,0,0:0:0:1:
128,192,153529,1,0,0:0:0:1:
384,192,153529,1,0,0:0:0:1:
469,192,153529,1,0,0:0:0:1:
213,192,153617,1,0,0:0:0:1:
298,192,153705,1,0,0:0:0:1:
42,192,153705,1,0,0:0:0:1:
128,192,153794,1,0,0:0:0:1:
384,192,153794,1,0,0:0:0:1:
298,192,153882,1,0,0:0:0:1:
42,192,153882,1,0,0:0:0:1:
213,192,153970,1,0,0:0:0:1:
384,192,153970,1,0,0:0:0:1:
128,192,154058,1,0,0:0:0:1:
298,192,154058,1,0,0:0:0:1:
213,192,154147,1,0,0:0:0:1:
384,192,154147,1,0,0:0:0:1:
298,192,154235,1,0,0:0:0:1:
469,192,154235,1,0,0:0:0:1:
42,192,154235,1,0,0:0:0:1:
128,192,154323,1,0,0:0:0:1:
213,192,154411,1,0,0:0:0:1:
384,192,154411,1,0,0:0:0:1:
298,192,154500,1,0,0:0:0:1:
42,192,154500,1,0,0:0:0:1:
213,192,154588,1,0,0:0:0:1:
384,192,154588,1,0,0:0:0:1:
128,192,154676,1,0,0:0:0:1:
469,192,154676,1,0,0:0:0:1:
213,192,154764,1,0,0:0:0:1:
384,192,154764,1,0,0:0:0:1:
298,192,154852,1,0,0:0:0:1:
128,192,154941,1,0,0:0:0:1:
469,192,154941,1,0,0:0:0:1:
42,192,154941,1,0,0:0:0:1:
213,192,155029,1,0,0:0:0:1:
128,192,155117,1,0,0:0:0:1:
298,192,155117,1,0,0:0:0:1:
213,192,155205,1,0,0:0:0:1:
42,192,155205,1,0,0:0:0:1:
128,192,155294,1,0,0:0:0:1:
298,192,155294,1,0,0:0:0:1:
384,192,155382,1,0,0:0:0:1:
42,192,155382,1,0,0:0:0:1:
213,192,155470,1,0,0:0:0:1:
469,192,155470,1,0,0:0:0:1:
128,192,155558,1,0,0:0:0:1:
384,192,155558,1,0,0:0:0:1:
298,192,155647,1,0,0:0:0:1:
469,192,155647,1,0,0:0:0:1:
42,192,155647,1,0,0:0:0:1:
213,192,155735,1,0,0:0:0:1:
128,192,155823,1,0,0:0:0:1:
298,192,155823,1,0,0:0:0:1:
213,192,155911,1,0,0:0:0:1:
384,192,155911,1,0,0:0:0:1:
128,192,156000,1,0,0:0:0:1:
298,192,156000,1,0,0:0:0:1:
213,192,156088,1,0,0:0:0:1:
469,192,156088,1,0,0:0:0:1:
128,192,156176,1,0,0:0:0:1:
298,192,156176,1,0,0:0:0:1:
384,192,156264,1,0,0:0:0:1:
213,192,156352,1,0,0:0:0:1:
469,192,156352,1,0,0:0:0:1:
42,192,156352,1,0,0:0:0:1:
298,192,156441,1,0,0:0:0:1:
128,192,156529,1,0,0:0:0:1:
384,192,156529,1,0,0:0:0:1:
213,192,156617,1,0,0:0:0:1:
128,192,156705,1,0,0:0:0:1:
384,192,156705,1,0,0:0:0:1:
298,192,156794,1,0,0:0:0:1:
42,192,156794,1,0,0:0:0:1:
213,192,156882,1,0,0:0:0:1:
469,192,156882,1,0,0:0:0:1:
298,192,156970,1,0,0:0:0:1:
42,192,156970,1,0,0:0:0:1:
128,192,157058,1,0,0:0:0:1:
384,192,157058,1,0,0:0:0:1:
469,192,157058,1,0,0:0:0:1:
213,192,157147,1,0,0:0:0:1:
298,192,157235,1,0,0:0:0:1:
469,192,157235,1,0,0:0:0:1:
128,192,157323,1,0,0:0:0:1:
384,192,157323,1,0,0:0:0:1:
298,192,157411,1,0,0:0:0:1:
469,192,157411,1,0,0:0:0:1:
213,192,157500,1,0,0:0:0:1:
384,192,157500,1,0,0:0:0:1:
298,192,157588,1,0,0:0:0:1:
469,192,157588,1,0,0:0:0:1:
128,192,157676,1,0,0:0:0:1:
213,192,157764,1,0,0:0:0:1:
384,192,157764,1,0,0:0:0:1:
42,192,157764,1,0,0:0:0:1:
298,192,157852,1,0,0:0:0:1:
213,192,157941,1,0,0:0:0:1:
469,192,157941,1,0,0:0:0:1:
298,192,158029,1,0,0:0:0:1:
213,192,158117,1,0,0:0:0:1:
42,192,158117,1,0,0:0:0:1:
128,192,158205,1,0,0:0:0:1:
384,192,158205,1,0,0:0:0:1:
213,192,158294,1,0,0:0:0:1:
42,192,158294,1,0,0:0:0:1:
128,192,158382,1,0,0:0:0:1:
469,192,158382,1,0,0:0:0:1:
298,192,158470,1,0,0:0:0:1:
384,192,158470,1,0,0:0:0:1:
42,192,158470,1,0,0:0:0:1:
213,192,158558,1,0,0:0:0:1:
384,192,158647,1,0,0:0:0:1:
469,192,158647,1,0,0:0:0:1:
128,192,158735,1,0,0:0:0:1:
298,192,158735,1,0,0:0:0:1:
384,192,158823,1,0,0:0:0:1:
469,192,158823,1,0,0:0:0:1:
298,192,158911,1,0,0:0:0:1:
42,192,158911,1,0,0:0:0:1:
384,192,159000,1,0,0:0:0:1:
469,192,159000,1,0,0:0:0:1:
213,192,159088,1,0,0:0:0:1:
128,192,159176,1,0,0:0:0:1:
384,192,159176,1,0,0:0:0:1:
42,192,159176,1,0,0:0:0:1:
298,192,159264,1,0,0:0:0:1:
213,192,159352,1,0,0:0:0:1:
469,192,159352,1,0,0:0:0:1:
128,192,159441,1,0,0:0:0:1:
384,192,159441,1,0,0:0:0:1:
213,192,159529,1,0,0:0:0:1:
469,192,159529,1,0,0:0:0:1:
42,192,159529,1,0,0:0:0:1:
128,192,159882,1,0,0:0:0:1:
213,192,160235,1,0,0:0:0:1:
213,192,160588,1,0,0:0:0:1:
128,192,160941,1,0,0:0:0:1:
469,192,160941,1,0,0:0:0:1:
128,192,161294,1,0,0:0:0:1:
384,192,161470,1,0,0:0:0:1:
128,192,161647,1,0,0:0:0:1:
384,192,161823,1,0,0:0:0:1:
128,192,162000,1,0,0:0:0:1:
298,192,162000,1,0,0:0:0:1:
213,192,162352,1,0,0:0:0:1:
469,192,162352,1,0,0:0:0:1:
42,192,162352,1,0,0:0:0:1:
298,192,162441,1,0,0:0:0:1:
42,192,162441,1,0,0:0:0:1:
128,192,162529,1,0,0:0:0:1:
384,192,162529,1,0,0:0:0:1:
298,192,162617,1,0,0:0:0:1:
469,192,162617,1,0,0:0:0:1:
213,192,162705,1,0,0:0:0:1:
384,192,162705,1,0,0:0:0:1:
42,192,162705,1,0,0:0:0:1:
298,192,162794,1,0,0:0:0:1:
213,192,162882,1,0,0:0:0:1:
469,192,162882,1,0,0:0:0:1:
128,192,162970,1,0,0:0:0:1:
384,192,162970,1,0,0:0:0:1:
213,192,163058,1,0,0:0:0:1:
42,192,163058,1,0,0:0:0:1:
298,192,163147,1,0,0:0:0:1:
42,192,163147,1,0,0:0:0:1:
128,192,163235,1,0,0:0:0:1:
384,192,163235,1,0,0:0:0:1:
469,192,163323,1,0,0:0:0:1:
213,192,163411,1,0,0:0:0:1:
384,192,163411,1,0,0:0:0:1:
42,192,163411,1,0,0:0:0:1:
298,192,163500,1,0,0:0:0:1:
213,192,163588,1,0,0:0:0:1:
469,192,163588,1,0,0:0:0:1:
128,192,163676,1,0,0:0:0:1:
384,192,163676,1,0,0:0:0:1:
213,192,163764,1,0,0:0:0:1:
42,192,163764,1,0,0:0:0:1:
298,192,163852,1,0,0:0:0:1:
42,192,163852,1,0,0:0:0:1:
128,192,163941,1,0,0:0:0:1:
384,192,163941,1,0,0:0:0:1:
298,192,164029,1,0,0:0:0:1:
469,192,164029,1,0,0:0:0:1:
213,192,164117,1,0,0:0:0:1:
384,192,164117,1,0,0:0:0:1:
42,192,164117,1,0,0:0:0:1:
298,192,164205,1,0,0:0:0:1:
213,192,164294,1,0,0:0:0:1:
469,192,164294,1,0,0:0:0:1:
128,192,164382,1,0,0:0:0:1:
384,192,164382,1,0,0:0:0:1:
213,192,164470,1,0,0:0:0:1:
42,192,164470,1,0,0:0:0:1:
298,192,164558,1,0,0:0:0:1:
42,192,164558,1,0,0:0:0:1:
128,192,164647,1,0,0:0:0:1:
384,192,164647,1,0,0:0:0:1:
469,192,164735,1,0,0:0:0:1:
213,192,164823,1,0,0:0:0:1:
384,192,164823,1,0,0:0:0:1:
42,192,164823,1,0,0:0:0:1:
298,192,164911,1,0,0:0:0:1:
213,192,165000,1,0,0:0:0:1:
469,192,165000,1,0,0:0:0:1:
128,192,165088,1,0,0:0:0:1:
384,192,165088,1,0,0:0:0:1:
298,192,165176,1,0,0:0:0:1:
469,192,165176,1,0,0:0:0:1:
42,192,165176,1,0,0:0:0:1:
128,192,165264,1,0,0:0:0:1:
298,192,165264,1,0,0:0:0:1:
213,192,165352,1,0,0:0:0:1:
384,192,165352,1,0,0:0:0:1:
128,192,165441,1,0,0:0:0:1:
298,192,165441,1,0,0:0:0:1:
213,192,165529,1,0,0:0:0:1:
469,192,165529,1,0,0:0:0:1:
42,192,165529,1,0,0:0:0:1:
298,192,165617,1,0,0:0:0:1:
213,192,165705,1,0,0:0:0:1:
469,192,165705,1,0,0:0:0:1:
128,192,165794,1,0,0:0:0:1:
384,192,165794,1,0,0:0:0:1:
298,192,165882,1,0,0:0:0:1:
469,192,165882,1,0,0:0:0:1:
42,192,165882,1,0,0:0:0:1:
128,192,165970,1,0,0:0:0:1:
298,192,165970,1,0,0:0:0:1:
213,192,166058,1,0,0:0:0:1:
384,192,166058,1,0,0:0:0:1:
128,192,166147,1,0,0:0:0:1:
298,192,166147,1,0,0:0:0:1:
213,192,166235,1,0,0:0:0:1:
469,192,166235,1,0,0:0:0:1:
42,192,166235,1,0,0:0:0:1:
298,192,166323,1,0,0:0:0:1:
213,192,166411,1,0,0:0:0:1:
469,192,166411,1,0,0:0:0:1:
128,192,166500,1,0,0:0:0:1:
384,192,166500,1,0,0:0:0:1:
298,192,166588,1,0,0:0:0:1:
469,192,166588,1,0,0:0:0:1:
42,192,166588,1,0,0:0:0:1:
128,192,166676,1,0,0:0:0:1:
298,192,166676,1,0,0:0:0:1:
213,192,166764,1,0,0:0:0:1:
384,192,166764,1,0,0:0:0:1:
128,192,166852,1,0,0:0:0:1:
298,192,166852,1,0,0:0:0:1:
213,192,166941,1,0,0:0:0:1:
469,192,166941,1,0,0:0:0:1:
42,192,166941,1,0,0:0:0:1:
298,192,167029,1,0,0:0:0:1:
213,192,167117,1,0,0:0:0:1:
469,192,167117,1,0,0:0:0:1:
128,192,167205,1,0,0:0:0:1:
384,192,167205,1,0,0:0:0:1:
298,192,167294,1,0,0:0:0:1:
469,192,167294,1,0,0:0:0:1:
42,192,167294,1,0,0:0:0:1:
128,192,167382,1,0,0:0:0:1:
298,192,167382,1,0,0:0:0:1:
213,192,167470,1,0,0:0:0:1:
384,192,167470,1,0,0:0:0:1:
128,192,167558,1,0,0:0:0:1:
298,192,167558,1,0,0:0:0:1:
213,192,167647,1,0,0:0:0:1:
469,192,167647,1,0,0:0:0:1:
42,192,167647,1,0,0:0:0:1:
298,192,167735,1,0,0:0:0:1:
213,192,167823,1,0,0:0:0:1:
469,192,167823,1,0,0:0:0:1:
128,192,167911,1,0,0:0:0:1:
384,192,167911,1,0,0:0:0:1:
298,192,168000,1,0,0:0:0:1:
469,192,168000,1,0,0:0:0:1:
42,192,168000,1,0,0:0:0:1:
213,192,168088,1,0,0:0:0:1:
469,192,168088,1,0,0:0:0:1:
128,192,168176,1,0,0:0:0:1:
384,192,168176,1,0,0:0:0:1:
213,192,168264,1,0,0:0:0:1:
42,192,168264,1,0,0:0:0:1:
128,192,168352,1,0,0:0:0:1:
298,192,168352,1,0,0:0:0:1:
469,192,168352,1,0,0:0:0:1:
213,192,168441,1,0,0:0:0:1:
298,192,168529,1,0,0:0:0:1:
42,192,168529,1,0,0:0:0:1:
128,192,168617,1,0,0:0:0:1:
384,192,168617,1,0,0:0:0:1:
298,192,168705,1,0,0:0:0:1:
469,192,168705,1,0,0:0:0:1:
213,192,168794,1,0,0:0:0:1:
469,192,168794,1,0,0:0:0:1:
128,192,168882,1,0,0:0:0:1:
384,192,168882,1,0,0:0:0:1:
42,192,168970,1,0,0:0:0:1:
128,192,169058,1,0,0:0:0:1:
298,192,169058,1,0,0:0:0:1:
469,192,169058,1,0,0:0:0:1:
213,192,169147,1,0,0:0:0:1:
298,192,169235,1,0,0:0:0:1:
42,192,169235,1,0,0:0:0:1:
128,192,169323,1,0,0:0:0:1:
384,192,169323,1,0,0:0:0:1:
298,192,169411,1,0,0:0:0:1:
469,192,169411,1,0,0:0:0:1:
213,192,169500,1,0,0:0:0:1:
469,192,169500,1,0,0:0:0:1:
128,192,169588,1,0,0:0:0:1:
384,192,169588,1,0,0:0:0:1:
213,192,169676,1,0,0:0:0:1:
42,192,169676,1,0,0:0:0:1:
128,192,169764,1,0,0:0:0:1:
298,192,169764,1,0,0:0:0:1:
469,192,169764,1,0,0:0:0:1:
213,192,169852,1,0,0:0:0:1:
298,192,169941,1,0,0:0:0:1:
42,192,169941,1,0,0:0:0:1:
128,192,170029,1,0,0:0:0:1:
384,192,170029,1,0,0:0:0:1:
298,192,170117,1,0,0:0:0:1:
469,192,170117,1,0,0:0:0:1:
213,192,170205,1,0,0:0:0:1:
469,192,170205,1,0,0:0:0:1:
128,192,170294,1,0,0:0:0:1:
384,192,170294,1,0,0:0:0:1:
42,192,170382,1,0,0:0:0:1:
128,192,170470,1,0,0:0:0:1:
298,192,170470,1,0,0:0:0:1:
469,192,170470,1,0,0:0:0:1:
213,192,170558,1,0,0:0:0:1:
298,192,170647,1,0,0:0:0:1:
42,192,170647,1,0,0:0:0:1:
128,192,170735,1,0,0:0:0:1:
384,192,170735,1,0,0:0:0:1:
213,192,170823,1,0,0:0:0:1:
469,192,170823,1,0,0:0:0:1:
42,192,170823,1,0,0:0:0:1:
213,192,170911,1,0,0:0:0:1:
384,192,170911,1,0,0:0:0:1:
128,192,171000,1,0,0:0:0:1:
298,192,171000,1,0,0:0:0:1:
213,192,171088,1,0,0:0:0:1:
384,192,171088,1,0,0:0:0:1:
298,192,171176,1,0,0:0:0:1:
469,192,171176,1,0,0:0:0:1:
42,192,171176,1,0,0:0:0:1:
213,192,171264,1,0,0:0:0:1:
298,192,171352,1,0,0:0:0:1:
42,192,171352,1,0,0:0:0:1:
128,192,171441,1,0,0:0:0:1:
384,192,171441,1,0,0:0:0:1:
213,192,171529,1,0,0:0:0:1:
469,192,171529,1,0,0:0:0:1:
42,192,171529,1,0,0:0:0:1:
213,192,171617,1,0,0:0:0:1:
384,192,171617,1,0,0:0:0:1:
128,192,171705,1,0,0:0:0:1:
298,192,171705,1,0,0:0:0:1:
213,192,171794,1,0,0:0:0:1:
384,192,171794,1,0,0:0:0:1:
298,192,171882,1,0,0:0:0:1:
469,192,171882,1,0,0:0:0:1:
42,192,171882,1,0,0:0:0:1:
213,192,171970,1,0,0:0:0:1:
298,192,172058,1,0,0:0:0:1:
42,192,172058,1,0,0:0:0:1:
128,192,172147,1,0,0:0:0:1:
384,192,172147,1,0,0:0:0:1:
213,192,172235,1,0,0:0:0:1:
469,192,172235,1,0,0:0:0:1:
42,192,172235,1,0,0:0:0:1:
213,192,172323,1,0,0:0:0:1:
384,192,172323,1,0,0:0:0:1:
128,192,172411,1,0,0:0:0:1:
298,192,172411,1,0,0:0:0:1:
213,192,172500,1,0,0:0:0:1:
384,192,172500,1,0,0:0:0:1:
298,192,172588,1,0,0:0:0:1:
469,192,172588,1,0,0:0:0:1:
42,192,172588,1,0,0:0:0:1:
213,192,172676,1,0,0:0:0:1:
298,192,172764,1,0,0:0:0:1:
42,192,172764,1,0,0:0:0:1:
128,192,172852,1,0,0:0:0:1:
384,192,172852,1,0,0:0:0:1:
213,192,172941,1,0,0:0:0:1:
469,192,172941,1,0,0:0:0:1:
42,192,172941,1,0,0:0:0:1:
213,192,173029,1,0,0:0:0:1:
384,192,173029,1,0,0:0:0:1:
128,192,173117,1,0,0:0:0:1:
298,192,173117,1,0,0:0:0:1:
213,192,173205,1,0,0:0:0:1:
384,192,173205,1,0,0:0:0:1:
298,192,173294,1,0,0:0:0:1:
469,192,173294,1,0,0:0:0:1:
42,192,173294,1,0,0:0:0:1:
213,192,173382,1,0,0:0:0:1:
298,192,173470,1,0,0:0:0:1:
42,192,173470,1,0,0:0:0:1:
128,192,173558,1,0,0:0:0:1:
384,192,173558,1,0,0:0:0:1:
213,192,173647,1,0,0:0:0:1:
469,192,173647,1,0,0:0:0:1:
42,192,173647,1,0,0:0:0:1:
298,192,173735,1,0,0:0:0:1:
42,192,173735,1,0,0:0:0:1:
128,192,173823,1,0,0:0:0:1:
384,192,173823,1,0,0:0:0:1:
298,192,173911,1,0,0:0:0:1:
469,192,173911,1,0,0:0:0:1:
213,192,174000,1,0,0:0:0:1:
384,192,174000,1,0,0:0:0:1:
42,192,174000,1,0,0:0:0:1:
298,192,174088,1,0,0:0:0:1:
213,192,174176,1,0,0:0:0:1:
469,192,174176,1,0,0:0:0:1:
128,192,174264,1,0,0:0:0:1:
384,192,174264,1,0,0:0:0:1:
213,192,174352,1,0,0:0:0:1:
42,192,174352,1,0,0:0:0:1:
298,192,174441,1,0,0:0:0:1:
42,192,174441,1,0,0:0:0:1:
128,192,174529,1,0,0:0:0:1:
384,192,174529,1,0,0:0:0:1:
469,192,174617,1,0,0:0:0:1:
213,192,174705,1,0,0:0:0:1:
384,192,174705,1,0,0:0:0:1:
42,192,174705,1,0,0:0:0:1:
298,192,174794,1,0,0:0:0:1:
213,192,174882,1,0,0:0:0:1:
469,192,174882,1,0,0:0:0:1:
128,192,174970,1,0,0:0:0:1:
384,192,174970,1,0,0:0:0:1:
213,192,175058,1,0,0:0:0:1:
42,192,175058,1,0,0:0:0:1:
298,192,175147,1,0,0:0:0:1:
42,192,175147,1,0,0:0:0:1:
128,192,175235,1,0,0:0:0:1:
384,192,175235,1,0,0:0:0:1:
298,192,175323,1,0,0:0:0:1:
469,192,175323,1,0,0:0:0:1:
213,192,175411,1,0,0:0:0:1:
384,192,175411,1,0,0:0:0:1:
42,192,175411,1,0,0:0:0:1:
298,192,175500,1,0,0:0:0:1:
213,192,175588,1,0,0:0:0:1:
469,192,175588,1,0,0:0:0:1:
128,192,175676,1,0,0:0:0:1:
384,192,175676,1,0,0:0:0:1:
213,192,175764,1,0,0:0:0:1:
42,192,175764,1,0,0:0:0:1:
298,192,175852,1,0,0:0:0:1:
42,192,175852,1,0,0:0:0:1:
128,192,175941,1,0,0:0:0:1:
384,192,175941,1,0,0:0:0:1:
469,192,176029,1,0,0:0:0:1:
213,192,176117,1,0,0:0:0:1:
384,192,176117,1,0,0:0:0:1:
42,192,176117,1,0,0:0:0:1:
298,192,176205,1,0,0:0:0:1:
213,192,176294,1,0,0:0:0:1:
469,192,176294,1,0,0:0:0:1:
128,192,176382,1,0,0:0:0:1:
384,192,176382,1,0,0:0:0:1:
298,192,176470,1,0,0:0:0:1:
469,192,176470,1,0,0:0:0:1:
42,192,176470,1,0,0:0:0:1:
128,192,176558,1,0,0:0:0:1:
298,192,176558,1,0,0:0:0:1:
213,192,176647,1,0,0:0:0:1:
384,192,176647,1,0,0:0:0:1:
128,192,176735,1,0,0:0:0:1:
298,192,176735,1,0,0:0:0:1:
213,192,176823,1,0,0:0:0:1:
469,192,176823,1,0,0:0:0:1:
42,192,176823,1,0,0:0:0:1:
298,192,176911,1,0,0:0:0:1:
213,192,177000,1,0,0:0:0:1:
469,192,177000,1,0,0:0:0:1:
128,192,177088,1,0,0:0:0:1:
384,192,177088,1,0,0:0:0:1:
298,192,177176,1,0,0:0:0:1:
469,192,177176,1,0,0:0:0:1:
42,192,177176,1,0,0:0:0:1:
128,192,177264,1,0,0:0:0:1:
298,192,177264,1,0,0:0:0:1:
213,192,177352,1,0,0:0:0:1:
384,192,177352,1,0,0:0:0:1:
128,192,177441,1,0,0:0:0:1:
298,192,177441,1,0,0:0:0:1:
213,192,177529,1,0,0:0:0:1:
469,192,177529,1,0,0:0:0:1:
42,192,177529,1,0,0:0:0:1:
298,192,177617,1,0,0:0:0:1:
213,192,177705,1,0,0:0:0:1:
469,192,177705,1,0,0:0:0:1:
128,192,177794,1,0,0:0:0:1:
384,192,177794,1,0,0:0:0:1:
298,192,177882,1,0,0:0:0:1:
469,192,177882,1,0,0:0:0:1:
42,192,177882,1,0,0:0:0:1:
128,192,177970,1,0,0:0:0:1:
298,192,177970,1,0,0:0:0:1:
213,192,178058,1,0,0:0:0:1:
384,192,178058,1,0,0:0:0:1:
128,192,178147,1,0,0:0:0:1:
298,192,178147,1,0,0:0:0:1:
213,192,178235,1,0,0:0:0:1:
469,192,178235,1,0,0:0:0:1:
42,192,178235,1,0,0:0:0:1:
298,192,178323,1,0,0:0:0:1:
213,192,178411,1,0,0:0:0:1:
469,192,178411,1,0,0:0:0:1:
128,192,178500,1,0,0:0:0:1:
384,192,178500,1,0,0:0:0:1:
298,192,178588,1,0,0:0:0:1:
469,192,178588,1,0,0:0:0:1:
42,192,178588,1,0,0:0:0:1:
128,192,178676,1,0,0:0:0:1:
298,192,178676,1,0,0:0:0:1:
213,192,178764,1,0,0:0:0:1:
384,192,178764,1,0,0:0:0:1:
128,192,178852,1,0,0:0:0:1:
298,192,178852,1,0,0:0:0:1:
213,192,178941,1,0,0:0:0:1:
469,192,178941,1,0,0:0:0:1:
42,192,178941,1,0,0:0:0:1:
298,192,179029,1,0,0:0:0:1:
213,192,179117,1,0,0:0:0:1:
469,192,179117,1,0,0:0:0:1:
128,192,179205,1,0,0:0:0:1:
384,192,179205,1,0,0:0:0:1:
298,192,179294,1,0,0:0:0:1:
469,192,179294,1,0,0:0:0:1:
42,192,179294,1,0,0:0:0:1:
213,192,179382,1,0,0:0:0:1:
469,192,179382,1,0,0:0:0:1:
128,192,179470,1,0,0:0:0:1:
384,192,179470,1,0,0:0:0:1:
213,192,179558,1,0,0:0:0:1:
42,192,179558,1,0,0:0:0:1:
128,192,179647,1,0,0:0:0:1:
298,192,179647,1,0,0:0:0:1:
469,192,179647,1,0,0:0:0:1:
213,192,179735,1,0,0:0:0:1:
298,192,179823,1,0,0:0:0:1:
42,192,179823,1,0,0:0:0:1:
128,192,179911,1,0,0:0:0:1:
384,192,179911,1,0,0:0:0:1:
298,192,180000,1,0,0:0:0:1:
469,192,180000,1,0,0:0:0:1:
213,192,180088,1,0,0:0:0:1:
469,192,180088,1,0,0:0:0:1:
128,192,180176,1,0,0:0:0:1:
384,192,180176,1,0,0:0:0:1:
42,192,180264,1,0,0:0:0:1:
128,192,180352,1,0,0:0:0:1:
298,192,180352,1,0,0:0:0:1:
469,192,180352,1,0,0:0:0:1:
213,192,180441,1,0,0:0:0:1:
298,192,180529,1,0,0:0:0:1:
42,192,180529,1,0,0:0:0:1:
128,192,180617,1,0,0:0:0:1:
384,192,180617,1,0,0:0:0:1:
298,192,180705,1,0,0:0:0:1:
469,192,180705,1,0,0:0:0:1:
213,192,180794,1,0,0:0:0:1:
469,192,180794,1,0,0:0:0:1:
128,192,180882,1,0,0:0:0:1:
384,192,180882,1,0,0:0:0:1:
213,192,180970,1,0,0:0:0:1:
42,192,180970,1,0,0:0:0:1:
128,192,181058,1,0,0:0:0:1:
298,192,181058,1,0,0:0:0:1:
469,192,181058,1,0,0:0:0:1:
213,192,181147,1,0,0:0:0:1:
298,192,181235,1,0,0:0:0:1:
42,192,181235,1,0,0:0:0:1:
128,192,181323,1,0,0:0:0:1:
384,192,181323,1,0,0:0:0:1:
298,192,181411,1,0,0:0:0:1:
469,192,181411,1,0,0:0:0:1:
213,192,181500,1,0,0:0:0:1:
469,192,181500,1,0,0:0:0:1:
128,192,181588,1,0,0:0:0:1:
384,192,181588,1,0,0:0:0:1:
42,192,181676,1,0,0:0:0:1:
128,192,181764,1,0,0:0:0:1:
298,192,181764,1,0,0:0:0:1:
469,192,181764,1,0,0:0:0:1:
213,192,181852,1,0,0:0:0:1:
298,192,181941,1,0,0:0:0:1:
42,192,181941,1,0,0:0:0:1:
128,192,182029,1,0,0:0:0:1:
384,192,182029,1,0,0:0:0:1:
213,192,182117,1,0,0:0:0:1:
469,192,182117,1,0,0:0:0:1:
42,192,182117,1,0,0:0:0:1:
213,192,182205,1,0,0:0:0:1:
384,192,182205,1,0,0:0:0:1:
128,192,182294,1,0,0:0:0:1:
298,192,182294,1,0,0:0:0:1:
213,192,182382,1,0,0:0:0:1:
384,192,182382,1,0,0:0:0:1:
298,192,182470,1,0,0:0:0:1:
469,192,182470,1,0,0:0:0:1:
42,192,182470,1,0,0:0:0:1:
213,192,182558,1,0,0:0:0:1:
298,192,182647,1,0,0:0:0:1:
42,192,182647,1,0,0:0:0:1:
128,192,182735,1,0,0:0:0:1:
384,192,182735,1,0,0:0:0:1:
213,192,182823,1,0,0:0:0:1:
469,192,182823,1,0,0:0:0:1:
42,192,182823,1,0,0:0:0:1:
213,192,182911,1,0,0:0:0:1:
384,192,182911,1,0,0:0:0:1:
128,192,183000,1,0,0:0:0:1:
298,192,183000,1,0,0:0:0:1:
213,192,183088,1,0,0:0:0:1:
384,192,183088,1,0,0:0:0:1:
298,192,183176,1,0,0:0:0:1:
469,192,183176,1,0,0:0:0:1:
42,192,183176,1,0,0:0:0:1:
213,192,183264,1,0,0:0:0:1:
298,192,183352,1,0,0:0:0:1:
42,192,183352,1,0,0:0:0:1:
128,192,183441,1,0,0:0:0:1:
384,192,183441,1,0,0:0:0:1:
213,192,183529,1,0,0:0:0:1:
469,192,183529,1,0,0:0:0:1:
42,192,183529,1,0,0:0:0:1:
213,192,183617,1,0,0:0:0:1:
384,192,183617,1,0,0:0:0:1:
128,192,183705,1,0,0:0:0:1:
298,192,183705,1,0,0:0:0:1:
213,192,183794,1,0,0:0:0:1:
384,192,183794,1,0,0:0:0:1:
298,192,183882,1,0,0:0:0:1:
469,192,183882,1,0,0:0:0:1:
42,192,183882,1,0,0:0:0:1:
213,192,183970,1,0,0:0:0:1:
298,192,184058,1,0,0:0:0:1:
42,192,184058,1,0,0:0:0:1:
128,192,184147,1,0,0:0:0:1:
384,192,184147,1,0,0:0:0:1:
213,192,184235,1,0,0:0:0:1:
469,192,184235,1,0,0:0:0:1:
42,192,184235,1,0,0:0:0:1:
213,192,184323,1,0,0:0:0:1:
384,192,184323,1,0,0:0:0:1:
128,192,184411,1,0,0:0:0:1:
298,192,184411,1,0,0:0:0:1:
213,192,184500,1,0,0:0:0:1:
384,192,184500,1,0,0:0:0:1:
298,192,184588,1,0,0:0:0:1:
469,192,184588,1,0,0:0:0:1:
42,192,184588,1,0,0:0:0:1:
213,192,184676,1,0,0:0:0:1:
128,192,184764,1,0,0:0:0:1:
298,192,184764,1,0,0:0:0:1:
384,192,184852,1,0,0:0:0:1:
42,192,184852,1,0,0:0:0:1:
128,192,184941,1,0,0:0:0:1:
298,192,184941,1,0,0:0:0:1:
469,192,184941,1,0,0:0:0:1:
213,192,185029,1,0,0:0:0:1:
469,192,185029,1,0,0:0:0:1:
128,192,185117,1,0,0:0:0:1:
384,192,185117,1,0,0:0:0:1:
213,192,185205,1,0,0:0:0:1:
42,192,185205,1,0,0:0:0:1:
128,192,185294,1,0,0:0:0:1:
298,192,185294,1,0,0:0:0:1:
469,192,185294,1,0,0:0:0:1:
213,192,185382,1,0,0:0:0:1:
298,192,185470,1,0,0:0:0:1:
42,192,185470,1,0,0:0:0:1:
128,192,185558,1,0,0:0:0:1:
384,192,185558,1,0,0:0:0:1:
298,192,185647,1,0,0:0:0:1:
469,192,185647,1,0,0:0:0:1:
213,192,185735,1,0,0:0:0:1:
469,192,185735,1,0,0:0:0:1:
128,192,185823,1,0,0:0:0:1:
384,192,185823,1,0,0:0:0:1:
42,192,185911,1,0,0:0:0:1:
128,192,186000,1,0,0:0:0:1:
298,192,186000,1,0,0:0:0:1:
469,192,186000,1,0,0:0:0:1:
213,192,186088,1,0,0:0:0:1:
298,192,186176,1,0,0:0:0:1:
42,192,186176,1,0,0:0:0:1:
128,192,186264,1,0,0:0:0:1:
384,192,186264,1,0,0:0:0:1:
298,192,186352,1,0,0:0:0:1:
469,192,186352,1,0,0:0:0:1:
213,192,186441,1,0,0:0:0:1:
469,192,186441,1,0,0:0:0:1:
128,192,186529,1,0,0:0:0:1:
384,192,186529,1,0,0:0:0:1:
213,192,186617,1,0,0:0:0:1:
42,192,186617,1,0,0:0:0:1:
128,192,186705,1,0,0:0:0:1:
298,192,186705,1,0,0:0:0:1:
469,192,186705,1,0,0:0:0:1:
213,192,186794,1,0,0:0:0:1:
298,192,186882,1,0,0:0:0:1:
42,192,186882,1,0,0:0:0:1:
128,192,186970,1,0,0:0:0:1:
384,192,186970,1,0,0:0:0:1:
298,192,187058,1,0,0:0:0:1:
469,192,187058,1,0,0:0:0:1:
213,192,187147,1,0,0:0:0:1:
469,192,187147,1,0,0:0:0:1:
128,192,187235,1,0,0:0:0:1:
384,192,187235,1,0,0:0:0:1:
42,192,187323,1,0,0:0:0:1:
128,192,187411,1,0,0:0:0:1:
298,192,187411,1,0,0:0:0:1:
469,192,187411,1,0,0:0:0:1:
213,192,187500,1,0,0:0:0:1:
298,192,187588,1,0,0:0:0:1:
42,192,187588,1,0,0:0:0:1:
128,192,187676,1,0,0:0:0:1:
384,192,187676,1,0,0:0:0:1:
213,192,187764,1,0,0:0:0:1:
469,192,187764,1,0,0:0:0:1:
42,192,187764,1,0,0:0:0:1:
213,192,187852,1,0,0:0:0:1:
384,192,187852,1,0,0:0:0:1:
128,192,187941,1,0,0:0:0:1:
298,192,187941,1,0,0:0:0:1:
213,192,188029,1,0,0:0:0:1:
384,192,188029,1,0,0:0:0:1:
298,192,188117,1,0,0:0:0:1:
469,192,188117,1,0,0:0:0:1:
42,192,188117,1,0,0:0:0:1:
213,192,188205,1,0,0:0:0:1:
298,192,188294,1,0,0:0:0:1:
42,192,188294,1,0,0:0:0:1:
128,192,188382,1,0,0:0:0:1:
384,192,188382,1,0,0:0:0:1:
213,192,188470,1,0,0:0:0:1:
469,192,188470,1,0,0:0:0:1:
42,192,188470,1,0,0:0:0:1:
213,192,188558,1,0,0:0:0:1:
384,192,188558,1,0,0:0:0:1:
128,192,188647,1,0,0:0:0:1:
298,192,188647,1,0,0:0:0:1:
213,192,188735,1,0,0:0:0:1:
384,192,188735,1,0,0:0:0:1:
298,192,188823,1,0,0:0:0:1:
469,192,188823,1,0,0:0:0:1:
42,192,188823,1,0,0:0:0:1:
213,192,188911,1,0,0:0:0:1:
298,192,189000,1,0,0:0:0:1:
42,192,189000,1,0,0:0:0:1:
128,192,189088,1,0,0:0:0:1:
384,192,189088,1,0,0:0:0:1:
213,192,189176,1,0,0:0:0:1:
469,192,189176,1,0,0:0:0:1:
42,192,189176,1,0,0:0:0:1:
213,192,189264,1,0,0:0:0:1:
384,192,189264,1,0,0:0:0:1:
128,192,189352,1,0,0:0:0:1:
298,192,189352,1,0,0:0:0:1:
213,192,189441,1,0,0:0:0:1:
384,192,189441,1,0,0:0:0:1:
298,192,189529,1,0,0:0:0:1:
469,192,189529,1,0,0:0:0:1:
42,192,189529,1,0,0:0:0:1:
213,192,189617,1,0,0:0:0:1:
298,192,189705,1,0,0:0:0:1:
42,192,189705,1,0,0:0:0:1:
128,192,189794,1,0,0:0:0:1:
384,192,189794,1,0,0:0:0:1:
213,192,189882,1,0,0:0:0:1:
469,192,189882,1,0,0:0:0:1:
42,192,189882,1,0,0:0:0:1:
213,192,189970,1,0,0:0:0:1:
384,192,189970,1,0,0:0:0:1:
128,192,190058,1,0,0:0:0:1:
298,192,190058,1,0,0:0:0:1:
213,192,190147,1,0,0:0:0:1:
384,192,190147,1,0,0:0:0:1:
298,192,190235,1,0,0:0:0:1:
469,192,190235,1,0,0:0:0:1:
42,192,190235,1,0,0:0:0:1:
213,192,190323,1,0,0:0:0:1:
298,192,190411,1,0,0:0:0:1:
42,192,190411,1,0,0:0:0:1:
128,192,190500,1,0,0:0:0:1:
384,192,190500,1,0,0:0:0:1:
213,192,190588,1,0,0:0:0:1:
469,192,190588,1,0,0:0:0:1:
42,192,190588,1,0,0:0:0:1:
298,192,190676,1,0,0:0:0:1:
42,192,190676,1,0,0:0:0:1:
128,192,190764,1,0,0:0:0:1:
384,192,190764,1,0,0:0:0:1:
298,192,190852,1,0,0:0:0:1:
469,192,190852,1,0,0:0:0:1:
213,192,190941,1,0,0:0:0:1:
384,192,190941,1,0,0:0:0:1:
42,192,190941,1,0,0:0:0:1:
298,192,191029,1,0,0:0:0:1:
213,192,191117,1,0,0:0:0:1:
469,192,191117,1,0,0:0:0:1:
128,192,191205,1,0,0:0:0:1:
384,192,191205,1,0,0:0:0:1:
213,192,191294,1,0,0:0:0:1:
42,192,191294,1,0,0:0:0:1:
298,192,191382,1,0,0:0:0:1:
42,192,191382,1,0,0:0:0:1:
128,192,191470,1,0,0:0:0:1:
384,192,191470,1,0,0:0:0:1:
469,192,191558,1,0,0:0:0:1:
213,192,191647,1,0,0:0:0:1:
384,192,191647,1,0,0:0:0:1:
42,192,191647,1,0,0:0:0:1:
298,192,191735,1,0,0:0:0:1:
213,192,191823,1,0,0:0:0:1:
469,192,191823,1,0,0:0:0:1:
128,192,191911,1,0,0:0:0:1:
384,192,191911,1,0,0:0:0:1:
213,192,192000,1,0,0:0:0:1:
42,192,192000,1,0,0:0:0:1:
298,192,192088,1,0,0:0:0:1:
42,192,192088,1,0,0:0:0:1:
128,192,192176,1,0,0:0:0:1:
384,192,192176,1,0,0:0:0:1:
298,192,192264,1,0,0:0:0:1:
469,192,192264,1,0,0:0:0:1:
213,192,192352,1,0,0:0:0:1:
384,192,192352,1,0,0:0:0:1:
42,192,192352,1,0,0:0:0:1:
298,192,192441,1,0,0:0:0:1:
213,192,192529,1,0,0:0:0:1:
469,192,192529,1,0,0:0:0:1:
128,192,192617,1,0,0:0:0:1:
384,192,192617,1,0,0:0:0:1:
213,192,192705,1,0,0:0:0:1:
42,192,192705,1,0,0:0:0:1:
298,192,192794,1,0,0:0:0:1:
42,192,192794,1,0,0:0:0:1:
128,192,192882,1,0,0:0:0:1:
384,192,192882,1,0,0:0:0:1:
469,192,192970,1,0,0:0:0:1:
213,192,193058,1,0,0:0:0:1:
384,192,193058,1,0,0:0:0:1:
42,192,193058,1,0,0:0:0:1:
298,192,193147,1,0,0:0:0:1:
213,192,193235,1,0,0:0:0:1:
469,192,193235,1,0,0:0:0:1:
128,192,193323,1,0,0:0:0:1:
384,192,193323,1,0,0:0:0:1:
213,192,193411,1,0,0:0:0:1:
469,192,193411,1,0,0:0:0:1:
42,192,193411,1,0,0:0:0:1:
298,192,193500,1,0,0:0:0:1:
384,192,193588,1,0,0:0:0:1:
42,192,193588,1,0,0:0:0:1:
128,192,193676,1,0,0:0:0:1:
298,192,193676,1,0,0:0:0:1:
213,192,193764,1,0,0:0:0:1:
384,192,193764,1,0,0:0:0:1:
469,192,193764,1,0,0:0:0:1:
42,192,193852,1,0,0:0:0:1:
128,192,193941,1,0,0:0:0:1:
298,192,193941,1,0,0:0:0:1:
213,192,194029,1,0,0:0:0:1:
384,192,194029,1,0,0:0:0:1:
469,192,194117,1,0,0:0:0:1:
42,192,194117,1,0,0:0:0:1:
213,192,194205,1,0,0:0:0:1:
128,192,194294,1,0,0:0:0:1:
384,192,194294,1,0,0:0:0:1:
298,192,194382,1,0,0:0:0:1:
42,192,194382,1,0,0:0:0:1:
213,192,194470,1,0,0:0:0:1:
384,192,194470,1,0,0:0:0:1:
469,192,194470,1,0,0:0:0:1:
42,192,194558,1,0,0:0:0:1:
128,192,194647,1,0,0:0:0:1:
298,192,194647,1,0,0:0:0:1:
213,192,194735,1,0,0:0:0:1:
384,192,194823,1,0,0:0:0:1:
42,192,194823,1,0,0:0:0:1:
298,192,194911,1,0,0:0:0:1:
128,192,195000,1,0,0:0:0:1:
384,192,195000,1,0,0:0:0:1:
213,192,195088,1,0,0:0:0:1:
384,192,195176,1,0,0:0:0:1:
469,192,195176,1,0,0:0:0:1:
42,192,195176,1,0,0:0:0:1:
298,192,195264,1,0,0:0:0:1:
213,192,195352,1,0,0:0:0:1:
469,192,195352,1,0,0:0:0:1:
128,192,195441,1,0,0:0:0:1:
384,192,195441,1,0,0:0:0:1:
298,192,195529,1,0,0:0:0:1:
42,192,195529,1,0,0:0:0:1:
213,192,195617,1,0,0:0:0:1:
384,192,195617,1,0,0:0:0:1:
128,192,195705,1,0,0:0:0:1:
469,192,195705,1,0,0:0:0:1:
213,192,195794,1,0,0:0:0:1:
298,192,195794,1,0,0:0:0:1:
384,192,195882,1,0,0:0:0:1:
469,192,195882,1,0,0:0:0:1:
42,192,195882,1,0,0:0:0:1:
213,192,195970,1,0,0:0:0:1:
298,192,196058,1,0,0:0:0:1:
128,192,196147,1,0,0:0:0:1:
384,192,196235,1,0,0:0:0:1:
42,192,196235,1,0,0:0:0:1:
213,192,196323,1,0,0:0:0:1:
128,192,196411,1,0,0:0:0:1:
298,192,196411,1,0,0:0:0:1:
213,192,196500,1,0,0:0:0:1:
42,192,196500,1,0,0:0:0:1:
128,192,196588,1,0,0:0:0:1:
384,192,196588,1,0,0:0:0:1:
469,192,196588,1,0,0:0:0:1:
298,192,196676,1,0,0:0:0:1:
213,192,196764,1,0,0:0:0:1:
384,192,196764,1,0,0:0:0:1:
128,192,196852,1,0,0:0:0:1:
469,192,196852,1,0,0:0:0:1:
298,192,196941,1,0,0:0:0:1:
42,192,196941,1,0,0:0:0:1:
213,192,197029,1,0,0:0:0:1:
384,192,197029,1,0,0:0:0:1:
128,192,197117,1,0,0:0:0:1:
298,192,197117,1,0,0:0:0:1:
213,192,197205,1,0,0:0:0:1:
384,192,197294,1,0,0:0:0:1:
469,192,197294,1,0,0:0:0:1:
42,192,197294,1,0,0:0:0:1:
213,192,197382,1,0,0:0:0:1:
384,192,197470,1,0,0:0:0:1:
128,192,197558,1,0,0:0:0:1:
298,192,197647,1,0,0:0:0:1:
42,192,197647,1,0,0:0:0:1:
128,192,197735,1,0,0:0:0:1:
384,192,197735,1,0,0:0:0:1:
213,192,197823,1,0,0:0:0:1:
469,192,197823,1,0,0:0:0:1:
128,192,197911,1,0,0:0:0:1:
298,192,197911,1,0,0:0:0:1:
384,192,198000,1,0,0:0:0:1:
469,192,198000,1,0,0:0:0:1:
42,192,198000,1,0,0:0:0:1:
213,192,198088,1,0,0:0:0:1:
128,192,198176,1,0,0:0:0:1:
384,192,198176,1,0,0:0:0:1:
298,192,198264,1,0,0:0:0:1:
42,192,198264,1,0,0:0:0:1:
213,192,198352,1,0,0:0:0:1:
469,192,198352,1,0,0:0:0:1:
128,192,198441,1,0,0:0:0:1:
298,192,198441,1,0,0:0:0:1:
213,192,198529,1,0,0:0:0:1:
469,192,198529,1,0,0:0:0:1:
298,192,198617,1,0,0:0:0:1:
42,192,198617,1,0,0:0:0:1:
213,192,198705,1,0,0:0:0:1:
384,192,198705,1,0,0:0:0:1:
469,192,198705,1,0,0:0:0:1:
128,192,198794,1,0,0:0:0:1:
298,192,198882,1,0,0:0:0:1:
213,192,198970,1,0,0:0:0:1:
128,192,199058,1,0,0:0:0:1:
469,192,199058,1,0,0:0:0:1:
298,192,199147,1,0,0:0:0:1:
384,192,199235,1,0,0:0:0:1:
42,192,199235,1,0,0:0:0:1:
128,192,199323,1,0,0:0:0:1:
298,192,199323,1,0,0:0:0:1:
213,192,199411,1,0,0:0:0:1:
384,192,199411,1,0,0:0:0:1:
469,192,199411,1,0,0:0:0:1:
42,192,199500,1,0,0:0:0:1:
128,192,199588,1,0,0:0:0:1:
298,192,199588,1,0,0:0:0:1:
213,192,199676,1,0,0:0:0:1:
384,192,199676,1,0,0:0:0:1:
469,192,199764,1,0,0:0:0:1:
42,192,199764,1,0,0:0:0:1:
213,192,199852,1,0,0:0:0:1:
128,192,199941,1,0,0:0:0:1:
384,192,199941,1,0,0:0:0:1:
298,192,200029,1,0,0:0:0:1:
42,192,200029,1,0,0:0:0:1:
213,192,200117,1,0,0:0:0:1:
384,192,200117,1,0,0:0:0:1:
469,192,200117,1,0,0:0:0:1:
42,192,200205,1,0,0:0:0:1:
128,192,200294,1,0,0:0:0:1:
298,192,200294,1,0,0:0:0:1:
213,192,200382,1,0,0:0:0:1:
384,192,200470,1,0,0:0:0:1:
42,192,200470,1,0,0:0:0:1:
298,192,200558,1,0,0:0:0:1:
128,192,200647,1,0,0:0:0:1:
384,192,200647,1,0,0:0:0:1:
213,192,200735,1,0,0:0:0:1:
384,192,200823,1,0,0:0:0:1:
469,192,200823,1,0,0:0:0:1:
42,192,200823,1,0,0:0:0:1:
298,192,200911,1,0,0:0:0:1:
213,192,201000,1,0,0:0:0:1:
469,192,201000,1,0,0:0:0:1:
128,192,201088,1,0,0:0:0:1:
384,192,201088,1,0,0:0:0:1:
298,192,201176,1,0,0:0:0:1:
42,192,201176,1,0,0:0:0:1:
213,192,201264,1,0,0:0:0:1:
384,192,201264,1,0,0:0:0:1:
128,192,201352,1,0,0:0:0:1:
469,192,201352,1,0,0:0:0:1:
213,192,201441,1,0,0:0:0:1:
298,192,201441,1,0,0:0:0:1:
384,192,201529,1,0,0:0:0:1:
469,192,201529,1,0,0:0:0:1:
42,192,201529,1,0,0:0:0:1:
213,192,201617,1,0,0:0:0:1:
298,192,201705,1,0,0:0:0:1:
128,192,201794,1,0,0:0:0:1:
384,192,201882,1,0,0:0:0:1:
42,192,201882,1,0,0:0:0:1:
213,192,201970,1,0,0:0:0:1:
128,192,202058,1,0,0:0:0:1:
298,192,202058,1,0,0:0:0:1:
213,192,202147,1,0,0:0:0:1:
42,192,202147,1,0,0:0:0:1:
128,192,202235,1,0,0:0:0:1:
384,192,202235,1,0,0:0:0:1:
469,192,202235,1,0,0:0:0:1:
298,192,202323,1,0,0:0:0:1:
213,192,202411,1,0,0:0:0:1:
384,192,202411,1,0,0:0:0:1:
128,192,202500,1,0,0:0:0:1:
469,192,202500,1,0,0:0:0:1:
298,192,202588,1,0,0:0:0:1:
42,192,202588,1,0,0:0:0:1:
213,192,202676,1,0,0:0:0:1:
384,192,202676,1,0,0:0:0:1:
128,192,202764,1,0,0:0:0:1:
298,192,202764,1,0,0:0:0:1:
213,192,202852,1,0,0:0:0:1:
384,192,202941,1,0,0:0:0:1:
469,192,202941,1,0,0:0:0:1:
42,192,202941,1,0,0:0:0:1:
213,192,203029,1,0,0:0:0:1:
384,192,203117,1,0,0:0:0:1:
128,192,203205,1,0,0:0:0:1:
213,192,203294,1,0,0:0:0:1:
469,192,203294,1,0,0:0:0:1:
298,192,203382,1,0,0:0:0:1:
384,192,203470,1,0,0:0:0:1:
42,192,203470,1,0,0:0:0:1:
128,192,203558,1,0,0:0:0:1:
298,192,203558,1,0,0:0:0:1:
213,192,203647,1,0,0:0:0:1:
384,192,203647,1,0,0:0:0:1:
469,192,203647,1,0,0:0:0:1:
42,192,203735,1,0,0:0:0:1:
128,192,203823,1,0,0:0:0:1:
298,192,203823,1,0,0:0:0:1:
213,192,203911,1,0,0:0:0:1:
384,192,203911,1,0,0:0:0:1:
469,192,204000,1,0,0:0:0:1:
42,192,204000,1,0,0:0:0:1:
213,192,204088,1,0,0:0:0:1:
128,192,204176,1,0,0:0:0:1:
384,192,204176,1,0,0:0:0:1:
298,192,204264,1,0,0:0:0:1:
42,192,204264,1,0,0:0:0:1:
213,192,204352,1,0,0:0:0:1:
384,192,204352,1,0,0:0:0:1:
469,192,204352,1,0,0:0:0:1:
42,192,204441,1,0,0:0:0:1:
128,192,204529,1,0,0:0:0:1:
298,192,204529,1,0,0:0:0:1:
213,192,204617,1,0,0:0:0:1:
384,192,204705,1,0,0:0:0:1:
42,192,204705,1,0,0:0:0:1:
298,192,204794,1,0,0:0:0:1:
128,192,204882,1,0,0:0:0:1:
384,192,204882,1,0,0:0:0:1:
213,192,204970,1,0,0:0:0:1:
384,192,205058,1,0,0:0:0:1:
469,192,205058,1,0,0:0:0:1:
42,192,205058,1,0,0:0:0:1:
298,192,205147,1,0,0:0:0:1:
213,192,205235,1,0,0:0:0:1:
469,192,205235,1,0,0:0:0:1:
128,192,205323,1,0,0:0:0:1:
384,192,205323,1,0,0:0:0:1:
298,192,205411,1,0,0:0:0:1:
42,192,205411,1,0,0:0:0:1:
213,192,205500,1,0,0:0:0:1:
384,192,205500,1,0,0:0:0:1:
128,192,205588,1,0,0:0:0:1:
469,192,205588,1,0,0:0:0:1:
213,192,205676,1,0,0:0:0:1:
298,192,205676,1,0,0:0:0:1:
384,192,205764,1,0,0:0:0:1:
469,192,205764,1,0,0:0:0:1:
42,192,205764,1,0,0:0:0:1:
213,192,205852,1,0,0:0:0:1:
298,192,205941,1,0,0:0:0:1:
128,192,206029,1,0,0:0:0:1:
384,192,206117,1,0,0:0:0:1:
42,192,206117,1,0,0:0:0:1:
213,192,206205,1,0,0:0:0:1:
128,192,206294,1,0,0:0:0:1:
298,192,206294,1,0,0:0:0:1:
213,192,206382,1,0,0:0:0:1:
42,192,206382,1,0,0:0:0:1:
128,192,206470,1,0,0:0:0:1:
384,192,206470,1,0,0:0:0:1:
469,192,206470,1,0,0:0:0:1:
298,192,206558,1,0,0:0:0:1:
213,192,206647,1,0,0:0:0:1:
384,192,206647,1,0,0:0:0:1:
128,192,206735,1,0,0:0:0:1:
469,192,206735,1,0,0:0:0:1:
298,192,206823,1,0,0:0:0:1:
42,192,206823,1,0,0:0:0:1:
213,192,206911,1,0,0:0:0:1:
384,192,206911,1,0,0:0:0:1:
128,192,207000,1,0,0:0:0:1:
298,192,207000,1,0,0:0:0:1:
213,192,207088,1,0,0:0:0:1:
384,192,207176,1,0,0:0:0:1:
469,192,207176,1,0,0:0:0:1:
42,192,207176,1,0,0:0:0:1:
213,192,207264,1,0,0:0:0:1:
384,192,207352,1,0,0:0:0:1:
128,192,207441,1,0,0:0:0:1:
298,192,207529,1,0,0:0:0:1:
42,192,207529,1,0,0:0:0:1:
128,192,207617,1,0,0:0:0:1:
384,192,207617,1,0,0:0:0:1:
213,192,207705,1,0,0:0:0:1:
469,192,207705,1,0,0:0:0:1:
128,192,207794,1,0,0:0:0:1:
298,192,207794,1,0,0:0:0:1:
384,192,207882,1,0,0:0:0:1:
469,192,207882,1,0,0:0:0:1:
42,192,207882,1,0,0:0:0:1:
213,192,207970,1,0,0:0:0:1:
128,192,208058,1,0,0:0:0:1:
384,192,208058,1,0,0:0:0:1:
298,192,208147,1,0,0:0:0:1:
42,192,208147,1,0,0:0:0:1:
213,192,208235,1,0,0:0:0:1:
469,192,208235,1,0,0:0:0:1:
128,192,208323,1,0,0:0:0:1:
298,192,208323,1,0,0:0:0:1:
213,192,208411,1,0,0:0:0:1:
469,192,208411,1,0,0:0:0:1:
298,192,208500,1,0,0:0:0:1:
42,192,208500,1,0,0:0:0:1:
213,192,208588,1,0,0:0:0:1:
384,192,208588,1,0,0:0:0:1:
469,192,208588,1,0,0:0:0:1:
128,192,208676,1,0,0:0:0:1:
298,192,208764,1,0,0:0:0:1:
213,192,208852,1,0,0:0:0:1:
128,192,208941,1,0,0:0:0:1:
469,192,208941,1,0,0:0:0:1:
298,192,209029,1,0,0:0:0:1:
384,192,209117,1,0,0:0:0:1:
42,192,209117,1,0,0:0:0:1:
128,192,209205,1,0,0:0:0:1:
298,192,209205,1,0,0:0:0:1:
213,192,209294,1,0,0:0:0:1:
384,192,209294,1,0,0:0:0:1:
469,192,209294,1,0,0:0:0:1:
42,192,209382,1,0,0:0:0:1:
128,192,209470,1,0,0:0:0:1:
298,192,209470,1,0,0:0:0:1:
213,192,209558,1,0,0:0:0:1:
384,192,209558,1,0,0:0:0:1:
469,192,209647,1,0,0:0:0:1:
42,192,209647,1,0,0:0:0:1:
213,192,209735,1,0,0:0:0:1:
128,192,209823,1,0,0:0:0:1:
384,192,209823,1,0,0:0:0:1:
298,192,209911,1,0,0:0:0:1:
42,192,209911,1,0,0:0:0:1:
213,192,210000,1,0,0:0:0:1:
384,192,210000,1,0,0:0:0:1:
469,192,210000,1,0,0:0:0:1:
42,192,210088,1,0,0:0:0:1:
128,192,210176,1,0,0:0:0:1:
298,192,210176,1,0,0:0:0:1:
213,192,210264,1,0,0:0:0:1:
384,192,210352,1,0,0:0:0:1:
42,192,210352,1,0,0:0:0:1:
298,192,210441,1,0,0:0:0:1:
128,192,210529,1,0,0:0:0:1:
384,192,210529,1,0,0:0:0:1:
213,192,210617,1,0,0:0:0:1:
384,192,210705,1,0,0:0:0:1:
469,192,210705,1,0,0:0:0:1:
42,192,210705,1,0,0:0:0:1:
298,192,210794,1,0,0:0:0:1:
213,192,210882,1,0,0:0:0:1:
469,192,210882,1,0,0:0:0:1:
128,192,210970,1,0,0:0:0:1:
384,192,210970,1,0,0:0:0:1:
298,192,211058,1,0,0:0:0:1:
42,192,211058,1,0,0:0:0:1:
213,192,211147,1,0,0:0:0:1:
384,192,211147,1,0,0:0:0:1:
128,192,211235,1,0,0:0:0:1:
469,192,211235,1,0,0:0:0:1:
213,192,211323,1,0,0:0:0:1:
298,192,211323,1,0,0:0:0:1:
384,192,211411,1,0,0:0:0:1:
469,192,211411,1,0,0:0:0:1:
42,192,211411,1,0,0:0:0:1:
213,192,211500,1,0,0:0:0:1:
298,192,211588,1,0,0:0:0:1:
128,192,211676,1,0,0:0:0:1:
384,192,211764,1,0,0:0:0:1:
42,192,211764,1,0,0:0:0:1:
213,192,211852,1,0,0:0:0:1:
128,192,211941,1,0,0:0:0:1:
298,192,211941,1,0,0:0:0:1:
213,192,212029,1,0,0:0:0:1:
42,192,212029,1,0,0:0:0:1:
128,192,212117,1,0,0:0:0:1:
384,192,212117,1,0,0:0:0:1:
469,192,212117,1,0,0:0:0:1:
298,192,212205,1,0,0:0:0:1:
213,192,212294,1,0,0:0:0:1:
384,192,212294,1,0,0:0:0:1:
128,192,212382,1,0,0:0:0:1:
469,192,212382,1,0,0:0:0:1:
298,192,212470,1,0,0:0:0:1:
42,192,212470,1,0,0:0:0:1:
213,192,212558,1,0,0:0:0:1:
384,192,212558,1,0,0:0:0:1:
128,192,212647,1,0,0:0:0:1:
298,192,212647,1,0,0:0:0:1:
213,192,212735,1,0,0:0:0:1:
384,192,212823,1,0,0:0:0:1:
469,192,212823,1,0,0:0:0:1:
42,192,212823,1,0,0:0:0:1:
213,192,212911,1,0,0:0:0:1:
384,192,213000,1,0,0:0:0:1:
128,192,213088,1,0,0:0:0:1:
213,192,213176,1,0,0:0:0:1:
469,192,213176,1,0,0:0:0:1:
298,192,213264,1,0,0:0:0:1:
384,192,213352,1,0,0:0:0:1:
42,192,213352,1,0,0:0:0:1:
128,192,213441,1,0,0:0:0:1:
298,192,213441,1,0,0:0:0:1:
213,192,213529,1,0,0:0:0:1:
384,192,213529,1,0,0:0:0:1:
469,192,213529,1,0,0:0:0:1:
42,192,213617,1,0,0:0:0:1:
128,192,213705,1,0,0:0:0:1:
298,192,213705,1,0,0:0:0:1:
213,192,213794,1,0,0:0:0:1:
384,192,213794,1,0,0:0:0:1:
469,192,213882,1,0,0:0:0:1:
42,192,213882,1,0,0:0:0:1:
213,192,213970,1,0,0:0:0:1:
128,192,214058,1,0,0:0:0:1:
384,192,214058,1,0,0:0:0:1:
298,192,214147,1,0,0:0:0:1:
42,192,214147,1,0,0:0:0:1:
213,192,214235,1,0,0:0:0:1:
384,192,214235,1,0,0:0:0:1:
469,192,214235,1,0,0:0:0:1:
42,192,214323,1,0,0:0:0:1:
128,192,214411,1,0,0:0:0:1:
298,192,214411,1,0,0:0:0:1:
213,192,214500,1,0,0:0:0:1:
384,192,214588,1,0,0:0:0:1:
42,192,214588,1,0,0:0:0:1:
298,192,214676,1,0,0:0:0:1:
128,192,214764,1,0,0:0:0:1:
384,192,214764,1,0,0:0:0:1:
213,192,214852,1,0,0:0:0:1:
384,192,214941,1,0,0:0:0:1:
469,192,214941,1,0,0:0:0:1:
42,192,214941,1,0,0:0:0:1:
298,192,215029,1,0,0:0:0:1:
213,192,215117,1,0,0:0:0:1:
469,192,215117,1,0,0:0:0:1:
128,192,215205,1,0,0:0:0:1:
384,192,215205,1,0,0:0:0:1:
298,192,215294,1,0,0:0:0:1:
42,192,215294,1,0,0:0:0:1:
213,192,215382,1,0,0:0:0:1:
384,192,215382,1,0,0:0:0:1:
128,192,215470,1,0,0:0:0:1:
469,192,215470,1,0,0:0:0:1:
213,192,215558,1,0,0:0:0:1:
298,192,215558,1,0,0:0:0:1:
384,192,215647,1,0,0:0:0:1:
469,192,215647,1,0,0:0:0:1:
42,192,215647,1,0,0:0:0:1:
213,192,215735,1,0,0:0:0:1:
