osu file format v14

[General]
AudioFilename: The Limit Does not Exist.mp3
AudioLeadIn: 0
PreviewTime: -1
Countdown: 1
SampleSet: None
StackLeniency: 0.7
Mode: 3
LetterboxInBreaks: 1
SpecialStyle: 1
WidescreenStoryboard: 1

[Editor]
DistanceSpacing: 1.3
BeatDivisor: 4
GridSize: 8
TimelineZoom: 1

[Metadata]
Title:Derrick 6K Exercise Pack
TitleUnicode:Derrick 6K Exercise Pack
Artist:Various Artists
ArtistUnicode:Various Artists
Creator:[Crz]Derrick
Version:Cardboard Box - The Limit Does not Exist [18]
Source:
Tags:
BeatmapID:998930
BeatmapSetID:466803

[Difficulty]
HPDrainRate:8
CircleSize:6
OverallDifficulty:9
ApproachRate:5
SliderMultiplier:1.4
SliderTickRate:1

[Events]
//Background and Video events
0,0,"6a587112-c995-44b1-b175-c612d9335ade.jpg",0,0
//Break Periods
//Storyboard Layer 0 (Background)
//Storyboard Layer 1 (Fail)
//Storyboard Layer 2 (Pass)
//Storyboard Layer 3 (Foreground)
//Storyboard Sound Samples

[TimingPoints]
0,230.769230769231,4,2,0,70,1,0

[HitObjects]
128,192,1846,5,0,0:0:0:1:
298,192,2076,1,0,0:0:0:1:
298,192,2192,1,0,0:0:0:1:
213,192,2423,1,0,0:0:0:1:
384,192,2538,1,0,0:0:0:1:
213,192,2653,1,0,0:0:0:1:
384,192,2769,1,0,0:0:0:1:
213,192,2884,1,0,0:0:0:1:
384,192,3000,1,0,0:0:0:1:
298,192,3230,1,0,0:0:0:1:
298,192,3346,1,0,0:0:0:1:
469,192,3461,1,0,0:0:0:1:
128,192,3692,1,0,0:0:0:1:
469,192,3692,1,0,0:0:0:1:
213,192,3923,1,0,0:0:0:1:
42,192,3923,1,0,0:0:0:1:
213,192,4038,1,0,0:0:0:1:
469,192,4038,1,0,0:0:0:1:
213,192,4269,1,0,0:0:0:1:
469,192,4269,1,0,0:0:0:1:
384,192,4384,1,0,0:0:0:1:
42,192,4384,1,0,0:0:0:1:
213,192,4500,1,0,0:0:0:1:
128,192,4615,1,0,0:0:0:1:
469,192,4615,1,0,0:0:0:1:
128,192,4730,1,0,0:0:0:1:
469,192,4730,1,0,0:0:0:1:
298,192,4846,1,0,0:0:0:1:
42,192,4846,1,0,0:0:0:1:
213,192,5076,1,0,0:0:0:1:
469,192,5076,1,0,0:0:0:1:
213,192,5192,1,0,0:0:0:1:
469,192,5192,1,0,0:0:0:1:
384,192,5307,1,0,0:0:0:1:
42,192,5307,1,0,0:0:0:1:
128,192,5538,1,0,0:0:0:1:
469,192,5538,1,0,0:0:0:1:
213,192,5769,1,0,0:0:0:1:
42,192,5769,1,0,0:0:0:1:
213,192,5884,1,0,0:0:0:1:
469,192,5884,1,0,0:0:0:1:
213,192,6115,1,0,0:0:0:1:
469,192,6115,1,0,0:0:0:1:
384,192,6230,1,0,0:0:0:1:
42,192,6230,1,0,0:0:0:1:
213,192,6346,1,0,0:0:0:1:
128,192,6461,1,0,0:0:0:1:
469,192,6461,1,0,0:0:0:1:
128,192,6576,1,0,0:0:0:1:
469,192,6576,1,0,0:0:0:1:
298,192,6692,1,0,0:0:0:1:
42,192,6692,1,0,0:0:0:1:
213,192,6923,1,0,0:0:0:1:
469,192,6923,1,0,0:0:0:1:
213,192,7038,1,0,0:0:0:1:
469,192,7038,1,0,0:0:0:1:
384,192,7153,1,0,0:0:0:1:
42,192,7153,1,0,0:0:0:1:
128,192,7384,1,0,0:0:0:1:
469,192,7384,1,0,0:0:0:1:
213,192,7615,1,0,0:0:0:1:
42,192,7615,1,0,0:0:0:1:
213,192,7730,1,0,0:0:0:1:
469,192,7730,1,0,0:0:0:1:
213,192,7961,1,0,0:0:0:1:
469,192,7961,1,0,0:0:0:1:
384,192,8076,1,0,0:0:0:1:
42,192,8076,1,0,0:0:0:1:
213,192,8192,1,0,0:0:0:1:
128,192,8307,1,0,0:0:0:1:
469,192,8307,1,0,0:0:0:1:
128,192,8423,1,0,0:0:0:1:
469,192,8423,1,0,0:0:0:1:
298,192,8538,1,0,0:0:0:1:
42,192,8538,1,0,0:0:0:1:
213,192,8769,1,0,0:0:0:1:
469,192,8769,1,0,0:0:0:1:
213,192,8884,1,0,0:0:0:1:
469,192,8884,1,0,0:0:0:1:
384,192,9000,1,0,0:0:0:1:
42,192,9000,1,0,0:0:0:1:
128,192,9230,1,0,0:0:0:1:
469,192,9230,1,0,0:0:0:1:
384,192,9269,1,0,0:0:0:1:
298,192,9307,1,0,0:0:0:1:
213,192,9346,1,0,0:0:0:1:
213,192,9461,1,0,0:0:0:1:
42,192,9461,1,0,0:0:0:1:
213,192,9576,1,0,0:0:0:1:
469,192,9576,1,0,0:0:0:1:
298,192,9615,1,0,0:0:0:1:
384,192,9653,1,0,0:0:0:1:
469,192,9692,1,0,0:0:0:1:
42,192,9692,1,0,0:0:0:1:
213,192,9807,1,0,0:0:0:1:
469,192,9807,1,0,0:0:0:1:
384,192,9923,1,0,0:0:0:1:
42,192,9923,1,0,0:0:0:1:
128,192,9961,1,0,0:0:0:1:
213,192,10000,1,0,0:0:0:1:
298,192,10038,1,0,0:0:0:1:
128,192,10153,1,0,0:0:0:1:
469,192,10153,1,0,0:0:0:1:
128,192,10269,1,0,0:0:0:1:
469,192,10269,1,0,0:0:0:1:
298,192,10384,1,0,0:0:0:1:
42,192,10384,1,0,0:0:0:1:
128,192,10423,1,0,0:0:0:1:
384,192,10461,1,0,0:0:0:1:
213,192,10500,1,0,0:0:0:1:
213,192,10615,1,0,0:0:0:1:
469,192,10615,1,0,0:0:0:1:
213,192,10730,1,0,0:0:0:1:
469,192,10730,1,0,0:0:0:1:
384,192,10846,1,0,0:0:0:1:
42,192,10846,1,0,0:0:0:1:
128,192,10884,1,0,0:0:0:1:
298,192,10923,1,0,0:0:0:1:
213,192,10961,1,0,0:0:0:1:
384,192,11000,1,0,0:0:0:1:
128,192,11076,1,0,0:0:0:1:
469,192,11076,1,0,0:0:0:1:
384,192,11115,1,0,0:0:0:1:
298,192,11153,1,0,0:0:0:1:
213,192,11192,1,0,0:0:0:1:
213,192,11307,1,0,0:0:0:1:
42,192,11307,1,0,0:0:0:1:
213,192,11423,1,0,0:0:0:1:
469,192,11423,1,0,0:0:0:1:
298,192,11461,1,0,0:0:0:1:
384,192,11500,1,0,0:0:0:1:
469,192,11538,1,0,0:0:0:1:
42,192,11538,1,0,0:0:0:1:
213,192,11653,1,0,0:0:0:1:
469,192,11653,1,0,0:0:0:1:
384,192,11769,1,0,0:0:0:1:
42,192,11769,1,0,0:0:0:1:
128,192,11807,1,0,0:0:0:1:
213,192,11846,1,0,0:0:0:1:
298,192,11884,1,0,0:0:0:1:
128,192,12000,1,0,0:0:0:1:
469,192,12000,1,0,0:0:0:1:
128,192,12115,1,0,0:0:0:1:
469,192,12115,1,0,0:0:0:1:
298,192,12230,1,0,0:0:0:1:
42,192,12230,1,0,0:0:0:1:
128,192,12269,1,0,0:0:0:1:
384,192,12307,1,0,0:0:0:1:
213,192,12346,1,0,0:0:0:1:
213,192,12461,1,0,0:0:0:1:
469,192,12461,1,0,0:0:0:1:
213,192,12576,1,0,0:0:0:1:
469,192,12576,1,0,0:0:0:1:
384,192,12692,1,0,0:0:0:1:
42,192,12692,1,0,0:0:0:1:
128,192,12730,1,0,0:0:0:1:
298,192,12769,1,0,0:0:0:1:
213,192,12807,1,0,0:0:0:1:
384,192,12836,1,0,0:0:0:1:
128,192,12923,1,0,0:0:0:1:
469,192,12923,1,0,0:0:0:1:
213,192,12980,1,0,0:0:0:1:
298,192,13038,1,0,0:0:0:1:
384,192,13096,1,0,0:0:0:1:
128,192,13153,1,0,0:0:0:1:
42,192,13153,1,0,0:0:0:1:
213,192,13211,1,0,0:0:0:1:
298,192,13269,1,0,0:0:0:1:
384,192,13269,1,0,0:0:0:1:
469,192,13326,1,0,0:0:0:1:
42,192,13384,1,0,0:0:0:1:
128,192,13442,1,0,0:0:0:1:
213,192,13500,1,0,0:0:0:1:
469,192,13500,1,0,0:0:0:1:
298,192,13557,1,0,0:0:0:1:
384,192,13615,1,0,0:0:0:1:
42,192,13615,1,0,0:0:0:1:
128,192,13673,1,0,0:0:0:1:
213,192,13730,1,0,0:0:0:1:
298,192,13730,1,0,0:0:0:1:
384,192,13788,1,0,0:0:0:1:
128,192,13846,1,0,0:0:0:1:
469,192,13846,1,0,0:0:0:1:
384,192,13903,1,0,0:0:0:1:
213,192,13961,1,0,0:0:0:1:
298,192,13961,1,0,0:0:0:1:
128,192,14019,1,0,0:0:0:1:
384,192,14076,1,0,0:0:0:1:
42,192,14076,1,0,0:0:0:1:
298,192,14134,1,0,0:0:0:1:
213,192,14192,1,0,0:0:0:1:
128,192,14250,1,0,0:0:0:1:
469,192,14307,1,0,0:0:0:1:
42,192,14307,1,0,0:0:0:1:
384,192,14365,1,0,0:0:0:1:
213,192,14423,1,0,0:0:0:1:
298,192,14423,1,0,0:0:0:1:
128,192,14480,1,0,0:0:0:1:
384,192,14538,1,0,0:0:0:1:
42,192,14538,1,0,0:0:0:1:
298,192,14596,1,0,0:0:0:1:
213,192,14653,1,0,0:0:0:1:
128,192,14711,1,0,0:0:0:1:
469,192,14769,1,0,0:0:0:1:
42,192,14769,1,0,0:0:0:1:
213,192,14826,1,0,0:0:0:1:
298,192,14884,1,0,0:0:0:1:
384,192,14942,1,0,0:0:0:1:
128,192,15000,1,0,0:0:0:1:
42,192,15000,1,0,0:0:0:1:
213,192,15057,1,0,0:0:0:1:
298,192,15115,1,0,0:0:0:1:
384,192,15115,1,0,0:0:0:1:
469,192,15173,1,0,0:0:0:1:
42,192,15230,1,0,0:0:0:1:
128,192,15288,1,0,0:0:0:1:
213,192,15346,1,0,0:0:0:1:
469,192,15346,1,0,0:0:0:1:
298,192,15403,1,0,0:0:0:1:
384,192,15461,1,0,0:0:0:1:
42,192,15461,1,0,0:0:0:1:
128,192,15519,1,0,0:0:0:1:
213,192,15576,1,0,0:0:0:1:
298,192,15576,1,0,0:0:0:1:
384,192,15634,1,0,0:0:0:1:
128,192,15692,1,0,0:0:0:1:
469,192,15692,1,0,0:0:0:1:
384,192,15750,1,0,0:0:0:1:
213,192,15807,1,0,0:0:0:1:
298,192,15807,1,0,0:0:0:1:
128,192,15865,1,0,0:0:0:1:
384,192,15923,1,0,0:0:0:1:
42,192,15923,1,0,0:0:0:1:
298,192,15980,1,0,0:0:0:1:
213,192,16038,1,0,0:0:0:1:
128,192,16096,1,0,0:0:0:1:
469,192,16153,1,0,0:0:0:1:
42,192,16153,1,0,0:0:0:1:
384,192,16211,1,0,0:0:0:1:
213,192,16269,1,0,0:0:0:1:
298,192,16269,1,0,0:0:0:1:
128,192,16326,1,0,0:0:0:1:
384,192,16384,1,0,0:0:0:1:
42,192,16384,1,0,0:0:0:1:
298,192,16442,1,0,0:0:0:1:
213,192,16500,1,0,0:0:0:1:
128,192,16557,1,0,0:0:0:1:
469,192,16615,1,0,0:0:0:1:
42,192,16615,1,0,0:0:0:1:
384,192,16653,1,0,0:0:0:1:
298,192,16692,1,0,0:0:0:1:
213,192,16730,1,0,0:0:0:1:
213,192,16846,1,0,0:0:0:1:
42,192,16846,1,0,0:0:0:1:
213,192,16961,1,0,0:0:0:1:
469,192,16961,1,0,0:0:0:1:
298,192,17000,1,0,0:0:0:1:
384,192,17038,1,0,0:0:0:1:
469,192,17076,1,0,0:0:0:1:
42,192,17076,1,0,0:0:0:1:
213,192,17192,1,0,0:0:0:1:
469,192,17192,1,0,0:0:0:1:
384,192,17307,1,0,0:0:0:1:
42,192,17307,1,0,0:0:0:1:
128,192,17346,1,0,0:0:0:1:
213,192,17384,1,0,0:0:0:1:
298,192,17423,1,0,0:0:0:1:
128,192,17538,1,0,0:0:0:1:
469,192,17538,1,0,0:0:0:1:
128,192,17653,1,0,0:0:0:1:
469,192,17653,1,0,0:0:0:1:
298,192,17769,1,0,0:0:0:1:
42,192,17769,1,0,0:0:0:1:
128,192,17807,1,0,0:0:0:1:
384,192,17846,1,0,0:0:0:1:
213,192,17884,1,0,0:0:0:1:
213,192,18000,1,0,0:0:0:1:
469,192,18000,1,0,0:0:0:1:
213,192,18115,1,0,0:0:0:1:
469,192,18115,1,0,0:0:0:1:
384,192,18230,1,0,0:0:0:1:
42,192,18230,1,0,0:0:0:1:
128,192,18269,1,0,0:0:0:1:
298,192,18307,1,0,0:0:0:1:
213,192,18346,1,0,0:0:0:1:
384,192,18384,1,0,0:0:0:1:
128,192,18461,1,0,0:0:0:1:
469,192,18461,1,0,0:0:0:1:
384,192,18500,1,0,0:0:0:1:
298,192,18538,1,0,0:0:0:1:
213,192,18576,1,0,0:0:0:1:
213,192,18692,1,0,0:0:0:1:
42,192,18692,1,0,0:0:0:1:
213,192,18807,1,0,0:0:0:1:
469,192,18807,1,0,0:0:0:1:
298,192,18846,1,0,0:0:0:1:
384,192,18884,1,0,0:0:0:1:
469,192,18923,1,0,0:0:0:1:
42,192,18923,1,0,0:0:0:1:
213,192,19038,1,0,0:0:0:1:
469,192,19038,1,0,0:0:0:1:
384,192,19153,1,0,0:0:0:1:
42,192,19153,1,0,0:0:0:1:
128,192,19192,1,0,0:0:0:1:
213,192,19230,1,0,0:0:0:1:
298,192,19269,1,0,0:0:0:1:
128,192,19384,1,0,0:0:0:1:
469,192,19384,1,0,0:0:0:1:
128,192,19500,1,0,0:0:0:1:
469,192,19500,1,0,0:0:0:1:
298,192,19615,1,0,0:0:0:1:
42,192,19615,1,0,0:0:0:1:
128,192,19653,1,0,0:0:0:1:
384,192,19692,1,0,0:0:0:1:
213,192,19730,1,0,0:0:0:1:
213,192,19846,1,0,0:0:0:1:
469,192,19846,1,0,0:0:0:1:
213,192,19961,1,0,0:0:0:1:
469,192,19961,1,0,0:0:0:1:
384,192,20076,1,0,0:0:0:1:
42,192,20076,1,0,0:0:0:1:
128,192,20115,1,0,0:0:0:1:
298,192,20153,1,0,0:0:0:1:
213,192,20192,1,0,0:0:0:1:
384,192,20221,1,0,0:0:0:1:
128,192,20307,1,0,0:0:0:1:
469,192,20307,1,0,0:0:0:1:
213,192,20365,1,0,0:0:0:1:
298,192,20423,1,0,0:0:0:1:
384,192,20480,1,0,0:0:0:1:
128,192,20538,1,0,0:0:0:1:
42,192,20538,1,0,0:0:0:1:
213,192,20596,1,0,0:0:0:1:
298,192,20653,1,0,0:0:0:1:
384,192,20653,1,0,0:0:0:1:
469,192,20711,1,0,0:0:0:1:
42,192,20769,1,0,0:0:0:1:
128,192,20826,1,0,0:0:0:1:
213,192,20884,1,0,0:0:0:1:
469,192,20884,1,0,0:0:0:1:
298,192,20942,1,0,0:0:0:1:
384,192,21000,1,0,0:0:0:1:
42,192,21000,1,0,0:0:0:1:
128,192,21057,1,0,0:0:0:1:
213,192,21115,1,0,0:0:0:1:
298,192,21115,1,0,0:0:0:1:
384,192,21173,1,0,0:0:0:1:
128,192,21230,1,0,0:0:0:1:
469,192,21230,1,0,0:0:0:1:
384,192,21288,1,0,0:0:0:1:
213,192,21346,1,0,0:0:0:1:
298,192,21346,1,0,0:0:0:1:
128,192,21403,1,0,0:0:0:1:
384,192,21461,1,0,0:0:0:1:
42,192,21461,1,0,0:0:0:1:
298,192,21519,1,0,0:0:0:1:
213,192,21576,1,0,0:0:0:1:
128,192,21634,1,0,0:0:0:1:
469,192,21692,1,0,0:0:0:1:
42,192,21692,1,0,0:0:0:1:
384,192,21750,1,0,0:0:0:1:
213,192,21807,1,0,0:0:0:1:
298,192,21807,1,0,0:0:0:1:
128,192,21865,1,0,0:0:0:1:
384,192,21923,1,0,0:0:0:1:
42,192,21923,1,0,0:0:0:1:
298,192,21980,1,0,0:0:0:1:
213,192,22038,1,0,0:0:0:1:
128,192,22096,1,0,0:0:0:1:
469,192,22153,1,0,0:0:0:1:
42,192,22153,1,0,0:0:0:1:
213,192,22211,1,0,0:0:0:1:
298,192,22269,1,0,0:0:0:1:
384,192,22326,1,0,0:0:0:1:
128,192,22384,1,0,0:0:0:1:
42,192,22384,1,0,0:0:0:1:
213,192,22442,1,0,0:0:0:1:
298,192,22500,1,0,0:0:0:1:
384,192,22500,1,0,0:0:0:1:
469,192,22557,1,0,0:0:0:1:
42,192,22615,1,0,0:0:0:1:
128,192,22673,1,0,0:0:0:1:
213,192,22730,1,0,0:0:0:1:
469,192,22730,1,0,0:0:0:1:
298,192,22788,1,0,0:0:0:1:
384,192,22846,1,0,0:0:0:1:
42,192,22846,1,0,0:0:0:1:
128,192,22903,1,0,0:0:0:1:
213,192,22961,1,0,0:0:0:1:
298,192,22961,1,0,0:0:0:1:
384,192,23019,1,0,0:0:0:1:
128,192,23076,1,0,0:0:0:1:
469,192,23076,1,0,0:0:0:1:
384,192,23134,1,0,0:0:0:1:
213,192,23192,1,0,0:0:0:1:
298,192,23192,1,0,0:0:0:1:
128,192,23250,1,0,0:0:0:1:
384,192,23307,1,0,0:0:0:1:
42,192,23307,1,0,0:0:0:1:
298,192,23365,1,0,0:0:0:1:
213,192,23423,1,0,0:0:0:1:
128,192,23480,1,0,0:0:0:1:
469,192,23538,1,0,0:0:0:1:
42,192,23538,1,0,0:0:0:1:
384,192,23596,1,0,0:0:0:1:
213,192,23653,1,0,0:0:0:1:
298,192,23653,1,0,0:0:0:1:
128,192,23711,1,0,0:0:0:1:
384,192,23769,1,0,0:0:0:1:
42,192,23769,1,0,0:0:0:1:
298,192,23826,1,0,0:0:0:1:
213,192,23884,1,0,0:0:0:1:
128,192,23942,1,0,0:0:0:1:
384,192,24000,1,0,0:0:0:1:
42,192,24000,1,0,0:0:0:1:
213,192,24038,1,0,0:0:0:1:
128,192,24076,1,0,0:0:0:1:
298,192,24115,1,0,0:0:0:1:
128,192,24230,1,0,0:0:0:1:
469,192,24230,1,0,0:0:0:1:
128,192,24346,1,0,0:0:0:1:
384,192,24346,1,0,0:0:0:1:
298,192,24384,1,0,0:0:0:1:
469,192,24423,1,0,0:0:0:1:
213,192,24461,1,0,0:0:0:1:
384,192,24576,1,0,0:0:0:1:
42,192,24576,1,0,0:0:0:1:
128,192,24692,1,0,0:0:0:1:
384,192,24692,1,0,0:0:0:1:
213,192,24730,1,0,0:0:0:1:
469,192,24769,1,0,0:0:0:1:
298,192,24807,1,0,0:0:0:1:
213,192,24923,1,0,0:0:0:1:
42,192,24923,1,0,0:0:0:1:
213,192,25038,1,0,0:0:0:1:
42,192,25038,1,0,0:0:0:1:
384,192,25153,1,0,0:0:0:1:
298,192,25192,1,0,0:0:0:1:
213,192,25230,1,0,0:0:0:1:
128,192,25269,1,0,0:0:0:1:
298,192,25384,1,0,0:0:0:1:
469,192,25384,1,0,0:0:0:1:
298,192,25500,1,0,0:0:0:1:
469,192,25500,1,0,0:0:0:1:
128,192,25615,1,0,0:0:0:1:
213,192,25653,1,0,0:0:0:1:
298,192,25692,1,0,0:0:0:1:
384,192,25730,1,0,0:0:0:1:
298,192,25846,1,0,0:0:0:1:
42,192,25846,1,0,0:0:0:1:
213,192,25884,1,0,0:0:0:1:
384,192,25923,1,0,0:0:0:1:
128,192,25961,1,0,0:0:0:1:
213,192,26076,1,0,0:0:0:1:
42,192,26076,1,0,0:0:0:1:
213,192,26192,1,0,0:0:0:1:
384,192,26192,1,0,0:0:0:1:
128,192,26230,1,0,0:0:0:1:
298,192,26269,1,0,0:0:0:1:
42,192,26307,1,0,0:0:0:1:
298,192,26423,1,0,0:0:0:1:
469,192,26423,1,0,0:0:0:1:
128,192,26538,1,0,0:0:0:1:
298,192,26538,1,0,0:0:0:1:
469,192,26576,1,0,0:0:0:1:
213,192,26615,1,0,0:0:0:1:
384,192,26653,1,0,0:0:0:1:
128,192,26769,1,0,0:0:0:1:
469,192,26769,1,0,0:0:0:1:
128,192,26884,1,0,0:0:0:1:
469,192,26884,1,0,0:0:0:1:
213,192,27000,1,0,0:0:0:1:
384,192,27038,1,0,0:0:0:1:
298,192,27076,1,0,0:0:0:1:
469,192,27115,1,0,0:0:0:1:
384,192,27230,1,0,0:0:0:1:
42,192,27230,1,0,0:0:0:1:
384,192,27346,1,0,0:0:0:1:
42,192,27346,1,0,0:0:0:1:
298,192,27461,1,0,0:0:0:1:
128,192,27500,1,0,0:0:0:1:
213,192,27538,1,0,0:0:0:1:
42,192,27576,1,0,0:0:0:1:
128,192,27692,1,0,0:0:0:1:
469,192,27692,1,0,0:0:0:1:
384,192,27730,1,0,0:0:0:1:
298,192,27769,1,0,0:0:0:1:
213,192,27807,1,0,0:0:0:1:
384,192,27923,1,0,0:0:0:1:
42,192,27923,1,0,0:0:0:1:
128,192,28038,1,0,0:0:0:1:
384,192,28038,1,0,0:0:0:1:
213,192,28076,1,0,0:0:0:1:
298,192,28115,1,0,0:0:0:1:
469,192,28153,1,0,0:0:0:1:
128,192,28269,1,0,0:0:0:1:
469,192,28269,1,0,0:0:0:1:
128,192,28384,1,0,0:0:0:1:
384,192,28384,1,0,0:0:0:1:
298,192,28423,1,0,0:0:0:1:
42,192,28461,1,0,0:0:0:1:
213,192,28500,1,0,0:0:0:1:
298,192,28615,1,0,0:0:0:1:
469,192,28615,1,0,0:0:0:1:
298,192,28730,1,0,0:0:0:1:
469,192,28730,1,0,0:0:0:1:
128,192,28846,1,0,0:0:0:1:
384,192,28884,1,0,0:0:0:1:
213,192,28923,1,0,0:0:0:1:
469,192,28961,1,0,0:0:0:1:
213,192,29076,1,0,0:0:0:1:
42,192,29076,1,0,0:0:0:1:
213,192,29192,1,0,0:0:0:1:
42,192,29192,1,0,0:0:0:1:
384,192,29307,1,0,0:0:0:1:
128,192,29346,1,0,0:0:0:1:
298,192,29384,1,0,0:0:0:1:
42,192,29423,1,0,0:0:0:1:
213,192,29538,1,0,0:0:0:1:
469,192,29538,1,0,0:0:0:1:
384,192,29576,1,0,0:0:0:1:
298,192,29615,1,0,0:0:0:1:
128,192,29653,1,0,0:0:0:1:
298,192,29769,1,0,0:0:0:1:
469,192,29769,1,0,0:0:0:1:
128,192,29884,1,0,0:0:0:1:
298,192,29884,1,0,0:0:0:1:
384,192,29923,1,0,0:0:0:1:
213,192,29961,1,0,0:0:0:1:
469,192,30000,1,0,0:0:0:1:
213,192,30115,1,0,0:0:0:1:
42,192,30115,1,0,0:0:0:1:
213,192,30230,1,0,0:0:0:1:
384,192,30230,1,0,0:0:0:1:
42,192,30269,1,0,0:0:0:1:
298,192,30307,1,0,0:0:0:1:
128,192,30346,1,0,0:0:0:1:
384,192,30461,1,0,0:0:0:1:
42,192,30461,1,0,0:0:0:1:
384,192,30576,1,0,0:0:0:1:
42,192,30576,1,0,0:0:0:1:
298,192,30692,1,0,0:0:0:1:
213,192,30730,1,0,0:0:0:1:
128,192,30769,1,0,0:0:0:1:
42,192,30807,1,0,0:0:0:1:
128,192,30923,1,0,0:0:0:1:
469,192,30923,1,0,0:0:0:1:
128,192,31038,1,0,0:0:0:1:
469,192,31038,1,0,0:0:0:1:
213,192,31153,1,0,0:0:0:1:
42,192,31153,1,0,0:0:0:1:
298,192,31211,1,0,0:0:0:1:
469,192,31211,1,0,0:0:0:1:
213,192,31269,1,0,0:0:0:1:
42,192,31269,1,0,0:0:0:1:
298,192,31326,1,0,0:0:0:1:
469,192,31326,1,0,0:0:0:1:
384,192,31384,1,0,0:0:0:1:
42,192,31384,1,0,0:0:0:1:
128,192,31423,1,0,0:0:0:1:
213,192,31461,1,0,0:0:0:1:
298,192,31500,1,0,0:0:0:1:
128,192,31615,1,0,0:0:0:1:
469,192,31615,1,0,0:0:0:1:
128,192,31730,1,0,0:0:0:1:
384,192,31730,1,0,0:0:0:1:
213,192,31769,1,0,0:0:0:1:
469,192,31807,1,0,0:0:0:1:
298,192,31846,1,0,0:0:0:1:
384,192,31961,1,0,0:0:0:1:
42,192,31961,1,0,0:0:0:1:
128,192,32076,1,0,0:0:0:1:
384,192,32076,1,0,0:0:0:1:
213,192,32115,1,0,0:0:0:1:
42,192,32153,1,0,0:0:0:1:
298,192,32192,1,0,0:0:0:1:
213,192,32307,1,0,0:0:0:1:
42,192,32307,1,0,0:0:0:1:
213,192,32423,1,0,0:0:0:1:
42,192,32423,1,0,0:0:0:1:
384,192,32538,1,0,0:0:0:1:
213,192,32576,1,0,0:0:0:1:
298,192,32615,1,0,0:0:0:1:
128,192,32653,1,0,0:0:0:1:
298,192,32769,1,0,0:0:0:1:
469,192,32769,1,0,0:0:0:1:
298,192,32884,1,0,0:0:0:1:
469,192,32884,1,0,0:0:0:1:
128,192,33000,1,0,0:0:0:1:
298,192,33038,1,0,0:0:0:1:
213,192,33076,1,0,0:0:0:1:
384,192,33115,1,0,0:0:0:1:
298,192,33230,1,0,0:0:0:1:
42,192,33230,1,0,0:0:0:1:
128,192,33269,1,0,0:0:0:1:
213,192,33307,1,0,0:0:0:1:
384,192,33346,1,0,0:0:0:1:
213,192,33461,1,0,0:0:0:1:
42,192,33461,1,0,0:0:0:1:
213,192,33576,1,0,0:0:0:1:
384,192,33576,1,0,0:0:0:1:
128,192,33615,1,0,0:0:0:1:
298,192,33653,1,0,0:0:0:1:
42,192,33692,1,0,0:0:0:1:
298,192,33807,1,0,0:0:0:1:
469,192,33807,1,0,0:0:0:1:
128,192,33923,1,0,0:0:0:1:
298,192,33923,1,0,0:0:0:1:
42,192,33961,1,0,0:0:0:1:
213,192,34000,1,0,0:0:0:1:
384,192,34038,1,0,0:0:0:1:
128,192,34153,1,0,0:0:0:1:
469,192,34153,1,0,0:0:0:1:
128,192,34269,1,0,0:0:0:1:
469,192,34269,1,0,0:0:0:1:
213,192,34384,1,0,0:0:0:1:
298,192,34423,1,0,0:0:0:1:
384,192,34461,1,0,0:0:0:1:
469,192,34500,1,0,0:0:0:1:
384,192,34615,1,0,0:0:0:1:
42,192,34615,1,0,0:0:0:1:
384,192,34730,1,0,0:0:0:1:
42,192,34730,1,0,0:0:0:1:
298,192,34846,1,0,0:0:0:1:
213,192,34884,1,0,0:0:0:1:
128,192,34923,1,0,0:0:0:1:
42,192,34961,1,0,0:0:0:1:
128,192,35076,1,0,0:0:0:1:
469,192,35076,1,0,0:0:0:1:
298,192,35115,1,0,0:0:0:1:
384,192,35153,1,0,0:0:0:1:
213,192,35192,1,0,0:0:0:1:
384,192,35307,1,0,0:0:0:1:
42,192,35307,1,0,0:0:0:1:
128,192,35423,1,0,0:0:0:1:
384,192,35423,1,0,0:0:0:1:
213,192,35461,1,0,0:0:0:1:
469,192,35500,1,0,0:0:0:1:
298,192,35538,1,0,0:0:0:1:
128,192,35653,1,0,0:0:0:1:
469,192,35653,1,0,0:0:0:1:
128,192,35769,1,0,0:0:0:1:
384,192,35769,1,0,0:0:0:1:
298,192,35807,1,0,0:0:0:1:
42,192,35846,1,0,0:0:0:1:
213,192,35884,1,0,0:0:0:1:
298,192,36000,1,0,0:0:0:1:
469,192,36000,1,0,0:0:0:1:
298,192,36115,1,0,0:0:0:1:
469,192,36115,1,0,0:0:0:1:
128,192,36230,1,0,0:0:0:1:
384,192,36269,1,0,0:0:0:1:
213,192,36307,1,0,0:0:0:1:
469,192,36346,1,0,0:0:0:1:
213,192,36461,1,0,0:0:0:1:
42,192,36461,1,0,0:0:0:1:
213,192,36576,1,0,0:0:0:1:
42,192,36576,1,0,0:0:0:1:
384,192,36692,1,0,0:0:0:1:
128,192,36730,1,0,0:0:0:1:
298,192,36769,1,0,0:0:0:1:
42,192,36807,1,0,0:0:0:1:
213,192,36923,1,0,0:0:0:1:
469,192,36923,1,0,0:0:0:1:
298,192,36961,1,0,0:0:0:1:
128,192,37000,1,0,0:0:0:1:
384,192,37038,1,0,0:0:0:1:
298,192,37153,1,0,0:0:0:1:
469,192,37153,1,0,0:0:0:1:
128,192,37269,1,0,0:0:0:1:
298,192,37269,1,0,0:0:0:1:
384,192,37307,1,0,0:0:0:1:
213,192,37346,1,0,0:0:0:1:
469,192,37384,1,0,0:0:0:1:
213,192,37500,1,0,0:0:0:1:
42,192,37500,1,0,0:0:0:1:
213,192,37615,1,0,0:0:0:1:
384,192,37615,1,0,0:0:0:1:
469,192,37653,1,0,0:0:0:1:
298,192,37692,1,0,0:0:0:1:
128,192,37730,1,0,0:0:0:1:
384,192,37846,1,0,0:0:0:1:
42,192,37846,1,0,0:0:0:1:
384,192,37961,1,0,0:0:0:1:
42,192,37961,1,0,0:0:0:1:
298,192,38076,1,0,0:0:0:1:
128,192,38115,1,0,0:0:0:1:
384,192,38153,1,0,0:0:0:1:
213,192,38192,1,0,0:0:0:1:
128,192,38307,1,0,0:0:0:1:
469,192,38307,1,0,0:0:0:1:
128,192,38423,1,0,0:0:0:1:
469,192,38423,1,0,0:0:0:1:
298,192,38538,1,0,0:0:0:1:
42,192,38538,1,0,0:0:0:1:
213,192,38596,1,0,0:0:0:1:
469,192,38596,1,0,0:0:0:1:
298,192,38653,1,0,0:0:0:1:
42,192,38653,1,0,0:0:0:1:
213,192,38711,1,0,0:0:0:1:
469,192,38711,1,0,0:0:0:1:
384,192,38769,1,0,0:0:0:1:
42,192,38769,1,0,0:0:0:1:
298,192,38807,1,0,0:0:0:1:
469,192,38846,1,0,0:0:0:1:
213,192,38884,1,0,0:0:0:1:
213,192,39000,1,0,0:0:0:1:
42,192,39000,1,0,0:0:0:1:
213,192,39115,1,0,0:0:0:1:
469,192,39115,1,0,0:0:0:1:
298,192,39153,1,0,0:0:0:1:
384,192,39192,1,0,0:0:0:1:
469,192,39230,1,0,0:0:0:1:
42,192,39230,1,0,0:0:0:1:
213,192,39346,1,0,0:0:0:1:
469,192,39346,1,0,0:0:0:1:
384,192,39461,1,0,0:0:0:1:
42,192,39461,1,0,0:0:0:1:
128,192,39500,1,0,0:0:0:1:
213,192,39538,1,0,0:0:0:1:
298,192,39576,1,0,0:0:0:1:
128,192,39692,1,0,0:0:0:1:
469,192,39692,1,0,0:0:0:1:
128,192,39807,1,0,0:0:0:1:
469,192,39807,1,0,0:0:0:1:
298,192,39923,1,0,0:0:0:1:
42,192,39923,1,0,0:0:0:1:
128,192,39961,1,0,0:0:0:1:
384,192,40000,1,0,0:0:0:1:
213,192,40038,1,0,0:0:0:1:
213,192,40153,1,0,0:0:0:1:
469,192,40153,1,0,0:0:0:1:
213,192,40269,1,0,0:0:0:1:
469,192,40269,1,0,0:0:0:1:
384,192,40384,1,0,0:0:0:1:
42,192,40384,1,0,0:0:0:1:
128,192,40423,1,0,0:0:0:1:
298,192,40461,1,0,0:0:0:1:
213,192,40500,1,0,0:0:0:1:
384,192,40538,1,0,0:0:0:1:
128,192,40615,1,0,0:0:0:1:
469,192,40615,1,0,0:0:0:1:
384,192,40653,1,0,0:0:0:1:
298,192,40692,1,0,0:0:0:1:
213,192,40730,1,0,0:0:0:1:
213,192,40846,1,0,0:0:0:1:
42,192,40846,1,0,0:0:0:1:
213,192,40961,1,0,0:0:0:1:
469,192,40961,1,0,0:0:0:1:
298,192,41000,1,0,0:0:0:1:
384,192,41038,1,0,0:0:0:1:
469,192,41076,1,0,0:0:0:1:
42,192,41076,1,0,0:0:0:1:
213,192,41192,1,0,0:0:0:1:
469,192,41192,1,0,0:0:0:1:
384,192,41307,1,0,0:0:0:1:
42,192,41307,1,0,0:0:0:1:
128,192,41346,1,0,0:0:0:1:
213,192,41384,1,0,0:0:0:1:
298,192,41423,1,0,0:0:0:1:
128,192,41538,1,0,0:0:0:1:
469,192,41538,1,0,0:0:0:1:
128,192,41653,1,0,0:0:0:1:
469,192,41653,1,0,0:0:0:1:
298,192,41769,1,0,0:0:0:1:
42,192,41769,1,0,0:0:0:1:
128,192,41807,1,0,0:0:0:1:
384,192,41846,1,0,0:0:0:1:
213,192,41884,1,0,0:0:0:1:
213,192,42000,1,0,0:0:0:1:
469,192,42000,1,0,0:0:0:1:
213,192,42115,1,0,0:0:0:1:
469,192,42115,1,0,0:0:0:1:
384,192,42230,1,0,0:0:0:1:
42,192,42230,1,0,0:0:0:1:
128,192,42269,1,0,0:0:0:1:
298,192,42307,1,0,0:0:0:1:
213,192,42346,1,0,0:0:0:1:
384,192,42375,1,0,0:0:0:1:
128,192,42461,1,0,0:0:0:1:
469,192,42461,1,0,0:0:0:1:
213,192,42519,1,0,0:0:0:1:
298,192,42576,1,0,0:0:0:1:
384,192,42634,1,0,0:0:0:1:
128,192,42692,1,0,0:0:0:1:
42,192,42692,1,0,0:0:0:1:
213,192,42750,1,0,0:0:0:1:
298,192,42807,1,0,0:0:0:1:
384,192,42807,1,0,0:0:0:1:
469,192,42865,1,0,0:0:0:1:
42,192,42923,1,0,0:0:0:1:
128,192,42980,1,0,0:0:0:1:
213,192,43038,1,0,0:0:0:1:
469,192,43038,1,0,0:0:0:1:
298,192,43096,1,0,0:0:0:1:
384,192,43153,1,0,0:0:0:1:
42,192,43153,1,0,0:0:0:1:
128,192,43211,1,0,0:0:0:1:
213,192,43269,1,0,0:0:0:1:
298,192,43269,1,0,0:0:0:1:
384,192,43326,1,0,0:0:0:1:
128,192,43384,1,0,0:0:0:1:
469,192,43384,1,0,0:0:0:1:
384,192,43442,1,0,0:0:0:1:
213,192,43500,1,0,0:0:0:1:
298,192,43500,1,0,0:0:0:1:
128,192,43557,1,0,0:0:0:1:
384,192,43615,1,0,0:0:0:1:
42,192,43615,1,0,0:0:0:1:
298,192,43673,1,0,0:0:0:1:
213,192,43730,1,0,0:0:0:1:
128,192,43788,1,0,0:0:0:1:
469,192,43846,1,0,0:0:0:1:
42,192,43846,1,0,0:0:0:1:
384,192,43903,1,0,0:0:0:1:
213,192,43961,1,0,0:0:0:1:
298,192,43961,1,0,0:0:0:1:
128,192,44019,1,0,0:0:0:1:
384,192,44076,1,0,0:0:0:1:
42,192,44076,1,0,0:0:0:1:
298,192,44134,1,0,0:0:0:1:
213,192,44192,1,0,0:0:0:1:
128,192,44250,1,0,0:0:0:1:
469,192,44307,1,0,0:0:0:1:
42,192,44307,1,0,0:0:0:1:
213,192,44365,1,0,0:0:0:1:
298,192,44423,1,0,0:0:0:1:
384,192,44480,1,0,0:0:0:1:
128,192,44538,1,0,0:0:0:1:
42,192,44538,1,0,0:0:0:1:
213,192,44596,1,0,0:0:0:1:
298,192,44653,1,0,0:0:0:1:
384,192,44653,1,0,0:0:0:1:
469,192,44711,1,0,0:0:0:1:
42,192,44769,1,0,0:0:0:1:
128,192,44826,1,0,0:0:0:1:
213,192,44884,1,0,0:0:0:1:
469,192,44884,1,0,0:0:0:1:
298,192,44942,1,0,0:0:0:1:
384,192,45000,1,0,0:0:0:1:
42,192,45000,1,0,0:0:0:1:
128,192,45057,1,0,0:0:0:1:
213,192,45115,1,0,0:0:0:1:
298,192,45115,1,0,0:0:0:1:
384,192,45173,1,0,0:0:0:1:
128,192,45230,1,0,0:0:0:1:
469,192,45230,1,0,0:0:0:1:
384,192,45288,1,0,0:0:0:1:
213,192,45346,1,0,0:0:0:1:
298,192,45346,1,0,0:0:0:1:
128,192,45403,1,0,0:0:0:1:
384,192,45461,1,0,0:0:0:1:
42,192,45461,1,0,0:0:0:1:
298,192,45519,1,0,0:0:0:1:
213,192,45576,1,0,0:0:0:1:
128,192,45634,1,0,0:0:0:1:
469,192,45692,1,0,0:0:0:1:
42,192,45692,1,0,0:0:0:1:
384,192,45750,1,0,0:0:0:1:
213,192,45807,1,0,0:0:0:1:
298,192,45807,1,0,0:0:0:1:
128,192,45865,1,0,0:0:0:1:
384,192,45923,1,0,0:0:0:1:
42,192,45923,1,0,0:0:0:1:
298,192,45980,1,0,0:0:0:1:
213,192,46038,1,0,0:0:0:1:
128,192,46096,1,0,0:0:0:1:
213,192,46153,1,0,0:0:0:1:
469,192,46153,1,0,0:0:0:1:
298,192,46192,1,0,0:0:0:1:
128,192,46230,1,0,0:0:0:1:
384,192,46269,1,0,0:0:0:1:
298,192,46384,1,0,0:0:0:1:
469,192,46384,1,0,0:0:0:1:
128,192,46500,1,0,0:0:0:1:
298,192,46500,1,0,0:0:0:1:
384,192,46538,1,0,0:0:0:1:
213,192,46576,1,0,0:0:0:1:
469,192,46615,1,0,0:0:0:1:
213,192,46730,1,0,0:0:0:1:
42,192,46730,1,0,0:0:0:1:
213,192,46846,1,0,0:0:0:1:
384,192,46846,1,0,0:0:0:1:
42,192,46884,1,0,0:0:0:1:
298,192,46923,1,0,0:0:0:1:
128,192,46961,1,0,0:0:0:1:
384,192,47076,1,0,0:0:0:1:
42,192,47076,1,0,0:0:0:1:
384,192,47192,1,0,0:0:0:1:
42,192,47192,1,0,0:0:0:1:
298,192,47307,1,0,0:0:0:1:
128,192,47346,1,0,0:0:0:1:
213,192,47384,1,0,0:0:0:1:
42,192,47423,1,0,0:0:0:1:
128,192,47538,1,0,0:0:0:1:
469,192,47538,1,0,0:0:0:1:
128,192,47653,1,0,0:0:0:1:
469,192,47653,1,0,0:0:0:1:
213,192,47769,1,0,0:0:0:1:
384,192,47807,1,0,0:0:0:1:
298,192,47846,1,0,0:0:0:1:
469,192,47884,1,0,0:0:0:1:
384,192,48000,1,0,0:0:0:1:
42,192,48000,1,0,0:0:0:1:
128,192,48038,1,0,0:0:0:1:
213,192,48076,1,0,0:0:0:1:
298,192,48115,1,0,0:0:0:1:
128,192,48230,1,0,0:0:0:1:
469,192,48230,1,0,0:0:0:1:
128,192,48346,1,0,0:0:0:1:
384,192,48346,1,0,0:0:0:1:
298,192,48384,1,0,0:0:0:1:
213,192,48423,1,0,0:0:0:1:
42,192,48461,1,0,0:0:0:1:
384,192,48576,1,0,0:0:0:1:
42,192,48576,1,0,0:0:0:1:
128,192,48692,1,0,0:0:0:1:
384,192,48692,1,0,0:0:0:1:
213,192,48730,1,0,0:0:0:1:
469,192,48769,1,0,0:0:0:1:
298,192,48807,1,0,0:0:0:1:
213,192,48923,1,0,0:0:0:1:
42,192,48923,1,0,0:0:0:1:
213,192,49038,1,0,0:0:0:1:
42,192,49038,1,0,0:0:0:1:
384,192,49153,1,0,0:0:0:1:
128,192,49192,1,0,0:0:0:1:
298,192,49230,1,0,0:0:0:1:
42,192,49269,1,0,0:0:0:1:
298,192,49384,1,0,0:0:0:1:
469,192,49384,1,0,0:0:0:1:
298,192,49500,1,0,0:0:0:1:
469,192,49500,1,0,0:0:0:1:
128,192,49615,1,0,0:0:0:1:
384,192,49653,1,0,0:0:0:1:
213,192,49692,1,0,0:0:0:1:
469,192,49730,1,0,0:0:0:1:
384,192,49846,1,0,0:0:0:1:
42,192,49846,1,0,0:0:0:1:
128,192,49903,1,0,0:0:0:1:
213,192,49961,1,0,0:0:0:1:
298,192,50019,1,0,0:0:0:1:
128,192,50076,1,0,0:0:0:1:
384,192,50076,1,0,0:0:0:1:
42,192,50076,1,0,0:0:0:1:
469,192,50134,1,0,0:0:0:1:
128,192,50192,1,0,0:0:0:1:
213,192,50192,1,0,0:0:0:1:
298,192,50250,1,0,0:0:0:1:
384,192,50307,1,0,0:0:0:1:
469,192,50365,1,0,0:0:0:1:
213,192,50423,1,0,0:0:0:1:
42,192,50423,1,0,0:0:0:1:
298,192,50480,1,0,0:0:0:1:
128,192,50538,1,0,0:0:0:1:
384,192,50538,1,0,0:0:0:1:
469,192,50596,1,0,0:0:0:1:
128,192,50653,1,0,0:0:0:1:
42,192,50653,1,0,0:0:0:1:
213,192,50711,1,0,0:0:0:1:
298,192,50769,1,0,0:0:0:1:
384,192,50769,1,0,0:0:0:1:
469,192,50826,1,0,0:0:0:1:
128,192,50884,1,0,0:0:0:1:
42,192,50884,1,0,0:0:0:1:
213,192,50942,1,0,0:0:0:1:
298,192,51000,1,0,0:0:0:1:
384,192,51000,1,0,0:0:0:1:
42,192,51000,1,0,0:0:0:1:
469,192,51057,1,0,0:0:0:1:
384,192,51115,1,0,0:0:0:1:
298,192,51173,1,0,0:0:0:1:
213,192,51230,1,0,0:0:0:1:
469,192,51230,1,0,0:0:0:1:
128,192,51288,1,0,0:0:0:1:
298,192,51346,1,0,0:0:0:1:
384,192,51346,1,0,0:0:0:1:
213,192,51403,1,0,0:0:0:1:
128,192,51461,1,0,0:0:0:1:
469,192,51461,1,0,0:0:0:1:
42,192,51461,1,0,0:0:0:1:
384,192,51519,1,0,0:0:0:1:
298,192,51576,1,0,0:0:0:1:
213,192,51634,1,0,0:0:0:1:
384,192,51692,1,0,0:0:0:1:
42,192,51692,1,0,0:0:0:1:
128,192,51750,1,0,0:0:0:1:
213,192,51807,1,0,0:0:0:1:
298,192,51865,1,0,0:0:0:1:
128,192,51923,1,0,0:0:0:1:
384,192,51923,1,0,0:0:0:1:
42,192,51923,1,0,0:0:0:1:
469,192,51980,1,0,0:0:0:1:
128,192,52038,1,0,0:0:0:1:
213,192,52038,1,0,0:0:0:1:
298,192,52096,1,0,0:0:0:1:
384,192,52153,1,0,0:0:0:1:
469,192,52211,1,0,0:0:0:1:
213,192,52269,1,0,0:0:0:1:
42,192,52269,1,0,0:0:0:1:
298,192,52326,1,0,0:0:0:1:
128,192,52384,1,0,0:0:0:1:
384,192,52384,1,0,0:0:0:1:
469,192,52442,1,0,0:0:0:1:
128,192,52500,1,0,0:0:0:1:
42,192,52500,1,0,0:0:0:1:
213,192,52557,1,0,0:0:0:1:
298,192,52615,1,0,0:0:0:1:
384,192,52615,1,0,0:0:0:1:
469,192,52673,1,0,0:0:0:1:
128,192,52730,1,0,0:0:0:1:
42,192,52730,1,0,0:0:0:1:
213,192,52788,1,0,0:0:0:1:
298,192,52846,1,0,0:0:0:1:
384,192,52846,1,0,0:0:0:1:
42,192,52846,1,0,0:0:0:1:
469,192,52903,1,0,0:0:0:1:
384,192,52961,1,0,0:0:0:1:
298,192,53019,1,0,0:0:0:1:
213,192,53076,1,0,0:0:0:1:
469,192,53076,1,0,0:0:0:1:
128,192,53134,1,0,0:0:0:1:
298,192,53192,1,0,0:0:0:1:
384,192,53192,1,0,0:0:0:1:
213,192,53250,1,0,0:0:0:1:
128,192,53307,1,0,0:0:0:1:
469,192,53307,1,0,0:0:0:1:
42,192,53307,1,0,0:0:0:1:
384,192,53365,1,0,0:0:0:1:
298,192,53423,1,0,0:0:0:1:
213,192,53480,1,0,0:0:0:1:
128,192,53538,1,0,0:0:0:1:
469,192,53538,1,0,0:0:0:1:
42,192,53538,128,0,54000:0:0:0:1:
298,192,53576,1,0,0:0:0:1:
384,192,53615,1,0,0:0:0:1:
213,192,53653,1,0,0:0:0:1:
298,192,53769,1,0,0:0:0:1:
469,192,53769,1,0,0:0:0:1:
128,192,53884,1,0,0:0:0:1:
298,192,53884,1,0,0:0:0:1:
384,192,53923,1,0,0:0:0:1:
213,192,53961,1,0,0:0:0:1:
298,192,54000,1,0,0:0:0:1:
469,192,54000,128,0,54461:0:0:0:1:
128,192,54115,1,0,0:0:0:1:
384,192,54115,1,0,0:0:0:1:
298,192,54230,1,0,0:0:0:1:
42,192,54230,1,0,0:0:0:1:
213,192,54269,1,0,0:0:0:1:
128,192,54307,1,0,0:0:0:1:
42,192,54346,1,0,0:0:0:1:
298,192,54461,1,0,0:0:0:1:
384,192,54461,1,0,0:0:0:1:
128,192,54461,128,0,54923:0:0:0:1:
298,192,54576,1,0,0:0:0:1:
384,192,54576,1,0,0:0:0:1:
213,192,54692,1,0,0:0:0:1:
298,192,54730,1,0,0:0:0:1:
384,192,54769,1,0,0:0:0:1:
469,192,54807,1,0,0:0:0:1:
213,192,54923,1,0,0:0:0:1:
42,192,54923,1,0,0:0:0:1:
384,192,54923,128,0,55384:0:0:0:1:
213,192,55038,1,0,0:0:0:1:
42,192,55038,1,0,0:0:0:1:
298,192,55153,1,0,0:0:0:1:
213,192,55192,1,0,0:0:0:1:
128,192,55230,1,0,0:0:0:1:
42,192,55269,1,0,0:0:0:1:
128,192,55384,1,0,0:0:0:1:
469,192,55384,1,0,0:0:0:1:
213,192,55384,128,0,55846:0:0:0:1:
298,192,55423,1,0,0:0:0:1:
42,192,55461,1,0,0:0:0:1:
384,192,55500,1,0,0:0:0:1:
384,192,55615,1,0,0:0:0:1:
42,192,55615,1,0,0:0:0:1:
469,192,55730,1,0,0:0:0:1:
42,192,55730,1,0,0:0:0:1:
384,192,55769,1,0,0:0:0:1:
128,192,55807,1,0,0:0:0:1:
469,192,55846,1,0,0:0:0:1:
298,192,55846,128,0,56307:0:0:0:1:
128,192,55961,1,0,0:0:0:1:
384,192,55961,1,0,0:0:0:1:
384,192,56076,1,0,0:0:0:1:
42,192,56076,1,0,0:0:0:1:
469,192,56115,1,0,0:0:0:1:
128,192,56153,1,0,0:0:0:1:
213,192,56192,1,0,0:0:0:1:
384,192,56307,1,0,0:0:0:1:
469,192,56307,1,0,0:0:0:1:
128,192,56307,128,0,56769:0:0:0:1:
384,192,56423,1,0,0:0:0:1:
469,192,56423,1,0,0:0:0:1:
298,192,56538,1,0,0:0:0:1:
384,192,56576,1,0,0:0:0:1:
213,192,56615,1,0,0:0:0:1:
469,192,56653,1,0,0:0:0:1:
298,192,56769,1,0,0:0:0:1:
42,192,56769,1,0,0:0:0:1:
384,192,56769,128,0,57230:0:0:0:1:
298,192,56884,1,0,0:0:0:1:
42,192,56884,1,0,0:0:0:1:
213,192,57000,1,0,0:0:0:1:
42,192,57038,1,0,0:0:0:1:
298,192,57076,1,0,0:0:0:1:
128,192,57115,1,0,0:0:0:1:
128,192,57230,1,0,0:0:0:1:
469,192,57230,1,0,0:0:0:1:
42,192,57230,128,0,57692:0:0:0:1:
213,192,57269,1,0,0:0:0:1:
298,192,57307,1,0,0:0:0:1:
384,192,57346,1,0,0:0:0:1:
213,192,57461,1,0,0:0:0:1:
384,192,57461,1,0,0:0:0:1:
213,192,57576,1,0,0:0:0:1:
469,192,57576,1,0,0:0:0:1:
384,192,57615,1,0,0:0:0:1:
128,192,57653,1,0,0:0:0:1:
469,192,57692,1,0,0:0:0:1:
298,192,57692,128,0,58153:0:0:0:1:
128,192,57807,1,0,0:0:0:1:
384,192,57807,1,0,0:0:0:1:
128,192,57923,1,0,0:0:0:1:
469,192,57923,1,0,0:0:0:1:
42,192,57961,1,0,0:0:0:1:
384,192,58000,1,0,0:0:0:1:
213,192,58038,1,0,0:0:0:1:
384,192,58153,1,0,0:0:0:1:
42,192,58153,1,0,0:0:0:1:
128,192,58153,128,0,58615:0:0:0:1:
384,192,58269,1,0,0:0:0:1:
42,192,58269,1,0,0:0:0:1:
298,192,58384,1,0,0:0:0:1:
469,192,58423,1,0,0:0:0:1:
213,192,58461,1,0,0:0:0:1:
384,192,58500,1,0,0:0:0:1:
213,192,58615,1,0,0:0:0:1:
469,192,58615,1,0,0:0:0:1:
384,192,58615,128,0,59076:0:0:0:1:
213,192,58730,1,0,0:0:0:1:
469,192,58730,1,0,0:0:0:1:
42,192,58846,1,0,0:0:0:1:
213,192,58884,1,0,0:0:0:1:
128,192,58923,1,0,0:0:0:1:
298,192,58961,1,0,0:0:0:1:
128,192,59076,1,0,0:0:0:1:
469,192,59076,1,0,0:0:0:1:
213,192,59076,128,0,59538:0:0:0:1:
298,192,59115,1,0,0:0:0:1:
42,192,59153,1,0,0:0:0:1:
384,192,59192,1,0,0:0:0:1:
384,192,59307,1,0,0:0:0:1:
42,192,59307,1,0,0:0:0:1:
128,192,59423,1,0,0:0:0:1:
384,192,59423,1,0,0:0:0:1:
298,192,59461,1,0,0:0:0:1:
42,192,59500,1,0,0:0:0:1:
384,192,59538,1,0,0:0:0:1:
469,192,59538,128,0,60000:0:0:0:1:
298,192,59653,1,0,0:0:0:1:
42,192,59653,1,0,0:0:0:1:
128,192,59769,1,0,0:0:0:1:
298,192,59769,1,0,0:0:0:1:
42,192,59807,1,0,0:0:0:1:
213,192,59846,1,0,0:0:0:1:
128,192,59884,1,0,0:0:0:1:
298,192,60000,1,0,0:0:0:1:
384,192,60000,1,0,0:0:0:1:
42,192,60000,128,0,60461:0:0:0:1:
298,192,60115,1,0,0:0:0:1:
384,192,60115,1,0,0:0:0:1:
469,192,60230,1,0,0:0:0:1:
213,192,60269,1,0,0:0:0:1:
384,192,60307,1,0,0:0:0:1:
298,192,60346,1,0,0:0:0:1:
128,192,60461,1,0,0:0:0:1:
384,192,60461,1,0,0:0:0:1:
469,192,60461,1,0,0:0:0:1:
213,192,60519,1,0,0:0:0:1:
298,192,60519,1,0,0:0:0:1:
128,192,60576,1,0,0:0:0:1:
42,192,60576,1,0,0:0:0:1:
384,192,60634,1,0,0:0:0:1:
469,192,60634,1,0,0:0:0:1:
213,192,60692,1,0,0:0:0:1:
298,192,60692,1,0,0:0:0:1:
128,192,60750,1,0,0:0:0:1:
42,192,60750,1,0,0:0:0:1:
384,192,60807,1,0,0:0:0:1:
469,192,60807,1,0,0:0:0:1:
213,192,60865,1,0,0:0:0:1:
298,192,60865,1,0,0:0:0:1:
128,192,60923,1,0,0:0:0:1:
42,192,60923,1,0,0:0:0:1:
213,192,60980,1,0,0:0:0:1:
298,192,61038,1,0,0:0:0:1:
384,192,61096,1,0,0:0:0:1:
128,192,61153,1,0,0:0:0:1:
469,192,61153,1,0,0:0:0:1:
42,192,61153,1,0,0:0:0:1:
213,192,61211,1,0,0:0:0:1:
298,192,61269,1,0,0:0:0:1:
384,192,61269,1,0,0:0:0:1:
469,192,61326,1,0,0:0:0:1:
42,192,61384,1,0,0:0:0:1:
128,192,61442,1,0,0:0:0:1:
213,192,61500,1,0,0:0:0:1:
298,192,61500,1,0,0:0:0:1:
384,192,61557,1,0,0:0:0:1:
128,192,61615,1,0,0:0:0:1:
213,192,61615,1,0,0:0:0:1:
298,192,61673,1,0,0:0:0:1:
384,192,61730,1,0,0:0:0:1:
469,192,61730,1,0,0:0:0:1:
42,192,61730,1,0,0:0:0:1:
128,192,61788,1,0,0:0:0:1:
213,192,61846,1,0,0:0:0:1:
298,192,61846,1,0,0:0:0:1:
384,192,61903,1,0,0:0:0:1:
469,192,61961,1,0,0:0:0:1:
42,192,61961,1,0,0:0:0:1:
384,192,62019,1,0,0:0:0:1:
128,192,62076,1,0,0:0:0:1:
213,192,62076,1,0,0:0:0:1:
298,192,62076,1,0,0:0:0:1:
42,192,62134,1,0,0:0:0:1:
128,192,62192,1,0,0:0:0:1:
213,192,62250,1,0,0:0:0:1:
298,192,62307,1,0,0:0:0:1:
384,192,62307,1,0,0:0:0:1:
469,192,62365,1,0,0:0:0:1:
213,192,62423,1,0,0:0:0:1:
298,192,62423,1,0,0:0:0:1:
128,192,62480,1,0,0:0:0:1:
384,192,62538,1,0,0:0:0:1:
469,192,62538,1,0,0:0:0:1:
42,192,62538,1,0,0:0:0:1:
128,192,62596,1,0,0:0:0:1:
213,192,62653,1,0,0:0:0:1:
298,192,62711,1,0,0:0:0:1:
128,192,62769,1,0,0:0:0:1:
384,192,62769,1,0,0:0:0:1:
42,192,62769,1,0,0:0:0:1:
213,192,62826,1,0,0:0:0:1:
298,192,62884,1,0,0:0:0:1:
384,192,62942,1,0,0:0:0:1:
128,192,63000,1,0,0:0:0:1:
469,192,63000,1,0,0:0:0:1:
42,192,63000,1,0,0:0:0:1:
213,192,63057,1,0,0:0:0:1:
298,192,63115,1,0,0:0:0:1:
384,192,63115,1,0,0:0:0:1:
469,192,63173,1,0,0:0:0:1:
42,192,63230,1,0,0:0:0:1:
128,192,63288,1,0,0:0:0:1:
213,192,63346,1,0,0:0:0:1:
298,192,63346,1,0,0:0:0:1:
384,192,63403,1,0,0:0:0:1:
128,192,63461,1,0,0:0:0:1:
213,192,63461,1,0,0:0:0:1:
298,192,63519,1,0,0:0:0:1:
384,192,63576,1,0,0:0:0:1:
469,192,63576,1,0,0:0:0:1:
42,192,63576,1,0,0:0:0:1:
128,192,63634,1,0,0:0:0:1:
213,192,63692,1,0,0:0:0:1:
298,192,63692,1,0,0:0:0:1:
384,192,63750,1,0,0:0:0:1:
469,192,63807,1,0,0:0:0:1:
42,192,63807,1,0,0:0:0:1:
384,192,63865,1,0,0:0:0:1:
128,192,63923,1,0,0:0:0:1:
213,192,63923,1,0,0:0:0:1:
298,192,63923,1,0,0:0:0:1:
42,192,63980,1,0,0:0:0:1:
128,192,64038,1,0,0:0:0:1:
213,192,64096,1,0,0:0:0:1:
298,192,64153,1,0,0:0:0:1:
384,192,64153,1,0,0:0:0:1:
469,192,64211,1,0,0:0:0:1:
213,192,64269,1,0,0:0:0:1:
298,192,64269,1,0,0:0:0:1:
128,192,64326,1,0,0:0:0:1:
384,192,64384,1,0,0:0:0:1:
469,192,64384,1,0,0:0:0:1:
42,192,64384,1,0,0:0:0:1:
128,192,64442,1,0,0:0:0:1:
213,192,64500,1,0,0:0:0:1:
298,192,64557,1,0,0:0:0:1:
384,192,64615,1,0,0:0:0:1:
469,192,64615,1,0,0:0:0:1:
298,192,64673,1,0,0:0:0:1:
213,192,64730,1,0,0:0:0:1:
128,192,64788,1,0,0:0:0:1:
384,192,64846,1,0,0:0:0:1:
469,192,64846,1,0,0:0:0:1:
42,192,64846,1,0,0:0:0:1:
298,192,64903,1,0,0:0:0:1:
128,192,64961,1,0,0:0:0:1:
213,192,64961,1,0,0:0:0:1:
42,192,65019,1,0,0:0:0:1:
469,192,65076,1,0,0:0:0:1:
384,192,65134,1,0,0:0:0:1:
213,192,65192,1,0,0:0:0:1:
298,192,65192,1,0,0:0:0:1:
128,192,65250,1,0,0:0:0:1:
298,192,65307,1,0,0:0:0:1:
384,192,65307,1,0,0:0:0:1:
213,192,65365,1,0,0:0:0:1:
128,192,65423,1,0,0:0:0:1:
469,192,65423,1,0,0:0:0:1:
42,192,65423,1,0,0:0:0:1:
384,192,65480,1,0,0:0:0:1:
213,192,65538,1,0,0:0:0:1:
298,192,65538,1,0,0:0:0:1:
128,192,65596,1,0,0:0:0:1:
469,192,65653,1,0,0:0:0:1:
42,192,65653,1,0,0:0:0:1:
128,192,65711,1,0,0:0:0:1:
213,192,65769,1,0,0:0:0:1:
298,192,65769,1,0,0:0:0:1:
384,192,65769,1,0,0:0:0:1:
469,192,65826,1,0,0:0:0:1:
384,192,65884,1,0,0:0:0:1:
298,192,65942,1,0,0:0:0:1:
128,192,66000,1,0,0:0:0:1:
213,192,66000,1,0,0:0:0:1:
42,192,66057,1,0,0:0:0:1:
213,192,66115,1,0,0:0:0:1:
298,192,66115,1,0,0:0:0:1:
384,192,66173,1,0,0:0:0:1:
128,192,66230,1,0,0:0:0:1:
469,192,66230,1,0,0:0:0:1:
42,192,66230,1,0,0:0:0:1:
384,192,66288,1,0,0:0:0:1:
298,192,66346,1,0,0:0:0:1:
213,192,66403,1,0,0:0:0:1:
128,192,66461,1,0,0:0:0:1:
384,192,66461,1,0,0:0:0:1:
469,192,66461,1,0,0:0:0:1:
298,192,66519,1,0,0:0:0:1:
213,192,66576,1,0,0:0:0:1:
128,192,66634,1,0,0:0:0:1:
384,192,66692,1,0,0:0:0:1:
469,192,66692,1,0,0:0:0:1:
42,192,66692,1,0,0:0:0:1:
298,192,66750,1,0,0:0:0:1:
128,192,66807,1,0,0:0:0:1:
213,192,66807,1,0,0:0:0:1:
42,192,66865,1,0,0:0:0:1:
469,192,66923,1,0,0:0:0:1:
384,192,66980,1,0,0:0:0:1:
213,192,67038,1,0,0:0:0:1:
298,192,67038,1,0,0:0:0:1:
128,192,67096,1,0,0:0:0:1:
298,192,67153,1,0,0:0:0:1:
384,192,67153,1,0,0:0:0:1:
213,192,67211,1,0,0:0:0:1:
128,192,67269,1,0,0:0:0:1:
469,192,67269,1,0,0:0:0:1:
42,192,67269,1,0,0:0:0:1:
384,192,67326,1,0,0:0:0:1:
213,192,67384,1,0,0:0:0:1:
298,192,67384,1,0,0:0:0:1:
128,192,67442,1,0,0:0:0:1:
469,192,67500,1,0,0:0:0:1:
42,192,67500,1,0,0:0:0:1:
128,192,67557,1,0,0:0:0:1:
213,192,67615,1,0,0:0:0:1:
298,192,67615,1,0,0:0:0:1:
384,192,67615,1,0,0:0:0:1:
469,192,67673,1,0,0:0:0:1:
384,192,67730,1,0,0:0:0:1:
298,192,67788,1,0,0:0:0:1:
128,192,67846,1,0,0:0:0:1:
213,192,67846,1,0,0:0:0:1:
42,192,67903,1,0,0:0:0:1:
213,192,67961,1,0,0:0:0:1:
298,192,67961,1,0,0:0:0:1:
384,192,68019,1,0,0:0:0:1:
128,192,68076,1,0,0:0:0:1:
469,192,68076,1,0,0:0:0:1:
42,192,68076,1,0,0:0:0:1:
384,192,68134,1,0,0:0:0:1:
298,192,68192,1,0,0:0:0:1:
213,192,68250,1,0,0:0:0:1:
128,192,68307,1,0,0:0:0:1:
469,192,68307,1,0,0:0:0:1:
384,192,68346,1,0,0:0:0:1:
298,192,68384,1,0,0:0:0:1:
213,192,68423,1,0,0:0:0:1:
298,192,68538,1,0,0:0:0:1:
42,192,68538,1,0,0:0:0:1:
469,192,68653,1,0,0:0:0:1:
42,192,68653,1,0,0:0:0:1:
128,192,68692,1,0,0:0:0:1:
213,192,68730,1,0,0:0:0:1:
298,192,68769,1,0,0:0:0:1:
213,192,68884,1,0,0:0:0:1:
384,192,68884,1,0,0:0:0:1:
384,192,69000,1,0,0:0:0:1:
42,192,69000,1,0,0:0:0:1:
213,192,69038,1,0,0:0:0:1:
128,192,69076,1,0,0:0:0:1:
298,192,69115,1,0,0:0:0:1:
213,192,69230,1,0,0:0:0:1:
469,192,69230,1,0,0:0:0:1:
213,192,69346,1,0,0:0:0:1:
469,192,69346,1,0,0:0:0:1:
384,192,69461,1,0,0:0:0:1:
128,192,69500,1,0,0:0:0:1:
298,192,69538,1,0,0:0:0:1:
42,192,69576,1,0,0:0:0:1:
213,192,69692,1,0,0:0:0:1:
469,192,69692,1,0,0:0:0:1:
213,192,69807,1,0,0:0:0:1:
469,192,69807,1,0,0:0:0:1:
128,192,69923,1,0,0:0:0:1:
384,192,69961,1,0,0:0:0:1:
213,192,70000,1,0,0:0:0:1:
298,192,70038,1,0,0:0:0:1:
128,192,70153,1,0,0:0:0:1:
469,192,70153,1,0,0:0:0:1:
384,192,70192,1,0,0:0:0:1:
298,192,70230,1,0,0:0:0:1:
213,192,70269,1,0,0:0:0:1:
298,192,70384,1,0,0:0:0:1:
42,192,70384,1,0,0:0:0:1:
469,192,70500,1,0,0:0:0:1:
42,192,70500,1,0,0:0:0:1:
128,192,70538,1,0,0:0:0:1:
213,192,70576,1,0,0:0:0:1:
298,192,70615,1,0,0:0:0:1:
213,192,70730,1,0,0:0:0:1:
384,192,70730,1,0,0:0:0:1:
384,192,70846,1,0,0:0:0:1:
42,192,70846,1,0,0:0:0:1:
213,192,70884,1,0,0:0:0:1:
128,192,70923,1,0,0:0:0:1:
298,192,70961,1,0,0:0:0:1:
213,192,71076,1,0,0:0:0:1:
469,192,71076,1,0,0:0:0:1:
213,192,71192,1,0,0:0:0:1:
469,192,71192,1,0,0:0:0:1:
384,192,71307,1,0,0:0:0:1:
128,192,71346,1,0,0:0:0:1:
298,192,71384,1,0,0:0:0:1:
42,192,71423,1,0,0:0:0:1:
213,192,71538,1,0,0:0:0:1:
469,192,71538,1,0,0:0:0:1:
213,192,71653,1,0,0:0:0:1:
469,192,71653,1,0,0:0:0:1:
128,192,71769,1,0,0:0:0:1:
384,192,71807,1,0,0:0:0:1:
213,192,71846,1,0,0:0:0:1:
298,192,71884,1,0,0:0:0:1:
384,192,72000,1,0,0:0:0:1:
469,192,72000,1,0,0:0:0:1:
42,192,72000,1,0,0:0:0:1:
128,192,72057,1,0,0:0:0:1:
213,192,72115,1,0,0:0:0:1:
298,192,72173,1,0,0:0:0:1:
128,192,72230,1,0,0:0:0:1:
384,192,72230,1,0,0:0:0:1:
42,192,72230,1,0,0:0:0:1:
213,192,72288,1,0,0:0:0:1:
298,192,72346,1,0,0:0:0:1:
384,192,72346,1,0,0:0:0:1:
469,192,72403,1,0,0:0:0:1:
128,192,72461,1,0,0:0:0:1:
213,192,72519,1,0,0:0:0:1:
298,192,72576,1,0,0:0:0:1:
384,192,72576,1,0,0:0:0:1:
42,192,72576,1,0,0:0:0:1:
469,192,72634,1,0,0:0:0:1:
128,192,72692,1,0,0:0:0:1:
42,192,72692,1,0,0:0:0:1:
213,192,72750,1,0,0:0:0:1:
298,192,72807,1,0,0:0:0:1:
384,192,72807,1,0,0:0:0:1:
469,192,72865,1,0,0:0:0:1:
128,192,72923,1,0,0:0:0:1:
213,192,72923,1,0,0:0:0:1:
298,192,72923,1,0,0:0:0:1:
384,192,72980,1,0,0:0:0:1:
469,192,73038,1,0,0:0:0:1:
42,192,73038,1,0,0:0:0:1:
384,192,73096,1,0,0:0:0:1:
213,192,73153,1,0,0:0:0:1:
298,192,73153,1,0,0:0:0:1:
128,192,73211,1,0,0:0:0:1:
42,192,73269,1,0,0:0:0:1:
128,192,73326,1,0,0:0:0:1:
213,192,73384,1,0,0:0:0:1:
298,192,73384,1,0,0:0:0:1:
384,192,73384,1,0,0:0:0:1:
469,192,73442,1,0,0:0:0:1:
128,192,73500,1,0,0:0:0:1:
213,192,73500,1,0,0:0:0:1:
298,192,73557,1,0,0:0:0:1:
384,192,73615,1,0,0:0:0:1:
42,192,73615,1,0,0:0:0:1:
128,192,73673,1,0,0:0:0:1:
213,192,73730,1,0,0:0:0:1:
298,192,73788,1,0,0:0:0:1:
384,192,73846,1,0,0:0:0:1:
469,192,73846,1,0,0:0:0:1:
42,192,73846,1,0,0:0:0:1:
128,192,73903,1,0,0:0:0:1:
213,192,73961,1,0,0:0:0:1:
298,192,74019,1,0,0:0:0:1:
128,192,74076,1,0,0:0:0:1:
384,192,74076,1,0,0:0:0:1:
42,192,74076,1,0,0:0:0:1:
213,192,74134,1,0,0:0:0:1:
298,192,74192,1,0,0:0:0:1:
384,192,74192,1,0,0:0:0:1:
469,192,74250,1,0,0:0:0:1:
128,192,74307,1,0,0:0:0:1:
213,192,74365,1,0,0:0:0:1:
298,192,74423,1,0,0:0:0:1:
384,192,74423,1,0,0:0:0:1:
42,192,74423,1,0,0:0:0:1:
469,192,74480,1,0,0:0:0:1:
128,192,74538,1,0,0:0:0:1:
42,192,74538,1,0,0:0:0:1:
213,192,74596,1,0,0:0:0:1:
298,192,74653,1,0,0:0:0:1:
384,192,74653,1,0,0:0:0:1:
469,192,74711,1,0,0:0:0:1:
128,192,74769,1,0,0:0:0:1:
213,192,74769,1,0,0:0:0:1:
298,192,74769,1,0,0:0:0:1:
384,192,74826,1,0,0:0:0:1:
469,192,74884,1,0,0:0:0:1:
42,192,74884,1,0,0:0:0:1:
384,192,74942,1,0,0:0:0:1:
213,192,75000,1,0,0:0:0:1:
298,192,75000,1,0,0:0:0:1:
128,192,75057,1,0,0:0:0:1:
42,192,75115,1,0,0:0:0:1:
128,192,75173,1,0,0:0:0:1:
213,192,75230,1,0,0:0:0:1:
298,192,75230,1,0,0:0:0:1:
384,192,75230,1,0,0:0:0:1:
469,192,75288,1,0,0:0:0:1:
128,192,75346,1,0,0:0:0:1:
213,192,75346,1,0,0:0:0:1:
298,192,75403,1,0,0:0:0:1:
384,192,75461,1,0,0:0:0:1:
42,192,75461,1,0,0:0:0:1:
128,192,75519,1,0,0:0:0:1:
213,192,75576,1,0,0:0:0:1:
298,192,75634,1,0,0:0:0:1:
128,192,75692,1,0,0:0:0:1:
469,192,75692,1,0,0:0:0:1:
384,192,75730,1,0,0:0:0:1:
298,192,75769,1,0,0:0:0:1:
213,192,75807,1,0,0:0:0:1:
298,192,75923,1,0,0:0:0:1:
42,192,75923,1,0,0:0:0:1:
469,192,76038,1,0,0:0:0:1:
42,192,76038,1,0,0:0:0:1:
128,192,76076,1,0,0:0:0:1:
213,192,76115,1,0,0:0:0:1:
298,192,76153,1,0,0:0:0:1:
213,192,76269,1,0,0:0:0:1:
384,192,76269,1,0,0:0:0:1:
384,192,76384,1,0,0:0:0:1:
42,192,76384,1,0,0:0:0:1:
213,192,76423,1,0,0:0:0:1:
128,192,76461,1,0,0:0:0:1:
298,192,76500,1,0,0:0:0:1:
213,192,76615,1,0,0:0:0:1:
469,192,76615,1,0,0:0:0:1:
213,192,76730,1,0,0:0:0:1:
469,192,76730,1,0,0:0:0:1:
384,192,76846,1,0,0:0:0:1:
128,192,76884,1,0,0:0:0:1:
298,192,76923,1,0,0:0:0:1:
42,192,76961,1,0,0:0:0:1:
213,192,77076,1,0,0:0:0:1:
469,192,77076,1,0,0:0:0:1:
213,192,77192,1,0,0:0:0:1:
469,192,77192,1,0,0:0:0:1:
128,192,77307,1,0,0:0:0:1:
384,192,77346,1,0,0:0:0:1:
213,192,77384,1,0,0:0:0:1:
298,192,77423,1,0,0:0:0:1:
128,192,77538,1,0,0:0:0:1:
469,192,77538,1,0,0:0:0:1:
384,192,77576,1,0,0:0:0:1:
298,192,77615,1,0,0:0:0:1:
213,192,77653,1,0,0:0:0:1:
298,192,77769,1,0,0:0:0:1:
42,192,77769,1,0,0:0:0:1:
469,192,77884,1,0,0:0:0:1:
42,192,77884,1,0,0:0:0:1:
128,192,77923,1,0,0:0:0:1:
213,192,77961,1,0,0:0:0:1:
298,192,78000,1,0,0:0:0:1:
213,192,78115,1,0,0:0:0:1:
384,192,78115,1,0,0:0:0:1:
384,192,78230,1,0,0:0:0:1:
42,192,78230,1,0,0:0:0:1:
213,192,78269,1,0,0:0:0:1:
128,192,78307,1,0,0:0:0:1:
298,192,78346,1,0,0:0:0:1:
213,192,78461,1,0,0:0:0:1:
469,192,78461,1,0,0:0:0:1:
213,192,78576,1,0,0:0:0:1:
469,192,78576,1,0,0:0:0:1:
384,192,78692,1,0,0:0:0:1:
128,192,78730,1,0,0:0:0:1:
298,192,78769,1,0,0:0:0:1:
42,192,78807,1,0,0:0:0:1:
213,192,78923,1,0,0:0:0:1:
469,192,78923,1,0,0:0:0:1:
213,192,79038,1,0,0:0:0:1:
469,192,79038,1,0,0:0:0:1:
128,192,79153,1,0,0:0:0:1:
384,192,79192,1,0,0:0:0:1:
213,192,79230,1,0,0:0:0:1:
298,192,79269,1,0,0:0:0:1:
42,192,79384,1,0,0:0:0:1:
42,192,79500,1,0,0:0:0:1:
213,192,79615,1,0,0:0:0:1:
213,192,79730,1,0,0:0:0:1:
384,192,79846,1,0,0:0:0:1:
298,192,79961,1,0,0:0:0:1:
128,192,80076,1,0,0:0:0:1:
384,192,80192,1,0,0:0:0:1:
213,192,80307,1,0,0:0:0:1:
213,192,80423,1,0,0:0:0:1:
469,192,80538,1,0,0:0:0:1:
384,192,80653,1,0,0:0:0:1:
128,192,80769,1,0,0:0:0:1:
128,192,80884,1,0,0:0:0:1:
298,192,81000,1,0,0:0:0:1:
213,192,81115,1,0,0:0:0:1:
298,192,81230,1,0,0:0:0:1:
42,192,81230,1,0,0:0:0:1:
298,192,81346,1,0,0:0:0:1:
42,192,81346,1,0,0:0:0:1:
213,192,81461,1,0,0:0:0:1:
469,192,81461,1,0,0:0:0:1:
213,192,81576,1,0,0:0:0:1:
469,192,81576,1,0,0:0:0:1:
128,192,81692,1,0,0:0:0:1:
384,192,81692,1,0,0:0:0:1:
298,192,81807,1,0,0:0:0:1:
42,192,81807,1,0,0:0:0:1:
128,192,81923,1,0,0:0:0:1:
213,192,81923,1,0,0:0:0:1:
469,192,82038,1,0,0:0:0:1:
42,192,82038,1,0,0:0:0:1:
213,192,82153,1,0,0:0:0:1:
384,192,82153,1,0,0:0:0:1:
213,192,82269,1,0,0:0:0:1:
384,192,82269,1,0,0:0:0:1:
128,192,82384,1,0,0:0:0:1:
469,192,82384,1,0,0:0:0:1:
384,192,82500,1,0,0:0:0:1:
42,192,82500,1,0,0:0:0:1:
128,192,82615,1,0,0:0:0:1:
298,192,82615,1,0,0:0:0:1:
128,192,82730,1,0,0:0:0:1:
298,192,82730,1,0,0:0:0:1:
384,192,82846,1,0,0:0:0:1:
42,192,82846,1,0,0:0:0:1:
213,192,82961,1,0,0:0:0:1:
469,192,82961,1,0,0:0:0:1:
128,192,83076,1,0,0:0:0:1:
42,192,83076,1,0,0:0:0:1:
213,192,83134,1,0,0:0:0:1:
298,192,83192,1,0,0:0:0:1:
384,192,83250,1,0,0:0:0:1:
128,192,83307,1,0,0:0:0:1:
213,192,83365,1,0,0:0:0:1:
298,192,83423,1,0,0:0:0:1:
384,192,83480,1,0,0:0:0:1:
213,192,83538,1,0,0:0:0:1:
469,192,83538,1,0,0:0:0:1:
384,192,83596,1,0,0:0:0:1:
213,192,83653,1,0,0:0:0:1:
298,192,83653,1,0,0:0:0:1:
128,192,83711,1,0,0:0:0:1:
469,192,83769,1,0,0:0:0:1:
42,192,83769,1,0,0:0:0:1:
384,192,83826,1,0,0:0:0:1:
298,192,83884,1,0,0:0:0:1:
213,192,83942,1,0,0:0:0:1:
128,192,84000,1,0,0:0:0:1:
469,192,84000,1,0,0:0:0:1:
42,192,84000,1,0,0:0:0:1:
384,192,84057,1,0,0:0:0:1:
298,192,84115,1,0,0:0:0:1:
213,192,84173,1,0,0:0:0:1:
128,192,84230,1,0,0:0:0:1:
469,192,84230,1,0,0:0:0:1:
384,192,84288,1,0,0:0:0:1:
213,192,84346,1,0,0:0:0:1:
298,192,84346,1,0,0:0:0:1:
128,192,84403,1,0,0:0:0:1:
469,192,84461,1,0,0:0:0:1:
42,192,84461,1,0,0:0:0:1:
128,192,84519,1,0,0:0:0:1:
213,192,84576,1,0,0:0:0:1:
469,192,84576,1,0,0:0:0:1:
298,192,84634,1,0,0:0:0:1:
128,192,84692,1,0,0:0:0:1:
384,192,84692,1,0,0:0:0:1:
213,192,84750,1,0,0:0:0:1:
298,192,84807,1,0,0:0:0:1:
384,192,84865,1,0,0:0:0:1:
128,192,84923,1,0,0:0:0:1:
469,192,84923,1,0,0:0:0:1:
42,192,84923,1,0,0:0:0:1:
213,192,84980,1,0,0:0:0:1:
298,192,85038,1,0,0:0:0:1:
384,192,85096,1,0,0:0:0:1:
128,192,85153,1,0,0:0:0:1:
469,192,85153,1,0,0:0:0:1:
213,192,85211,1,0,0:0:0:1:
298,192,85269,1,0,0:0:0:1:
384,192,85326,1,0,0:0:0:1:
213,192,85384,1,0,0:0:0:1:
469,192,85384,1,0,0:0:0:1:
384,192,85442,1,0,0:0:0:1:
213,192,85500,1,0,0:0:0:1:
298,192,85500,1,0,0:0:0:1:
128,192,85557,1,0,0:0:0:1:
469,192,85615,1,0,0:0:0:1:
42,192,85615,1,0,0:0:0:1:
384,192,85673,1,0,0:0:0:1:
298,192,85730,1,0,0:0:0:1:
213,192,85788,1,0,0:0:0:1:
128,192,85846,1,0,0:0:0:1:
469,192,85846,1,0,0:0:0:1:
42,192,85846,1,0,0:0:0:1:
384,192,85903,1,0,0:0:0:1:
298,192,85961,1,0,0:0:0:1:
213,192,86019,1,0,0:0:0:1:
128,192,86076,1,0,0:0:0:1:
469,192,86076,1,0,0:0:0:1:
384,192,86134,1,0,0:0:0:1:
213,192,86192,1,0,0:0:0:1:
298,192,86192,1,0,0:0:0:1:
128,192,86250,1,0,0:0:0:1:
469,192,86307,1,0,0:0:0:1:
42,192,86307,1,0,0:0:0:1:
128,192,86365,1,0,0:0:0:1:
213,192,86423,1,0,0:0:0:1:
469,192,86423,1,0,0:0:0:1:
298,192,86480,1,0,0:0:0:1:
128,192,86538,1,0,0:0:0:1:
384,192,86538,1,0,0:0:0:1:
213,192,86596,1,0,0:0:0:1:
298,192,86653,1,0,0:0:0:1:
384,192,86711,1,0,0:0:0:1:
128,192,86769,1,0,0:0:0:1:
469,192,86769,1,0,0:0:0:1:
42,192,86769,1,0,0:0:0:1:
213,192,86826,1,0,0:0:0:1:
298,192,86884,1,0,0:0:0:1:
384,192,86942,1,0,0:0:0:1:
128,192,87000,1,0,0:0:0:1:
469,192,87000,1,0,0:0:0:1:
213,192,87057,1,0,0:0:0:1:
298,192,87115,1,0,0:0:0:1:
42,192,87115,1,0,0:0:0:1:
384,192,87173,1,0,0:0:0:1:
469,192,87230,1,0,0:0:0:1:
42,192,87230,1,0,0:0:0:1:
128,192,87288,1,0,0:0:0:1:
213,192,87346,1,0,0:0:0:1:
298,192,87346,1,0,0:0:0:1:
384,192,87403,1,0,0:0:0:1:
128,192,87461,1,0,0:0:0:1:
469,192,87461,1,0,0:0:0:1:
384,192,87519,1,0,0:0:0:1:
298,192,87576,1,0,0:0:0:1:
42,192,87576,1,0,0:0:0:1:
213,192,87634,1,0,0:0:0:1:
128,192,87692,1,0,0:0:0:1:
469,192,87692,1,0,0:0:0:1:
42,192,87692,1,0,0:0:0:1:
384,192,87750,1,0,0:0:0:1:
213,192,87807,1,0,0:0:0:1:
298,192,87807,1,0,0:0:0:1:
128,192,87865,1,0,0:0:0:1:
469,192,87923,1,0,0:0:0:1:
42,192,87923,1,0,0:0:0:1:
128,192,87980,1,0,0:0:0:1:
213,192,88038,1,0,0:0:0:1:
298,192,88096,1,0,0:0:0:1:
384,192,88153,1,0,0:0:0:1:
469,192,88211,1,0,0:0:0:1:
298,192,88269,1,0,0:0:0:1:
384,192,88269,1,0,0:0:0:1:
213,192,88326,1,0,0:0:0:1:
128,192,88384,1,0,0:0:0:1:
384,192,88384,1,0,0:0:0:1:
42,192,88442,1,0,0:0:0:1:
128,192,88500,1,0,0:0:0:1:
213,192,88557,1,0,0:0:0:1:
384,192,88615,1,0,0:0:0:1:
469,192,88615,1,0,0:0:0:1:
42,192,88615,1,0,0:0:0:1:
298,192,88673,1,0,0:0:0:1:
213,192,88730,1,0,0:0:0:1:
128,192,88788,1,0,0:0:0:1:
384,192,88846,1,0,0:0:0:1:
42,192,88846,1,0,0:0:0:1:
298,192,88903,1,0,0:0:0:1:
213,192,88961,1,0,0:0:0:1:
469,192,88961,1,0,0:0:0:1:
128,192,89019,1,0,0:0:0:1:
469,192,89076,1,0,0:0:0:1:
42,192,89076,1,0,0:0:0:1:
384,192,89134,1,0,0:0:0:1:
213,192,89192,1,0,0:0:0:1:
298,192,89192,1,0,0:0:0:1:
128,192,89250,1,0,0:0:0:1:
298,192,89307,1,0,0:0:0:1:
42,192,89307,1,0,0:0:0:1:
128,192,89365,1,0,0:0:0:1:
213,192,89423,1,0,0:0:0:1:
469,192,89423,1,0,0:0:0:1:
298,192,89480,1,0,0:0:0:1:
384,192,89538,1,0,0:0:0:1:
469,192,89538,1,0,0:0:0:1:
42,192,89538,1,0,0:0:0:1:
128,192,89596,1,0,0:0:0:1:
213,192,89653,1,0,0:0:0:1:
469,192,89653,1,0,0:0:0:1:
298,192,89711,1,0,0:0:0:1:
384,192,89769,1,0,0:0:0:1:
42,192,89769,1,0,0:0:0:1:
469,192,89826,1,0,0:0:0:1:
298,192,89884,1,0,0:0:0:1:
384,192,89884,1,0,0:0:0:1:
213,192,89942,1,0,0:0:0:1:
128,192,90000,1,0,0:0:0:1:
42,192,90000,1,0,0:0:0:1:
298,192,90057,1,0,0:0:0:1:
213,192,90115,1,0,0:0:0:1:
469,192,90115,1,0,0:0:0:1:
128,192,90173,1,0,0:0:0:1:
298,192,90230,1,0,0:0:0:1:
42,192,90230,1,0,0:0:0:1:
128,192,90288,1,0,0:0:0:1:
213,192,90346,1,0,0:0:0:1:
298,192,90346,1,0,0:0:0:1:
384,192,90403,1,0,0:0:0:1:
128,192,90461,1,0,0:0:0:1:
469,192,90461,1,0,0:0:0:1:
42,192,90461,1,0,0:0:0:1:
213,192,90519,1,0,0:0:0:1:
298,192,90576,1,0,0:0:0:1:
384,192,90576,1,0,0:0:0:1:
469,192,90634,1,0,0:0:0:1:
128,192,90692,1,0,0:0:0:1:
213,192,90692,1,0,0:0:0:1:
298,192,90750,1,0,0:0:0:1:
384,192,90807,1,0,0:0:0:1:
469,192,90865,1,0,0:0:0:1:
298,192,90923,1,0,0:0:0:1:
384,192,90923,1,0,0:0:0:1:
213,192,90980,1,0,0:0:0:1:
128,192,91038,1,0,0:0:0:1:
469,192,91038,1,0,0:0:0:1:
384,192,91096,1,0,0:0:0:1:
298,192,91153,1,0,0:0:0:1:
42,192,91153,1,0,0:0:0:1:
213,192,91211,1,0,0:0:0:1:
128,192,91269,1,0,0:0:0:1:
42,192,91326,1,0,0:0:0:1:
213,192,91384,1,0,0:0:0:1:
384,192,91384,1,0,0:0:0:1:
469,192,91384,1,0,0:0:0:1:
298,192,91442,1,0,0:0:0:1:
128,192,91500,1,0,0:0:0:1:
213,192,91500,1,0,0:0:0:1:
42,192,91557,1,0,0:0:0:1:
384,192,91615,1,0,0:0:0:1:
469,192,91615,1,0,0:0:0:1:
298,192,91673,1,0,0:0:0:1:
213,192,91730,1,0,0:0:0:1:
128,192,91788,1,0,0:0:0:1:
384,192,91846,1,0,0:0:0:1:
42,192,91846,1,0,0:0:0:1:
128,192,91903,1,0,0:0:0:1:
213,192,91961,1,0,0:0:0:1:
298,192,91961,1,0,0:0:0:1:
384,192,92019,1,0,0:0:0:1:
128,192,92076,1,0,0:0:0:1:
213,192,92076,1,0,0:0:0:1:
298,192,92134,1,0,0:0:0:1:
384,192,92192,1,0,0:0:0:1:
42,192,92192,1,0,0:0:0:1:
469,192,92250,1,0,0:0:0:1:
128,192,92307,1,0,0:0:0:1:
298,192,92307,1,0,0:0:0:1:
42,192,92307,1,0,0:0:0:1:
213,192,92365,1,0,0:0:0:1:
298,192,92423,1,0,0:0:0:1:
384,192,92423,1,0,0:0:0:1:
469,192,92480,1,0,0:0:0:1:
128,192,92538,1,0,0:0:0:1:
42,192,92538,1,0,0:0:0:1:
213,192,92596,1,0,0:0:0:1:
298,192,92653,1,0,0:0:0:1:
384,192,92711,1,0,0:0:0:1:
213,192,92769,1,0,0:0:0:1:
469,192,92769,1,0,0:0:0:1:
384,192,92826,1,0,0:0:0:1:
213,192,92884,1,0,0:0:0:1:
298,192,92884,1,0,0:0:0:1:
128,192,92942,1,0,0:0:0:1:
384,192,93000,1,0,0:0:0:1:
42,192,93000,1,0,0:0:0:1:
298,192,93057,1,0,0:0:0:1:
213,192,93115,1,0,0:0:0:1:
128,192,93173,1,0,0:0:0:1:
384,192,93230,1,0,0:0:0:1:
469,192,93230,1,0,0:0:0:1:
42,192,93230,1,0,0:0:0:1:
298,192,93288,1,0,0:0:0:1:
128,192,93346,1,0,0:0:0:1:
213,192,93346,1,0,0:0:0:1:
42,192,93403,1,0,0:0:0:1:
298,192,93461,1,0,0:0:0:1:
384,192,93461,1,0,0:0:0:1:
213,192,93519,1,0,0:0:0:1:
298,192,93576,1,0,0:0:0:1:
384,192,93634,1,0,0:0:0:1:
128,192,93692,1,0,0:0:0:1:
469,192,93692,1,0,0:0:0:1:
213,192,93750,1,0,0:0:0:1:
298,192,93807,1,0,0:0:0:1:
384,192,93807,1,0,0:0:0:1:
469,192,93865,1,0,0:0:0:1:
128,192,93923,1,0,0:0:0:1:
42,192,93923,1,0,0:0:0:1:
213,192,93980,1,0,0:0:0:1:
298,192,94038,1,0,0:0:0:1:
384,192,94038,1,0,0:0:0:1:
469,192,94096,1,0,0:0:0:1:
128,192,94153,1,0,0:0:0:1:
384,192,94153,1,0,0:0:0:1:
42,192,94153,1,0,0:0:0:1:
298,192,94211,1,0,0:0:0:1:
128,192,94269,1,0,0:0:0:1:
213,192,94269,1,0,0:0:0:1:
42,192,94326,1,0,0:0:0:1:
384,192,94384,1,0,0:0:0:1:
469,192,94384,1,0,0:0:0:1:
298,192,94442,1,0,0:0:0:1:
213,192,94500,1,0,0:0:0:1:
128,192,94557,1,0,0:0:0:1:
384,192,94615,1,0,0:0:0:1:
42,192,94615,1,0,0:0:0:1:
128,192,94673,1,0,0:0:0:1:
213,192,94730,1,0,0:0:0:1:
298,192,94730,1,0,0:0:0:1:
384,192,94788,1,0,0:0:0:1:
128,192,94846,1,0,0:0:0:1:
469,192,94846,1,0,0:0:0:1:
213,192,94903,1,0,0:0:0:1:
298,192,94961,1,0,0:0:0:1:
384,192,95019,1,0,0:0:0:1:
128,192,95076,1,0,0:0:0:1:
469,192,95076,1,0,0:0:0:1:
42,192,95076,1,0,0:0:0:1:
213,192,95134,1,0,0:0:0:1:
298,192,95192,1,0,0:0:0:1:
384,192,95192,1,0,0:0:0:1:
469,192,95250,1,0,0:0:0:1:
128,192,95307,1,0,0:0:0:1:
213,192,95307,1,0,0:0:0:1:
298,192,95365,1,0,0:0:0:1:
384,192,95423,1,0,0:0:0:1:
42,192,95423,1,0,0:0:0:1:
298,192,95480,1,0,0:0:0:1:
213,192,95538,1,0,0:0:0:1:
469,192,95538,1,0,0:0:0:1:
384,192,95596,1,0,0:0:0:1:
213,192,95653,1,0,0:0:0:1:
298,192,95653,1,0,0:0:0:1:
128,192,95711,1,0,0:0:0:1:
384,192,95769,1,0,0:0:0:1:
42,192,95769,1,0,0:0:0:1:
298,192,95826,1,0,0:0:0:1:
213,192,95884,1,0,0:0:0:1:
469,192,95884,1,0,0:0:0:1:
128,192,95942,1,0,0:0:0:1:
384,192,96000,1,0,0:0:0:1:
469,192,96000,1,0,0:0:0:1:
42,192,96000,1,0,0:0:0:1:
298,192,96057,1,0,0:0:0:1:
128,192,96115,1,0,0:0:0:1:
213,192,96115,1,0,0:0:0:1:
42,192,96173,1,0,0:0:0:1:
384,192,96230,1,0,0:0:0:1:
469,192,96230,1,0,0:0:0:1:
298,192,96288,1,0,0:0:0:1:
213,192,96346,1,0,0:0:0:1:
128,192,96403,1,0,0:0:0:1:
384,192,96461,1,0,0:0:0:1:
42,192,96461,1,0,0:0:0:1:
128,192,96519,1,0,0:0:0:1:
213,192,96576,1,0,0:0:0:1:
298,192,96576,1,0,0:0:0:1:
384,192,96634,1,0,0:0:0:1:
128,192,96692,1,0,0:0:0:1:
469,192,96692,1,0,0:0:0:1:
213,192,96750,1,0,0:0:0:1:
298,192,96807,1,0,0:0:0:1:
384,192,96865,1,0,0:0:0:1:
128,192,96923,1,0,0:0:0:1:
469,192,96923,1,0,0:0:0:1:
42,192,96923,1,0,0:0:0:1:
213,192,96980,1,0,0:0:0:1:
298,192,97038,1,0,0:0:0:1:
384,192,97038,1,0,0:0:0:1:
469,192,97096,1,0,0:0:0:1:
128,192,97153,1,0,0:0:0:1:
213,192,97153,1,0,0:0:0:1:
298,192,97211,1,0,0:0:0:1:
384,192,97269,1,0,0:0:0:1:
42,192,97269,1,0,0:0:0:1:
298,192,97326,1,0,0:0:0:1:
213,192,97384,1,0,0:0:0:1:
469,192,97384,1,0,0:0:0:1:
384,192,97442,1,0,0:0:0:1:
213,192,97500,1,0,0:0:0:1:
298,192,97500,1,0,0:0:0:1:
128,192,97557,1,0,0:0:0:1:
384,192,97615,1,0,0:0:0:1:
469,192,97615,1,0,0:0:0:1:
42,192,97615,1,0,0:0:0:1:
213,192,97673,1,0,0:0:0:1:
298,192,97673,1,0,0:0:0:1:
128,192,97730,1,0,0:0:0:1:
42,192,97730,1,0,0:0:0:1:
213,192,97788,1,0,0:0:0:1:
298,192,97788,1,0,0:0:0:1:
384,192,97846,1,0,0:0:0:1:
469,192,97846,1,0,0:0:0:1:
42,192,97846,1,0,0:0:0:1:
128,192,97903,1,0,0:0:0:1:
213,192,97961,1,0,0:0:0:1:
298,192,98019,1,0,0:0:0:1:
128,192,98076,1,0,0:0:0:1:
384,192,98076,1,0,0:0:0:1:
42,192,98076,1,0,0:0:0:1:
213,192,98134,1,0,0:0:0:1:
298,192,98192,1,0,0:0:0:1:
384,192,98250,1,0,0:0:0:1:
128,192,98307,1,0,0:0:0:1:
469,192,98307,1,0,0:0:0:1:
213,192,98365,1,0,0:0:0:1:
298,192,98423,1,0,0:0:0:1:
213,192,98480,1,0,0:0:0:1:
128,192,98538,1,0,0:0:0:1:
469,192,98538,1,0,0:0:0:1:
42,192,98538,1,0,0:0:0:1:
384,192,98596,1,0,0:0:0:1:
213,192,98653,1,0,0:0:0:1:
298,192,98653,1,0,0:0:0:1:
128,192,98711,1,0,0:0:0:1:
384,192,98769,1,0,0:0:0:1:
469,192,98769,1,0,0:0:0:1:
42,192,98769,1,0,0:0:0:1:
298,192,98826,1,0,0:0:0:1:
213,192,98884,1,0,0:0:0:1:
128,192,98942,1,0,0:0:0:1:
298,192,99000,1,0,0:0:0:1:
469,192,99000,1,0,0:0:0:1:
42,192,99000,1,0,0:0:0:1:
128,192,99057,1,0,0:0:0:1:
213,192,99115,1,0,0:0:0:1:
298,192,99173,1,0,0:0:0:1:
128,192,99230,1,0,0:0:0:1:
384,192,99230,1,0,0:0:0:1:
469,192,99230,1,0,0:0:0:1:
213,192,99288,1,0,0:0:0:1:
298,192,99346,1,0,0:0:0:1:
384,192,99403,1,0,0:0:0:1:
469,192,99461,1,0,0:0:0:1:
42,192,99461,1,0,0:0:0:1:
128,192,99519,1,0,0:0:0:1:
213,192,99576,1,0,0:0:0:1:
298,192,99634,1,0,0:0:0:1:
384,192,99692,1,0,0:0:0:1:
469,192,99692,1,0,0:0:0:1:
42,192,99692,1,0,0:0:0:1:
128,192,99750,1,0,0:0:0:1:
213,192,99807,1,0,0:0:0:1:
298,192,99865,1,0,0:0:0:1:
128,192,99923,1,0,0:0:0:1:
384,192,99923,1,0,0:0:0:1:
42,192,99923,1,0,0:0:0:1:
213,192,99980,1,0,0:0:0:1:
298,192,100038,1,0,0:0:0:1:
384,192,100096,1,0,0:0:0:1:
128,192,100153,1,0,0:0:0:1:
469,192,100153,1,0,0:0:0:1:
213,192,100211,1,0,0:0:0:1:
298,192,100269,1,0,0:0:0:1:
213,192,100326,1,0,0:0:0:1:
128,192,100384,1,0,0:0:0:1:
469,192,100384,1,0,0:0:0:1:
42,192,100384,1,0,0:0:0:1:
384,192,100442,1,0,0:0:0:1:
213,192,100500,1,0,0:0:0:1:
298,192,100500,1,0,0:0:0:1:
128,192,100557,1,0,0:0:0:1:
384,192,100615,1,0,0:0:0:1:
469,192,100615,1,0,0:0:0:1:
42,192,100615,1,0,0:0:0:1:
298,192,100673,1,0,0:0:0:1:
213,192,100730,1,0,0:0:0:1:
128,192,100788,1,0,0:0:0:1:
298,192,100846,1,0,0:0:0:1:
469,192,100846,1,0,0:0:0:1:
42,192,100846,1,0,0:0:0:1:
128,192,100903,1,0,0:0:0:1:
213,192,100961,1,0,0:0:0:1:
298,192,101019,1,0,0:0:0:1:
128,192,101076,1,0,0:0:0:1:
384,192,101076,1,0,0:0:0:1:
469,192,101076,1,0,0:0:0:1:
213,192,101134,1,0,0:0:0:1:
298,192,101192,1,0,0:0:0:1:
384,192,101250,1,0,0:0:0:1:
469,192,101307,1,0,0:0:0:1:
42,192,101307,1,0,0:0:0:1:
128,192,101365,1,0,0:0:0:1:
213,192,101423,1,0,0:0:0:1:
298,192,101480,1,0,0:0:0:1:
384,192,101538,1,0,0:0:0:1:
469,192,101538,1,0,0:0:0:1:
42,192,101538,1,0,0:0:0:1:
128,192,101596,1,0,0:0:0:1:
213,192,101653,1,0,0:0:0:1:
469,192,101653,1,0,0:0:0:1:
298,192,101711,1,0,0:0:0:1:
128,192,101769,1,0,0:0:0:1:
384,192,101769,1,0,0:0:0:1:
42,192,101769,1,0,0:0:0:1:
213,192,101826,1,0,0:0:0:1:
298,192,101884,1,0,0:0:0:1:
384,192,101942,1,0,0:0:0:1:
213,192,102000,1,0,0:0:0:1:
469,192,102000,1,0,0:0:0:1:
42,192,102000,1,0,0:0:0:1:
384,192,102057,1,0,0:0:0:1:
298,192,102115,1,0,0:0:0:1:
213,192,102173,1,0,0:0:0:1:
128,192,102230,1,0,0:0:0:1:
384,192,102230,1,0,0:0:0:1:
469,192,102230,1,0,0:0:0:1:
298,192,102288,1,0,0:0:0:1:
213,192,102346,1,0,0:0:0:1:
469,192,102346,1,0,0:0:0:1:
128,192,102403,1,0,0:0:0:1:
384,192,102461,1,0,0:0:0:1:
469,192,102461,1,0,0:0:0:1:
42,192,102461,1,0,0:0:0:1:
128,192,102519,1,0,0:0:0:1:
213,192,102576,1,0,0:0:0:1:
298,192,102634,1,0,0:0:0:1:
128,192,102692,1,0,0:0:0:1:
384,192,102692,1,0,0:0:0:1:
42,192,102692,1,0,0:0:0:1:
213,192,102750,1,0,0:0:0:1:
298,192,102807,1,0,0:0:0:1:
384,192,102865,1,0,0:0:0:1:
213,192,102923,1,0,0:0:0:1:
469,192,102923,1,0,0:0:0:1:
42,192,102923,1,0,0:0:0:1:
384,192,102980,1,0,0:0:0:1:
298,192,103038,1,0,0:0:0:1:
213,192,103096,1,0,0:0:0:1:
128,192,103153,1,0,0:0:0:1:
384,192,103153,1,0,0:0:0:1:
469,192,103153,1,0,0:0:0:1:
298,192,103211,1,0,0:0:0:1:
213,192,103269,1,0,0:0:0:1:
469,192,103269,1,0,0:0:0:1:
128,192,103326,1,0,0:0:0:1:
298,192,103384,1,0,0:0:0:1:
384,192,103384,1,0,0:0:0:1:
42,192,103384,1,0,0:0:0:1:
128,192,103442,1,0,0:0:0:1:
213,192,103500,1,0,0:0:0:1:
469,192,103500,1,0,0:0:0:1:
298,192,103557,1,0,0:0:0:1:
128,192,103615,1,0,0:0:0:1:
384,192,103615,1,0,0:0:0:1:
42,192,103615,1,0,0:0:0:1:
213,192,103673,1,0,0:0:0:1:
298,192,103730,1,0,0:0:0:1:
384,192,103788,1,0,0:0:0:1:
213,192,103846,1,0,0:0:0:1:
469,192,103846,1,0,0:0:0:1:
42,192,103846,1,0,0:0:0:1:
384,192,103903,1,0,0:0:0:1:
298,192,103961,1,0,0:0:0:1:
213,192,104019,1,0,0:0:0:1:
128,192,104076,1,0,0:0:0:1:
384,192,104076,1,0,0:0:0:1:
469,192,104076,1,0,0:0:0:1:
298,192,104134,1,0,0:0:0:1:
213,192,104192,1,0,0:0:0:1:
469,192,104192,1,0,0:0:0:1:
128,192,104250,1,0,0:0:0:1:
384,192,104307,1,0,0:0:0:1:
469,192,104307,1,0,0:0:0:1:
42,192,104307,1,0,0:0:0:1:
128,192,104365,1,0,0:0:0:1:
213,192,104423,1,0,0:0:0:1:
298,192,104480,1,0,0:0:0:1:
128,192,104538,1,0,0:0:0:1:
384,192,104538,1,0,0:0:0:1:
42,192,104538,1,0,0:0:0:1:
213,192,104596,1,0,0:0:0:1:
298,192,104653,1,0,0:0:0:1:
384,192,104711,1,0,0:0:0:1:
213,192,104769,1,0,0:0:0:1:
469,192,104769,1,0,0:0:0:1:
42,192,104769,1,0,0:0:0:1:
384,192,104826,1,0,0:0:0:1:
298,192,104884,1,0,0:0:0:1:
213,192,104942,1,0,0:0:0:1:
128,192,105000,1,0,0:0:0:1:
384,192,105000,1,0,0:0:0:1:
469,192,105000,1,0,0:0:0:1:
298,192,105057,1,0,0:0:0:1:
213,192,105115,1,0,0:0:0:1:
469,192,105115,1,0,0:0:0:1:
128,192,105173,1,0,0:0:0:1:
384,192,105230,1,0,0:0:0:1:
469,192,105230,1,0,0:0:0:1:
42,192,105230,1,0,0:0:0:1:
298,192,105288,1,0,0:0:0:1:
128,192,105346,1,0,0:0:0:1:
213,192,105346,1,0,0:0:0:1:
42,192,105403,1,0,0:0:0:1:
128,192,105461,1,0,0:0:0:1:
384,192,105461,1,0,0:0:0:1:
469,192,105461,1,0,0:0:0:1:
298,192,105519,1,0,0:0:0:1:
213,192,105576,1,0,0:0:0:1:
128,192,105634,1,0,0:0:0:1:
298,192,105692,1,0,0:0:0:1:
469,192,105692,1,0,0:0:0:1:
42,192,105692,1,0,0:0:0:1:
128,192,105750,1,0,0:0:0:1:
213,192,105807,1,0,0:0:0:1:
298,192,105865,1,0,0:0:0:1:
128,192,105923,1,0,0:0:0:1:
384,192,105923,1,0,0:0:0:1:
42,192,105923,1,0,0:0:0:1:
213,192,105980,1,0,0:0:0:1:
298,192,106038,1,0,0:0:0:1:
42,192,106038,1,0,0:0:0:1:
384,192,106096,1,0,0:0:0:1:
128,192,106153,1,0,0:0:0:1:
469,192,106153,1,0,0:0:0:1:
42,192,106153,1,0,0:0:0:1:
384,192,106211,1,0,0:0:0:1:
298,192,106269,1,0,0:0:0:1:
213,192,106326,1,0,0:0:0:1:
128,192,106384,1,0,0:0:0:1:
384,192,106384,1,0,0:0:0:1:
469,192,106384,1,0,0:0:0:1:
298,192,106442,1,0,0:0:0:1:
213,192,106500,1,0,0:0:0:1:
128,192,106557,1,0,0:0:0:1:
298,192,106615,1,0,0:0:0:1:
469,192,106615,1,0,0:0:0:1:
42,192,106615,1,0,0:0:0:1:
128,192,106673,1,0,0:0:0:1:
213,192,106730,1,0,0:0:0:1:
298,192,106788,1,0,0:0:0:1:
128,192,106846,1,0,0:0:0:1:
384,192,106846,1,0,0:0:0:1:
42,192,106846,1,0,0:0:0:1:
213,192,106903,1,0,0:0:0:1:
298,192,106961,1,0,0:0:0:1:
42,192,106961,1,0,0:0:0:1:
384,192,107019,1,0,0:0:0:1:
128,192,107076,1,0,0:0:0:1:
469,192,107076,1,0,0:0:0:1:
42,192,107076,1,0,0:0:0:1:
384,192,107134,1,0,0:0:0:1:
298,192,107192,1,0,0:0:0:1:
42,192,107192,1,0,0:0:0:1:
213,192,107250,1,0,0:0:0:1:
128,192,107307,1,0,0:0:0:1:
384,192,107307,1,0,0:0:0:1:
469,192,107307,1,0,0:0:0:1:
298,192,107365,1,0,0:0:0:1:
213,192,107423,1,0,0:0:0:1:
128,192,107480,1,0,0:0:0:1:
298,192,107538,1,0,0:0:0:1:
469,192,107538,1,0,0:0:0:1:
42,192,107538,1,0,0:0:0:1:
128,192,107596,1,0,0:0:0:1:
213,192,107653,1,0,0:0:0:1:
298,192,107711,1,0,0:0:0:1:
128,192,107769,1,0,0:0:0:1:
384,192,107769,1,0,0:0:0:1:
42,192,107769,1,0,0:0:0:1:
213,192,107826,1,0,0:0:0:1:
298,192,107884,1,0,0:0:0:1:
42,192,107884,1,0,0:0:0:1:
384,192,107942,1,0,0:0:0:1:
128,192,108000,1,0,0:0:0:1:
469,192,108000,1,0,0:0:0:1:
42,192,108000,1,0,0:0:0:1:
384,192,108057,1,0,0:0:0:1:
298,192,108115,1,0,0:0:0:1:
213,192,108173,1,0,0:0:0:1:
128,192,108230,1,0,0:0:0:1:
384,192,108230,1,0,0:0:0:1:
469,192,108230,1,0,0:0:0:1:
298,192,108288,1,0,0:0:0:1:
213,192,108346,1,0,0:0:0:1:
128,192,108403,1,0,0:0:0:1:
298,192,108461,1,0,0:0:0:1:
469,192,108461,1,0,0:0:0:1:
42,192,108461,1,0,0:0:0:1:
128,192,108519,1,0,0:0:0:1:
213,192,108576,1,0,0:0:0:1:
298,192,108634,1,0,0:0:0:1:
128,192,108692,1,0,0:0:0:1:
384,192,108692,1,0,0:0:0:1:
42,192,108692,1,0,0:0:0:1:
213,192,108750,1,0,0:0:0:1:
298,192,108807,1,0,0:0:0:1:
42,192,108807,1,0,0:0:0:1:
384,192,108865,1,0,0:0:0:1:
128,192,108923,1,0,0:0:0:1:
469,192,108923,1,0,0:0:0:1:
42,192,108923,1,0,0:0:0:1:
213,192,108980,1,0,0:0:0:1:
298,192,109038,1,0,0:0:0:1:
384,192,109038,1,0,0:0:0:1:
469,192,109096,1,0,0:0:0:1:
128,192,109153,1,0,0:0:0:1:
213,192,109153,1,0,0:0:0:1:
298,192,109211,1,0,0:0:0:1:
384,192,109269,1,0,0:0:0:1:
469,192,109269,1,0,0:0:0:1:
42,192,109326,1,0,0:0:0:1:
128,192,109384,1,0,0:0:0:1:
213,192,109384,1,0,0:0:0:1:
469,192,109384,1,0,0:0:0:1:
298,192,109442,1,0,0:0:0:1:
384,192,109500,1,0,0:0:0:1:
42,192,109500,1,0,0:0:0:1:
128,192,109557,1,0,0:0:0:1:
213,192,109615,1,0,0:0:0:1:
298,192,109615,1,0,0:0:0:1:
384,192,109673,1,0,0:0:0:1:
469,192,109730,1,0,0:0:0:1:
42,192,109730,1,0,0:0:0:1:
384,192,109788,1,0,0:0:0:1:
213,192,109846,1,0,0:0:0:1:
298,192,109846,1,0,0:0:0:1:
128,192,109903,1,0,0:0:0:1:
384,192,109961,1,0,0:0:0:1:
42,192,109961,1,0,0:0:0:1:
298,192,110019,1,0,0:0:0:1:
128,192,110076,1,0,0:0:0:1:
213,192,110076,1,0,0:0:0:1:
469,192,110076,1,0,0:0:0:1:
42,192,110134,1,0,0:0:0:1:
128,192,110192,1,0,0:0:0:1:
384,192,110192,1,0,0:0:0:1:
213,192,110250,1,0,0:0:0:1:
298,192,110307,1,0,0:0:0:1:
384,192,110307,1,0,0:0:0:1:
469,192,110307,1,0,0:0:0:1:
42,192,110365,1,0,0:0:0:1:
128,192,110423,1,0,0:0:0:1:
213,192,110423,1,0,0:0:0:1:
298,192,110480,1,0,0:0:0:1:
384,192,110538,1,0,0:0:0:1:
469,192,110538,1,0,0:0:0:1:
42,192,110538,1,0,0:0:0:1:
128,192,110596,1,0,0:0:0:1:
213,192,110653,1,0,0:0:0:1:
298,192,110653,1,0,0:0:0:1:
384,192,110711,1,0,0:0:0:1:
128,192,110769,1,0,0:0:0:1:
469,192,110769,1,0,0:0:0:1:
42,192,110769,1,0,0:0:0:1:
213,192,110826,1,0,0:0:0:1:
298,192,110826,1,0,0:0:0:1:
384,192,110884,1,0,0:0:0:1:
469,192,110884,1,0,0:0:0:1:
128,192,110942,1,0,0:0:0:1:
42,192,110942,1,0,0:0:0:1:
213,192,111000,1,0,0:0:0:1:
298,192,111000,1,0,0:0:0:1:
384,192,111057,1,0,0:0:0:1:
469,192,111057,1,0,0:0:0:1:
128,192,111115,1,0,0:0:0:1:
213,192,111115,1,0,0:0:0:1:
298,192,111173,1,0,0:0:0:1:
384,192,111173,1,0,0:0:0:1:
128,192,111230,1,0,0:0:0:1:
42,192,111230,1,0,0:0:0:1:
384,192,111288,1,0,0:0:0:1:
469,192,111288,1,0,0:0:0:1:
213,192,111346,1,0,0:0:0:1:
298,192,111346,1,0,0:0:0:1:
128,192,111403,1,0,0:0:0:1:
42,192,111403,1,0,0:0:0:1:
213,192,111461,1,0,0:0:0:1:
298,192,111461,1,0,0:0:0:1:
384,192,111519,1,0,0:0:0:1:
469,192,111519,1,0,0:0:0:1:
128,192,111576,1,0,0:0:0:1:
42,192,111576,1,0,0:0:0:1:
213,192,111634,1,0,0:0:0:1:
298,192,111634,1,0,0:0:0:1:
384,192,111692,1,0,0:0:0:1:
469,192,111692,1,0,0:0:0:1:
42,192,111692,1,0,0:0:0:1:
128,192,111750,1,0,0:0:0:1:
213,192,111750,1,0,0:0:0:1:
298,192,111807,1,0,0:0:0:1:
384,192,111807,1,0,0:0:0:1:
469,192,111865,1,0,0:0:0:1:
42,192,111865,1,0,0:0:0:1:
128,192,111923,1,0,0:0:0:1:
213,192,111923,1,0,0:0:0:1:
384,192,111980,1,0,0:0:0:1:
469,192,111980,1,0,0:0:0:1:
213,192,112038,1,0,0:0:0:1:
298,192,112038,1,0,0:0:0:1:
128,192,112096,1,0,0:0:0:1:
42,192,112096,1,0,0:0:0:1:
298,192,112153,1,0,0:0:0:1:
384,192,112153,1,0,0:0:0:1:
128,192,112211,1,0,0:0:0:1:
213,192,112211,1,0,0:0:0:1:
469,192,112269,1,0,0:0:0:1:
42,192,112269,1,0,0:0:0:1:
298,192,112326,1,0,0:0:0:1:
384,192,112326,1,0,0:0:0:1:
128,192,112384,1,0,0:0:0:1:
42,192,112384,1,0,0:0:0:1:
213,192,112442,1,0,0:0:0:1:
298,192,112442,1,0,0:0:0:1:
384,192,112500,1,0,0:0:0:1:
469,192,112500,1,0,0:0:0:1:
128,192,112557,1,0,0:0:0:1:
213,192,112557,1,0,0:0:0:1:
298,192,112615,128,0,112961:0:0:0:1:
469,192,112615,128,0,112961:0:0:0:1:
42,192,112615,128,0,112961:0:0:0:1:
42,192,114000,1,0,0:0:0:1:
128,192,114057,1,0,0:0:0:1:
213,192,114115,1,0,0:0:0:1:
298,192,114173,1,0,0:0:0:1:
128,192,114230,1,0,0:0:0:1:
213,192,114288,1,0,0:0:0:1:
298,192,114346,1,0,0:0:0:1:
384,192,114403,1,0,0:0:0:1:
128,192,114461,1,0,0:0:0:1:
469,192,114461,1,0,0:0:0:1:
42,192,114461,1,0,0:0:0:1:
384,192,114519,1,0,0:0:0:1:
298,192,114576,1,0,0:0:0:1:
213,192,114634,1,0,0:0:0:1:
128,192,114692,1,0,0:0:0:1:
384,192,114692,1,0,0:0:0:1:
469,192,114692,1,0,0:0:0:1:
213,192,114750,1,0,0:0:0:1:
298,192,114807,1,0,0:0:0:1:
384,192,114807,1,0,0:0:0:1:
469,192,114865,1,0,0:0:0:1:
42,192,114923,1,0,0:0:0:1:
128,192,114980,1,0,0:0:0:1:
213,192,115038,1,0,0:0:0:1:
298,192,115038,1,0,0:0:0:1:
384,192,115096,1,0,0:0:0:1:
128,192,115153,1,0,0:0:0:1:
213,192,115153,1,0,0:0:0:1:
469,192,115153,1,0,0:0:0:1:
384,192,115211,1,0,0:0:0:1:
298,192,115269,1,0,0:0:0:1:
213,192,115326,1,0,0:0:0:1:
128,192,115384,1,0,0:0:0:1:
384,192,115384,1,0,0:0:0:1:
42,192,115384,1,0,0:0:0:1:
