osu file format v14

[General]
AudioFilename: Gengaozo -Foon-.mp3
AudioLeadIn: 0
PreviewTime: -1
Countdown: 1
SampleSet: None
StackLeniency: 0.7
Mode: 3
LetterboxInBreaks: 1
SpecialStyle: 1
WidescreenStoryboard: 1

[Editor]
DistanceSpacing: 1.3
BeatDivisor: 4
GridSize: 8
TimelineZoom: 1

[Metadata]
Title:Derrick 6K Exercise Pack
TitleUnicode:Derrick 6K Exercise Pack
Artist:Various Artists
ArtistUnicode:Various Artists
Creator:[Crz]Derrick
Version:455-38B - Gengaozo -Foon- [17]
Source:
Tags:
BeatmapID:998929
BeatmapSetID:466803

[Difficulty]
HPDrainRate:8
CircleSize:6
OverallDifficulty:8.5
ApproachRate:5
SliderMultiplier:1.4
SliderTickRate:1

[Events]
//Background and Video events
0,0,"IMG_6532.jpg",0,0
//Break Periods
//Storyboard Layer 0 (Background)
//Storyboard Layer 1 (Fail)
//Storyboard Layer 2 (Pass)
//Storyboard Layer 3 (Foreground)
//Storyboard Sound Samples

[TimingPoints]
0,392.156862745098,4,2,0,70,1,0

[HitObjects]
213,192,1568,5,0,0:0:0:1:
298,192,1568,1,0,0:0:0:1:
469,192,1568,1,0,0:0:0:1:
42,192,1568,1,0,0:0:0:1:
128,192,1764,1,0,0:0:0:1:
128,192,1862,1,0,0:0:0:1:
213,192,1960,1,0,0:0:0:1:
42,192,1960,1,0,0:0:0:1:
128,192,2156,1,0,0:0:0:1:
128,192,2254,1,0,0:0:0:1:
213,192,2352,1,0,0:0:0:1:
42,192,2352,1,0,0:0:0:1:
128,192,2549,1,0,0:0:0:1:
128,192,2647,1,0,0:0:0:1:
213,192,2745,1,0,0:0:0:1:
42,192,2745,1,0,0:0:0:1:
128,192,2941,1,0,0:0:0:1:
128,192,3039,1,0,0:0:0:1:
213,192,3137,1,0,0:0:0:1:
42,192,3137,1,0,0:0:0:1:
128,192,3333,1,0,0:0:0:1:
128,192,3431,1,0,0:0:0:1:
213,192,3529,1,0,0:0:0:1:
42,192,3529,1,0,0:0:0:1:
128,192,3725,1,0,0:0:0:1:
128,192,3823,1,0,0:0:0:1:
213,192,3921,1,0,0:0:0:1:
42,192,3921,1,0,0:0:0:1:
128,192,4117,1,0,0:0:0:1:
128,192,4215,1,0,0:0:0:1:
213,192,4313,1,0,0:0:0:1:
42,192,4313,1,0,0:0:0:1:
128,192,4509,1,0,0:0:0:1:
128,192,4607,1,0,0:0:0:1:
213,192,4705,1,0,0:0:0:1:
42,192,4705,1,0,0:0:0:1:
128,192,4901,1,0,0:0:0:1:
128,192,5000,1,0,0:0:0:1:
213,192,5098,1,0,0:0:0:1:
42,192,5098,1,0,0:0:0:1:
128,192,5294,1,0,0:0:0:1:
128,192,5392,1,0,0:0:0:1:
213,192,5490,1,0,0:0:0:1:
42,192,5490,1,0,0:0:0:1:
128,192,5686,1,0,0:0:0:1:
128,192,5784,1,0,0:0:0:1:
213,192,5882,1,0,0:0:0:1:
42,192,5882,1,0,0:0:0:1:
128,192,6078,1,0,0:0:0:1:
128,192,6176,1,0,0:0:0:1:
213,192,6274,1,0,0:0:0:1:
42,192,6274,1,0,0:0:0:1:
128,192,6470,1,0,0:0:0:1:
128,192,6568,1,0,0:0:0:1:
213,192,6666,1,0,0:0:0:1:
42,192,6666,1,0,0:0:0:1:
128,192,6862,1,0,0:0:0:1:
128,192,6960,1,0,0:0:0:1:
213,192,7058,1,0,0:0:0:1:
42,192,7058,1,0,0:0:0:1:
128,192,7254,1,0,0:0:0:1:
128,192,7352,1,0,0:0:0:1:
213,192,7450,1,0,0:0:0:1:
42,192,7450,1,0,0:0:0:1:
128,192,7647,1,0,0:0:0:1:
128,192,7745,1,0,0:0:0:1:
213,192,7843,1,0,0:0:0:1:
42,192,7843,1,0,0:0:0:1:
128,192,8039,1,0,0:0:0:1:
128,192,8137,1,0,0:0:0:1:
213,192,8235,1,0,0:0:0:1:
42,192,8235,1,0,0:0:0:1:
128,192,8431,1,0,0:0:0:1:
128,192,8529,1,0,0:0:0:1:
213,192,8627,1,0,0:0:0:1:
42,192,8627,1,0,0:0:0:1:
128,192,8823,1,0,0:0:0:1:
128,192,8921,1,0,0:0:0:1:
213,192,9019,1,0,0:0:0:1:
42,192,9019,1,0,0:0:0:1:
128,192,9215,1,0,0:0:0:1:
128,192,9313,1,0,0:0:0:1:
213,192,9411,1,0,0:0:0:1:
42,192,9411,1,0,0:0:0:1:
128,192,9607,1,0,0:0:0:1:
128,192,9705,1,0,0:0:0:1:
213,192,9803,1,0,0:0:0:1:
42,192,9803,1,0,0:0:0:1:
128,192,10000,1,0,0:0:0:1:
128,192,10098,1,0,0:0:0:1:
213,192,10196,1,0,0:0:0:1:
42,192,10196,1,0,0:0:0:1:
128,192,10392,1,0,0:0:0:1:
128,192,10490,1,0,0:0:0:1:
213,192,10588,1,0,0:0:0:1:
42,192,10588,1,0,0:0:0:1:
128,192,10784,1,0,0:0:0:1:
128,192,10882,1,0,0:0:0:1:
213,192,10980,1,0,0:0:0:1:
42,192,10980,1,0,0:0:0:1:
128,192,11176,1,0,0:0:0:1:
128,192,11274,1,0,0:0:0:1:
213,192,11372,1,0,0:0:0:1:
42,192,11372,1,0,0:0:0:1:
128,192,11568,1,0,0:0:0:1:
128,192,11666,1,0,0:0:0:1:
213,192,11764,1,0,0:0:0:1:
42,192,11764,1,0,0:0:0:1:
128,192,11960,1,0,0:0:0:1:
128,192,12058,1,0,0:0:0:1:
213,192,12156,1,0,0:0:0:1:
42,192,12156,1,0,0:0:0:1:
128,192,12352,1,0,0:0:0:1:
128,192,12450,1,0,0:0:0:1:
213,192,12549,1,0,0:0:0:1:
42,192,12549,1,0,0:0:0:1:
128,192,12745,1,0,0:0:0:1:
128,192,12843,1,0,0:0:0:1:
213,192,12941,1,0,0:0:0:1:
42,192,12941,1,0,0:0:0:1:
128,192,13137,1,0,0:0:0:1:
128,192,13235,1,0,0:0:0:1:
213,192,13333,1,0,0:0:0:1:
42,192,13333,1,0,0:0:0:1:
128,192,13529,1,0,0:0:0:1:
128,192,13627,1,0,0:0:0:1:
213,192,13725,1,0,0:0:0:1:
42,192,13725,1,0,0:0:0:1:
128,192,13921,1,0,0:0:0:1:
128,192,14019,1,0,0:0:0:1:
213,192,14117,1,0,0:0:0:1:
384,192,14117,1,0,0:0:0:1:
42,192,14117,1,0,0:0:0:1:
298,192,14215,1,0,0:0:0:1:
128,192,14313,1,0,0:0:0:1:
469,192,14313,1,0,0:0:0:1:
128,192,14411,1,0,0:0:0:1:
384,192,14411,1,0,0:0:0:1:
213,192,14509,1,0,0:0:0:1:
469,192,14509,1,0,0:0:0:1:
42,192,14509,1,0,0:0:0:1:
298,192,14607,1,0,0:0:0:1:
128,192,14705,1,0,0:0:0:1:
384,192,14705,1,0,0:0:0:1:
128,192,14803,1,0,0:0:0:1:
298,192,14803,1,0,0:0:0:1:
213,192,14901,1,0,0:0:0:1:
469,192,14901,1,0,0:0:0:1:
42,192,14901,1,0,0:0:0:1:
384,192,15000,1,0,0:0:0:1:
128,192,15098,1,0,0:0:0:1:
298,192,15098,1,0,0:0:0:1:
128,192,15196,1,0,0:0:0:1:
384,192,15196,1,0,0:0:0:1:
213,192,15294,1,0,0:0:0:1:
469,192,15294,1,0,0:0:0:1:
42,192,15294,1,0,0:0:0:1:
298,192,15392,1,0,0:0:0:1:
128,192,15490,1,0,0:0:0:1:
384,192,15490,1,0,0:0:0:1:
128,192,15588,1,0,0:0:0:1:
298,192,15588,1,0,0:0:0:1:
213,192,15686,1,0,0:0:0:1:
469,192,15686,1,0,0:0:0:1:
42,192,15686,1,0,0:0:0:1:
384,192,15784,1,0,0:0:0:1:
128,192,15882,1,0,0:0:0:1:
298,192,15882,1,0,0:0:0:1:
128,192,15980,1,0,0:0:0:1:
469,192,15980,1,0,0:0:0:1:
213,192,16078,1,0,0:0:0:1:
384,192,16078,1,0,0:0:0:1:
42,192,16078,1,0,0:0:0:1:
298,192,16176,1,0,0:0:0:1:
128,192,16274,1,0,0:0:0:1:
384,192,16274,1,0,0:0:0:1:
128,192,16372,1,0,0:0:0:1:
469,192,16372,1,0,0:0:0:1:
213,192,16470,1,0,0:0:0:1:
384,192,16470,1,0,0:0:0:1:
42,192,16470,1,0,0:0:0:1:
298,192,16568,1,0,0:0:0:1:
128,192,16666,1,0,0:0:0:1:
469,192,16666,1,0,0:0:0:1:
128,192,16764,1,0,0:0:0:1:
384,192,16764,1,0,0:0:0:1:
213,192,16862,1,0,0:0:0:1:
469,192,16862,1,0,0:0:0:1:
42,192,16862,1,0,0:0:0:1:
298,192,16960,1,0,0:0:0:1:
128,192,17058,1,0,0:0:0:1:
384,192,17058,1,0,0:0:0:1:
128,192,17156,1,0,0:0:0:1:
469,192,17156,1,0,0:0:0:1:
213,192,17254,1,0,0:0:0:1:
384,192,17254,1,0,0:0:0:1:
42,192,17254,1,0,0:0:0:1:
298,192,17352,1,0,0:0:0:1:
128,192,17450,1,0,0:0:0:1:
469,192,17450,1,0,0:0:0:1:
128,192,17549,1,0,0:0:0:1:
384,192,17549,1,0,0:0:0:1:
213,192,17647,1,0,0:0:0:1:
469,192,17647,1,0,0:0:0:1:
42,192,17647,1,0,0:0:0:1:
298,192,17745,1,0,0:0:0:1:
128,192,17843,1,0,0:0:0:1:
384,192,17843,1,0,0:0:0:1:
128,192,17941,1,0,0:0:0:1:
298,192,17941,1,0,0:0:0:1:
213,192,18039,1,0,0:0:0:1:
469,192,18039,1,0,0:0:0:1:
42,192,18039,1,0,0:0:0:1:
384,192,18137,1,0,0:0:0:1:
128,192,18235,1,0,0:0:0:1:
298,192,18235,1,0,0:0:0:1:
128,192,18333,1,0,0:0:0:1:
384,192,18333,1,0,0:0:0:1:
213,192,18431,1,0,0:0:0:1:
469,192,18431,1,0,0:0:0:1:
42,192,18431,1,0,0:0:0:1:
298,192,18529,1,0,0:0:0:1:
128,192,18627,1,0,0:0:0:1:
384,192,18627,1,0,0:0:0:1:
128,192,18725,1,0,0:0:0:1:
298,192,18725,1,0,0:0:0:1:
213,192,18823,1,0,0:0:0:1:
469,192,18823,1,0,0:0:0:1:
42,192,18823,1,0,0:0:0:1:
384,192,18921,1,0,0:0:0:1:
128,192,19019,1,0,0:0:0:1:
298,192,19019,1,0,0:0:0:1:
128,192,19117,1,0,0:0:0:1:
469,192,19117,1,0,0:0:0:1:
213,192,19215,1,0,0:0:0:1:
384,192,19215,1,0,0:0:0:1:
42,192,19215,1,0,0:0:0:1:
298,192,19313,1,0,0:0:0:1:
128,192,19411,1,0,0:0:0:1:
384,192,19411,1,0,0:0:0:1:
128,192,19509,1,0,0:0:0:1:
469,192,19509,1,0,0:0:0:1:
213,192,19607,1,0,0:0:0:1:
384,192,19607,1,0,0:0:0:1:
42,192,19607,1,0,0:0:0:1:
298,192,19705,1,0,0:0:0:1:
128,192,19803,1,0,0:0:0:1:
469,192,19803,1,0,0:0:0:1:
128,192,19901,1,0,0:0:0:1:
384,192,19901,1,0,0:0:0:1:
213,192,20000,1,0,0:0:0:1:
469,192,20000,1,0,0:0:0:1:
42,192,20000,1,0,0:0:0:1:
298,192,20098,1,0,0:0:0:1:
128,192,20196,1,0,0:0:0:1:
384,192,20196,1,0,0:0:0:1:
128,192,20294,1,0,0:0:0:1:
469,192,20294,1,0,0:0:0:1:
213,192,20392,1,0,0:0:0:1:
384,192,20392,1,0,0:0:0:1:
42,192,20392,1,0,0:0:0:1:
298,192,20490,1,0,0:0:0:1:
128,192,20588,1,0,0:0:0:1:
469,192,20588,1,0,0:0:0:1:
128,192,20686,1,0,0:0:0:1:
384,192,20686,1,0,0:0:0:1:
213,192,20784,1,0,0:0:0:1:
469,192,20784,1,0,0:0:0:1:
42,192,20784,1,0,0:0:0:1:
298,192,20882,1,0,0:0:0:1:
128,192,20980,1,0,0:0:0:1:
384,192,20980,1,0,0:0:0:1:
128,192,21078,1,0,0:0:0:1:
298,192,21078,1,0,0:0:0:1:
213,192,21176,1,0,0:0:0:1:
469,192,21176,1,0,0:0:0:1:
42,192,21176,1,0,0:0:0:1:
384,192,21274,1,0,0:0:0:1:
128,192,21372,1,0,0:0:0:1:
298,192,21372,1,0,0:0:0:1:
128,192,21470,1,0,0:0:0:1:
384,192,21470,1,0,0:0:0:1:
213,192,21568,1,0,0:0:0:1:
469,192,21568,1,0,0:0:0:1:
42,192,21568,1,0,0:0:0:1:
298,192,21666,1,0,0:0:0:1:
128,192,21764,1,0,0:0:0:1:
384,192,21764,1,0,0:0:0:1:
128,192,21862,1,0,0:0:0:1:
298,192,21862,1,0,0:0:0:1:
213,192,21960,1,0,0:0:0:1:
469,192,21960,1,0,0:0:0:1:
42,192,21960,1,0,0:0:0:1:
384,192,22058,1,0,0:0:0:1:
128,192,22156,1,0,0:0:0:1:
298,192,22156,1,0,0:0:0:1:
128,192,22254,1,0,0:0:0:1:
469,192,22254,1,0,0:0:0:1:
213,192,22352,1,0,0:0:0:1:
384,192,22352,1,0,0:0:0:1:
42,192,22352,1,0,0:0:0:1:
298,192,22450,1,0,0:0:0:1:
128,192,22549,1,0,0:0:0:1:
384,192,22549,1,0,0:0:0:1:
128,192,22647,1,0,0:0:0:1:
469,192,22647,1,0,0:0:0:1:
213,192,22745,1,0,0:0:0:1:
384,192,22745,1,0,0:0:0:1:
42,192,22745,1,0,0:0:0:1:
298,192,22843,1,0,0:0:0:1:
128,192,22941,1,0,0:0:0:1:
469,192,22941,1,0,0:0:0:1:
128,192,23039,1,0,0:0:0:1:
384,192,23039,1,0,0:0:0:1:
213,192,23137,1,0,0:0:0:1:
469,192,23137,1,0,0:0:0:1:
42,192,23137,1,0,0:0:0:1:
298,192,23235,1,0,0:0:0:1:
128,192,23333,1,0,0:0:0:1:
384,192,23333,1,0,0:0:0:1:
128,192,23431,1,0,0:0:0:1:
469,192,23431,1,0,0:0:0:1:
213,192,23529,1,0,0:0:0:1:
384,192,23529,1,0,0:0:0:1:
42,192,23529,1,0,0:0:0:1:
298,192,23627,1,0,0:0:0:1:
128,192,23725,1,0,0:0:0:1:
469,192,23725,1,0,0:0:0:1:
128,192,23823,1,0,0:0:0:1:
384,192,23823,1,0,0:0:0:1:
213,192,23921,1,0,0:0:0:1:
469,192,23921,1,0,0:0:0:1:
42,192,23921,1,0,0:0:0:1:
298,192,24019,1,0,0:0:0:1:
128,192,24117,1,0,0:0:0:1:
384,192,24117,1,0,0:0:0:1:
128,192,24215,1,0,0:0:0:1:
298,192,24215,1,0,0:0:0:1:
213,192,24313,1,0,0:0:0:1:
469,192,24313,1,0,0:0:0:1:
42,192,24313,1,0,0:0:0:1:
384,192,24411,1,0,0:0:0:1:
128,192,24509,1,0,0:0:0:1:
298,192,24509,1,0,0:0:0:1:
128,192,24607,1,0,0:0:0:1:
384,192,24607,1,0,0:0:0:1:
213,192,24705,1,0,0:0:0:1:
469,192,24705,1,0,0:0:0:1:
42,192,24705,1,0,0:0:0:1:
298,192,24803,1,0,0:0:0:1:
128,192,24901,1,0,0:0:0:1:
384,192,24901,1,0,0:0:0:1:
128,192,25000,1,0,0:0:0:1:
298,192,25000,1,0,0:0:0:1:
213,192,25098,1,0,0:0:0:1:
469,192,25098,1,0,0:0:0:1:
42,192,25098,1,0,0:0:0:1:
384,192,25196,1,0,0:0:0:1:
128,192,25294,1,0,0:0:0:1:
298,192,25294,1,0,0:0:0:1:
128,192,25392,1,0,0:0:0:1:
469,192,25392,1,0,0:0:0:1:
213,192,25490,1,0,0:0:0:1:
384,192,25490,1,0,0:0:0:1:
42,192,25490,1,0,0:0:0:1:
298,192,25588,1,0,0:0:0:1:
128,192,25686,1,0,0:0:0:1:
384,192,25686,1,0,0:0:0:1:
128,192,25784,1,0,0:0:0:1:
469,192,25784,1,0,0:0:0:1:
213,192,25882,1,0,0:0:0:1:
384,192,25882,1,0,0:0:0:1:
42,192,25882,1,0,0:0:0:1:
298,192,25980,1,0,0:0:0:1:
128,192,26078,1,0,0:0:0:1:
469,192,26078,1,0,0:0:0:1:
128,192,26176,1,0,0:0:0:1:
384,192,26176,1,0,0:0:0:1:
213,192,26274,1,0,0:0:0:1:
469,192,26274,1,0,0:0:0:1:
42,192,26274,1,0,0:0:0:1:
298,192,26372,1,0,0:0:0:1:
128,192,26470,1,0,0:0:0:1:
384,192,26470,1,0,0:0:0:1:
128,192,26568,1,0,0:0:0:1:
469,192,26568,1,0,0:0:0:1:
213,192,26666,1,0,0:0:0:1:
384,192,26666,1,0,0:0:0:1:
42,192,26666,1,0,0:0:0:1:
298,192,26764,1,0,0:0:0:1:
128,192,26862,1,0,0:0:0:1:
469,192,26862,1,0,0:0:0:1:
213,192,26960,1,0,0:0:0:1:
298,192,27058,1,0,0:0:0:1:
384,192,27058,1,0,0:0:0:1:
42,192,27058,1,0,0:0:0:1:
213,192,27156,1,0,0:0:0:1:
128,192,27254,1,0,0:0:0:1:
469,192,27254,1,0,0:0:0:1:
384,192,27352,1,0,0:0:0:1:
213,192,27450,1,0,0:0:0:1:
298,192,27450,1,0,0:0:0:1:
42,192,27450,1,0,0:0:0:1:
384,192,27549,1,0,0:0:0:1:
128,192,27647,1,0,0:0:0:1:
469,192,27647,1,0,0:0:0:1:
213,192,27745,1,0,0:0:0:1:
298,192,27843,1,0,0:0:0:1:
384,192,27843,1,0,0:0:0:1:
42,192,27843,1,0,0:0:0:1:
213,192,27941,1,0,0:0:0:1:
128,192,28039,1,0,0:0:0:1:
469,192,28039,1,0,0:0:0:1:
384,192,28137,1,0,0:0:0:1:
213,192,28235,1,0,0:0:0:1:
469,192,28235,1,0,0:0:0:1:
42,192,28235,1,0,0:0:0:1:
384,192,28333,1,0,0:0:0:1:
128,192,28431,1,0,0:0:0:1:
298,192,28431,1,0,0:0:0:1:
384,192,28529,1,0,0:0:0:1:
213,192,28627,1,0,0:0:0:1:
469,192,28627,1,0,0:0:0:1:
42,192,28627,1,0,0:0:0:1:
384,192,28725,1,0,0:0:0:1:
128,192,28823,1,0,0:0:0:1:
298,192,28823,1,0,0:0:0:1:
384,192,28921,1,0,0:0:0:1:
213,192,29019,1,0,0:0:0:1:
469,192,29019,1,0,0:0:0:1:
42,192,29019,1,0,0:0:0:1:
384,192,29117,1,0,0:0:0:1:
128,192,29215,1,0,0:0:0:1:
298,192,29215,1,0,0:0:0:1:
384,192,29313,1,0,0:0:0:1:
213,192,29411,1,0,0:0:0:1:
469,192,29411,1,0,0:0:0:1:
42,192,29411,1,0,0:0:0:1:
384,192,29509,1,0,0:0:0:1:
128,192,29607,1,0,0:0:0:1:
298,192,29607,1,0,0:0:0:1:
384,192,29705,1,0,0:0:0:1:
128,192,29803,1,0,0:0:0:1:
213,192,29803,1,0,0:0:0:1:
469,192,29803,1,0,0:0:0:1:
298,192,29901,1,0,0:0:0:1:
384,192,30000,1,0,0:0:0:1:
42,192,30000,1,0,0:0:0:1:
298,192,30098,1,0,0:0:0:1:
128,192,30196,1,0,0:0:0:1:
213,192,30196,1,0,0:0:0:1:
469,192,30196,1,0,0:0:0:1:
298,192,30294,1,0,0:0:0:1:
384,192,30392,1,0,0:0:0:1:
42,192,30392,1,0,0:0:0:1:
298,192,30490,1,0,0:0:0:1:
128,192,30588,1,0,0:0:0:1:
213,192,30588,1,0,0:0:0:1:
469,192,30588,1,0,0:0:0:1:
298,192,30686,1,0,0:0:0:1:
384,192,30784,1,0,0:0:0:1:
42,192,30784,1,0,0:0:0:1:
298,192,30882,1,0,0:0:0:1:
128,192,30980,1,0,0:0:0:1:
213,192,30980,1,0,0:0:0:1:
469,192,30980,1,0,0:0:0:1:
298,192,31078,1,0,0:0:0:1:
384,192,31176,1,0,0:0:0:1:
42,192,31176,1,0,0:0:0:1:
213,192,31274,1,0,0:0:0:1:
298,192,31372,1,0,0:0:0:1:
469,192,31372,1,0,0:0:0:1:
42,192,31372,1,0,0:0:0:1:
128,192,31470,1,0,0:0:0:1:
213,192,31568,1,0,0:0:0:1:
384,192,31568,1,0,0:0:0:1:
128,192,31666,1,0,0:0:0:1:
298,192,31764,1,0,0:0:0:1:
469,192,31764,1,0,0:0:0:1:
42,192,31764,1,0,0:0:0:1:
213,192,31862,1,0,0:0:0:1:
128,192,31960,1,0,0:0:0:1:
384,192,31960,1,0,0:0:0:1:
213,192,32058,1,0,0:0:0:1:
298,192,32156,1,0,0:0:0:1:
469,192,32156,1,0,0:0:0:1:
42,192,32156,1,0,0:0:0:1:
128,192,32254,1,0,0:0:0:1:
213,192,32352,1,0,0:0:0:1:
384,192,32352,1,0,0:0:0:1:
128,192,32450,1,0,0:0:0:1:
298,192,32549,1,0,0:0:0:1:
469,192,32549,1,0,0:0:0:1:
42,192,32549,1,0,0:0:0:1:
213,192,32647,1,0,0:0:0:1:
128,192,32745,1,0,0:0:0:1:
384,192,32745,1,0,0:0:0:1:
298,192,32843,1,0,0:0:0:1:
213,192,32941,1,0,0:0:0:1:
384,192,32941,1,0,0:0:0:1:
42,192,32941,1,0,0:0:0:1:
298,192,33039,1,0,0:0:0:1:
128,192,33137,1,0,0:0:0:1:
469,192,33137,1,0,0:0:0:1:
213,192,33235,1,0,0:0:0:1:
298,192,33333,1,0,0:0:0:1:
384,192,33333,1,0,0:0:0:1:
42,192,33333,1,0,0:0:0:1:
128,192,33431,1,0,0:0:0:1:
469,192,33529,1,0,0:0:0:1:
42,192,33529,1,0,0:0:0:1:
128,192,33627,1,0,0:0:0:1:
384,192,33627,1,0,0:0:0:1:
213,192,33725,1,0,0:0:0:1:
298,192,33725,1,0,0:0:0:1:
42,192,33725,1,0,0:0:0:1:
384,192,33823,1,0,0:0:0:1:
128,192,33921,1,0,0:0:0:1:
469,192,33921,1,0,0:0:0:1:
213,192,34019,1,0,0:0:0:1:
298,192,34117,1,0,0:0:0:1:
384,192,34117,1,0,0:0:0:1:
42,192,34117,1,0,0:0:0:1:
128,192,34215,1,0,0:0:0:1:
469,192,34313,1,0,0:0:0:1:
42,192,34313,1,0,0:0:0:1:
128,192,34411,1,0,0:0:0:1:
384,192,34411,1,0,0:0:0:1:
213,192,34509,1,0,0:0:0:1:
469,192,34509,1,0,0:0:0:1:
42,192,34509,1,0,0:0:0:1:
384,192,34607,1,0,0:0:0:1:
128,192,34705,1,0,0:0:0:1:
298,192,34705,1,0,0:0:0:1:
384,192,34803,1,0,0:0:0:1:
213,192,34901,1,0,0:0:0:1:
469,192,34901,1,0,0:0:0:1:
42,192,34901,1,0,0:0:0:1:
128,192,35000,1,0,0:0:0:1:
384,192,35000,1,0,0:0:0:1:
213,192,35098,1,0,0:0:0:1:
298,192,35098,1,0,0:0:0:1:
128,192,35196,1,0,0:0:0:1:
384,192,35196,1,0,0:0:0:1:
213,192,35294,1,0,0:0:0:1:
469,192,35294,1,0,0:0:0:1:
42,192,35294,1,0,0:0:0:1:
384,192,35392,1,0,0:0:0:1:
128,192,35490,1,0,0:0:0:1:
298,192,35490,1,0,0:0:0:1:
384,192,35588,1,0,0:0:0:1:
213,192,35686,1,0,0:0:0:1:
469,192,35686,1,0,0:0:0:1:
42,192,35686,1,0,0:0:0:1:
128,192,35784,1,0,0:0:0:1:
384,192,35784,1,0,0:0:0:1:
213,192,35882,1,0,0:0:0:1:
298,192,35882,1,0,0:0:0:1:
128,192,35980,1,0,0:0:0:1:
384,192,35980,1,0,0:0:0:1:
213,192,36078,1,0,0:0:0:1:
469,192,36078,1,0,0:0:0:1:
42,192,36078,1,0,0:0:0:1:
298,192,36176,1,0,0:0:0:1:
384,192,36274,1,0,0:0:0:1:
42,192,36274,1,0,0:0:0:1:
298,192,36372,1,0,0:0:0:1:
213,192,36470,1,0,0:0:0:1:
469,192,36470,1,0,0:0:0:1:
128,192,36568,1,0,0:0:0:1:
298,192,36568,1,0,0:0:0:1:
213,192,36666,1,0,0:0:0:1:
384,192,36666,1,0,0:0:0:1:
42,192,36666,1,0,0:0:0:1:
128,192,36764,1,0,0:0:0:1:
298,192,36764,1,0,0:0:0:1:
213,192,36862,1,0,0:0:0:1:
469,192,36862,1,0,0:0:0:1:
42,192,36862,1,0,0:0:0:1:
298,192,36960,1,0,0:0:0:1:
128,192,37058,1,0,0:0:0:1:
384,192,37058,1,0,0:0:0:1:
298,192,37156,1,0,0:0:0:1:
213,192,37254,1,0,0:0:0:1:
469,192,37254,1,0,0:0:0:1:
128,192,37352,1,0,0:0:0:1:
298,192,37352,1,0,0:0:0:1:
213,192,37450,1,0,0:0:0:1:
384,192,37450,1,0,0:0:0:1:
42,192,37450,1,0,0:0:0:1:
128,192,37549,1,0,0:0:0:1:
298,192,37647,1,0,0:0:0:1:
469,192,37647,1,0,0:0:0:1:
42,192,37647,1,0,0:0:0:1:
128,192,37745,1,0,0:0:0:1:
213,192,37843,1,0,0:0:0:1:
384,192,37843,1,0,0:0:0:1:
128,192,37941,1,0,0:0:0:1:
298,192,38039,1,0,0:0:0:1:
469,192,38039,1,0,0:0:0:1:
42,192,38039,1,0,0:0:0:1:
213,192,38137,1,0,0:0:0:1:
128,192,38235,1,0,0:0:0:1:
384,192,38235,1,0,0:0:0:1:
213,192,38333,1,0,0:0:0:1:
298,192,38431,1,0,0:0:0:1:
469,192,38431,1,0,0:0:0:1:
42,192,38431,1,0,0:0:0:1:
128,192,38529,1,0,0:0:0:1:
213,192,38627,1,0,0:0:0:1:
128,192,38725,1,0,0:0:0:1:
384,192,38823,1,0,0:0:0:1:
42,192,38823,1,0,0:0:0:1:
298,192,38921,1,0,0:0:0:1:
213,192,39019,1,0,0:0:0:1:
298,192,39117,1,0,0:0:0:1:
128,192,39215,1,0,0:0:0:1:
384,192,39215,1,0,0:0:0:1:
469,192,39215,1,0,0:0:0:1:
213,192,39313,1,0,0:0:0:1:
128,192,39411,1,0,0:0:0:1:
384,192,39411,1,0,0:0:0:1:
213,192,39509,1,0,0:0:0:1:
128,192,39607,1,0,0:0:0:1:
298,192,39607,1,0,0:0:0:1:
42,192,39607,1,0,0:0:0:1:
213,192,39705,1,0,0:0:0:1:
128,192,39803,1,0,0:0:0:1:
384,192,39803,1,0,0:0:0:1:
213,192,39901,1,0,0:0:0:1:
128,192,40000,1,0,0:0:0:1:
298,192,40000,1,0,0:0:0:1:
469,192,40000,1,0,0:0:0:1:
213,192,40098,1,0,0:0:0:1:
128,192,40196,1,0,0:0:0:1:
384,192,40196,1,0,0:0:0:1:
213,192,40294,1,0,0:0:0:1:
128,192,40392,1,0,0:0:0:1:
298,192,40392,1,0,0:0:0:1:
42,192,40392,1,0,0:0:0:1:
213,192,40490,1,0,0:0:0:1:
128,192,40588,1,0,0:0:0:1:
384,192,40588,1,0,0:0:0:1:
213,192,40686,1,0,0:0:0:1:
298,192,40784,1,0,0:0:0:1:
469,192,40784,1,0,0:0:0:1:
42,192,40784,1,0,0:0:0:1:
384,192,40882,1,0,0:0:0:1:
128,192,40980,1,0,0:0:0:1:
298,192,40980,1,0,0:0:0:1:
384,192,41078,1,0,0:0:0:1:
213,192,41176,1,0,0:0:0:1:
298,192,41176,1,0,0:0:0:1:
42,192,41176,1,0,0:0:0:1:
384,192,41274,1,0,0:0:0:1:
128,192,41372,1,0,0:0:0:1:
298,192,41372,1,0,0:0:0:1:
384,192,41470,1,0,0:0:0:1:
298,192,41568,1,0,0:0:0:1:
469,192,41568,1,0,0:0:0:1:
42,192,41568,1,0,0:0:0:1:
384,192,41666,1,0,0:0:0:1:
128,192,41764,1,0,0:0:0:1:
298,192,41764,1,0,0:0:0:1:
384,192,41862,1,0,0:0:0:1:
213,192,41960,1,0,0:0:0:1:
298,192,41960,1,0,0:0:0:1:
42,192,41960,1,0,0:0:0:1:
384,192,42058,1,0,0:0:0:1:
128,192,42156,1,0,0:0:0:1:
298,192,42156,1,0,0:0:0:1:
384,192,42254,1,0,0:0:0:1:
298,192,42352,1,0,0:0:0:1:
469,192,42352,1,0,0:0:0:1:
42,192,42352,1,0,0:0:0:1:
213,192,42450,1,0,0:0:0:1:
384,192,42549,1,0,0:0:0:1:
42,192,42549,1,0,0:0:0:1:
213,192,42647,1,0,0:0:0:1:
128,192,42745,1,0,0:0:0:1:
298,192,42745,1,0,0:0:0:1:
42,192,42745,1,0,0:0:0:1:
213,192,42843,1,0,0:0:0:1:
384,192,42941,1,0,0:0:0:1:
42,192,42941,1,0,0:0:0:1:
213,192,43039,1,0,0:0:0:1:
298,192,43137,1,0,0:0:0:1:
469,192,43137,1,0,0:0:0:1:
42,192,43137,1,0,0:0:0:1:
213,192,43235,1,0,0:0:0:1:
384,192,43333,1,0,0:0:0:1:
42,192,43333,1,0,0:0:0:1:
213,192,43431,1,0,0:0:0:1:
128,192,43529,1,0,0:0:0:1:
469,192,43529,1,0,0:0:0:1:
42,192,43529,1,0,0:0:0:1:
213,192,43627,1,0,0:0:0:1:
384,192,43725,1,0,0:0:0:1:
42,192,43725,1,0,0:0:0:1:
213,192,43823,1,0,0:0:0:1:
128,192,43921,1,0,0:0:0:1:
298,192,43921,1,0,0:0:0:1:
42,192,43921,1,0,0:0:0:1:
469,192,44019,1,0,0:0:0:1:
213,192,44117,1,0,0:0:0:1:
298,192,44117,1,0,0:0:0:1:
469,192,44215,1,0,0:0:0:1:
128,192,44313,1,0,0:0:0:1:
298,192,44313,1,0,0:0:0:1:
384,192,44313,1,0,0:0:0:1:
469,192,44411,1,0,0:0:0:1:
298,192,44509,1,0,0:0:0:1:
42,192,44509,1,0,0:0:0:1:
469,192,44607,1,0,0:0:0:1:
128,192,44705,1,0,0:0:0:1:
213,192,44705,1,0,0:0:0:1:
298,192,44705,1,0,0:0:0:1:
469,192,44803,1,0,0:0:0:1:
298,192,44901,1,0,0:0:0:1:
42,192,44901,1,0,0:0:0:1:
469,192,45000,1,0,0:0:0:1:
128,192,45098,1,0,0:0:0:1:
298,192,45098,1,0,0:0:0:1:
384,192,45098,1,0,0:0:0:1:
469,192,45196,1,0,0:0:0:1:
213,192,45294,1,0,0:0:0:1:
298,192,45294,1,0,0:0:0:1:
384,192,45294,1,0,0:0:0:1:
469,192,45392,1,0,0:0:0:1:
128,192,45490,1,0,0:0:0:1:
213,192,45490,1,0,0:0:0:1:
384,192,45490,1,0,0:0:0:1:
42,192,45490,1,0,0:0:0:1:
298,192,45588,1,0,0:0:0:1:
128,192,45686,1,0,0:0:0:1:
384,192,45686,1,0,0:0:0:1:
298,192,45784,1,0,0:0:0:1:
213,192,45882,1,0,0:0:0:1:
384,192,45882,1,0,0:0:0:1:
469,192,45882,1,0,0:0:0:1:
298,192,45980,1,0,0:0:0:1:
128,192,46078,1,0,0:0:0:1:
384,192,46078,1,0,0:0:0:1:
298,192,46176,1,0,0:0:0:1:
213,192,46274,1,0,0:0:0:1:
384,192,46274,1,0,0:0:0:1:
42,192,46274,1,0,0:0:0:1:
298,192,46372,1,0,0:0:0:1:
128,192,46470,1,0,0:0:0:1:
384,192,46470,1,0,0:0:0:1:
298,192,46568,1,0,0:0:0:1:
213,192,46666,1,0,0:0:0:1:
384,192,46666,1,0,0:0:0:1:
469,192,46666,1,0,0:0:0:1:
298,192,46764,1,0,0:0:0:1:
128,192,46862,1,0,0:0:0:1:
384,192,46862,1,0,0:0:0:1:
298,192,46960,1,0,0:0:0:1:
213,192,47058,1,0,0:0:0:1:
469,192,47058,1,0,0:0:0:1:
42,192,47058,1,0,0:0:0:1:
128,192,47156,1,0,0:0:0:1:
213,192,47254,1,0,0:0:0:1:
384,192,47254,1,0,0:0:0:1:
128,192,47352,1,0,0:0:0:1:
213,192,47450,1,0,0:0:0:1:
298,192,47450,1,0,0:0:0:1:
469,192,47450,1,0,0:0:0:1:
128,192,47549,1,0,0:0:0:1:
213,192,47647,1,0,0:0:0:1:
384,192,47647,1,0,0:0:0:1:
128,192,47745,1,0,0:0:0:1:
213,192,47843,1,0,0:0:0:1:
469,192,47843,1,0,0:0:0:1:
42,192,47843,1,0,0:0:0:1:
128,192,47941,1,0,0:0:0:1:
213,192,48039,1,0,0:0:0:1:
384,192,48039,1,0,0:0:0:1:
128,192,48137,1,0,0:0:0:1:
213,192,48235,1,0,0:0:0:1:
298,192,48235,1,0,0:0:0:1:
469,192,48235,1,0,0:0:0:1:
128,192,48333,1,0,0:0:0:1:
213,192,48431,1,0,0:0:0:1:
384,192,48431,1,0,0:0:0:1:
128,192,48529,1,0,0:0:0:1:
213,192,48627,1,0,0:0:0:1:
469,192,48627,1,0,0:0:0:1:
42,192,48627,1,0,0:0:0:1:
298,192,48725,1,0,0:0:0:1:
128,192,48823,1,0,0:0:0:1:
469,192,48823,1,0,0:0:0:1:
298,192,48921,1,0,0:0:0:1:
213,192,49019,1,0,0:0:0:1:
384,192,49019,1,0,0:0:0:1:
469,192,49019,1,0,0:0:0:1:
298,192,49117,1,0,0:0:0:1:
128,192,49215,1,0,0:0:0:1:
469,192,49215,1,0,0:0:0:1:
298,192,49313,1,0,0:0:0:1:
213,192,49411,1,0,0:0:0:1:
469,192,49411,1,0,0:0:0:1:
42,192,49411,1,0,0:0:0:1:
298,192,49509,1,0,0:0:0:1:
128,192,49607,1,0,0:0:0:1:
469,192,49607,1,0,0:0:0:1:
298,192,49705,1,0,0:0:0:1:
384,192,49803,1,0,0:0:0:1:
469,192,49803,1,0,0:0:0:1:
42,192,49803,1,0,0:0:0:1:
298,192,49901,1,0,0:0:0:1:
128,192,50000,1,0,0:0:0:1:
469,192,50000,1,0,0:0:0:1:
298,192,50098,1,0,0:0:0:1:
213,192,50196,1,0,0:0:0:1:
384,192,50196,1,0,0:0:0:1:
469,192,50196,1,0,0:0:0:1:
42,192,50294,1,0,0:0:0:1:
213,192,50392,1,0,0:0:0:1:
298,192,50392,1,0,0:0:0:1:
42,192,50490,1,0,0:0:0:1:
128,192,50588,1,0,0:0:0:1:
213,192,50588,1,0,0:0:0:1:
384,192,50588,1,0,0:0:0:1:
42,192,50686,1,0,0:0:0:1:
213,192,50784,1,0,0:0:0:1:
469,192,50784,1,0,0:0:0:1:
42,192,50882,1,0,0:0:0:1:
213,192,50980,1,0,0:0:0:1:
298,192,50980,1,0,0:0:0:1:
384,192,50980,1,0,0:0:0:1:
42,192,51078,1,0,0:0:0:1:
213,192,51176,1,0,0:0:0:1:
469,192,51176,1,0,0:0:0:1:
42,192,51274,1,0,0:0:0:1:
213,192,51372,1,0,0:0:0:1:
298,192,51372,1,0,0:0:0:1:
384,192,51372,1,0,0:0:0:1:
128,192,51470,1,0,0:0:0:1:
469,192,51470,1,0,0:0:0:1:
42,192,51470,1,0,0:0:0:1:
213,192,51568,1,0,0:0:0:1:
298,192,51568,1,0,0:0:0:1:
384,192,51568,1,0,0:0:0:1:
128,192,51666,1,0,0:0:0:1:
469,192,51666,1,0,0:0:0:1:
42,192,51666,1,0,0:0:0:1:
298,192,51764,1,0,0:0:0:1:
384,192,51764,1,0,0:0:0:1:
213,192,51764,128,0,51862:0:0:0:1:
469,192,51862,1,0,0:0:0:1:
128,192,51862,128,0,51960:0:0:0:1:
42,192,51960,1,0,0:0:0:1:
298,192,51960,128,0,52058:0:0:0:1:
384,192,52058,1,0,0:0:0:1:
213,192,52058,128,0,52156:0:0:0:1:
469,192,52156,1,0,0:0:0:1:
42,192,52156,1,0,0:0:0:1:
128,192,52156,128,0,52254:0:0:0:1:
384,192,52254,1,0,0:0:0:1:
298,192,52254,128,0,52352:0:0:0:1:
469,192,52352,1,0,0:0:0:1:
213,192,52352,128,0,52450:0:0:0:1:
298,192,52450,1,0,0:0:0:1:
128,192,52450,128,0,52549:0:0:0:1:
384,192,52549,1,0,0:0:0:1:
469,192,52549,1,0,0:0:0:1:
42,192,52549,128,0,52647:0:0:0:1:
298,192,52647,1,0,0:0:0:1:
213,192,52647,128,0,52745:0:0:0:1:
384,192,52745,1,0,0:0:0:1:
128,192,52745,128,0,52843:0:0:0:1:
469,192,52843,1,0,0:0:0:1:
213,192,52843,128,0,52941:0:0:0:1:
128,192,52941,1,0,0:0:0:1:
42,192,52941,1,0,0:0:0:1:
298,192,52941,128,0,53039:0:0:0:1:
213,192,53039,1,0,0:0:0:1:
384,192,53039,128,0,53137:0:0:0:1:
128,192,53137,1,0,0:0:0:1:
469,192,53137,128,0,53235:0:0:0:1:
213,192,53235,1,0,0:0:0:1:
298,192,53235,128,0,53333:0:0:0:1:
384,192,53333,1,0,0:0:0:1:
42,192,53333,1,0,0:0:0:1:
469,192,53333,128,0,54509:0:0:0:1:
213,192,53431,1,0,0:0:0:1:
128,192,53529,1,0,0:0:0:1:
298,192,53529,1,0,0:0:0:1:
42,192,53627,1,0,0:0:0:1:
213,192,53725,1,0,0:0:0:1:
384,192,53725,1,0,0:0:0:1:
128,192,53823,1,0,0:0:0:1:
213,192,53921,1,0,0:0:0:1:
42,192,53921,1,0,0:0:0:1:
298,192,54019,1,0,0:0:0:1:
128,192,54117,1,0,0:0:0:1:
384,192,54117,1,0,0:0:0:1:
298,192,54215,1,0,0:0:0:1:
213,192,54313,1,0,0:0:0:1:
42,192,54313,1,0,0:0:0:1:
128,192,54411,1,0,0:0:0:1:
42,192,54509,1,0,0:0:0:1:
298,192,54509,128,0,54607:0:0:0:1:
213,192,54607,128,0,54705:0:0:0:1:
384,192,54705,1,0,0:0:0:1:
128,192,54705,128,0,54803:0:0:0:1:
213,192,54803,128,0,54901:0:0:0:1:
128,192,54901,1,0,0:0:0:1:
469,192,54901,1,0,0:0:0:1:
298,192,54901,128,0,55000:0:0:0:1:
42,192,55000,1,0,0:0:0:1:
384,192,55000,128,0,55098:0:0:0:1:
469,192,55098,1,0,0:0:0:1:
213,192,55098,128,0,55196:0:0:0:1:
128,192,55196,1,0,0:0:0:1:
298,192,55196,128,0,55294:0:0:0:1:
469,192,55294,1,0,0:0:0:1:
42,192,55294,1,0,0:0:0:1:
384,192,55294,128,0,55392:0:0:0:1:
128,192,55392,1,0,0:0:0:1:
213,192,55392,128,0,55490:0:0:0:1:
42,192,55490,1,0,0:0:0:1:
298,192,55490,128,0,55588:0:0:0:1:
213,192,55588,1,0,0:0:0:1:
384,192,55588,128,0,55686:0:0:0:1:
128,192,55686,1,0,0:0:0:1:
42,192,55686,1,0,0:0:0:1:
469,192,55686,128,0,55784:0:0:0:1:
213,192,55784,1,0,0:0:0:1:
298,192,55784,128,0,55882:0:0:0:1:
128,192,55882,1,0,0:0:0:1:
384,192,55882,128,0,55980:0:0:0:1:
42,192,55980,1,0,0:0:0:1:
298,192,55980,128,0,56078:0:0:0:1:
384,192,56078,1,0,0:0:0:1:
469,192,56078,1,0,0:0:0:1:
213,192,56078,128,0,56176:0:0:0:1:
298,192,56176,1,0,0:0:0:1:
128,192,56176,128,0,56274:0:0:0:1:
384,192,56274,1,0,0:0:0:1:
42,192,56274,128,0,56372:0:0:0:1:
298,192,56372,1,0,0:0:0:1:
213,192,56372,128,0,56470:0:0:0:1:
128,192,56470,1,0,0:0:0:1:
469,192,56470,1,0,0:0:0:1:
42,192,56470,128,0,57647:0:0:0:1:
298,192,56568,1,0,0:0:0:1:
213,192,56666,1,0,0:0:0:1:
384,192,56666,1,0,0:0:0:1:
469,192,56764,1,0,0:0:0:1:
128,192,56862,1,0,0:0:0:1:
298,192,56862,1,0,0:0:0:1:
384,192,56960,1,0,0:0:0:1:
298,192,57058,1,0,0:0:0:1:
469,192,57058,1,0,0:0:0:1:
213,192,57156,1,0,0:0:0:1:
128,192,57254,1,0,0:0:0:1:
384,192,57254,1,0,0:0:0:1:
213,192,57352,1,0,0:0:0:1:
298,192,57450,1,0,0:0:0:1:
469,192,57450,1,0,0:0:0:1:
384,192,57549,1,0,0:0:0:1:
128,192,57647,1,0,0:0:0:1:
469,192,57647,1,0,0:0:0:1:
213,192,57647,128,0,57745:0:0:0:1:
298,192,57745,128,0,57843:0:0:0:1:
128,192,57843,1,0,0:0:0:1:
213,192,57843,1,0,0:0:0:1:
384,192,57843,128,0,57941:0:0:0:1:
298,192,57941,128,0,58039:0:0:0:1:
384,192,58039,1,0,0:0:0:1:
42,192,58039,1,0,0:0:0:1:
213,192,58039,128,0,58137:0:0:0:1:
469,192,58137,1,0,0:0:0:1:
128,192,58137,128,0,58235:0:0:0:1:
42,192,58235,1,0,0:0:0:1:
298,192,58235,128,0,58333:0:0:0:1:
384,192,58333,1,0,0:0:0:1:
213,192,58333,128,0,58431:0:0:0:1:
469,192,58431,1,0,0:0:0:1:
42,192,58431,1,0,0:0:0:1:
128,192,58431,128,0,58529:0:0:0:1:
384,192,58529,1,0,0:0:0:1:
298,192,58529,128,0,58627:0:0:0:1:
469,192,58627,1,0,0:0:0:1:
213,192,58627,128,0,58725:0:0:0:1:
298,192,58725,1,0,0:0:0:1:
128,192,58725,128,0,58823:0:0:0:1:
384,192,58823,1,0,0:0:0:1:
469,192,58823,1,0,0:0:0:1:
42,192,58823,128,0,58921:0:0:0:1:
298,192,58921,1,0,0:0:0:1:
213,192,58921,128,0,59019:0:0:0:1:
384,192,59019,1,0,0:0:0:1:
128,192,59019,128,0,59117:0:0:0:1:
469,192,59117,1,0,0:0:0:1:
213,192,59117,128,0,59215:0:0:0:1:
128,192,59215,1,0,0:0:0:1:
42,192,59215,1,0,0:0:0:1:
298,192,59215,128,0,59313:0:0:0:1:
213,192,59313,1,0,0:0:0:1:
384,192,59313,128,0,59411:0:0:0:1:
128,192,59411,1,0,0:0:0:1:
469,192,59411,128,0,59509:0:0:0:1:
213,192,59509,1,0,0:0:0:1:
298,192,59509,128,0,59607:0:0:0:1:
384,192,59607,1,0,0:0:0:1:
42,192,59607,1,0,0:0:0:1:
469,192,59607,128,0,60784:0:0:0:1:
213,192,59705,1,0,0:0:0:1:
128,192,59803,1,0,0:0:0:1:
298,192,59803,1,0,0:0:0:1:
42,192,59901,1,0,0:0:0:1:
213,192,60000,1,0,0:0:0:1:
384,192,60000,1,0,0:0:0:1:
128,192,60098,1,0,0:0:0:1:
213,192,60196,1,0,0:0:0:1:
42,192,60196,1,0,0:0:0:1:
298,192,60294,1,0,0:0:0:1:
128,192,60392,1,0,0:0:0:1:
384,192,60392,1,0,0:0:0:1:
298,192,60490,1,0,0:0:0:1:
213,192,60588,1,0,0:0:0:1:
42,192,60588,1,0,0:0:0:1:
128,192,60686,1,0,0:0:0:1:
42,192,60784,1,0,0:0:0:1:
298,192,60784,128,0,60882:0:0:0:1:
213,192,60882,128,0,60980:0:0:0:1:
384,192,60980,1,0,0:0:0:1:
128,192,60980,128,0,61078:0:0:0:1:
213,192,61078,128,0,61176:0:0:0:1:
128,192,61176,1,0,0:0:0:1:
469,192,61176,1,0,0:0:0:1:
298,192,61176,128,0,61274:0:0:0:1:
42,192,61274,1,0,0:0:0:1:
384,192,61274,128,0,61372:0:0:0:1:
469,192,61372,1,0,0:0:0:1:
213,192,61372,128,0,61470:0:0:0:1:
128,192,61470,1,0,0:0:0:1:
298,192,61470,128,0,61568:0:0:0:1:
469,192,61568,1,0,0:0:0:1:
42,192,61568,1,0,0:0:0:1:
384,192,61568,128,0,61666:0:0:0:1:
128,192,61666,1,0,0:0:0:1:
213,192,61666,128,0,61764:0:0:0:1:
42,192,61764,1,0,0:0:0:1:
298,192,61764,128,0,61862:0:0:0:1:
213,192,61862,1,0,0:0:0:1:
384,192,61862,128,0,61960:0:0:0:1:
128,192,61960,1,0,0:0:0:1:
42,192,61960,1,0,0:0:0:1:
469,192,61960,128,0,62058:0:0:0:1:
213,192,62058,1,0,0:0:0:1:
298,192,62058,128,0,62156:0:0:0:1:
128,192,62156,1,0,0:0:0:1:
384,192,62156,128,0,62254:0:0:0:1:
42,192,62254,1,0,0:0:0:1:
298,192,62254,128,0,62352:0:0:0:1:
384,192,62352,1,0,0:0:0:1:
469,192,62352,1,0,0:0:0:1:
213,192,62352,128,0,62450:0:0:0:1:
298,192,62450,1,0,0:0:0:1:
128,192,62450,128,0,62549:0:0:0:1:
384,192,62549,1,0,0:0:0:1:
42,192,62549,128,0,62647:0:0:0:1:
298,192,62647,1,0,0:0:0:1:
213,192,62647,128,0,62745:0:0:0:1:
128,192,62745,1,0,0:0:0:1:
469,192,62745,1,0,0:0:0:1:
42,192,62745,128,0,63137:0:0:0:1:
298,192,62843,1,0,0:0:0:1:
213,192,62941,1,0,0:0:0:1:
384,192,62941,1,0,0:0:0:1:
469,192,63039,1,0,0:0:0:1:
298,192,63137,1,0,0:0:0:1:
128,192,63137,128,0,63235:0:0:0:1:
384,192,63235,1,0,0:0:0:1:
213,192,63235,128,0,63333:0:0:0:1:
469,192,63333,1,0,0:0:0:1:
298,192,63333,128,0,63431:0:0:0:1:
213,192,63431,128,0,63529:0:0:0:1:
128,192,63529,1,0,0:0:0:1:
42,192,63529,1,0,0:0:0:1:
384,192,63529,128,0,63627:0:0:0:1:
213,192,63627,1,0,0:0:0:1:
298,192,63627,128,0,63725:0:0:0:1:
128,192,63725,1,0,0:0:0:1:
469,192,63725,128,0,63823:0:0:0:1:
213,192,63823,1,0,0:0:0:1:
384,192,63823,128,0,63921:0:0:0:1:
42,192,63921,1,0,0:0:0:1:
298,192,63921,128,0,64019:0:0:0:1:
213,192,64019,1,0,0:0:0:1:
469,192,64019,128,0,64117:0:0:0:1:
128,192,64117,1,0,0:0:0:1:
384,192,64117,128,0,64215:0:0:0:1:
469,192,64215,1,0,0:0:0:1:
298,192,64215,128,0,64313:0:0:0:1:
128,192,64313,1,0,0:0:0:1:
384,192,64313,1,0,0:0:0:1:
42,192,64313,1,0,0:0:0:1:
213,192,64362,1,0,0:0:0:1:
298,192,64411,1,0,0:0:0:1:
384,192,64460,1,0,0:0:0:1:
128,192,64509,1,0,0:0:0:1:
469,192,64509,1,0,0:0:0:1:
213,192,64558,1,0,0:0:0:1:
298,192,64607,1,0,0:0:0:1:
384,192,64656,1,0,0:0:0:1:
128,192,64705,1,0,0:0:0:1:
469,192,64705,1,0,0:0:0:1:
42,192,64705,1,0,0:0:0:1:
384,192,64754,1,0,0:0:0:1:
298,192,64803,1,0,0:0:0:1:
213,192,64852,1,0,0:0:0:1:
128,192,64901,1,0,0:0:0:1:
469,192,64901,1,0,0:0:0:1:
384,192,64950,1,0,0:0:0:1:
298,192,65000,1,0,0:0:0:1:
213,192,65049,1,0,0:0:0:1:
384,192,65098,1,0,0:0:0:1:
469,192,65098,1,0,0:0:0:1:
42,192,65098,1,0,0:0:0:1:
128,192,65147,1,0,0:0:0:1:
213,192,65196,1,0,0:0:0:1:
298,192,65245,1,0,0:0:0:1:
128,192,65294,1,0,0:0:0:1:
469,192,65294,1,0,0:0:0:1:
42,192,65294,1,0,0:0:0:1:
384,192,65343,1,0,0:0:0:1:
298,192,65392,1,0,0:0:0:1:
42,192,65441,1,0,0:0:0:1:
128,192,65490,1,0,0:0:0:1:
213,192,65490,1,0,0:0:0:1:
469,192,65490,1,0,0:0:0:1:
384,192,65539,1,0,0:0:0:1:
298,192,65588,1,0,0:0:0:1:
213,192,65637,1,0,0:0:0:1:
128,192,65686,1,0,0:0:0:1:
42,192,65686,1,0,0:0:0:1:
298,192,65735,1,0,0:0:0:1:
384,192,65784,1,0,0:0:0:1:
469,192,65833,1,0,0:0:0:1:
128,192,65882,1,0,0:0:0:1:
213,192,65882,1,0,0:0:0:1:
42,192,65882,1,0,0:0:0:1:
298,192,65931,1,0,0:0:0:1:
384,192,65980,1,0,0:0:0:1:
469,192,66029,1,0,0:0:0:1:
128,192,66078,1,0,0:0:0:1:
213,192,66078,1,0,0:0:0:1:
298,192,66127,1,0,0:0:0:1:
384,192,66176,1,0,0:0:0:1:
469,192,66225,1,0,0:0:0:1:
213,192,66274,1,0,0:0:0:1:
298,192,66274,1,0,0:0:0:1:
128,192,66323,1,0,0:0:0:1:
42,192,66372,1,0,0:0:0:1:
469,192,66421,1,0,0:0:0:1:
298,192,66470,1,0,0:0:0:1:
384,192,66470,1,0,0:0:0:1:
213,192,66519,1,0,0:0:0:1:
128,192,66568,1,0,0:0:0:1:
42,192,66617,1,0,0:0:0:1:
128,192,66666,1,0,0:0:0:1:
213,192,66666,1,0,0:0:0:1:
298,192,66715,1,0,0:0:0:1:
384,192,66764,1,0,0:0:0:1:
469,192,66813,1,0,0:0:0:1:
128,192,66862,1,0,0:0:0:1:
42,192,66862,1,0,0:0:0:1:
213,192,66911,1,0,0:0:0:1:
298,192,66960,1,0,0:0:0:1:
384,192,67009,1,0,0:0:0:1:
128,192,67058,1,0,0:0:0:1:
469,192,67058,1,0,0:0:0:1:
42,192,67058,1,0,0:0:0:1:
384,192,67107,1,0,0:0:0:1:
298,192,67156,1,0,0:0:0:1:
213,192,67205,1,0,0:0:0:1:
128,192,67254,1,0,0:0:0:1:
384,192,67254,1,0,0:0:0:1:
469,192,67254,1,0,0:0:0:1:
42,192,67303,1,0,0:0:0:1:
213,192,67352,1,0,0:0:0:1:
128,192,67401,1,0,0:0:0:1:
384,192,67450,1,0,0:0:0:1:
469,192,67450,1,0,0:0:0:1:
42,192,67450,1,0,0:0:0:1:
298,192,67500,1,0,0:0:0:1:
213,192,67549,1,0,0:0:0:1:
128,192,67598,1,0,0:0:0:1:
384,192,67647,1,0,0:0:0:1:
42,192,67647,1,0,0:0:0:1:
298,192,67696,1,0,0:0:0:1:
213,192,67745,1,0,0:0:0:1:
128,192,67794,1,0,0:0:0:1:
384,192,67843,1,0,0:0:0:1:
469,192,67843,1,0,0:0:0:1:
42,192,67843,1,0,0:0:0:1:
128,192,67892,1,0,0:0:0:1:
213,192,67941,1,0,0:0:0:1:
298,192,67990,1,0,0:0:0:1:
384,192,68039,1,0,0:0:0:1:
42,192,68039,1,0,0:0:0:1:
128,192,68088,1,0,0:0:0:1:
213,192,68137,1,0,0:0:0:1:
298,192,68186,1,0,0:0:0:1:
128,192,68235,1,0,0:0:0:1:
469,192,68235,1,0,0:0:0:1:
42,192,68235,1,0,0:0:0:1:
384,192,68284,1,0,0:0:0:1:
298,192,68333,1,0,0:0:0:1:
213,192,68382,1,0,0:0:0:1:
384,192,68431,1,0,0:0:0:1:
469,192,68431,1,0,0:0:0:1:
42,192,68431,1,0,0:0:0:1:
128,192,68480,1,0,0:0:0:1:
213,192,68529,1,0,0:0:0:1:
469,192,68578,1,0,0:0:0:1:
298,192,68627,1,0,0:0:0:1:
384,192,68627,1,0,0:0:0:1:
42,192,68627,1,0,0:0:0:1:
128,192,68676,1,0,0:0:0:1:
213,192,68725,1,0,0:0:0:1:
298,192,68774,1,0,0:0:0:1:
384,192,68823,1,0,0:0:0:1:
469,192,68823,1,0,0:0:0:1:
213,192,68872,1,0,0:0:0:1:
128,192,68921,1,0,0:0:0:1:
42,192,68970,1,0,0:0:0:1:
298,192,69019,1,0,0:0:0:1:
384,192,69019,1,0,0:0:0:1:
469,192,69019,1,0,0:0:0:1:
213,192,69068,1,0,0:0:0:1:
128,192,69117,1,0,0:0:0:1:
42,192,69166,1,0,0:0:0:1:
298,192,69215,1,0,0:0:0:1:
384,192,69215,1,0,0:0:0:1:
213,192,69264,1,0,0:0:0:1:
128,192,69313,1,0,0:0:0:1:
42,192,69362,1,0,0:0:0:1:
213,192,69411,1,0,0:0:0:1:
298,192,69411,1,0,0:0:0:1:
384,192,69460,1,0,0:0:0:1:
469,192,69509,1,0,0:0:0:1:
42,192,69558,1,0,0:0:0:1:
128,192,69607,1,0,0:0:0:1:
213,192,69607,1,0,0:0:0:1:
298,192,69656,1,0,0:0:0:1:
384,192,69705,1,0,0:0:0:1:
469,192,69754,1,0,0:0:0:1:
298,192,69803,1,0,0:0:0:1:
384,192,69803,1,0,0:0:0:1:
213,192,69852,1,0,0:0:0:1:
128,192,69901,1,0,0:0:0:1:
42,192,69950,1,0,0:0:0:1:
384,192,70000,1,0,0:0:0:1:
469,192,70000,1,0,0:0:0:1:
298,192,70049,1,0,0:0:0:1:
213,192,70098,1,0,0:0:0:1:
128,192,70147,1,0,0:0:0:1:
384,192,70196,1,0,0:0:0:1:
469,192,70196,1,0,0:0:0:1:
42,192,70196,1,0,0:0:0:1:
128,192,70245,1,0,0:0:0:1:
213,192,70294,1,0,0:0:0:1:
298,192,70343,1,0,0:0:0:1:
128,192,70392,1,0,0:0:0:1:
384,192,70392,1,0,0:0:0:1:
42,192,70392,1,0,0:0:0:1:
469,192,70441,1,0,0:0:0:1:
298,192,70490,1,0,0:0:0:1:
384,192,70539,1,0,0:0:0:1:
128,192,70588,1,0,0:0:0:1:
469,192,70588,1,0,0:0:0:1:
42,192,70588,1,0,0:0:0:1:
213,192,70637,1,0,0:0:0:1:
298,192,70686,1,0,0:0:0:1:
384,192,70735,1,0,0:0:0:1:
128,192,70784,1,0,0:0:0:1:
469,192,70784,1,0,0:0:0:1:
213,192,70833,1,0,0:0:0:1:
298,192,70882,1,0,0:0:0:1:
384,192,70931,1,0,0:0:0:1:
128,192,70980,1,0,0:0:0:1:
469,192,70980,1,0,0:0:0:1:
42,192,70980,1,0,0:0:0:1:
384,192,71029,1,0,0:0:0:1:
298,192,71078,1,0,0:0:0:1:
213,192,71127,1,0,0:0:0:1:
128,192,71176,1,0,0:0:0:1:
469,192,71176,1,0,0:0:0:1:
384,192,71225,1,0,0:0:0:1:
298,192,71274,1,0,0:0:0:1:
213,192,71323,1,0,0:0:0:1:
384,192,71372,1,0,0:0:0:1:
469,192,71372,1,0,0:0:0:1:
42,192,71372,1,0,0:0:0:1:
128,192,71421,1,0,0:0:0:1:
213,192,71470,1,0,0:0:0:1:
298,192,71519,1,0,0:0:0:1:
128,192,71568,1,0,0:0:0:1:
469,192,71568,1,0,0:0:0:1:
42,192,71568,1,0,0:0:0:1:
384,192,71617,1,0,0:0:0:1:
298,192,71666,1,0,0:0:0:1:
42,192,71715,1,0,0:0:0:1:
128,192,71764,1,0,0:0:0:1:
213,192,71764,1,0,0:0:0:1:
469,192,71764,1,0,0:0:0:1:
384,192,71813,1,0,0:0:0:1:
298,192,71862,1,0,0:0:0:1:
213,192,71911,1,0,0:0:0:1:
128,192,71960,1,0,0:0:0:1:
469,192,71960,1,0,0:0:0:1:
298,192,72009,1,0,0:0:0:1:
384,192,72058,1,0,0:0:0:1:
469,192,72107,1,0,0:0:0:1:
128,192,72156,1,0,0:0:0:1:
213,192,72156,1,0,0:0:0:1:
42,192,72156,1,0,0:0:0:1:
298,192,72205,1,0,0:0:0:1:
384,192,72254,1,0,0:0:0:1:
469,192,72303,1,0,0:0:0:1:
128,192,72352,1,0,0:0:0:1:
213,192,72352,1,0,0:0:0:1:
298,192,72401,1,0,0:0:0:1:
384,192,72450,1,0,0:0:0:1:
469,192,72500,1,0,0:0:0:1:
213,192,72549,1,0,0:0:0:1:
298,192,72549,1,0,0:0:0:1:
128,192,72598,1,0,0:0:0:1:
42,192,72647,1,0,0:0:0:1:
469,192,72696,1,0,0:0:0:1:
298,192,72745,1,0,0:0:0:1:
384,192,72745,1,0,0:0:0:1:
213,192,72794,1,0,0:0:0:1:
128,192,72843,1,0,0:0:0:1:
42,192,72892,1,0,0:0:0:1:
128,192,72941,1,0,0:0:0:1:
213,192,72941,1,0,0:0:0:1:
298,192,72990,1,0,0:0:0:1:
384,192,73039,1,0,0:0:0:1:
469,192,73088,1,0,0:0:0:1:
128,192,73137,1,0,0:0:0:1:
42,192,73137,1,0,0:0:0:1:
213,192,73186,1,0,0:0:0:1:
298,192,73235,1,0,0:0:0:1:
384,192,73284,1,0,0:0:0:1:
128,192,73333,1,0,0:0:0:1:
469,192,73333,1,0,0:0:0:1:
42,192,73333,1,0,0:0:0:1:
384,192,73382,1,0,0:0:0:1:
298,192,73431,1,0,0:0:0:1:
213,192,73480,1,0,0:0:0:1:
128,192,73529,1,0,0:0:0:1:
384,192,73529,1,0,0:0:0:1:
469,192,73529,1,0,0:0:0:1:
298,192,73578,1,0,0:0:0:1:
213,192,73627,1,0,0:0:0:1:
128,192,73676,1,0,0:0:0:1:
384,192,73725,1,0,0:0:0:1:
469,192,73725,1,0,0:0:0:1:
42,192,73725,1,0,0:0:0:1:
298,192,73774,1,0,0:0:0:1:
213,192,73823,1,0,0:0:0:1:
128,192,73872,1,0,0:0:0:1:
384,192,73921,1,0,0:0:0:1:
42,192,73921,1,0,0:0:0:1:
298,192,73970,1,0,0:0:0:1:
213,192,74019,1,0,0:0:0:1:
128,192,74068,1,0,0:0:0:1:
384,192,74117,1,0,0:0:0:1:
469,192,74117,1,0,0:0:0:1:
42,192,74117,1,0,0:0:0:1:
128,192,74166,1,0,0:0:0:1:
213,192,74215,1,0,0:0:0:1:
298,192,74264,1,0,0:0:0:1:
384,192,74313,1,0,0:0:0:1:
42,192,74313,1,0,0:0:0:1:
128,192,74362,1,0,0:0:0:1:
213,192,74411,1,0,0:0:0:1:
298,192,74460,1,0,0:0:0:1:
128,192,74509,1,0,0:0:0:1:
469,192,74509,1,0,0:0:0:1:
42,192,74509,1,0,0:0:0:1:
384,192,74558,1,0,0:0:0:1:
298,192,74607,1,0,0:0:0:1:
213,192,74656,1,0,0:0:0:1:
384,192,74705,1,0,0:0:0:1:
469,192,74705,1,0,0:0:0:1:
42,192,74705,1,0,0:0:0:1:
128,192,74754,1,0,0:0:0:1:
213,192,74803,1,0,0:0:0:1:
469,192,74852,1,0,0:0:0:1:
298,192,74901,1,0,0:0:0:1:
384,192,74901,1,0,0:0:0:1:
42,192,74901,1,0,0:0:0:1:
128,192,74950,1,0,0:0:0:1:
213,192,75000,1,0,0:0:0:1:
298,192,75049,1,0,0:0:0:1:
384,192,75098,1,0,0:0:0:1:
42,192,75098,1,0,0:0:0:1:
213,192,75147,1,0,0:0:0:1:
128,192,75196,1,0,0:0:0:1:
42,192,75245,1,0,0:0:0:1:
298,192,75294,1,0,0:0:0:1:
384,192,75294,1,0,0:0:0:1:
469,192,75294,1,0,0:0:0:1:
213,192,75343,1,0,0:0:0:1:
128,192,75392,1,0,0:0:0:1:
42,192,75441,1,0,0:0:0:1:
298,192,75490,1,0,0:0:0:1:
384,192,75490,1,0,0:0:0:1:
213,192,75539,1,0,0:0:0:1:
128,192,75588,1,0,0:0:0:1:
42,192,75637,1,0,0:0:0:1:
213,192,75686,1,0,0:0:0:1:
298,192,75686,1,0,0:0:0:1:
384,192,75735,1,0,0:0:0:1:
469,192,75784,1,0,0:0:0:1:
42,192,75833,1,0,0:0:0:1:
128,192,75882,1,0,0:0:0:1:
213,192,75882,1,0,0:0:0:1:
298,192,75931,1,0,0:0:0:1:
384,192,75980,1,0,0:0:0:1:
469,192,76029,1,0,0:0:0:1:
298,192,76078,1,0,0:0:0:1:
384,192,76078,1,0,0:0:0:1:
213,192,76127,1,0,0:0:0:1:
128,192,76176,1,0,0:0:0:1:
42,192,76225,1,0,0:0:0:1:
384,192,76274,1,0,0:0:0:1:
469,192,76274,1,0,0:0:0:1:
298,192,76323,1,0,0:0:0:1:
213,192,76372,1,0,0:0:0:1:
128,192,76421,1,0,0:0:0:1:
384,192,76470,1,0,0:0:0:1:
469,192,76470,1,0,0:0:0:1:
42,192,76470,1,0,0:0:0:1:
128,192,76519,1,0,0:0:0:1:
213,192,76568,1,0,0:0:0:1:
298,192,76617,1,0,0:0:0:1:
384,192,76666,1,0,0:0:0:1:
469,192,76666,1,0,0:0:0:1:
42,192,76666,1,0,0:0:0:1:
128,192,76715,1,0,0:0:0:1:
213,192,76764,1,0,0:0:0:1:
298,192,76813,1,0,0:0:0:1:
128,192,76862,1,0,0:0:0:1:
384,192,76862,1,0,0:0:0:1:
469,192,76862,1,0,0:0:0:1:
298,192,76960,1,0,0:0:0:1:
42,192,76960,1,0,0:0:0:1:
213,192,77058,1,0,0:0:0:1:
384,192,77058,1,0,0:0:0:1:
128,192,77156,1,0,0:0:0:1:
469,192,77156,1,0,0:0:0:1:
213,192,77254,1,0,0:0:0:1:
298,192,77254,1,0,0:0:0:1:
42,192,77254,1,0,0:0:0:1:
128,192,77352,1,0,0:0:0:1:
384,192,77352,1,0,0:0:0:1:
213,192,77450,1,0,0:0:0:1:
469,192,77450,1,0,0:0:0:1:
128,192,77549,1,0,0:0:0:1:
298,192,77549,1,0,0:0:0:1:
384,192,77647,1,0,0:0:0:1:
469,192,77647,1,0,0:0:0:1:
42,192,77647,1,0,0:0:0:1:
213,192,77745,1,0,0:0:0:1:
298,192,77745,1,0,0:0:0:1:
128,192,77843,1,0,0:0:0:1:
469,192,77843,1,0,0:0:0:1:
384,192,77941,1,0,0:0:0:1:
42,192,77941,1,0,0:0:0:1:
213,192,78039,1,0,0:0:0:1:
298,192,78039,1,0,0:0:0:1:
469,192,78039,1,0,0:0:0:1:
128,192,78137,1,0,0:0:0:1:
384,192,78137,1,0,0:0:0:1:
298,192,78235,1,0,0:0:0:1:
42,192,78235,1,0,0:0:0:1:
213,192,78333,1,0,0:0:0:1:
384,192,78333,1,0,0:0:0:1:
128,192,78431,1,0,0:0:0:1:
298,192,78431,1,0,0:0:0:1:
42,192,78431,1,0,0:0:0:1:
384,192,78529,1,0,0:0:0:1:
469,192,78529,1,0,0:0:0:1:
213,192,78627,1,0,0:0:0:1:
42,192,78627,1,0,0:0:0:1:
298,192,78725,1,0,0:0:0:1:
469,192,78725,1,0,0:0:0:1:
128,192,78823,1,0,0:0:0:1:
384,192,78823,1,0,0:0:0:1:
42,192,78823,1,0,0:0:0:1:
213,192,78921,1,0,0:0:0:1:
469,192,78921,1,0,0:0:0:1:
298,192,79019,1,0,0:0:0:1:
42,192,79019,1,0,0:0:0:1:
128,192,79117,1,0,0:0:0:1:
384,192,79117,1,0,0:0:0:1:
213,192,79215,1,0,0:0:0:1:
298,192,79215,1,0,0:0:0:1:
469,192,79215,1,0,0:0:0:1:
128,192,79313,1,0,0:0:0:1:
384,192,79313,1,0,0:0:0:1:
298,192,79411,1,0,0:0:0:1:
42,192,79411,1,0,0:0:0:1:
213,192,79509,1,0,0:0:0:1:
469,192,79509,1,0,0:0:0:1:
128,192,79607,1,0,0:0:0:1:
298,192,79607,1,0,0:0:0:1:
384,192,79607,1,0,0:0:0:1:
469,192,79705,1,0,0:0:0:1:
42,192,79705,1,0,0:0:0:1:
128,192,79803,1,0,0:0:0:1:
384,192,79803,1,0,0:0:0:1:
213,192,79901,1,0,0:0:0:1:
298,192,79901,1,0,0:0:0:1:
128,192,80000,1,0,0:0:0:1:
384,192,80000,1,0,0:0:0:1:
42,192,80000,1,0,0:0:0:1:
213,192,80098,1,0,0:0:0:1:
469,192,80098,1,0,0:0:0:1:
128,192,80196,1,0,0:0:0:1:
298,192,80196,1,0,0:0:0:1:
384,192,80294,1,0,0:0:0:1:
42,192,80294,1,0,0:0:0:1:
213,192,80392,1,0,0:0:0:1:
298,192,80392,1,0,0:0:0:1:
469,192,80392,1,0,0:0:0:1:
128,192,80490,1,0,0:0:0:1:
384,192,80490,1,0,0:0:0:1:
298,192,80588,1,0,0:0:0:1:
42,192,80588,1,0,0:0:0:1:
213,192,80686,1,0,0:0:0:1:
384,192,80686,1,0,0:0:0:1:
128,192,80784,1,0,0:0:0:1:
469,192,80784,1,0,0:0:0:1:
42,192,80784,1,0,0:0:0:1:
213,192,80882,1,0,0:0:0:1:
298,192,80882,1,0,0:0:0:1:
128,192,80980,1,0,0:0:0:1:
384,192,80980,1,0,0:0:0:1:
213,192,81078,1,0,0:0:0:1:
469,192,81078,1,0,0:0:0:1:
298,192,81176,1,0,0:0:0:1:
384,192,81176,1,0,0:0:0:1:
42,192,81176,1,0,0:0:0:1:
213,192,81274,1,0,0:0:0:1:
469,192,81274,1,0,0:0:0:1:
128,192,81372,1,0,0:0:0:1:
384,192,81372,1,0,0:0:0:1:
298,192,81470,1,0,0:0:0:1:
469,192,81470,1,0,0:0:0:1:
128,192,81568,1,0,0:0:0:1:
213,192,81568,1,0,0:0:0:1:
42,192,81568,1,0,0:0:0:1:
298,192,81666,1,0,0:0:0:1:
469,192,81666,1,0,0:0:0:1:
213,192,81764,1,0,0:0:0:1:
42,192,81764,1,0,0:0:0:1:
298,192,81862,1,0,0:0:0:1:
384,192,81862,1,0,0:0:0:1:
128,192,81960,1,0,0:0:0:1:
213,192,81960,1,0,0:0:0:1:
469,192,81960,1,0,0:0:0:1:
298,192,82058,1,0,0:0:0:1:
42,192,82058,1,0,0:0:0:1:
128,192,82156,1,0,0:0:0:1:
384,192,82156,1,0,0:0:0:1:
213,192,82254,1,0,0:0:0:1:
469,192,82254,1,0,0:0:0:1:
128,192,82352,1,0,0:0:0:1:
298,192,82352,1,0,0:0:0:1:
384,192,82352,1,0,0:0:0:1:
469,192,82450,1,0,0:0:0:1:
42,192,82450,1,0,0:0:0:1:
128,192,82549,1,0,0:0:0:1:
384,192,82549,1,0,0:0:0:1:
213,192,82647,1,0,0:0:0:1:
298,192,82647,1,0,0:0:0:1:
128,192,82745,1,0,0:0:0:1:
469,192,82745,1,0,0:0:0:1:
42,192,82745,1,0,0:0:0:1:
213,192,82843,1,0,0:0:0:1:
298,192,82843,1,0,0:0:0:1:
128,192,82941,1,0,0:0:0:1:
384,192,82941,1,0,0:0:0:1:
42,192,82941,1,0,0:0:0:1:
213,192,83039,1,0,0:0:0:1:
469,192,83039,1,0,0:0:0:1:
128,192,83137,1,0,0:0:0:1:
298,192,83137,1,0,0:0:0:1:
384,192,83137,1,0,0:0:0:1:
42,192,83137,1,0,0:0:0:1:
213,192,83235,1,0,0:0:0:1:
469,192,83235,1,0,0:0:0:1:
128,192,83333,1,0,0:0:0:1:
298,192,83333,1,0,0:0:0:1:
384,192,83431,1,0,0:0:0:1:
42,192,83431,1,0,0:0:0:1:
213,192,83529,1,0,0:0:0:1:
298,192,83529,1,0,0:0:0:1:
469,192,83529,1,0,0:0:0:1:
128,192,83627,1,0,0:0:0:1:
384,192,83627,1,0,0:0:0:1:
298,192,83725,1,0,0:0:0:1:
42,192,83725,1,0,0:0:0:1:
213,192,83823,1,0,0:0:0:1:
384,192,83823,1,0,0:0:0:1:
128,192,83921,1,0,0:0:0:1:
469,192,83921,1,0,0:0:0:1:
42,192,83921,1,0,0:0:0:1:
213,192,84019,1,0,0:0:0:1:
298,192,84019,1,0,0:0:0:1:
384,192,84117,1,0,0:0:0:1:
42,192,84117,1,0,0:0:0:1:
128,192,84215,1,0,0:0:0:1:
469,192,84215,1,0,0:0:0:1:
213,192,84313,1,0,0:0:0:1:
298,192,84313,1,0,0:0:0:1:
42,192,84313,1,0,0:0:0:1:
128,192,84411,1,0,0:0:0:1:
384,192,84411,1,0,0:0:0:1:
213,192,84509,1,0,0:0:0:1:
469,192,84509,1,0,0:0:0:1:
128,192,84607,1,0,0:0:0:1:
298,192,84607,1,0,0:0:0:1:
213,192,84705,1,0,0:0:0:1:
384,192,84705,1,0,0:0:0:1:
469,192,84705,1,0,0:0:0:1:
128,192,84803,1,0,0:0:0:1:
42,192,84803,1,0,0:0:0:1:
298,192,84901,1,0,0:0:0:1:
469,192,84901,1,0,0:0:0:1:
213,192,85000,1,0,0:0:0:1:
42,192,85000,1,0,0:0:0:1:
128,192,85098,1,0,0:0:0:1:
384,192,85098,1,0,0:0:0:1:
469,192,85098,1,0,0:0:0:1:
298,192,85196,1,0,0:0:0:1:
42,192,85196,1,0,0:0:0:1:
213,192,85294,1,0,0:0:0:1:
469,192,85294,1,0,0:0:0:1:
128,192,85392,1,0,0:0:0:1:
384,192,85392,1,0,0:0:0:1:
213,192,85490,1,0,0:0:0:1:
298,192,85490,1,0,0:0:0:1:
42,192,85490,1,0,0:0:0:1:
128,192,85588,1,0,0:0:0:1:
384,192,85588,1,0,0:0:0:1:
213,192,85686,1,0,0:0:0:1:
469,192,85686,1,0,0:0:0:1:
298,192,85784,1,0,0:0:0:1:
42,192,85784,1,0,0:0:0:1:
128,192,85882,1,0,0:0:0:1:
213,192,85882,1,0,0:0:0:1:
384,192,85882,1,0,0:0:0:1:
469,192,85980,1,0,0:0:0:1:
42,192,85980,1,0,0:0:0:1:
128,192,86078,1,0,0:0:0:1:
384,192,86078,1,0,0:0:0:1:
213,192,86176,1,0,0:0:0:1:
298,192,86176,1,0,0:0:0:1:
128,192,86274,1,0,0:0:0:1:
384,192,86274,1,0,0:0:0:1:
469,192,86274,1,0,0:0:0:1:
42,192,86274,1,0,0:0:0:1:
213,192,86372,1,0,0:0:0:1:
298,192,86372,1,0,0:0:0:1:
128,192,86470,1,0,0:0:0:1:
384,192,86470,1,0,0:0:0:1:
298,192,86568,1,0,0:0:0:1:
469,192,86568,1,0,0:0:0:1:
213,192,86666,1,0,0:0:0:1:
384,192,86666,1,0,0:0:0:1:
42,192,86666,1,0,0:0:0:1:
128,192,86764,1,0,0:0:0:1:
298,192,86764,1,0,0:0:0:1:
213,192,86862,1,0,0:0:0:1:
469,192,86862,1,0,0:0:0:1:
128,192,86960,1,0,0:0:0:1:
298,192,86960,1,0,0:0:0:1:
384,192,87058,1,0,0:0:0:1:
469,192,87058,1,0,0:0:0:1:
42,192,87058,1,0,0:0:0:1:
213,192,87156,1,0,0:0:0:1:
298,192,87156,1,0,0:0:0:1:
128,192,87254,1,0,0:0:0:1:
384,192,87254,1,0,0:0:0:1:
298,192,87352,1,0,0:0:0:1:
42,192,87352,1,0,0:0:0:1:
128,192,87450,1,0,0:0:0:1:
213,192,87450,1,0,0:0:0:1:
469,192,87450,1,0,0:0:0:1:
298,192,87549,1,0,0:0:0:1:
42,192,87549,1,0,0:0:0:1:
128,192,87647,1,0,0:0:0:1:
384,192,87647,1,0,0:0:0:1:
213,192,87745,1,0,0:0:0:1:
42,192,87745,1,0,0:0:0:1:
298,192,87843,1,0,0:0:0:1:
384,192,87843,1,0,0:0:0:1:
469,192,87843,1,0,0:0:0:1:
213,192,87892,1,0,0:0:0:1:
128,192,87941,1,0,0:0:0:1:
42,192,87990,1,0,0:0:0:1:
384,192,88039,1,0,0:0:0:1:
469,192,88039,1,0,0:0:0:1:
298,192,88088,1,0,0:0:0:1:
213,192,88137,1,0,0:0:0:1:
128,192,88186,1,0,0:0:0:1:
469,192,88235,1,0,0:0:0:1:
42,192,88235,1,0,0:0:0:1:
384,192,88284,1,0,0:0:0:1:
298,192,88333,1,0,0:0:0:1:
128,192,88382,1,0,0:0:0:1:
42,192,88382,1,0,0:0:0:1:
213,192,88431,1,0,0:0:0:1:
469,192,88480,1,0,0:0:0:1:
384,192,88529,1,0,0:0:0:1:
298,192,88578,1,0,0:0:0:1:
128,192,88627,1,0,0:0:0:1:
213,192,88627,1,0,0:0:0:1:
42,192,88627,1,0,0:0:0:1:
469,192,88676,1,0,0:0:0:1:
384,192,88725,1,0,0:0:0:1:
298,192,88774,1,0,0:0:0:1:
128,192,88823,1,0,0:0:0:1:
42,192,88823,1,0,0:0:0:1:
213,192,88872,1,0,0:0:0:1:
469,192,88921,1,0,0:0:0:1:
384,192,88970,1,0,0:0:0:1:
128,192,89019,1,0,0:0:0:1:
42,192,89019,1,0,0:0:0:1:
213,192,89044,1,0,0:0:0:1:
298,192,89068,1,0,0:0:0:1:
384,192,89093,1,0,0:0:0:1:
469,192,89117,1,0,0:0:0:1:
42,192,89142,1,0,0:0:0:1:
128,192,89166,1,0,0:0:0:1:
213,192,89191,1,0,0:0:0:1:
298,192,89215,1,0,0:0:0:1:
384,192,89240,1,0,0:0:0:1:
469,192,89240,1,0,0:0:0:1:
42,192,89264,1,0,0:0:0:1:
128,192,89289,1,0,0:0:0:1:
213,192,89313,1,0,0:0:0:1:
298,192,89338,1,0,0:0:0:1:
384,192,89362,1,0,0:0:0:1:
469,192,89387,1,0,0:0:0:1:
128,192,89411,1,0,0:0:0:1:
42,192,89411,1,0,0:0:0:1:
213,192,89509,1,0,0:0:0:1:
298,192,89607,1,0,0:0:0:1:
128,192,89705,1,0,0:0:0:1:
384,192,89803,1,0,0:0:0:1:
42,192,89803,1,0,0:0:0:1:
213,192,89901,1,0,0:0:0:1:
469,192,90000,1,0,0:0:0:1:
298,192,90098,1,0,0:0:0:1:
384,192,90196,1,0,0:0:0:1:
42,192,90196,1,0,0:0:0:1:
213,192,90294,1,0,0:0:0:1:
298,192,90392,1,0,0:0:0:1:
469,192,90490,1,0,0:0:0:1:
384,192,90588,1,0,0:0:0:1:
42,192,90588,1,0,0:0:0:1:
128,192,90686,1,0,0:0:0:1:
298,192,90784,1,0,0:0:0:1:
213,192,90882,1,0,0:0:0:1:
384,192,90980,1,0,0:0:0:1:
42,192,90980,1,0,0:0:0:1:
298,192,91078,1,0,0:0:0:1:
469,192,91176,1,0,0:0:0:1:
213,192,91274,1,0,0:0:0:1:
384,192,91372,1,0,0:0:0:1:
42,192,91372,1,0,0:0:0:1:
128,192,91470,1,0,0:0:0:1:
298,192,91568,1,0,0:0:0:1:
213,192,91666,1,0,0:0:0:1:
384,192,91764,1,0,0:0:0:1:
42,192,91764,1,0,0:0:0:1:
298,192,91862,1,0,0:0:0:1:
469,192,91960,1,0,0:0:0:1:
213,192,92058,1,0,0:0:0:1:
384,192,92156,1,0,0:0:0:1:
42,192,92156,1,0,0:0:0:1:
298,192,92254,1,0,0:0:0:1:
128,192,92303,1,0,0:0:0:1:
469,192,92401,1,0,0:0:0:1:
213,192,92450,1,0,0:0:0:1:
384,192,92549,1,0,0:0:0:1:
42,192,92549,1,0,0:0:0:1:
128,192,92647,1,0,0:0:0:1:
298,192,92745,1,0,0:0:0:1:
213,192,92843,1,0,0:0:0:1:
469,192,92941,1,0,0:0:0:1:
42,192,92941,1,0,0:0:0:1:
384,192,93039,1,0,0:0:0:1:
128,192,93137,1,0,0:0:0:1:
298,192,93235,1,0,0:0:0:1:
213,192,93333,1,0,0:0:0:1:
42,192,93333,1,0,0:0:0:1:
469,192,93431,1,0,0:0:0:1:
298,192,93529,1,0,0:0:0:1:
384,192,93627,1,0,0:0:0:1:
213,192,93725,1,0,0:0:0:1:
42,192,93725,1,0,0:0:0:1:
298,192,93823,1,0,0:0:0:1:
128,192,93921,1,0,0:0:0:1:
384,192,94019,1,0,0:0:0:1:
213,192,94117,1,0,0:0:0:1:
42,192,94117,1,0,0:0:0:1:
469,192,94215,1,0,0:0:0:1:
298,192,94313,1,0,0:0:0:1:
213,192,94411,1,0,0:0:0:1:
384,192,94509,1,0,0:0:0:1:
42,192,94509,1,0,0:0:0:1:
128,192,94607,1,0,0:0:0:1:
298,192,94705,1,0,0:0:0:1:
469,192,94803,1,0,0:0:0:1:
384,192,94901,1,0,0:0:0:1:
42,192,94901,1,0,0:0:0:1:
213,192,95000,1,0,0:0:0:1:
298,192,95098,1,0,0:0:0:1:
128,192,95196,1,0,0:0:0:1:
384,192,95294,1,0,0:0:0:1:
42,192,95294,1,0,0:0:0:1:
213,192,95392,1,0,0:0:0:1:
298,192,95490,1,0,0:0:0:1:
42,192,95490,1,0,0:0:0:1:
384,192,95588,1,0,0:0:0:1:
298,192,95686,1,0,0:0:0:1:
42,192,95686,1,0,0:0:0:1:
213,192,95784,1,0,0:0:0:1:
298,192,95882,1,0,0:0:0:1:
128,192,95980,1,0,0:0:0:1:
384,192,96078,1,0,0:0:0:1:
42,192,96078,1,0,0:0:0:1:
213,192,96176,1,0,0:0:0:1:
469,192,96274,1,0,0:0:0:1:
298,192,96372,1,0,0:0:0:1:
384,192,96470,1,0,0:0:0:1:
42,192,96470,1,0,0:0:0:1:
213,192,96568,1,0,0:0:0:1:
298,192,96666,1,0,0:0:0:1:
469,192,96764,1,0,0:0:0:1:
384,192,96862,1,0,0:0:0:1:
42,192,96862,1,0,0:0:0:1:
128,192,96960,1,0,0:0:0:1:
298,192,97058,1,0,0:0:0:1:
213,192,97156,1,0,0:0:0:1:
384,192,97254,1,0,0:0:0:1:
42,192,97254,1,0,0:0:0:1:
298,192,97352,1,0,0:0:0:1:
469,192,97450,1,0,0:0:0:1:
213,192,97549,1,0,0:0:0:1:
384,192,97647,1,0,0:0:0:1:
42,192,97647,1,0,0:0:0:1:
128,192,97745,1,0,0:0:0:1:
298,192,97843,1,0,0:0:0:1:
213,192,97941,1,0,0:0:0:1:
384,192,98039,1,0,0:0:0:1:
42,192,98039,1,0,0:0:0:1:
298,192,98137,1,0,0:0:0:1:
469,192,98235,1,0,0:0:0:1:
213,192,98333,1,0,0:0:0:1:
384,192,98431,1,0,0:0:0:1:
42,192,98431,1,0,0:0:0:1:
298,192,98529,1,0,0:0:0:1:
128,192,98578,1,0,0:0:0:1:
469,192,98676,1,0,0:0:0:1:
213,192,98725,1,0,0:0:0:1:
384,192,98823,1,0,0:0:0:1:
42,192,98823,1,0,0:0:0:1:
128,192,98921,1,0,0:0:0:1:
298,192,99019,1,0,0:0:0:1:
213,192,99117,1,0,0:0:0:1:
469,192,99215,1,0,0:0:0:1:
42,192,99215,1,0,0:0:0:1:
384,192,99313,1,0,0:0:0:1:
128,192,99411,1,0,0:0:0:1:
298,192,99509,1,0,0:0:0:1:
213,192,99607,1,0,0:0:0:1:
42,192,99607,1,0,0:0:0:1:
469,192,99705,1,0,0:0:0:1:
298,192,99803,1,0,0:0:0:1:
384,192,99901,1,0,0:0:0:1:
213,192,100000,1,0,0:0:0:1:
42,192,100000,1,0,0:0:0:1:
298,192,100098,1,0,0:0:0:1:
128,192,100196,1,0,0:0:0:1:
384,192,100294,1,0,0:0:0:1:
469,192,100392,1,0,0:0:0:1:
42,192,100392,1,0,0:0:0:1:
128,192,100441,1,0,0:0:0:1:
213,192,100490,1,0,0:0:0:1:
298,192,100539,1,0,0:0:0:1:
384,192,100588,1,0,0:0:0:1:
469,192,100637,1,0,0:0:0:1:
128,192,100686,1,0,0:0:0:1:
42,192,100686,1,0,0:0:0:1:
213,192,100735,1,0,0:0:0:1:
298,192,100784,1,0,0:0:0:1:
384,192,100833,1,0,0:0:0:1:
469,192,100882,1,0,0:0:0:1:
42,192,100931,1,0,0:0:0:1:
128,192,100980,1,0,0:0:0:1:
213,192,100980,1,0,0:0:0:1:
298,192,101029,1,0,0:0:0:1:
384,192,101078,1,0,0:0:0:1:
469,192,101127,1,0,0:0:0:1:
128,192,101176,1,0,0:0:0:1:
42,192,101176,1,0,0:0:0:1:
213,192,101225,1,0,0:0:0:1:
298,192,101274,1,0,0:0:0:1:
384,192,101323,1,0,0:0:0:1:
469,192,101372,1,0,0:0:0:1:
42,192,101372,1,0,0:0:0:1:
128,192,101421,1,0,0:0:0:1:
213,192,101470,1,0,0:0:0:1:
298,192,101519,1,0,0:0:0:1:
384,192,101568,1,0,0:0:0:1:
469,192,101568,1,0,0:0:0:1:
42,192,101568,1,0,0:0:0:1:
128,192,101593,1,0,0:0:0:1:
213,192,101617,1,0,0:0:0:1:
298,192,101642,1,0,0:0:0:1:
384,192,101666,1,0,0:0:0:1:
469,192,101691,1,0,0:0:0:1:
42,192,101715,1,0,0:0:0:1:
128,192,101740,1,0,0:0:0:1:
213,192,101764,1,0,0:0:0:1:
298,192,101789,1,0,0:0:0:1:
384,192,101813,1,0,0:0:0:1:
469,192,101838,1,0,0:0:0:1:
42,192,101862,1,0,0:0:0:1:
128,192,101887,1,0,0:0:0:1:
213,192,101911,1,0,0:0:0:1:
298,192,101936,1,0,0:0:0:1:
384,192,101960,1,0,0:0:0:1:
469,192,101960,1,0,0:0:0:1:
42,192,101960,1,0,0:0:0:1:
213,192,102254,1,0,0:0:0:1:
384,192,102254,1,0,0:0:0:1:
384,192,102352,1,0,0:0:0:1:
42,192,102352,1,0,0:0:0:1:
128,192,102549,1,0,0:0:0:1:
298,192,102549,1,0,0:0:0:1:
42,192,102745,1,0,0:0:0:1:
298,192,102843,1,0,0:0:0:1:
469,192,102843,1,0,0:0:0:1:
213,192,103137,1,0,0:0:0:1:
384,192,103137,1,0,0:0:0:1:
42,192,103137,1,0,0:0:0:1:
213,192,103235,1,0,0:0:0:1:
298,192,103333,1,0,0:0:0:1:
469,192,103333,1,0,0:0:0:1:
298,192,103529,1,0,0:0:0:1:
469,192,103529,1,0,0:0:0:1:
42,192,103529,1,0,0:0:0:1:
213,192,103823,1,0,0:0:0:1:
384,192,103823,1,0,0:0:0:1:
384,192,103921,1,0,0:0:0:1:
42,192,103921,1,0,0:0:0:1:
128,192,104117,1,0,0:0:0:1:
298,192,104117,1,0,0:0:0:1:
42,192,104313,1,0,0:0:0:1:
298,192,104411,1,0,0:0:0:1:
469,192,104411,1,0,0:0:0:1:
213,192,104705,1,0,0:0:0:1:
384,192,104705,1,0,0:0:0:1:
42,192,104705,1,0,0:0:0:1:
298,192,104803,1,0,0:0:0:1:
213,192,104901,1,0,0:0:0:1:
384,192,104901,1,0,0:0:0:1:
298,192,105098,1,0,0:0:0:1:
469,192,105098,1,0,0:0:0:1:
42,192,105098,1,0,0:0:0:1:
213,192,105392,1,0,0:0:0:1:
384,192,105392,1,0,0:0:0:1:
384,192,105490,1,0,0:0:0:1:
42,192,105490,1,0,0:0:0:1:
128,192,105686,1,0,0:0:0:1:
298,192,105686,1,0,0:0:0:1:
42,192,105882,1,0,0:0:0:1:
298,192,105980,1,0,0:0:0:1:
469,192,105980,1,0,0:0:0:1:
213,192,106274,1,0,0:0:0:1:
384,192,106274,1,0,0:0:0:1:
42,192,106274,1,0,0:0:0:1:
213,192,106372,1,0,0:0:0:1:
298,192,106470,1,0,0:0:0:1:
469,192,106470,1,0,0:0:0:1:
298,192,106666,1,0,0:0:0:1:
469,192,106666,1,0,0:0:0:1:
42,192,106666,1,0,0:0:0:1:
213,192,106960,1,0,0:0:0:1:
384,192,106960,1,0,0:0:0:1:
384,192,107058,1,0,0:0:0:1:
42,192,107058,1,0,0:0:0:1:
128,192,107254,1,0,0:0:0:1:
298,192,107254,1,0,0:0:0:1:
42,192,107450,1,0,0:0:0:1:
298,192,107549,1,0,0:0:0:1:
469,192,107549,1,0,0:0:0:1:
213,192,107843,1,0,0:0:0:1:
384,192,107843,1,0,0:0:0:1:
42,192,107843,1,0,0:0:0:1:
298,192,107941,1,0,0:0:0:1:
213,192,108039,1,0,0:0:0:1:
384,192,108039,1,0,0:0:0:1:
42,192,108039,1,0,0:0:0:1:
298,192,108235,1,0,0:0:0:1:
469,192,108235,1,0,0:0:0:1:
42,192,108235,1,0,0:0:0:1:
213,192,108529,1,0,0:0:0:1:
384,192,108529,1,0,0:0:0:1:
384,192,108627,1,0,0:0:0:1:
42,192,108627,1,0,0:0:0:1:
128,192,108823,1,0,0:0:0:1:
298,192,108823,1,0,0:0:0:1:
42,192,109019,1,0,0:0:0:1:
298,192,109117,1,0,0:0:0:1:
469,192,109117,1,0,0:0:0:1:
213,192,109411,1,0,0:0:0:1:
384,192,109411,1,0,0:0:0:1:
42,192,109411,1,0,0:0:0:1:
213,192,109509,1,0,0:0:0:1:
298,192,109607,1,0,0:0:0:1:
469,192,109607,1,0,0:0:0:1:
298,192,109803,1,0,0:0:0:1:
469,192,109803,1,0,0:0:0:1:
42,192,109803,1,0,0:0:0:1:
213,192,110098,1,0,0:0:0:1:
384,192,110098,1,0,0:0:0:1:
384,192,110196,1,0,0:0:0:1:
42,192,110196,1,0,0:0:0:1:
128,192,110392,1,0,0:0:0:1:
298,192,110392,1,0,0:0:0:1:
42,192,110588,1,0,0:0:0:1:
298,192,110686,1,0,0:0:0:1:
469,192,110686,1,0,0:0:0:1:
213,192,110980,1,0,0:0:0:1:
384,192,110980,1,0,0:0:0:1:
42,192,110980,1,0,0:0:0:1:
298,192,111078,1,0,0:0:0:1:
213,192,111176,1,0,0:0:0:1:
384,192,111176,1,0,0:0:0:1:
298,192,111372,1,0,0:0:0:1:
469,192,111372,1,0,0:0:0:1:
42,192,111372,1,0,0:0:0:1:
213,192,111666,1,0,0:0:0:1:
384,192,111666,1,0,0:0:0:1:
384,192,111764,1,0,0:0:0:1:
42,192,111764,1,0,0:0:0:1:
128,192,111960,1,0,0:0:0:1:
298,192,111960,1,0,0:0:0:1:
42,192,112156,1,0,0:0:0:1:
298,192,112254,1,0,0:0:0:1:
469,192,112254,1,0,0:0:0:1:
213,192,112549,1,0,0:0:0:1:
384,192,112549,1,0,0:0:0:1:
42,192,112549,1,0,0:0:0:1:
213,192,112647,1,0,0:0:0:1:
298,192,112745,1,0,0:0:0:1:
469,192,112745,1,0,0:0:0:1:
298,192,112941,1,0,0:0:0:1:
469,192,112941,1,0,0:0:0:1:
42,192,112941,1,0,0:0:0:1:
213,192,113235,1,0,0:0:0:1:
384,192,113235,1,0,0:0:0:1:
384,192,113333,1,0,0:0:0:1:
42,192,113333,1,0,0:0:0:1:
128,192,113529,1,0,0:0:0:1:
298,192,113529,1,0,0:0:0:1:
42,192,113725,1,0,0:0:0:1:
298,192,113823,1,0,0:0:0:1:
469,192,113823,1,0,0:0:0:1:
213,192,114117,1,0,0:0:0:1:
384,192,114117,1,0,0:0:0:1:
42,192,114117,1,0,0:0:0:1:
298,192,114215,1,0,0:0:0:1:
213,192,114313,1,0,0:0:0:1:
384,192,114313,1,0,0:0:0:1:
42,192,114313,1,0,0:0:0:1:
384,192,114509,1,0,0:0:0:1:
469,192,114509,1,0,0:0:0:1:
42,192,114509,1,0,0:0:0:1:
128,192,114558,1,0,0:0:0:1:
213,192,114607,1,0,0:0:0:1:
298,192,114656,1,0,0:0:0:1:
384,192,114705,1,0,0:0:0:1:
42,192,114705,1,0,0:0:0:1:
128,192,114754,1,0,0:0:0:1:
213,192,114803,1,0,0:0:0:1:
298,192,114852,1,0,0:0:0:1:
128,192,114901,1,0,0:0:0:1:
384,192,114901,1,0,0:0:0:1:
469,192,114901,1,0,0:0:0:1:
42,192,114901,1,0,0:0:0:1:
213,192,115000,1,0,0:0:0:1:
128,192,115098,1,0,0:0:0:1:
298,192,115098,1,0,0:0:0:1:
384,192,115196,1,0,0:0:0:1:
42,192,115294,1,0,0:0:0:1:
298,192,115392,1,0,0:0:0:1:
469,192,115392,1,0,0:0:0:1:
128,192,115490,1,0,0:0:0:1:
298,192,115588,1,0,0:0:0:1:
213,192,115686,1,0,0:0:0:1:
384,192,115686,1,0,0:0:0:1:
42,192,115686,1,0,0:0:0:1:
213,192,115784,1,0,0:0:0:1:
298,192,115882,1,0,0:0:0:1:
469,192,115882,1,0,0:0:0:1:
128,192,115980,1,0,0:0:0:1:
298,192,116078,1,0,0:0:0:1:
469,192,116078,1,0,0:0:0:1:
42,192,116078,1,0,0:0:0:1:
213,192,116176,1,0,0:0:0:1:
128,192,116274,1,0,0:0:0:1:
213,192,116372,1,0,0:0:0:1:
384,192,116372,1,0,0:0:0:1:
298,192,116470,1,0,0:0:0:1:
384,192,116470,1,0,0:0:0:1:
42,192,116470,1,0,0:0:0:1:
469,192,116568,1,0,0:0:0:1:
128,192,116666,1,0,0:0:0:1:
298,192,116666,1,0,0:0:0:1:
213,192,116764,1,0,0:0:0:1:
42,192,116862,1,0,0:0:0:1:
298,192,116960,1,0,0:0:0:1:
469,192,116960,1,0,0:0:0:1:
128,192,117058,1,0,0:0:0:1:
469,192,117156,1,0,0:0:0:1:
213,192,117254,1,0,0:0:0:1:
384,192,117254,1,0,0:0:0:1:
42,192,117254,1,0,0:0:0:1:
298,192,117352,1,0,0:0:0:1:
213,192,117450,1,0,0:0:0:1:
384,192,117450,1,0,0:0:0:1:
298,192,117647,1,0,0:0:0:1:
469,192,117647,1,0,0:0:0:1:
42,192,117647,1,0,0:0:0:1:
128,192,117745,1,0,0:0:0:1:
298,192,117843,1,0,0:0:0:1:
213,192,117941,1,0,0:0:0:1:
384,192,117941,1,0,0:0:0:1:
128,192,118039,1,0,0:0:0:1:
469,192,118039,1,0,0:0:0:1:
42,192,118039,1,0,0:0:0:1:
213,192,118137,1,0,0:0:0:1:
128,192,118235,1,0,0:0:0:1:
298,192,118235,1,0,0:0:0:1:
384,192,118333,1,0,0:0:0:1:
42,192,118431,1,0,0:0:0:1:
298,192,118529,1,0,0:0:0:1:
469,192,118529,1,0,0:0:0:1:
128,192,118627,1,0,0:0:0:1:
298,192,118725,1,0,0:0:0:1:
213,192,118823,1,0,0:0:0:1:
384,192,118823,1,0,0:0:0:1:
42,192,118823,1,0,0:0:0:1:
213,192,118921,1,0,0:0:0:1:
298,192,119019,1,0,0:0:0:1:
469,192,119019,1,0,0:0:0:1:
128,192,119117,1,0,0:0:0:1:
298,192,119215,1,0,0:0:0:1:
469,192,119215,1,0,0:0:0:1:
42,192,119215,1,0,0:0:0:1:
213,192,119313,1,0,0:0:0:1:
128,192,119411,1,0,0:0:0:1:
213,192,119509,1,0,0:0:0:1:
384,192,119509,1,0,0:0:0:1:
298,192,119607,1,0,0:0:0:1:
384,192,119607,1,0,0:0:0:1:
42,192,119607,1,0,0:0:0:1:
469,192,119705,1,0,0:0:0:1:
128,192,119803,1,0,0:0:0:1:
298,192,119803,1,0,0:0:0:1:
213,192,119901,1,0,0:0:0:1:
42,192,120000,1,0,0:0:0:1:
298,192,120098,1,0,0:0:0:1:
469,192,120098,1,0,0:0:0:1:
128,192,120196,1,0,0:0:0:1:
469,192,120294,1,0,0:0:0:1:
213,192,120392,1,0,0:0:0:1:
384,192,120392,1,0,0:0:0:1:
42,192,120392,1,0,0:0:0:1:
298,192,120490,1,0,0:0:0:1:
213,192,120588,1,0,0:0:0:1:
384,192,120588,1,0,0:0:0:1:
42,192,120588,1,0,0:0:0:1:
298,192,120784,1,0,0:0:0:1:
469,192,120784,1,0,0:0:0:1:
42,192,120784,1,0,0:0:0:1:
128,192,120882,1,0,0:0:0:1:
298,192,120980,1,0,0:0:0:1:
213,192,121078,1,0,0:0:0:1:
384,192,121078,1,0,0:0:0:1:
128,192,121176,1,0,0:0:0:1:
469,192,121176,1,0,0:0:0:1:
42,192,121176,1,0,0:0:0:1:
213,192,121274,1,0,0:0:0:1:
128,192,121372,1,0,0:0:0:1:
298,192,121372,1,0,0:0:0:1:
384,192,121470,1,0,0:0:0:1:
42,192,121568,1,0,0:0:0:1:
298,192,121666,1,0,0:0:0:1:
469,192,121666,1,0,0:0:0:1:
128,192,121764,1,0,0:0:0:1:
298,192,121862,1,0,0:0:0:1:
213,192,121960,1,0,0:0:0:1:
384,192,121960,1,0,0:0:0:1:
42,192,121960,1,0,0:0:0:1:
213,192,122058,1,0,0:0:0:1:
298,192,122156,1,0,0:0:0:1:
469,192,122156,1,0,0:0:0:1:
128,192,122254,1,0,0:0:0:1:
298,192,122352,1,0,0:0:0:1:
469,192,122352,1,0,0:0:0:1:
42,192,122352,1,0,0:0:0:1:
213,192,122450,1,0,0:0:0:1:
128,192,122549,1,0,0:0:0:1:
213,192,122647,1,0,0:0:0:1:
384,192,122647,1,0,0:0:0:1:
298,192,122745,1,0,0:0:0:1:
384,192,122745,1,0,0:0:0:1:
42,192,122745,1,0,0:0:0:1:
469,192,122843,1,0,0:0:0:1:
128,192,122941,1,0,0:0:0:1:
298,192,122941,1,0,0:0:0:1:
213,192,123039,1,0,0:0:0:1:
42,192,123137,1,0,0:0:0:1:
298,192,123235,1,0,0:0:0:1:
469,192,123235,1,0,0:0:0:1:
128,192,123333,1,0,0:0:0:1:
469,192,123431,1,0,0:0:0:1:
213,192,123529,1,0,0:0:0:1:
384,192,123529,1,0,0:0:0:1:
42,192,123529,1,0,0:0:0:1:
298,192,123627,1,0,0:0:0:1:
213,192,123725,1,0,0:0:0:1:
384,192,123725,1,0,0:0:0:1:
298,192,123921,1,0,0:0:0:1:
469,192,123921,1,0,0:0:0:1:
42,192,123921,1,0,0:0:0:1:
128,192,124019,1,0,0:0:0:1:
298,192,124117,1,0,0:0:0:1:
213,192,124215,1,0,0:0:0:1:
384,192,124215,1,0,0:0:0:1:
128,192,124313,1,0,0:0:0:1:
469,192,124313,1,0,0:0:0:1:
42,192,124313,1,0,0:0:0:1:
213,192,124411,1,0,0:0:0:1:
128,192,124509,1,0,0:0:0:1:
298,192,124509,1,0,0:0:0:1:
384,192,124607,1,0,0:0:0:1:
42,192,124705,1,0,0:0:0:1:
298,192,124803,1,0,0:0:0:1:
469,192,124803,1,0,0:0:0:1:
128,192,124901,1,0,0:0:0:1:
298,192,125000,1,0,0:0:0:1:
213,192,125098,1,0,0:0:0:1:
384,192,125098,1,0,0:0:0:1:
42,192,125098,1,0,0:0:0:1:
213,192,125196,1,0,0:0:0:1:
298,192,125294,1,0,0:0:0:1:
469,192,125294,1,0,0:0:0:1:
128,192,125392,1,0,0:0:0:1:
298,192,125490,1,0,0:0:0:1:
469,192,125490,1,0,0:0:0:1:
42,192,125490,1,0,0:0:0:1:
213,192,125588,1,0,0:0:0:1:
128,192,125686,1,0,0:0:0:1:
213,192,125784,1,0,0:0:0:1:
384,192,125784,1,0,0:0:0:1:
298,192,125882,1,0,0:0:0:1:
384,192,125882,1,0,0:0:0:1:
42,192,125882,1,0,0:0:0:1:
469,192,125980,1,0,0:0:0:1:
128,192,126078,1,0,0:0:0:1:
298,192,126078,1,0,0:0:0:1:
213,192,126176,1,0,0:0:0:1:
42,192,126274,1,0,0:0:0:1:
298,192,126372,1,0,0:0:0:1:
469,192,126372,1,0,0:0:0:1:
128,192,126470,1,0,0:0:0:1:
469,192,126568,1,0,0:0:0:1:
213,192,126666,1,0,0:0:0:1:
384,192,126666,1,0,0:0:0:1:
42,192,126666,1,0,0:0:0:1:
298,192,126764,1,0,0:0:0:1:
213,192,126862,1,0,0:0:0:1:
384,192,126862,1,0,0:0:0:1:
42,192,126862,1,0,0:0:0:1:
298,192,127058,1,0,0:0:0:1:
469,192,127058,1,0,0:0:0:1:
42,192,127058,1,0,0:0:0:1:
128,192,127156,1,0,0:0:0:1:
298,192,127254,1,0,0:0:0:1:
213,192,127352,1,0,0:0:0:1:
384,192,127352,1,0,0:0:0:1:
128,192,127450,1,0,0:0:0:1:
469,192,127450,1,0,0:0:0:1:
42,192,127450,1,0,0:0:0:1:
213,192,127549,1,0,0:0:0:1:
128,192,127647,1,0,0:0:0:1:
298,192,127647,1,0,0:0:0:1:
384,192,127745,1,0,0:0:0:1:
42,192,127843,1,0,0:0:0:1:
298,192,127941,1,0,0:0:0:1:
469,192,127941,1,0,0:0:0:1:
128,192,128039,1,0,0:0:0:1:
298,192,128137,1,0,0:0:0:1:
213,192,128235,1,0,0:0:0:1:
384,192,128235,1,0,0:0:0:1:
42,192,128235,1,0,0:0:0:1:
213,192,128333,1,0,0:0:0:1:
298,192,128431,1,0,0:0:0:1:
469,192,128431,1,0,0:0:0:1:
128,192,128529,1,0,0:0:0:1:
298,192,128627,1,0,0:0:0:1:
469,192,128627,1,0,0:0:0:1:
42,192,128627,1,0,0:0:0:1:
213,192,128725,1,0,0:0:0:1:
128,192,128823,1,0,0:0:0:1:
213,192,128921,1,0,0:0:0:1:
384,192,128921,1,0,0:0:0:1:
298,192,129019,1,0,0:0:0:1:
384,192,129019,1,0,0:0:0:1:
42,192,129019,1,0,0:0:0:1:
469,192,129117,1,0,0:0:0:1:
128,192,129215,1,0,0:0:0:1:
298,192,129215,1,0,0:0:0:1:
213,192,129313,1,0,0:0:0:1:
42,192,129411,1,0,0:0:0:1:
298,192,129509,1,0,0:0:0:1:
469,192,129509,1,0,0:0:0:1:
128,192,129607,1,0,0:0:0:1:
469,192,129705,1,0,0:0:0:1:
213,192,129803,1,0,0:0:0:1:
384,192,129803,1,0,0:0:0:1:
42,192,129803,1,0,0:0:0:1:
298,192,129901,1,0,0:0:0:1:
213,192,130000,1,0,0:0:0:1:
384,192,130000,1,0,0:0:0:1:
298,192,130196,1,0,0:0:0:1:
469,192,130196,1,0,0:0:0:1:
42,192,130196,1,0,0:0:0:1:
128,192,130294,1,0,0:0:0:1:
298,192,130392,1,0,0:0:0:1:
213,192,130490,1,0,0:0:0:1:
384,192,130490,1,0,0:0:0:1:
128,192,130588,1,0,0:0:0:1:
469,192,130588,1,0,0:0:0:1:
42,192,130588,1,0,0:0:0:1:
213,192,130686,1,0,0:0:0:1:
128,192,130784,1,0,0:0:0:1:
298,192,130784,1,0,0:0:0:1:
384,192,130882,1,0,0:0:0:1:
42,192,130980,1,0,0:0:0:1:
298,192,131078,1,0,0:0:0:1:
469,192,131078,1,0,0:0:0:1:
128,192,131176,1,0,0:0:0:1:
298,192,131274,1,0,0:0:0:1:
213,192,131372,1,0,0:0:0:1:
384,192,131372,1,0,0:0:0:1:
42,192,131372,1,0,0:0:0:1:
213,192,131470,1,0,0:0:0:1:
298,192,131568,1,0,0:0:0:1:
469,192,131568,1,0,0:0:0:1:
128,192,131666,1,0,0:0:0:1:
298,192,131764,1,0,0:0:0:1:
469,192,131764,1,0,0:0:0:1:
42,192,131764,1,0,0:0:0:1:
213,192,131862,1,0,0:0:0:1:
128,192,131960,1,0,0:0:0:1:
213,192,132058,1,0,0:0:0:1:
384,192,132058,1,0,0:0:0:1:
298,192,132156,1,0,0:0:0:1:
384,192,132156,1,0,0:0:0:1:
42,192,132156,1,0,0:0:0:1:
469,192,132254,1,0,0:0:0:1:
128,192,132352,1,0,0:0:0:1:
298,192,132352,1,0,0:0:0:1:
213,192,132450,1,0,0:0:0:1:
42,192,132549,1,0,0:0:0:1:
298,192,132647,1,0,0:0:0:1:
469,192,132647,1,0,0:0:0:1:
128,192,132745,1,0,0:0:0:1:
469,192,132843,1,0,0:0:0:1:
213,192,132941,1,0,0:0:0:1:
384,192,132941,1,0,0:0:0:1:
42,192,132941,1,0,0:0:0:1:
298,192,133039,1,0,0:0:0:1:
213,192,133137,1,0,0:0:0:1:
384,192,133137,1,0,0:0:0:1:
42,192,133137,1,0,0:0:0:1:
298,192,133333,1,0,0:0:0:1:
469,192,133333,1,0,0:0:0:1:
42,192,133333,1,0,0:0:0:1:
128,192,133431,1,0,0:0:0:1:
298,192,133529,1,0,0:0:0:1:
213,192,133627,1,0,0:0:0:1:
384,192,133627,1,0,0:0:0:1:
128,192,133725,1,0,0:0:0:1:
469,192,133725,1,0,0:0:0:1:
42,192,133725,1,0,0:0:0:1:
213,192,133823,1,0,0:0:0:1:
128,192,133921,1,0,0:0:0:1:
298,192,133921,1,0,0:0:0:1:
384,192,134019,1,0,0:0:0:1:
42,192,134117,1,0,0:0:0:1:
298,192,134215,1,0,0:0:0:1:
469,192,134215,1,0,0:0:0:1:
128,192,134313,1,0,0:0:0:1:
298,192,134411,1,0,0:0:0:1:
213,192,134509,1,0,0:0:0:1:
384,192,134509,1,0,0:0:0:1:
42,192,134509,1,0,0:0:0:1:
213,192,134607,1,0,0:0:0:1:
298,192,134705,1,0,0:0:0:1:
469,192,134705,1,0,0:0:0:1:
128,192,134803,1,0,0:0:0:1:
298,192,134901,1,0,0:0:0:1:
469,192,134901,1,0,0:0:0:1:
42,192,134901,1,0,0:0:0:1:
213,192,135000,1,0,0:0:0:1:
128,192,135098,1,0,0:0:0:1:
213,192,135196,1,0,0:0:0:1:
384,192,135196,1,0,0:0:0:1:
298,192,135294,1,0,0:0:0:1:
384,192,135294,1,0,0:0:0:1:
42,192,135294,1,0,0:0:0:1:
469,192,135392,1,0,0:0:0:1:
128,192,135490,1,0,0:0:0:1:
298,192,135490,1,0,0:0:0:1:
213,192,135588,1,0,0:0:0:1:
42,192,135686,1,0,0:0:0:1:
298,192,135784,1,0,0:0:0:1:
469,192,135784,1,0,0:0:0:1:
128,192,135882,1,0,0:0:0:1:
469,192,135980,1,0,0:0:0:1:
213,192,136078,1,0,0:0:0:1:
384,192,136078,1,0,0:0:0:1:
42,192,136078,1,0,0:0:0:1:
298,192,136176,1,0,0:0:0:1:
213,192,136274,1,0,0:0:0:1:
384,192,136274,1,0,0:0:0:1:
298,192,136470,1,0,0:0:0:1:
469,192,136470,1,0,0:0:0:1:
42,192,136470,1,0,0:0:0:1:
128,192,136568,1,0,0:0:0:1:
298,192,136666,1,0,0:0:0:1:
213,192,136764,1,0,0:0:0:1:
384,192,136764,1,0,0:0:0:1:
128,192,136862,1,0,0:0:0:1:
469,192,136862,1,0,0:0:0:1:
42,192,136862,1,0,0:0:0:1:
213,192,136960,1,0,0:0:0:1:
128,192,137058,1,0,0:0:0:1:
298,192,137058,1,0,0:0:0:1:
384,192,137156,1,0,0:0:0:1:
42,192,137254,1,0,0:0:0:1:
298,192,137352,1,0,0:0:0:1:
469,192,137352,1,0,0:0:0:1:
128,192,137450,1,0,0:0:0:1:
298,192,137549,1,0,0:0:0:1:
213,192,137647,1,0,0:0:0:1:
384,192,137647,1,0,0:0:0:1:
42,192,137647,1,0,0:0:0:1:
213,192,137745,1,0,0:0:0:1:
298,192,137843,1,0,0:0:0:1:
469,192,137843,1,0,0:0:0:1:
128,192,137941,1,0,0:0:0:1:
298,192,138039,1,0,0:0:0:1:
469,192,138039,1,0,0:0:0:1:
42,192,138039,1,0,0:0:0:1:
213,192,138137,1,0,0:0:0:1:
128,192,138235,1,0,0:0:0:1:
213,192,138333,1,0,0:0:0:1:
384,192,138333,1,0,0:0:0:1:
298,192,138431,1,0,0:0:0:1:
384,192,138431,1,0,0:0:0:1:
42,192,138431,1,0,0:0:0:1:
469,192,138529,1,0,0:0:0:1:
128,192,138627,1,0,0:0:0:1:
298,192,138627,1,0,0:0:0:1:
213,192,138725,1,0,0:0:0:1:
42,192,138823,1,0,0:0:0:1:
298,192,138921,1,0,0:0:0:1:
469,192,138921,1,0,0:0:0:1:
128,192,139019,1,0,0:0:0:1:
469,192,139117,1,0,0:0:0:1:
213,192,139215,1,0,0:0:0:1:
384,192,139215,1,0,0:0:0:1:
42,192,139215,1,0,0:0:0:1:
298,192,139313,1,0,0:0:0:1:
213,192,139411,1,0,0:0:0:1:
384,192,139411,1,0,0:0:0:1:
42,192,139411,1,0,0:0:0:1:
213,192,139607,1,0,0:0:0:1:
298,192,139607,1,0,0:0:0:1:
469,192,139607,1,0,0:0:0:1:
42,192,139607,1,0,0:0:0:1:
128,192,139705,1,0,0:0:0:1:
298,192,139803,1,0,0:0:0:1:
213,192,139901,1,0,0:0:0:1:
384,192,139901,1,0,0:0:0:1:
128,192,140000,1,0,0:0:0:1:
469,192,140000,1,0,0:0:0:1:
42,192,140000,1,0,0:0:0:1:
213,192,140098,1,0,0:0:0:1:
128,192,140196,1,0,0:0:0:1:
298,192,140196,1,0,0:0:0:1:
384,192,140294,1,0,0:0:0:1:
42,192,140392,1,0,0:0:0:1:
298,192,140490,1,0,0:0:0:1:
469,192,140490,1,0,0:0:0:1:
128,192,140588,1,0,0:0:0:1:
298,192,140686,1,0,0:0:0:1:
213,192,140784,1,0,0:0:0:1:
384,192,140784,1,0,0:0:0:1:
42,192,140784,1,0,0:0:0:1:
213,192,140882,1,0,0:0:0:1:
298,192,140980,1,0,0:0:0:1:
469,192,140980,1,0,0:0:0:1:
128,192,141078,1,0,0:0:0:1:
298,192,141176,1,0,0:0:0:1:
469,192,141176,1,0,0:0:0:1:
42,192,141176,1,0,0:0:0:1:
213,192,141274,1,0,0:0:0:1:
128,192,141372,1,0,0:0:0:1:
213,192,141470,1,0,0:0:0:1:
384,192,141470,1,0,0:0:0:1:
298,192,141568,1,0,0:0:0:1:
384,192,141568,1,0,0:0:0:1:
42,192,141568,1,0,0:0:0:1:
469,192,141666,1,0,0:0:0:1:
128,192,141764,1,0,0:0:0:1:
298,192,141764,1,0,0:0:0:1:
213,192,141862,1,0,0:0:0:1:
42,192,141960,1,0,0:0:0:1:
298,192,142058,1,0,0:0:0:1:
469,192,142058,1,0,0:0:0:1:
128,192,142156,1,0,0:0:0:1:
469,192,142254,1,0,0:0:0:1:
213,192,142352,1,0,0:0:0:1:
384,192,142352,1,0,0:0:0:1:
42,192,142352,1,0,0:0:0:1:
298,192,142450,1,0,0:0:0:1:
213,192,142549,1,0,0:0:0:1:
384,192,142549,1,0,0:0:0:1:
298,192,142745,1,0,0:0:0:1:
469,192,142745,1,0,0:0:0:1:
42,192,142745,1,0,0:0:0:1:
128,192,142843,1,0,0:0:0:1:
298,192,142941,1,0,0:0:0:1:
213,192,143039,1,0,0:0:0:1:
384,192,143039,1,0,0:0:0:1:
128,192,143137,1,0,0:0:0:1:
469,192,143137,1,0,0:0:0:1:
42,192,143137,1,0,0:0:0:1:
213,192,143235,1,0,0:0:0:1:
128,192,143333,1,0,0:0:0:1:
298,192,143333,1,0,0:0:0:1:
384,192,143431,1,0,0:0:0:1:
42,192,143529,1,0,0:0:0:1:
298,192,143627,1,0,0:0:0:1:
469,192,143627,1,0,0:0:0:1:
128,192,143725,1,0,0:0:0:1:
298,192,143823,1,0,0:0:0:1:
213,192,143921,1,0,0:0:0:1:
384,192,143921,1,0,0:0:0:1:
42,192,143921,1,0,0:0:0:1:
213,192,144019,1,0,0:0:0:1:
298,192,144117,1,0,0:0:0:1:
469,192,144117,1,0,0:0:0:1:
128,192,144215,1,0,0:0:0:1:
298,192,144313,1,0,0:0:0:1:
469,192,144313,1,0,0:0:0:1:
42,192,144313,1,0,0:0:0:1:
213,192,144411,1,0,0:0:0:1:
128,192,144509,1,0,0:0:0:1:
213,192,144607,1,0,0:0:0:1:
384,192,144607,1,0,0:0:0:1:
298,192,144705,1,0,0:0:0:1:
384,192,144705,1,0,0:0:0:1:
42,192,144705,1,0,0:0:0:1:
469,192,144803,1,0,0:0:0:1:
128,192,144901,1,0,0:0:0:1:
298,192,144901,1,0,0:0:0:1:
213,192,145000,1,0,0:0:0:1:
42,192,145098,1,0,0:0:0:1:
298,192,145196,1,0,0:0:0:1:
469,192,145196,1,0,0:0:0:1:
128,192,145294,1,0,0:0:0:1:
469,192,145392,1,0,0:0:0:1:
213,192,145490,1,0,0:0:0:1:
384,192,145490,1,0,0:0:0:1:
42,192,145490,1,0,0:0:0:1:
298,192,145588,1,0,0:0:0:1:
213,192,145686,1,0,0:0:0:1:
384,192,145686,1,0,0:0:0:1:
42,192,145686,1,0,0:0:0:1:
298,192,145882,1,0,0:0:0:1:
469,192,145882,1,0,0:0:0:1:
42,192,145882,1,0,0:0:0:1:
128,192,145980,1,0,0:0:0:1:
298,192,146078,1,0,0:0:0:1:
213,192,146176,1,0,0:0:0:1:
384,192,146176,1,0,0:0:0:1:
128,192,146274,1,0,0:0:0:1:
469,192,146274,1,0,0:0:0:1:
42,192,146274,1,0,0:0:0:1:
213,192,146372,1,0,0:0:0:1:
128,192,146470,1,0,0:0:0:1:
298,192,146470,1,0,0:0:0:1:
384,192,146568,1,0,0:0:0:1:
42,192,146666,1,0,0:0:0:1:
298,192,146764,1,0,0:0:0:1:
469,192,146764,1,0,0:0:0:1:
128,192,146862,1,0,0:0:0:1:
298,192,146960,1,0,0:0:0:1:
213,192,147058,1,0,0:0:0:1:
384,192,147058,1,0,0:0:0:1:
42,192,147058,1,0,0:0:0:1:
213,192,147156,1,0,0:0:0:1:
298,192,147254,1,0,0:0:0:1:
469,192,147254,1,0,0:0:0:1:
128,192,147352,1,0,0:0:0:1:
298,192,147450,1,0,0:0:0:1:
469,192,147450,1,0,0:0:0:1:
42,192,147450,1,0,0:0:0:1:
213,192,147549,1,0,0:0:0:1:
128,192,147647,1,0,0:0:0:1:
213,192,147745,1,0,0:0:0:1:
384,192,147745,1,0,0:0:0:1:
298,192,147843,1,0,0:0:0:1:
384,192,147843,1,0,0:0:0:1:
42,192,147843,1,0,0:0:0:1:
469,192,147941,1,0,0:0:0:1:
128,192,148039,1,0,0:0:0:1:
298,192,148039,1,0,0:0:0:1:
213,192,148137,1,0,0:0:0:1:
42,192,148235,1,0,0:0:0:1:
298,192,148333,1,0,0:0:0:1:
469,192,148333,1,0,0:0:0:1:
128,192,148431,1,0,0:0:0:1:
469,192,148529,1,0,0:0:0:1:
213,192,148627,1,0,0:0:0:1:
384,192,148627,1,0,0:0:0:1:
42,192,148627,1,0,0:0:0:1:
298,192,148725,1,0,0:0:0:1:
213,192,148823,1,0,0:0:0:1:
384,192,148823,1,0,0:0:0:1:
298,192,149019,1,0,0:0:0:1:
469,192,149019,1,0,0:0:0:1:
42,192,149019,1,0,0:0:0:1:
128,192,149117,1,0,0:0:0:1:
298,192,149215,1,0,0:0:0:1:
213,192,149313,1,0,0:0:0:1:
384,192,149313,1,0,0:0:0:1:
128,192,149411,1,0,0:0:0:1:
469,192,149411,1,0,0:0:0:1:
42,192,149411,1,0,0:0:0:1:
213,192,149509,1,0,0:0:0:1:
128,192,149607,1,0,0:0:0:1:
298,192,149607,1,0,0:0:0:1:
384,192,149705,1,0,0:0:0:1:
42,192,149803,1,0,0:0:0:1:
298,192,149901,1,0,0:0:0:1:
469,192,149901,1,0,0:0:0:1:
128,192,150000,1,0,0:0:0:1:
298,192,150098,1,0,0:0:0:1:
213,192,150196,1,0,0:0:0:1:
384,192,150196,1,0,0:0:0:1:
42,192,150196,1,0,0:0:0:1:
213,192,150294,1,0,0:0:0:1:
298,192,150392,1,0,0:0:0:1:
469,192,150392,1,0,0:0:0:1:
128,192,150490,1,0,0:0:0:1:
298,192,150588,1,0,0:0:0:1:
469,192,150588,1,0,0:0:0:1:
42,192,150588,1,0,0:0:0:1:
213,192,150686,1,0,0:0:0:1:
128,192,150784,1,0,0:0:0:1:
213,192,150882,1,0,0:0:0:1:
384,192,150882,1,0,0:0:0:1:
298,192,150980,1,0,0:0:0:1:
384,192,150980,1,0,0:0:0:1:
42,192,150980,1,0,0:0:0:1:
469,192,151078,1,0,0:0:0:1:
128,192,151176,1,0,0:0:0:1:
298,192,151176,1,0,0:0:0:1:
213,192,151274,1,0,0:0:0:1:
42,192,151372,1,0,0:0:0:1:
298,192,151470,1,0,0:0:0:1:
469,192,151470,1,0,0:0:0:1:
128,192,151568,1,0,0:0:0:1:
469,192,151666,1,0,0:0:0:1:
213,192,151764,1,0,0:0:0:1:
384,192,151764,1,0,0:0:0:1:
42,192,151764,1,0,0:0:0:1:
298,192,151862,1,0,0:0:0:1:
213,192,151960,1,0,0:0:0:1:
384,192,151960,1,0,0:0:0:1:
42,192,151960,1,0,0:0:0:1:
128,192,152156,1,0,0:0:0:1:
469,192,152156,1,0,0:0:0:1:
42,192,152156,1,0,0:0:0:1:
213,192,152205,1,0,0:0:0:1:
298,192,152254,1,0,0:0:0:1:
384,192,152303,1,0,0:0:0:1:
128,192,152352,1,0,0:0:0:1:
469,192,152352,1,0,0:0:0:1:
213,192,152401,1,0,0:0:0:1:
298,192,152450,1,0,0:0:0:1:
384,192,152500,1,0,0:0:0:1:
128,192,152549,1,0,0:0:0:1:
469,192,152549,1,0,0:0:0:1:
42,192,152549,1,0,0:0:0:1:
384,192,152598,1,0,0:0:0:1:
298,192,152647,1,0,0:0:0:1:
213,192,152696,1,0,0:0:0:1:
128,192,152745,1,0,0:0:0:1:
469,192,152745,1,0,0:0:0:1:
384,192,152794,1,0,0:0:0:1:
298,192,152843,1,0,0:0:0:1:
213,192,152892,1,0,0:0:0:1:
384,192,152941,1,0,0:0:0:1:
469,192,152941,1,0,0:0:0:1:
42,192,152941,1,0,0:0:0:1:
128,192,152990,1,0,0:0:0:1:
213,192,153039,1,0,0:0:0:1:
298,192,153088,1,0,0:0:0:1:
128,192,153137,1,0,0:0:0:1:
469,192,153137,1,0,0:0:0:1:
42,192,153137,1,0,0:0:0:1:
384,192,153186,1,0,0:0:0:1:
298,192,153235,1,0,0:0:0:1:
42,192,153284,1,0,0:0:0:1:
128,192,153333,1,0,0:0:0:1:
213,192,153333,1,0,0:0:0:1:
469,192,153333,1,0,0:0:0:1:
384,192,153382,1,0,0:0:0:1:
298,192,153431,1,0,0:0:0:1:
213,192,153480,1,0,0:0:0:1:
128,192,153529,1,0,0:0:0:1:
42,192,153529,1,0,0:0:0:1:
298,192,153578,1,0,0:0:0:1:
384,192,153627,1,0,0:0:0:1:
469,192,153676,1,0,0:0:0:1:
128,192,153725,1,0,0:0:0:1:
213,192,153725,1,0,0:0:0:1:
42,192,153725,1,0,0:0:0:1:
298,192,153774,1,0,0:0:0:1:
384,192,153823,1,0,0:0:0:1:
469,192,153872,1,0,0:0:0:1:
128,192,153921,1,0,0:0:0:1:
213,192,153921,1,0,0:0:0:1:
298,192,153970,1,0,0:0:0:1:
384,192,154019,1,0,0:0:0:1:
469,192,154068,1,0,0:0:0:1:
213,192,154117,1,0,0:0:0:1:
298,192,154117,1,0,0:0:0:1:
128,192,154166,1,0,0:0:0:1:
42,192,154215,1,0,0:0:0:1:
469,192,154264,1,0,0:0:0:1:
298,192,154313,1,0,0:0:0:1:
384,192,154313,1,0,0:0:0:1:
213,192,154362,1,0,0:0:0:1:
128,192,154411,1,0,0:0:0:1:
42,192,154460,1,0,0:0:0:1:
128,192,154509,1,0,0:0:0:1:
213,192,154509,1,0,0:0:0:1:
298,192,154558,1,0,0:0:0:1:
384,192,154607,1,0,0:0:0:1:
469,192,154656,1,0,0:0:0:1:
128,192,154705,1,0,0:0:0:1:
42,192,154705,1,0,0:0:0:1:
213,192,154754,1,0,0:0:0:1:
298,192,154803,1,0,0:0:0:1:
384,192,154852,1,0,0:0:0:1:
128,192,154901,1,0,0:0:0:1:
469,192,154901,1,0,0:0:0:1:
42,192,154901,1,0,0:0:0:1:
384,192,154950,1,0,0:0:0:1:
298,192,155000,1,0,0:0:0:1:
213,192,155049,1,0,0:0:0:1:
128,192,155098,1,0,0:0:0:1:
384,192,155098,1,0,0:0:0:1:
469,192,155098,1,0,0:0:0:1:
42,192,155147,1,0,0:0:0:1:
213,192,155196,1,0,0:0:0:1:
128,192,155245,1,0,0:0:0:1:
384,192,155294,1,0,0:0:0:1:
469,192,155294,1,0,0:0:0:1:
42,192,155294,1,0,0:0:0:1:
298,192,155343,1,0,0:0:0:1:
213,192,155392,1,0,0:0:0:1:
128,192,155441,1,0,0:0:0:1:
384,192,155490,1,0,0:0:0:1:
42,192,155490,1,0,0:0:0:1:
298,192,155539,1,0,0:0:0:1:
213,192,155588,1,0,0:0:0:1:
128,192,155637,1,0,0:0:0:1:
384,192,155686,1,0,0:0:0:1:
469,192,155686,1,0,0:0:0:1:
42,192,155686,1,0,0:0:0:1:
128,192,155735,1,0,0:0:0:1:
213,192,155784,1,0,0:0:0:1:
298,192,155833,1,0,0:0:0:1:
384,192,155882,1,0,0:0:0:1:
42,192,155882,1,0,0:0:0:1:
128,192,155931,1,0,0:0:0:1:
213,192,155980,1,0,0:0:0:1:
298,192,156029,1,0,0:0:0:1:
128,192,156078,1,0,0:0:0:1:
469,192,156078,1,0,0:0:0:1:
42,192,156078,1,0,0:0:0:1:
384,192,156127,1,0,0:0:0:1:
298,192,156176,1,0,0:0:0:1:
213,192,156225,1,0,0:0:0:1:
384,192,156274,1,0,0:0:0:1:
469,192,156274,1,0,0:0:0:1:
42,192,156274,1,0,0:0:0:1:
128,192,156323,1,0,0:0:0:1:
213,192,156372,1,0,0:0:0:1:
469,192,156421,1,0,0:0:0:1:
298,192,156470,1,0,0:0:0:1:
384,192,156470,1,0,0:0:0:1:
42,192,156470,1,0,0:0:0:1:
128,192,156519,1,0,0:0:0:1:
213,192,156568,1,0,0:0:0:1:
298,192,156617,1,0,0:0:0:1:
384,192,156666,1,0,0:0:0:1:
469,192,156666,1,0,0:0:0:1:
213,192,156715,1,0,0:0:0:1:
128,192,156764,1,0,0:0:0:1:
42,192,156813,1,0,0:0:0:1:
298,192,156862,1,0,0:0:0:1:
384,192,156862,1,0,0:0:0:1:
469,192,156862,1,0,0:0:0:1:
213,192,156911,1,0,0:0:0:1:
128,192,156960,1,0,0:0:0:1:
42,192,157009,1,0,0:0:0:1:
298,192,157058,1,0,0:0:0:1:
384,192,157058,1,0,0:0:0:1:
213,192,157107,1,0,0:0:0:1:
128,192,157156,1,0,0:0:0:1:
42,192,157205,1,0,0:0:0:1:
213,192,157254,1,0,0:0:0:1:
298,192,157254,1,0,0:0:0:1:
384,192,157303,1,0,0:0:0:1:
469,192,157352,1,0,0:0:0:1:
42,192,157401,1,0,0:0:0:1:
128,192,157450,1,0,0:0:0:1:
213,192,157450,1,0,0:0:0:1:
298,192,157500,1,0,0:0:0:1:
384,192,157549,1,0,0:0:0:1:
469,192,157598,1,0,0:0:0:1:
298,192,157647,1,0,0:0:0:1:
384,192,157647,1,0,0:0:0:1:
213,192,157696,1,0,0:0:0:1:
128,192,157745,1,0,0:0:0:1:
42,192,157794,1,0,0:0:0:1:
384,192,157843,1,0,0:0:0:1:
469,192,157843,1,0,0:0:0:1:
298,192,157892,1,0,0:0:0:1:
213,192,157941,1,0,0:0:0:1:
128,192,157990,1,0,0:0:0:1:
384,192,158039,1,0,0:0:0:1:
469,192,158039,1,0,0:0:0:1:
42,192,158039,1,0,0:0:0:1:
128,192,158088,1,0,0:0:0:1:
213,192,158137,1,0,0:0:0:1:
298,192,158186,1,0,0:0:0:1:
128,192,158235,1,0,0:0:0:1:
384,192,158235,1,0,0:0:0:1:
42,192,158235,1,0,0:0:0:1:
469,192,158284,1,0,0:0:0:1:
298,192,158333,1,0,0:0:0:1:
384,192,158382,1,0,0:0:0:1:
128,192,158431,1,0,0:0:0:1:
469,192,158431,1,0,0:0:0:1:
42,192,158431,1,0,0:0:0:1:
213,192,158480,1,0,0:0:0:1:
298,192,158529,1,0,0:0:0:1:
384,192,158578,1,0,0:0:0:1:
128,192,158627,1,0,0:0:0:1:
469,192,158627,1,0,0:0:0:1:
213,192,158676,1,0,0:0:0:1:
298,192,158725,1,0,0:0:0:1:
384,192,158774,1,0,0:0:0:1:
128,192,158823,1,0,0:0:0:1:
469,192,158823,1,0,0:0:0:1:
42,192,158823,1,0,0:0:0:1:
384,192,158872,1,0,0:0:0:1:
298,192,158921,1,0,0:0:0:1:
213,192,158970,1,0,0:0:0:1:
128,192,159019,1,0,0:0:0:1:
469,192,159019,1,0,0:0:0:1:
384,192,159068,1,0,0:0:0:1:
298,192,159117,1,0,0:0:0:1:
213,192,159166,1,0,0:0:0:1:
384,192,159215,1,0,0:0:0:1:
469,192,159215,1,0,0:0:0:1:
42,192,159215,1,0,0:0:0:1:
128,192,159264,1,0,0:0:0:1:
213,192,159313,1,0,0:0:0:1:
298,192,159362,1,0,0:0:0:1:
128,192,159411,1,0,0:0:0:1:
469,192,159411,1,0,0:0:0:1:
42,192,159411,1,0,0:0:0:1:
384,192,159460,1,0,0:0:0:1:
298,192,159509,1,0,0:0:0:1:
42,192,159558,1,0,0:0:0:1:
128,192,159607,1,0,0:0:0:1:
213,192,159607,1,0,0:0:0:1:
469,192,159607,1,0,0:0:0:1:
384,192,159656,1,0,0:0:0:1:
298,192,159705,1,0,0:0:0:1:
213,192,159754,1,0,0:0:0:1:
128,192,159803,1,0,0:0:0:1:
469,192,159803,1,0,0:0:0:1:
298,192,159852,1,0,0:0:0:1:
384,192,159901,1,0,0:0:0:1:
469,192,159950,1,0,0:0:0:1:
128,192,160000,1,0,0:0:0:1:
213,192,160000,1,0,0:0:0:1:
42,192,160000,1,0,0:0:0:1:
298,192,160049,1,0,0:0:0:1:
384,192,160098,1,0,0:0:0:1:
469,192,160147,1,0,0:0:0:1:
128,192,160196,1,0,0:0:0:1:
213,192,160196,1,0,0:0:0:1:
298,192,160245,1,0,0:0:0:1:
384,192,160294,1,0,0:0:0:1:
469,192,160343,1,0,0:0:0:1:
213,192,160392,1,0,0:0:0:1:
298,192,160392,1,0,0:0:0:1:
128,192,160441,1,0,0:0:0:1:
42,192,160490,1,0,0:0:0:1:
469,192,160539,1,0,0:0:0:1:
298,192,160588,1,0,0:0:0:1:
384,192,160588,1,0,0:0:0:1:
213,192,160637,1,0,0:0:0:1:
128,192,160686,1,0,0:0:0:1:
42,192,160735,1,0,0:0:0:1:
128,192,160784,1,0,0:0:0:1:
213,192,160784,1,0,0:0:0:1:
298,192,160833,1,0,0:0:0:1:
384,192,160882,1,0,0:0:0:1:
469,192,160931,1,0,0:0:0:1:
128,192,160980,1,0,0:0:0:1:
42,192,160980,1,0,0:0:0:1:
213,192,161029,1,0,0:0:0:1:
298,192,161078,1,0,0:0:0:1:
384,192,161127,1,0,0:0:0:1:
128,192,161176,1,0,0:0:0:1:
469,192,161176,1,0,0:0:0:1:
42,192,161176,1,0,0:0:0:1:
384,192,161225,1,0,0:0:0:1:
298,192,161274,1,0,0:0:0:1:
213,192,161323,1,0,0:0:0:1:
128,192,161372,1,0,0:0:0:1:
384,192,161372,1,0,0:0:0:1:
469,192,161372,1,0,0:0:0:1:
298,192,161421,1,0,0:0:0:1:
213,192,161470,1,0,0:0:0:1:
128,192,161519,1,0,0:0:0:1:
384,192,161568,1,0,0:0:0:1:
469,192,161568,1,0,0:0:0:1:
42,192,161568,1,0,0:0:0:1:
298,192,161617,1,0,0:0:0:1:
213,192,161666,1,0,0:0:0:1:
128,192,161715,1,0,0:0:0:1:
384,192,161764,1,0,0:0:0:1:
42,192,161764,1,0,0:0:0:1:
298,192,161813,1,0,0:0:0:1:
213,192,161862,1,0,0:0:0:1:
128,192,161911,1,0,0:0:0:1:
384,192,161960,1,0,0:0:0:1:
469,192,161960,1,0,0:0:0:1:
42,192,161960,1,0,0:0:0:1:
128,192,162009,1,0,0:0:0:1:
213,192,162058,1,0,0:0:0:1:
298,192,162107,1,0,0:0:0:1:
384,192,162156,1,0,0:0:0:1:
42,192,162156,1,0,0:0:0:1:
128,192,162205,1,0,0:0:0:1:
213,192,162254,1,0,0:0:0:1:
298,192,162303,1,0,0:0:0:1:
128,192,162352,1,0,0:0:0:1:
469,192,162352,1,0,0:0:0:1:
42,192,162352,1,0,0:0:0:1:
384,192,162401,1,0,0:0:0:1:
298,192,162450,1,0,0:0:0:1:
213,192,162500,1,0,0:0:0:1:
384,192,162549,1,0,0:0:0:1:
469,192,162549,1,0,0:0:0:1:
42,192,162549,1,0,0:0:0:1:
128,192,162598,1,0,0:0:0:1:
213,192,162647,1,0,0:0:0:1:
469,192,162696,1,0,0:0:0:1:
298,192,162745,1,0,0:0:0:1:
384,192,162745,1,0,0:0:0:1:
42,192,162745,1,0,0:0:0:1:
128,192,162794,1,0,0:0:0:1:
213,192,162843,1,0,0:0:0:1:
298,192,162892,1,0,0:0:0:1:
384,192,162941,1,0,0:0:0:1:
42,192,162941,1,0,0:0:0:1:
213,192,162990,1,0,0:0:0:1:
128,192,163039,1,0,0:0:0:1:
42,192,163088,1,0,0:0:0:1:
298,192,163137,1,0,0:0:0:1:
384,192,163137,1,0,0:0:0:1:
469,192,163137,1,0,0:0:0:1:
213,192,163186,1,0,0:0:0:1:
128,192,163235,1,0,0:0:0:1:
42,192,163284,1,0,0:0:0:1:
298,192,163333,1,0,0:0:0:1:
384,192,163333,1,0,0:0:0:1:
213,192,163382,1,0,0:0:0:1:
128,192,163431,1,0,0:0:0:1:
42,192,163480,1,0,0:0:0:1:
213,192,163529,1,0,0:0:0:1:
298,192,163529,1,0,0:0:0:1:
384,192,163578,1,0,0:0:0:1:
469,192,163627,1,0,0:0:0:1:
42,192,163676,1,0,0:0:0:1:
128,192,163725,1,0,0:0:0:1:
213,192,163725,1,0,0:0:0:1:
298,192,163774,1,0,0:0:0:1:
384,192,163823,1,0,0:0:0:1:
469,192,163872,1,0,0:0:0:1:
298,192,163921,1,0,0:0:0:1:
384,192,163921,1,0,0:0:0:1:
213,192,163970,1,0,0:0:0:1:
128,192,164019,1,0,0:0:0:1:
42,192,164068,1,0,0:0:0:1:
384,192,164117,1,0,0:0:0:1:
469,192,164117,1,0,0:0:0:1:
298,192,164166,1,0,0:0:0:1:
213,192,164215,1,0,0:0:0:1:
128,192,164264,1,0,0:0:0:1:
384,192,164313,1,0,0:0:0:1:
469,192,164313,1,0,0:0:0:1:
42,192,164313,1,0,0:0:0:1:
128,192,164362,1,0,0:0:0:1:
213,192,164411,1,0,0:0:0:1:
298,192,164460,1,0,0:0:0:1:
384,192,164509,1,0,0:0:0:1:
469,192,164509,1,0,0:0:0:1:
42,192,164509,1,0,0:0:0:1:
128,192,164558,1,0,0:0:0:1:
213,192,164607,1,0,0:0:0:1:
298,192,164656,1,0,0:0:0:1:
128,192,164705,1,0,0:0:0:1:
384,192,164705,1,0,0:0:0:1:
469,192,164705,1,0,0:0:0:1:
298,192,164803,1,0,0:0:0:1:
42,192,164803,1,0,0:0:0:1:
213,192,164901,1,0,0:0:0:1:
384,192,164901,1,0,0:0:0:1:
128,192,165000,1,0,0:0:0:1:
469,192,165000,1,0,0:0:0:1:
213,192,165098,1,0,0:0:0:1:
298,192,165098,1,0,0:0:0:1:
42,192,165098,1,0,0:0:0:1:
128,192,165196,1,0,0:0:0:1:
384,192,165196,1,0,0:0:0:1:
213,192,165294,1,0,0:0:0:1:
469,192,165294,1,0,0:0:0:1:
128,192,165392,1,0,0:0:0:1:
298,192,165392,1,0,0:0:0:1:
384,192,165490,1,0,0:0:0:1:
469,192,165490,1,0,0:0:0:1:
42,192,165490,1,0,0:0:0:1:
213,192,165588,1,0,0:0:0:1:
298,192,165588,1,0,0:0:0:1:
128,192,165686,1,0,0:0:0:1:
469,192,165686,1,0,0:0:0:1:
384,192,165784,1,0,0:0:0:1:
42,192,165784,1,0,0:0:0:1:
213,192,165882,1,0,0:0:0:1:
298,192,165882,1,0,0:0:0:1:
469,192,165882,1,0,0:0:0:1:
128,192,165980,1,0,0:0:0:1:
384,192,165980,1,0,0:0:0:1:
298,192,166078,1,0,0:0:0:1:
42,192,166078,1,0,0:0:0:1:
213,192,166176,1,0,0:0:0:1:
384,192,166176,1,0,0:0:0:1:
128,192,166274,1,0,0:0:0:1:
298,192,166274,1,0,0:0:0:1:
42,192,166274,1,0,0:0:0:1:
384,192,166372,1,0,0:0:0:1:
469,192,166372,1,0,0:0:0:1:
213,192,166470,1,0,0:0:0:1:
42,192,166470,1,0,0:0:0:1:
298,192,166568,1,0,0:0:0:1:
469,192,166568,1,0,0:0:0:1:
128,192,166666,1,0,0:0:0:1:
384,192,166666,1,0,0:0:0:1:
42,192,166666,1,0,0:0:0:1:
213,192,166764,1,0,0:0:0:1:
469,192,166764,1,0,0:0:0:1:
298,192,166862,1,0,0:0:0:1:
42,192,166862,1,0,0:0:0:1:
128,192,166960,1,0,0:0:0:1:
384,192,166960,1,0,0:0:0:1:
213,192,167058,1,0,0:0:0:1:
298,192,167058,1,0,0:0:0:1:
469,192,167058,1,0,0:0:0:1:
128,192,167156,1,0,0:0:0:1:
384,192,167156,1,0,0:0:0:1:
298,192,167254,1,0,0:0:0:1:
42,192,167254,1,0,0:0:0:1:
213,192,167352,1,0,0:0:0:1:
469,192,167352,1,0,0:0:0:1:
128,192,167450,1,0,0:0:0:1:
298,192,167450,1,0,0:0:0:1:
384,192,167450,1,0,0:0:0:1:
469,192,167549,1,0,0:0:0:1:
42,192,167549,1,0,0:0:0:1:
128,192,167647,1,0,0:0:0:1:
384,192,167647,1,0,0:0:0:1:
213,192,167745,1,0,0:0:0:1:
298,192,167745,1,0,0:0:0:1:
128,192,167843,1,0,0:0:0:1:
384,192,167843,1,0,0:0:0:1:
42,192,167843,1,0,0:0:0:1:
213,192,167941,1,0,0:0:0:1:
469,192,167941,1,0,0:0:0:1:
128,192,168039,1,0,0:0:0:1:
298,192,168039,1,0,0:0:0:1:
384,192,168137,1,0,0:0:0:1:
42,192,168137,1,0,0:0:0:1:
213,192,168235,1,0,0:0:0:1:
298,192,168235,1,0,0:0:0:1:
469,192,168235,1,0,0:0:0:1:
128,192,168333,1,0,0:0:0:1:
384,192,168333,1,0,0:0:0:1:
298,192,168431,1,0,0:0:0:1:
42,192,168431,1,0,0:0:0:1:
213,192,168529,1,0,0:0:0:1:
384,192,168529,1,0,0:0:0:1:
128,192,168627,1,0,0:0:0:1:
469,192,168627,1,0,0:0:0:1:
42,192,168627,1,0,0:0:0:1:
213,192,168725,1,0,0:0:0:1:
298,192,168725,1,0,0:0:0:1:
128,192,168823,1,0,0:0:0:1:
384,192,168823,1,0,0:0:0:1:
213,192,168921,1,0,0:0:0:1:
469,192,168921,1,0,0:0:0:1:
298,192,169019,1,0,0:0:0:1:
384,192,169019,1,0,0:0:0:1:
42,192,169019,1,0,0:0:0:1:
213,192,169117,1,0,0:0:0:1:
469,192,169117,1,0,0:0:0:1:
128,192,169215,1,0,0:0:0:1:
384,192,169215,1,0,0:0:0:1:
298,192,169313,1,0,0:0:0:1:
469,192,169313,1,0,0:0:0:1:
128,192,169411,1,0,0:0:0:1:
213,192,169411,1,0,0:0:0:1:
42,192,169411,1,0,0:0:0:1:
298,192,169509,1,0,0:0:0:1:
469,192,169509,1,0,0:0:0:1:
213,192,169607,1,0,0:0:0:1:
42,192,169607,1,0,0:0:0:1:
298,192,169705,1,0,0:0:0:1:
384,192,169705,1,0,0:0:0:1:
128,192,169803,1,0,0:0:0:1:
213,192,169803,1,0,0:0:0:1:
469,192,169803,1,0,0:0:0:1:
298,192,169901,1,0,0:0:0:1:
42,192,169901,1,0,0:0:0:1:
128,192,170000,1,0,0:0:0:1:
384,192,170000,1,0,0:0:0:1:
213,192,170098,1,0,0:0:0:1:
469,192,170098,1,0,0:0:0:1:
128,192,170196,1,0,0:0:0:1:
298,192,170196,1,0,0:0:0:1:
384,192,170196,1,0,0:0:0:1:
469,192,170294,1,0,0:0:0:1:
42,192,170294,1,0,0:0:0:1:
128,192,170392,1,0,0:0:0:1:
384,192,170392,1,0,0:0:0:1:
213,192,170490,1,0,0:0:0:1:
298,192,170490,1,0,0:0:0:1:
128,192,170588,1,0,0:0:0:1:
469,192,170588,1,0,0:0:0:1:
42,192,170588,1,0,0:0:0:1:
213,192,170686,1,0,0:0:0:1:
298,192,170686,1,0,0:0:0:1:
128,192,170784,1,0,0:0:0:1:
384,192,170784,1,0,0:0:0:1:
42,192,170784,1,0,0:0:0:1:
213,192,170882,1,0,0:0:0:1:
469,192,170882,1,0,0:0:0:1:
128,192,170980,1,0,0:0:0:1:
298,192,170980,1,0,0:0:0:1:
384,192,170980,1,0,0:0:0:1:
42,192,170980,1,0,0:0:0:1:
213,192,171078,1,0,0:0:0:1:
469,192,171078,1,0,0:0:0:1:
128,192,171176,1,0,0:0:0:1:
298,192,171176,1,0,0:0:0:1:
384,192,171274,1,0,0:0:0:1:
42,192,171274,1,0,0:0:0:1:
213,192,171372,1,0,0:0:0:1:
298,192,171372,1,0,0:0:0:1:
469,192,171372,1,0,0:0:0:1:
128,192,171470,1,0,0:0:0:1:
384,192,171470,1,0,0:0:0:1:
298,192,171568,1,0,0:0:0:1:
42,192,171568,1,0,0:0:0:1:
213,192,171666,1,0,0:0:0:1:
384,192,171666,1,0,0:0:0:1:
128,192,171764,1,0,0:0:0:1:
469,192,171764,1,0,0:0:0:1:
42,192,171764,1,0,0:0:0:1:
213,192,171862,1,0,0:0:0:1:
298,192,171862,1,0,0:0:0:1:
384,192,171960,1,0,0:0:0:1:
42,192,171960,1,0,0:0:0:1:
128,192,172058,1,0,0:0:0:1:
469,192,172058,1,0,0:0:0:1:
213,192,172156,1,0,0:0:0:1:
298,192,172156,1,0,0:0:0:1:
42,192,172156,1,0,0:0:0:1:
128,192,172254,1,0,0:0:0:1:
384,192,172254,1,0,0:0:0:1:
213,192,172352,1,0,0:0:0:1:
469,192,172352,1,0,0:0:0:1:
128,192,172450,1,0,0:0:0:1:
298,192,172450,1,0,0:0:0:1:
213,192,172549,1,0,0:0:0:1:
384,192,172549,1,0,0:0:0:1:
469,192,172549,1,0,0:0:0:1:
128,192,172647,1,0,0:0:0:1:
42,192,172647,1,0,0:0:0:1:
298,192,172745,1,0,0:0:0:1:
469,192,172745,1,0,0:0:0:1:
213,192,172843,1,0,0:0:0:1:
42,192,172843,1,0,0:0:0:1:
128,192,172941,1,0,0:0:0:1:
384,192,172941,1,0,0:0:0:1:
469,192,172941,1,0,0:0:0:1:
298,192,173039,1,0,0:0:0:1:
42,192,173039,1,0,0:0:0:1:
213,192,173137,1,0,0:0:0:1:
469,192,173137,1,0,0:0:0:1:
128,192,173235,1,0,0:0:0:1:
384,192,173235,1,0,0:0:0:1:
213,192,173333,1,0,0:0:0:1:
298,192,173333,1,0,0:0:0:1:
42,192,173333,1,0,0:0:0:1:
128,192,173431,1,0,0:0:0:1:
384,192,173431,1,0,0:0:0:1:
213,192,173529,1,0,0:0:0:1:
469,192,173529,1,0,0:0:0:1:
298,192,173627,1,0,0:0:0:1:
42,192,173627,1,0,0:0:0:1:
128,192,173725,1,0,0:0:0:1:
213,192,173725,1,0,0:0:0:1:
384,192,173725,1,0,0:0:0:1:
469,192,173823,1,0,0:0:0:1:
42,192,173823,1,0,0:0:0:1:
128,192,173921,1,0,0:0:0:1:
384,192,173921,1,0,0:0:0:1:
213,192,174019,1,0,0:0:0:1:
298,192,174019,1,0,0:0:0:1:
128,192,174117,1,0,0:0:0:1:
384,192,174117,1,0,0:0:0:1:
469,192,174117,1,0,0:0:0:1:
42,192,174117,1,0,0:0:0:1:
213,192,174215,1,0,0:0:0:1:
298,192,174215,1,0,0:0:0:1:
128,192,174313,1,0,0:0:0:1:
384,192,174313,1,0,0:0:0:1:
298,192,174411,1,0,0:0:0:1:
469,192,174411,1,0,0:0:0:1:
213,192,174509,1,0,0:0:0:1:
384,192,174509,1,0,0:0:0:1:
42,192,174509,1,0,0:0:0:1:
128,192,174607,1,0,0:0:0:1:
298,192,174607,1,0,0:0:0:1:
213,192,174705,1,0,0:0:0:1:
469,192,174705,1,0,0:0:0:1:
128,192,174803,1,0,0:0:0:1:
298,192,174803,1,0,0:0:0:1:
384,192,174901,1,0,0:0:0:1:
469,192,174901,1,0,0:0:0:1:
42,192,174901,1,0,0:0:0:1:
213,192,175000,1,0,0:0:0:1:
298,192,175000,1,0,0:0:0:1:
128,192,175098,1,0,0:0:0:1:
384,192,175098,1,0,0:0:0:1:
298,192,175196,1,0,0:0:0:1:
42,192,175196,1,0,0:0:0:1:
128,192,175294,1,0,0:0:0:1:
213,192,175294,1,0,0:0:0:1:
469,192,175294,1,0,0:0:0:1:
298,192,175392,1,0,0:0:0:1:
42,192,175392,1,0,0:0:0:1:
128,192,175490,1,0,0:0:0:1:
384,192,175490,1,0,0:0:0:1:
213,192,175588,1,0,0:0:0:1:
42,192,175588,1,0,0:0:0:1:
298,192,175686,1,0,0:0:0:1:
384,192,175686,1,0,0:0:0:1:
469,192,175686,1,0,0:0:0:1:
213,192,175735,1,0,0:0:0:1:
128,192,175784,1,0,0:0:0:1:
42,192,175833,1,0,0:0:0:1:
384,192,175882,1,0,0:0:0:1:
469,192,175882,1,0,0:0:0:1:
298,192,175931,1,0,0:0:0:1:
213,192,175980,1,0,0:0:0:1:
128,192,176029,1,0,0:0:0:1:
469,192,176078,1,0,0:0:0:1:
42,192,176078,1,0,0:0:0:1:
384,192,176127,1,0,0:0:0:1:
298,192,176176,1,0,0:0:0:1:
128,192,176225,1,0,0:0:0:1:
42,192,176225,1,0,0:0:0:1:
213,192,176274,1,0,0:0:0:1:
469,192,176323,1,0,0:0:0:1:
384,192,176372,1,0,0:0:0:1:
298,192,176421,1,0,0:0:0:1:
128,192,176470,1,0,0:0:0:1:
213,192,176470,1,0,0:0:0:1:
42,192,176470,1,0,0:0:0:1:
469,192,176519,1,0,0:0:0:1:
384,192,176568,1,0,0:0:0:1:
298,192,176617,1,0,0:0:0:1:
128,192,176666,1,0,0:0:0:1:
42,192,176666,1,0,0:0:0:1:
213,192,176715,1,0,0:0:0:1:
469,192,176764,1,0,0:0:0:1:
384,192,176813,1,0,0:0:0:1:
128,192,176862,1,0,0:0:0:1:
42,192,176862,1,0,0:0:0:1:
213,192,176887,1,0,0:0:0:1:
298,192,176911,1,0,0:0:0:1:
384,192,176936,1,0,0:0:0:1:
469,192,176960,1,0,0:0:0:1:
42,192,176985,1,0,0:0:0:1:
128,192,177009,1,0,0:0:0:1:
213,192,177034,1,0,0:0:0:1:
298,192,177058,1,0,0:0:0:1:
384,192,177083,1,0,0:0:0:1:
469,192,177083,1,0,0:0:0:1:
42,192,177107,1,0,0:0:0:1:
128,192,177132,1,0,0:0:0:1:
213,192,177156,128,0,180441:0:0:0:1:
