osu file format v14

[General]
AudioFilename: Wind God Girl.mp3
AudioLeadIn: 0
PreviewTime: -1
Countdown: 1
SampleSet: None
StackLeniency: 0.7
Mode: 3
LetterboxInBreaks: 1
SpecialStyle: 1
WidescreenStoryboard: 1

[Editor]
DistanceSpacing: 1.3
BeatDivisor: 4
GridSize: 8
TimelineZoom: 1

[Metadata]
Title:Derrick 6K Exercise Pack
TitleUnicode:Derrick 6K Exercise Pack
Artist:Various Artists
ArtistUnicode:Various Artists
Creator:[Crz]Derrick
Version:(Marathon)Demetori - Wind God Girl [16]
Source:
Tags:
BeatmapID:998928
BeatmapSetID:466803

[Difficulty]
HPDrainRate:8
CircleSize:6
OverallDifficulty:9
ApproachRate:5
SliderMultiplier:1.4
SliderTickRate:1

[Events]
//Background and Video events
0,0,"42888153_p0.jpg",0,0
//Break Periods
//Storyboard Layer 0 (Background)
//Storyboard Layer 1 (Fail)
//Storyboard Layer 2 (Pass)
//Storyboard Layer 3 (Foreground)
//Storyboard Sound Samples

[TimingPoints]
0,300,4,2,0,70,1,0

[HitObjects]
42,192,1125,5,0,0:0:0:1:
128,192,1162,1,0,0:0:0:1:
213,192,1200,1,0,0:0:0:1:
384,192,1200,1,0,0:0:0:1:
469,192,1200,1,0,0:0:0:1:
298,192,1350,1,0,0:0:0:1:
128,192,1500,1,0,0:0:0:1:
384,192,1650,1,0,0:0:0:1:
42,192,1800,1,0,0:0:0:1:
469,192,1950,1,0,0:0:0:1:
213,192,2100,1,0,0:0:0:1:
298,192,2250,1,0,0:0:0:1:
384,192,2400,1,0,0:0:0:1:
469,192,2550,1,0,0:0:0:1:
128,192,2700,1,0,0:0:0:1:
384,192,2850,1,0,0:0:0:1:
42,192,3000,1,0,0:0:0:1:
213,192,3150,1,0,0:0:0:1:
384,192,3300,1,0,0:0:0:1:
128,192,3450,1,0,0:0:0:1:
298,192,3450,1,0,0:0:0:1:
128,192,3600,1,0,0:0:0:1:
298,192,3600,1,0,0:0:0:1:
469,192,3600,1,0,0:0:0:1:
213,192,3750,1,0,0:0:0:1:
384,192,3900,1,0,0:0:0:1:
298,192,4050,1,0,0:0:0:1:
128,192,4200,1,0,0:0:0:1:
42,192,4350,1,0,0:0:0:1:
384,192,4500,1,0,0:0:0:1:
213,192,4650,1,0,0:0:0:1:
298,192,4800,1,0,0:0:0:1:
469,192,4950,1,0,0:0:0:1:
128,192,5100,1,0,0:0:0:1:
298,192,5250,1,0,0:0:0:1:
42,192,5400,1,0,0:0:0:1:
298,192,5550,1,0,0:0:0:1:
213,192,5700,1,0,0:0:0:1:
469,192,5850,1,0,0:0:0:1:
384,192,5962,1,0,0:0:0:1:
128,192,6000,1,0,0:0:0:1:
298,192,6000,1,0,0:0:0:1:
42,192,6000,1,0,0:0:0:1:
213,192,6150,1,0,0:0:0:1:
469,192,6300,1,0,0:0:0:1:
298,192,6450,1,0,0:0:0:1:
213,192,6600,1,0,0:0:0:1:
384,192,6750,1,0,0:0:0:1:
128,192,6900,1,0,0:0:0:1:
298,192,7050,1,0,0:0:0:1:
42,192,7200,1,0,0:0:0:1:
298,192,7350,1,0,0:0:0:1:
213,192,7500,1,0,0:0:0:1:
384,192,7650,1,0,0:0:0:1:
469,192,7800,1,0,0:0:0:1:
298,192,7950,1,0,0:0:0:1:
128,192,8100,1,0,0:0:0:1:
213,192,8250,1,0,0:0:0:1:
384,192,8250,1,0,0:0:0:1:
213,192,8400,1,0,0:0:0:1:
384,192,8400,1,0,0:0:0:1:
469,192,8400,1,0,0:0:0:1:
298,192,8550,1,0,0:0:0:1:
128,192,8700,1,0,0:0:0:1:
213,192,8850,1,0,0:0:0:1:
384,192,9000,1,0,0:0:0:1:
42,192,9150,1,0,0:0:0:1:
298,192,9300,1,0,0:0:0:1:
469,192,9450,1,0,0:0:0:1:
128,192,9600,1,0,0:0:0:1:
384,192,9600,1,0,0:0:0:1:
298,192,9675,1,0,0:0:0:1:
213,192,9750,1,0,0:0:0:1:
298,192,9825,1,0,0:0:0:1:
384,192,9900,1,0,0:0:0:1:
298,192,9975,1,0,0:0:0:1:
213,192,10050,1,0,0:0:0:1:
469,192,10050,1,0,0:0:0:1:
128,192,10125,1,0,0:0:0:1:
298,192,10125,1,0,0:0:0:1:
384,192,10200,1,0,0:0:0:1:
42,192,10200,1,0,0:0:0:1:
128,192,10275,1,0,0:0:0:1:
213,192,10350,1,0,0:0:0:1:
298,192,10425,1,0,0:0:0:1:
128,192,10500,1,0,0:0:0:1:
384,192,10500,1,0,0:0:0:1:
298,192,10575,1,0,0:0:0:1:
42,192,10575,1,0,0:0:0:1:
213,192,10650,1,0,0:0:0:1:
469,192,10650,1,0,0:0:0:1:
128,192,10725,1,0,0:0:0:1:
298,192,10725,1,0,0:0:0:1:
384,192,10800,1,0,0:0:0:1:
42,192,10800,1,0,0:0:0:1:
298,192,10875,1,0,0:0:0:1:
128,192,10950,1,0,0:0:0:1:
213,192,10950,1,0,0:0:0:1:
469,192,10950,1,0,0:0:0:1:
42,192,11025,1,0,0:0:0:1:
213,192,11100,1,0,0:0:0:1:
384,192,11100,1,0,0:0:0:1:
298,192,11175,1,0,0:0:0:1:
128,192,11250,1,0,0:0:0:1:
469,192,11250,1,0,0:0:0:1:
42,192,11250,1,0,0:0:0:1:
298,192,11325,1,0,0:0:0:1:
213,192,11400,1,0,0:0:0:1:
384,192,11400,1,0,0:0:0:1:
128,192,11475,1,0,0:0:0:1:
298,192,11550,1,0,0:0:0:1:
469,192,11550,1,0,0:0:0:1:
42,192,11550,1,0,0:0:0:1:
128,192,11625,1,0,0:0:0:1:
213,192,11700,1,0,0:0:0:1:
298,192,11700,1,0,0:0:0:1:
384,192,11775,1,0,0:0:0:1:
128,192,11850,1,0,0:0:0:1:
213,192,11850,1,0,0:0:0:1:
469,192,11850,1,0,0:0:0:1:
298,192,11925,1,0,0:0:0:1:
384,192,12000,1,0,0:0:0:1:
42,192,12000,1,0,0:0:0:1:
213,192,12075,1,0,0:0:0:1:
128,192,12150,1,0,0:0:0:1:
298,192,12150,1,0,0:0:0:1:
469,192,12150,1,0,0:0:0:1:
42,192,12225,1,0,0:0:0:1:
128,192,12300,1,0,0:0:0:1:
213,192,12300,1,0,0:0:0:1:
298,192,12375,1,0,0:0:0:1:
384,192,12450,1,0,0:0:0:1:
469,192,12450,1,0,0:0:0:1:
42,192,12450,1,0,0:0:0:1:
213,192,12525,1,0,0:0:0:1:
128,192,12600,1,0,0:0:0:1:
298,192,12600,1,0,0:0:0:1:
384,192,12675,1,0,0:0:0:1:
213,192,12750,1,0,0:0:0:1:
469,192,12750,1,0,0:0:0:1:
42,192,12750,1,0,0:0:0:1:
298,192,12825,1,0,0:0:0:1:
128,192,12900,1,0,0:0:0:1:
469,192,12900,1,0,0:0:0:1:
298,192,12975,1,0,0:0:0:1:
128,192,13050,1,0,0:0:0:1:
213,192,13050,1,0,0:0:0:1:
384,192,13050,1,0,0:0:0:1:
42,192,13125,1,0,0:0:0:1:
298,192,13200,1,0,0:0:0:1:
469,192,13200,1,0,0:0:0:1:
213,192,13275,1,0,0:0:0:1:
128,192,13350,1,0,0:0:0:1:
298,192,13350,1,0,0:0:0:1:
384,192,13350,1,0,0:0:0:1:
42,192,13425,1,0,0:0:0:1:
213,192,13500,1,0,0:0:0:1:
469,192,13500,1,0,0:0:0:1:
298,192,13575,1,0,0:0:0:1:
128,192,13650,1,0,0:0:0:1:
384,192,13650,1,0,0:0:0:1:
42,192,13650,1,0,0:0:0:1:
213,192,13725,1,0,0:0:0:1:
384,192,13800,1,0,0:0:0:1:
42,192,13800,1,0,0:0:0:1:
298,192,13875,1,0,0:0:0:1:
128,192,13950,1,0,0:0:0:1:
213,192,13950,1,0,0:0:0:1:
469,192,13950,1,0,0:0:0:1:
298,192,14025,1,0,0:0:0:1:
384,192,14100,1,0,0:0:0:1:
42,192,14100,1,0,0:0:0:1:
213,192,14175,1,0,0:0:0:1:
128,192,14250,1,0,0:0:0:1:
298,192,14250,1,0,0:0:0:1:
469,192,14250,1,0,0:0:0:1:
42,192,14325,1,0,0:0:0:1:
213,192,14400,1,0,0:0:0:1:
384,192,14400,1,0,0:0:0:1:
128,192,14475,1,0,0:0:0:1:
213,192,14550,1,0,0:0:0:1:
298,192,14550,1,0,0:0:0:1:
469,192,14550,1,0,0:0:0:1:
42,192,14625,1,0,0:0:0:1:
128,192,14700,1,0,0:0:0:1:
384,192,14700,1,0,0:0:0:1:
298,192,14775,1,0,0:0:0:1:
213,192,14850,1,0,0:0:0:1:
469,192,14850,1,0,0:0:0:1:
42,192,14850,1,0,0:0:0:1:
384,192,14925,1,0,0:0:0:1:
128,192,15000,1,0,0:0:0:1:
298,192,15000,1,0,0:0:0:1:
213,192,15075,1,0,0:0:0:1:
384,192,15150,1,0,0:0:0:1:
469,192,15150,1,0,0:0:0:1:
42,192,15150,1,0,0:0:0:1:
298,192,15225,1,0,0:0:0:1:
213,192,15300,1,0,0:0:0:1:
469,192,15300,1,0,0:0:0:1:
128,192,15375,1,0,0:0:0:1:
298,192,15450,1,0,0:0:0:1:
384,192,15450,1,0,0:0:0:1:
42,192,15450,1,0,0:0:0:1:
469,192,15525,1,0,0:0:0:1:
128,192,15600,1,0,0:0:0:1:
298,192,15600,1,0,0:0:0:1:
213,192,15675,1,0,0:0:0:1:
384,192,15750,1,0,0:0:0:1:
469,192,15750,1,0,0:0:0:1:
42,192,15750,1,0,0:0:0:1:
213,192,15825,1,0,0:0:0:1:
128,192,15900,1,0,0:0:0:1:
384,192,15900,1,0,0:0:0:1:
298,192,15975,1,0,0:0:0:1:
213,192,16050,1,0,0:0:0:1:
469,192,16050,1,0,0:0:0:1:
42,192,16050,1,0,0:0:0:1:
384,192,16125,1,0,0:0:0:1:
128,192,16200,1,0,0:0:0:1:
298,192,16200,1,0,0:0:0:1:
469,192,16275,1,0,0:0:0:1:
213,192,16350,1,0,0:0:0:1:
384,192,16350,1,0,0:0:0:1:
42,192,16350,1,0,0:0:0:1:
298,192,16425,1,0,0:0:0:1:
128,192,16500,1,0,0:0:0:1:
469,192,16500,1,0,0:0:0:1:
213,192,16575,1,0,0:0:0:1:
298,192,16650,1,0,0:0:0:1:
384,192,16650,1,0,0:0:0:1:
42,192,16650,1,0,0:0:0:1:
469,192,16725,1,0,0:0:0:1:
213,192,16800,1,0,0:0:0:1:
384,192,16800,1,0,0:0:0:1:
128,192,16875,1,0,0:0:0:1:
298,192,16950,1,0,0:0:0:1:
384,192,16950,1,0,0:0:0:1:
42,192,16950,1,0,0:0:0:1:
213,192,17025,1,0,0:0:0:1:
128,192,17100,1,0,0:0:0:1:
469,192,17100,1,0,0:0:0:1:
298,192,17175,1,0,0:0:0:1:
213,192,17250,1,0,0:0:0:1:
384,192,17250,1,0,0:0:0:1:
42,192,17250,1,0,0:0:0:1:
298,192,17325,1,0,0:0:0:1:
128,192,17400,1,0,0:0:0:1:
469,192,17400,1,0,0:0:0:1:
213,192,17475,1,0,0:0:0:1:
298,192,17550,1,0,0:0:0:1:
384,192,17550,1,0,0:0:0:1:
42,192,17550,1,0,0:0:0:1:
469,192,17625,1,0,0:0:0:1:
128,192,17700,1,0,0:0:0:1:
213,192,17700,1,0,0:0:0:1:
298,192,17775,1,0,0:0:0:1:
128,192,17850,1,0,0:0:0:1:
384,192,17850,1,0,0:0:0:1:
42,192,17850,1,0,0:0:0:1:
298,192,17925,1,0,0:0:0:1:
213,192,18000,1,0,0:0:0:1:
469,192,18000,1,0,0:0:0:1:
128,192,18075,1,0,0:0:0:1:
384,192,18075,1,0,0:0:0:1:
298,192,18150,1,0,0:0:0:1:
42,192,18150,1,0,0:0:0:1:
213,192,18225,1,0,0:0:0:1:
384,192,18225,1,0,0:0:0:1:
128,192,18300,1,0,0:0:0:1:
469,192,18300,1,0,0:0:0:1:
213,192,18375,1,0,0:0:0:1:
298,192,18375,1,0,0:0:0:1:
384,192,18450,1,0,0:0:0:1:
42,192,18450,1,0,0:0:0:1:
128,192,18525,1,0,0:0:0:1:
469,192,18525,1,0,0:0:0:1:
213,192,18600,1,0,0:0:0:1:
298,192,18600,1,0,0:0:0:1:
384,192,18675,1,0,0:0:0:1:
384,192,18750,1,0,0:0:0:1:
298,192,18825,1,0,0:0:0:1:
42,192,18825,1,0,0:0:0:1:
213,192,18900,1,0,0:0:0:1:
128,192,18975,1,0,0:0:0:1:
469,192,18975,1,0,0:0:0:1:
42,192,19050,1,0,0:0:0:1:
128,192,19125,1,0,0:0:0:1:
213,192,19200,1,0,0:0:0:1:
384,192,19200,1,0,0:0:0:1:
213,192,19275,1,0,0:0:0:1:
384,192,19275,1,0,0:0:0:1:
298,192,19350,1,0,0:0:0:1:
384,192,19425,1,0,0:0:0:1:
469,192,19500,1,0,0:0:0:1:
42,192,19500,1,0,0:0:0:1:
384,192,19575,1,0,0:0:0:1:
42,192,19575,1,0,0:0:0:1:
298,192,19650,1,0,0:0:0:1:
213,192,19725,1,0,0:0:0:1:
384,192,19800,1,0,0:0:0:1:
298,192,19875,1,0,0:0:0:1:
213,192,19950,1,0,0:0:0:1:
128,192,20025,1,0,0:0:0:1:
384,192,20100,1,0,0:0:0:1:
42,192,20100,1,0,0:0:0:1:
469,192,20100,128,0,20250:0:0:0:1:
213,192,20175,1,0,0:0:0:1:
128,192,20250,1,0,0:0:0:1:
298,192,20250,1,0,0:0:0:1:
42,192,20250,128,0,20400:0:0:0:1:
384,192,20325,1,0,0:0:0:1:
213,192,20400,1,0,0:0:0:1:
469,192,20400,1,0,0:0:0:1:
128,192,20475,1,0,0:0:0:1:
298,192,20550,1,0,0:0:0:1:
384,192,20550,1,0,0:0:0:1:
42,192,20550,1,0,0:0:0:1:
213,192,20625,1,0,0:0:0:1:
128,192,20700,1,0,0:0:0:1:
469,192,20700,1,0,0:0:0:1:
298,192,20775,1,0,0:0:0:1:
384,192,20850,1,0,0:0:0:1:
469,192,20850,1,0,0:0:0:1:
42,192,20850,1,0,0:0:0:1:
213,192,20925,1,0,0:0:0:1:
128,192,21000,1,0,0:0:0:1:
298,192,21000,1,0,0:0:0:1:
384,192,21075,1,0,0:0:0:1:
213,192,21150,1,0,0:0:0:1:
469,192,21150,1,0,0:0:0:1:
42,192,21150,1,0,0:0:0:1:
384,192,21225,1,0,0:0:0:1:
213,192,21300,1,0,0:0:0:1:
298,192,21300,1,0,0:0:0:1:
128,192,21375,1,0,0:0:0:1:
298,192,21450,1,0,0:0:0:1:
384,192,21450,1,0,0:0:0:1:
42,192,21450,1,0,0:0:0:1:
213,192,21525,1,0,0:0:0:1:
128,192,21600,1,0,0:0:0:1:
469,192,21600,1,0,0:0:0:1:
298,192,21675,1,0,0:0:0:1:
213,192,21750,1,0,0:0:0:1:
384,192,21750,1,0,0:0:0:1:
42,192,21750,1,0,0:0:0:1:
469,192,21825,1,0,0:0:0:1:
298,192,21900,1,0,0:0:0:1:
384,192,21900,1,0,0:0:0:1:
213,192,21975,1,0,0:0:0:1:
128,192,22050,1,0,0:0:0:1:
469,192,22050,1,0,0:0:0:1:
42,192,22050,1,0,0:0:0:1:
298,192,22125,1,0,0:0:0:1:
213,192,22200,1,0,0:0:0:1:
384,192,22200,1,0,0:0:0:1:
128,192,22275,1,0,0:0:0:1:
298,192,22350,1,0,0:0:0:1:
469,192,22350,1,0,0:0:0:1:
42,192,22350,1,0,0:0:0:1:
213,192,22425,1,0,0:0:0:1:
384,192,22500,1,0,0:0:0:1:
42,192,22500,1,0,0:0:0:1:
213,192,22575,1,0,0:0:0:1:
128,192,22650,1,0,0:0:0:1:
298,192,22650,1,0,0:0:0:1:
384,192,22650,1,0,0:0:0:1:
469,192,22725,1,0,0:0:0:1:
213,192,22800,1,0,0:0:0:1:
42,192,22800,1,0,0:0:0:1:
298,192,22875,1,0,0:0:0:1:
128,192,22950,1,0,0:0:0:1:
213,192,22950,1,0,0:0:0:1:
384,192,22950,1,0,0:0:0:1:
469,192,23025,1,0,0:0:0:1:
298,192,23100,1,0,0:0:0:1:
42,192,23100,1,0,0:0:0:1:
213,192,23175,1,0,0:0:0:1:
128,192,23250,1,0,0:0:0:1:
384,192,23250,1,0,0:0:0:1:
469,192,23250,1,0,0:0:0:1:
298,192,23325,1,0,0:0:0:1:
128,192,23400,1,0,0:0:0:1:
469,192,23400,1,0,0:0:0:1:
213,192,23475,1,0,0:0:0:1:
298,192,23550,1,0,0:0:0:1:
384,192,23550,1,0,0:0:0:1:
42,192,23550,1,0,0:0:0:1:
213,192,23625,1,0,0:0:0:1:
128,192,23700,1,0,0:0:0:1:
469,192,23700,1,0,0:0:0:1:
298,192,23775,1,0,0:0:0:1:
213,192,23850,1,0,0:0:0:1:
384,192,23850,1,0,0:0:0:1:
42,192,23850,1,0,0:0:0:1:
469,192,23925,1,0,0:0:0:1:
128,192,24000,1,0,0:0:0:1:
298,192,24000,1,0,0:0:0:1:
384,192,24075,1,0,0:0:0:1:
213,192,24150,1,0,0:0:0:1:
298,192,24150,1,0,0:0:0:1:
42,192,24150,1,0,0:0:0:1:
469,192,24225,1,0,0:0:0:1:
128,192,24300,1,0,0:0:0:1:
384,192,24300,1,0,0:0:0:1:
213,192,24375,1,0,0:0:0:1:
298,192,24450,1,0,0:0:0:1:
469,192,24450,1,0,0:0:0:1:
42,192,24450,1,0,0:0:0:1:
128,192,24525,1,0,0:0:0:1:
213,192,24600,1,0,0:0:0:1:
384,192,24600,1,0,0:0:0:1:
298,192,24675,1,0,0:0:0:1:
128,192,24750,1,0,0:0:0:1:
469,192,24750,1,0,0:0:0:1:
42,192,24750,1,0,0:0:0:1:
213,192,24825,1,0,0:0:0:1:
298,192,24900,1,0,0:0:0:1:
42,192,24900,1,0,0:0:0:1:
213,192,24975,1,0,0:0:0:1:
384,192,24975,1,0,0:0:0:1:
128,192,25050,1,0,0:0:0:1:
469,192,25050,1,0,0:0:0:1:
298,192,25125,1,0,0:0:0:1:
42,192,25125,1,0,0:0:0:1:
213,192,25200,1,0,0:0:0:1:
384,192,25200,1,0,0:0:0:1:
298,192,25275,1,0,0:0:0:1:
128,192,25350,1,0,0:0:0:1:
469,192,25350,1,0,0:0:0:1:
42,192,25350,1,0,0:0:0:1:
298,192,25425,1,0,0:0:0:1:
128,192,25500,1,0,0:0:0:1:
384,192,25500,1,0,0:0:0:1:
213,192,25575,1,0,0:0:0:1:
298,192,25650,1,0,0:0:0:1:
469,192,25650,1,0,0:0:0:1:
42,192,25650,1,0,0:0:0:1:
128,192,25725,1,0,0:0:0:1:
213,192,25800,1,0,0:0:0:1:
384,192,25800,1,0,0:0:0:1:
42,192,25875,1,0,0:0:0:1:
128,192,25950,1,0,0:0:0:1:
298,192,25950,1,0,0:0:0:1:
469,192,25950,1,0,0:0:0:1:
213,192,26025,1,0,0:0:0:1:
384,192,26100,1,0,0:0:0:1:
42,192,26100,1,0,0:0:0:1:
298,192,26175,1,0,0:0:0:1:
128,192,26250,1,0,0:0:0:1:
213,192,26250,1,0,0:0:0:1:
469,192,26250,1,0,0:0:0:1:
42,192,26325,1,0,0:0:0:1:
128,192,26400,1,0,0:0:0:1:
298,192,26400,1,0,0:0:0:1:
384,192,26475,1,0,0:0:0:1:
128,192,26550,1,0,0:0:0:1:
213,192,26550,1,0,0:0:0:1:
469,192,26550,1,0,0:0:0:1:
298,192,26625,1,0,0:0:0:1:
384,192,26700,1,0,0:0:0:1:
42,192,26700,1,0,0:0:0:1:
213,192,26775,1,0,0:0:0:1:
128,192,26850,1,0,0:0:0:1:
298,192,26850,1,0,0:0:0:1:
469,192,26850,1,0,0:0:0:1:
213,192,26925,1,0,0:0:0:1:
384,192,27000,1,0,0:0:0:1:
42,192,27000,1,0,0:0:0:1:
298,192,27075,1,0,0:0:0:1:
128,192,27150,1,0,0:0:0:1:
213,192,27150,1,0,0:0:0:1:
469,192,27150,1,0,0:0:0:1:
42,192,27225,1,0,0:0:0:1:
298,192,27300,1,0,0:0:0:1:
384,192,27300,1,0,0:0:0:1:
213,192,27375,1,0,0:0:0:1:
128,192,27450,1,0,0:0:0:1:
384,192,27450,1,0,0:0:0:1:
469,192,27450,1,0,0:0:0:1:
213,192,27525,1,0,0:0:0:1:
298,192,27600,1,0,0:0:0:1:
384,192,27600,1,0,0:0:0:1:
469,192,27600,1,0,0:0:0:1:
42,192,27600,1,0,0:0:0:1:
128,192,27675,1,0,0:0:0:1:
213,192,27750,1,0,0:0:0:1:
298,192,27825,1,0,0:0:0:1:
384,192,27900,1,0,0:0:0:1:
128,192,27975,1,0,0:0:0:1:
213,192,27975,1,0,0:0:0:1:
469,192,27975,1,0,0:0:0:1:
384,192,28050,1,0,0:0:0:1:
298,192,28125,1,0,0:0:0:1:
213,192,28200,1,0,0:0:0:1:
128,192,28275,1,0,0:0:0:1:
42,192,28350,1,0,0:0:0:1:
128,192,28425,1,0,0:0:0:1:
213,192,28500,1,0,0:0:0:1:
298,192,28500,1,0,0:0:0:1:
384,192,28500,1,0,0:0:0:1:
469,192,28575,1,0,0:0:0:1:
384,192,28650,1,0,0:0:0:1:
298,192,28725,1,0,0:0:0:1:
213,192,28800,1,0,0:0:0:1:
128,192,28875,1,0,0:0:0:1:
298,192,28950,1,0,0:0:0:1:
469,192,28950,1,0,0:0:0:1:
42,192,28950,1,0,0:0:0:1:
128,192,29025,1,0,0:0:0:1:
213,192,29100,1,0,0:0:0:1:
298,192,29175,1,0,0:0:0:1:
384,192,29250,1,0,0:0:0:1:
298,192,29325,1,0,0:0:0:1:
128,192,29400,1,0,0:0:0:1:
213,192,29400,1,0,0:0:0:1:
469,192,29400,1,0,0:0:0:1:
42,192,29475,1,0,0:0:0:1:
128,192,29550,1,0,0:0:0:1:
213,192,29625,1,0,0:0:0:1:
298,192,29700,1,0,0:0:0:1:
384,192,29700,1,0,0:0:0:1:
42,192,29700,1,0,0:0:0:1:
128,192,29775,1,0,0:0:0:1:
213,192,29850,1,0,0:0:0:1:
298,192,29925,1,0,0:0:0:1:
384,192,30000,1,0,0:0:0:1:
42,192,30000,1,0,0:0:0:1:
469,192,30000,128,0,30450:0:0:0:1:
213,192,30075,1,0,0:0:0:1:
128,192,30150,1,0,0:0:0:1:
298,192,30150,1,0,0:0:0:1:
42,192,30225,1,0,0:0:0:1:
213,192,30300,1,0,0:0:0:1:
298,192,30375,1,0,0:0:0:1:
128,192,30450,1,0,0:0:0:1:
42,192,30450,1,0,0:0:0:1:
384,192,30450,128,0,30600:0:0:0:1:
213,192,30525,1,0,0:0:0:1:
469,192,30600,1,0,0:0:0:1:
298,192,30600,128,0,31350:0:0:0:1:
128,192,30675,1,0,0:0:0:1:
213,192,30750,1,0,0:0:0:1:
384,192,30750,1,0,0:0:0:1:
42,192,30825,1,0,0:0:0:1:
128,192,30900,1,0,0:0:0:1:
213,192,30975,1,0,0:0:0:1:
384,192,31050,1,0,0:0:0:1:
42,192,31050,1,0,0:0:0:1:
469,192,31125,1,0,0:0:0:1:
128,192,31200,1,0,0:0:0:1:
384,192,31275,1,0,0:0:0:1:
128,192,31350,1,0,0:0:0:1:
469,192,31350,1,0,0:0:0:1:
213,192,31350,128,0,31500:0:0:0:1:
384,192,31425,1,0,0:0:0:1:
298,192,31500,1,0,0:0:0:1:
42,192,31500,128,0,31650:0:0:0:1:
384,192,31575,1,0,0:0:0:1:
128,192,31650,1,0,0:0:0:1:
213,192,31650,1,0,0:0:0:1:
469,192,31650,128,0,31837:0:0:0:1:
298,192,31725,1,0,0:0:0:1:
42,192,31800,1,0,0:0:0:1:
213,192,31800,128,0,31950:0:0:0:1:
384,192,31875,1,0,0:0:0:1:
128,192,31950,1,0,0:0:0:1:
298,192,31950,1,0,0:0:0:1:
42,192,31950,128,0,32100:0:0:0:1:
469,192,32025,1,0,0:0:0:1:
213,192,32100,1,0,0:0:0:1:
384,192,32100,128,0,32250:0:0:0:1:
298,192,32175,1,0,0:0:0:1:
469,192,32250,1,0,0:0:0:1:
42,192,32250,1,0,0:0:0:1:
128,192,32250,128,0,32400:0:0:0:1:
213,192,32325,1,0,0:0:0:1:
384,192,32400,1,0,0:0:0:1:
298,192,32400,128,0,33000:0:0:0:1:
213,192,32475,1,0,0:0:0:1:
469,192,32550,1,0,0:0:0:1:
42,192,32550,1,0,0:0:0:1:
128,192,32625,1,0,0:0:0:1:
213,192,32700,1,0,0:0:0:1:
128,192,32775,1,0,0:0:0:1:
384,192,32850,1,0,0:0:0:1:
469,192,32850,1,0,0:0:0:1:
42,192,32850,128,0,33000:0:0:0:1:
213,192,32925,1,0,0:0:0:1:
128,192,33000,1,0,0:0:0:1:
469,192,33000,128,0,34200:0:0:0:1:
384,192,33075,1,0,0:0:0:1:
213,192,33150,1,0,0:0:0:1:
42,192,33150,1,0,0:0:0:1:
298,192,33225,1,0,0:0:0:1:
128,192,33300,1,0,0:0:0:1:
213,192,33375,1,0,0:0:0:1:
384,192,33450,1,0,0:0:0:1:
42,192,33450,1,0,0:0:0:1:
213,192,33525,1,0,0:0:0:1:
298,192,33600,1,0,0:0:0:1:
128,192,33675,1,0,0:0:0:1:
213,192,33750,1,0,0:0:0:1:
384,192,33750,1,0,0:0:0:1:
42,192,33825,1,0,0:0:0:1:
128,192,33900,1,0,0:0:0:1:
213,192,33975,1,0,0:0:0:1:
298,192,34050,1,0,0:0:0:1:
42,192,34050,1,0,0:0:0:1:
128,192,34125,1,0,0:0:0:1:
213,192,34200,1,0,0:0:0:1:
298,192,34275,1,0,0:0:0:1:
213,192,34350,1,0,0:0:0:1:
384,192,34350,1,0,0:0:0:1:
42,192,34350,1,0,0:0:0:1:
469,192,34425,1,0,0:0:0:1:
384,192,34500,1,0,0:0:0:1:
298,192,34575,1,0,0:0:0:1:
128,192,34650,1,0,0:0:0:1:
213,192,34650,1,0,0:0:0:1:
469,192,34650,1,0,0:0:0:1:
384,192,34725,1,0,0:0:0:1:
298,192,34800,1,0,0:0:0:1:
42,192,34800,128,0,35250:0:0:0:1:
213,192,34875,1,0,0:0:0:1:
128,192,34950,1,0,0:0:0:1:
384,192,34950,1,0,0:0:0:1:
298,192,35025,1,0,0:0:0:1:
213,192,35100,1,0,0:0:0:1:
298,192,35175,1,0,0:0:0:1:
384,192,35250,1,0,0:0:0:1:
469,192,35250,1,0,0:0:0:1:
128,192,35250,128,0,35400:0:0:0:1:
298,192,35325,1,0,0:0:0:1:
42,192,35400,1,0,0:0:0:1:
213,192,35400,128,0,36150:0:0:0:1:
469,192,35475,1,0,0:0:0:1:
128,192,35550,1,0,0:0:0:1:
298,192,35550,1,0,0:0:0:1:
384,192,35625,1,0,0:0:0:1:
42,192,35700,1,0,0:0:0:1:
128,192,35775,1,0,0:0:0:1:
298,192,35850,1,0,0:0:0:1:
469,192,35850,1,0,0:0:0:1:
42,192,35925,1,0,0:0:0:1:
384,192,36000,1,0,0:0:0:1:
128,192,36075,1,0,0:0:0:1:
469,192,36150,1,0,0:0:0:1:
42,192,36150,1,0,0:0:0:1:
298,192,36150,128,0,36300:0:0:0:1:
384,192,36225,1,0,0:0:0:1:
128,192,36300,1,0,0:0:0:1:
469,192,36300,128,0,36450:0:0:0:1:
213,192,36375,1,0,0:0:0:1:
298,192,36450,1,0,0:0:0:1:
384,192,36450,1,0,0:0:0:1:
42,192,36450,128,0,36637:0:0:0:1:
128,192,36525,1,0,0:0:0:1:
469,192,36600,1,0,0:0:0:1:
298,192,36600,128,0,36750:0:0:0:1:
213,192,36675,1,0,0:0:0:1:
128,192,36750,1,0,0:0:0:1:
384,192,36750,1,0,0:0:0:1:
469,192,36750,128,0,36900:0:0:0:1:
213,192,36825,1,0,0:0:0:1:
298,192,36900,1,0,0:0:0:1:
128,192,36900,128,0,37050:0:0:0:1:
213,192,36975,1,0,0:0:0:1:
469,192,37050,1,0,0:0:0:1:
42,192,37050,1,0,0:0:0:1:
384,192,37050,128,0,37200:0:0:0:1:
298,192,37125,1,0,0:0:0:1:
128,192,37200,1,0,0:0:0:1:
213,192,37200,128,0,37800:0:0:0:1:
298,192,37275,1,0,0:0:0:1:
469,192,37350,1,0,0:0:0:1:
42,192,37350,1,0,0:0:0:1:
384,192,37425,1,0,0:0:0:1:
298,192,37500,1,0,0:0:0:1:
128,192,37575,1,0,0:0:0:1:
384,192,37650,1,0,0:0:0:1:
42,192,37650,1,0,0:0:0:1:
469,192,37650,128,0,37800:0:0:0:1:
298,192,37725,1,0,0:0:0:1:
128,192,37800,1,0,0:0:0:1:
42,192,37800,128,0,39600:0:0:0:1:
384,192,37875,1,0,0:0:0:1:
298,192,37950,1,0,0:0:0:1:
213,192,38025,1,0,0:0:0:1:
384,192,38100,1,0,0:0:0:1:
469,192,38100,1,0,0:0:0:1:
213,192,38175,1,0,0:0:0:1:
298,192,38175,1,0,0:0:0:1:
128,192,38250,1,0,0:0:0:1:
469,192,38250,1,0,0:0:0:1:
298,192,38325,1,0,0:0:0:1:
384,192,38325,1,0,0:0:0:1:
213,192,38400,1,0,0:0:0:1:
469,192,38400,1,0,0:0:0:1:
384,192,38475,1,0,0:0:0:1:
298,192,38550,1,0,0:0:0:1:
469,192,38625,1,0,0:0:0:1:
213,192,38700,1,0,0:0:0:1:
384,192,38775,1,0,0:0:0:1:
298,192,38850,1,0,0:0:0:1:
128,192,38925,1,0,0:0:0:1:
384,192,39000,1,0,0:0:0:1:
298,192,39037,1,0,0:0:0:1:
213,192,39075,1,0,0:0:0:1:
469,192,39150,1,0,0:0:0:1:
128,192,39187,1,0,0:0:0:1:
298,192,39225,1,0,0:0:0:1:
213,192,39262,1,0,0:0:0:1:
384,192,39300,1,0,0:0:0:1:
213,192,39375,1,0,0:0:0:1:
469,192,39450,1,0,0:0:0:1:
298,192,39525,1,0,0:0:0:1:
128,192,39600,1,0,0:0:0:1:
384,192,39600,1,0,0:0:0:1:
469,192,39600,128,0,40050:0:0:0:1:
213,192,39675,1,0,0:0:0:1:
128,192,39750,1,0,0:0:0:1:
298,192,39750,1,0,0:0:0:1:
42,192,39825,1,0,0:0:0:1:
213,192,39900,1,0,0:0:0:1:
298,192,39975,1,0,0:0:0:1:
128,192,40050,1,0,0:0:0:1:
42,192,40050,1,0,0:0:0:1:
384,192,40050,128,0,40200:0:0:0:1:
213,192,40125,1,0,0:0:0:1:
469,192,40200,1,0,0:0:0:1:
298,192,40200,128,0,40950:0:0:0:1:
128,192,40275,1,0,0:0:0:1:
213,192,40350,1,0,0:0:0:1:
384,192,40350,1,0,0:0:0:1:
42,192,40425,1,0,0:0:0:1:
128,192,40500,1,0,0:0:0:1:
213,192,40575,1,0,0:0:0:1:
384,192,40650,1,0,0:0:0:1:
42,192,40650,1,0,0:0:0:1:
469,192,40725,1,0,0:0:0:1:
128,192,40800,1,0,0:0:0:1:
384,192,40875,1,0,0:0:0:1:
128,192,40950,1,0,0:0:0:1:
469,192,40950,1,0,0:0:0:1:
213,192,40950,128,0,41100:0:0:0:1:
384,192,41025,1,0,0:0:0:1:
298,192,41100,1,0,0:0:0:1:
42,192,41100,128,0,41250:0:0:0:1:
384,192,41175,1,0,0:0:0:1:
128,192,41250,1,0,0:0:0:1:
213,192,41250,1,0,0:0:0:1:
469,192,41250,128,0,41437:0:0:0:1:
298,192,41325,1,0,0:0:0:1:
42,192,41400,1,0,0:0:0:1:
213,192,41400,128,0,41550:0:0:0:1:
384,192,41475,1,0,0:0:0:1:
128,192,41550,1,0,0:0:0:1:
298,192,41550,1,0,0:0:0:1:
42,192,41550,128,0,41700:0:0:0:1:
469,192,41625,1,0,0:0:0:1:
213,192,41700,1,0,0:0:0:1:
384,192,41700,128,0,41850:0:0:0:1:
298,192,41775,1,0,0:0:0:1:
469,192,41850,1,0,0:0:0:1:
42,192,41850,1,0,0:0:0:1:
128,192,41850,128,0,42000:0:0:0:1:
213,192,41925,1,0,0:0:0:1:
384,192,42000,1,0,0:0:0:1:
298,192,42000,128,0,42600:0:0:0:1:
213,192,42075,1,0,0:0:0:1:
469,192,42150,1,0,0:0:0:1:
42,192,42150,1,0,0:0:0:1:
128,192,42225,1,0,0:0:0:1:
213,192,42300,1,0,0:0:0:1:
128,192,42375,1,0,0:0:0:1:
384,192,42450,1,0,0:0:0:1:
469,192,42450,1,0,0:0:0:1:
42,192,42450,128,0,42600:0:0:0:1:
213,192,42525,1,0,0:0:0:1:
128,192,42600,1,0,0:0:0:1:
469,192,42600,128,0,43800:0:0:0:1:
384,192,42675,1,0,0:0:0:1:
213,192,42750,1,0,0:0:0:1:
42,192,42750,1,0,0:0:0:1:
298,192,42825,1,0,0:0:0:1:
128,192,42900,1,0,0:0:0:1:
213,192,42975,1,0,0:0:0:1:
384,192,43050,1,0,0:0:0:1:
42,192,43050,1,0,0:0:0:1:
213,192,43125,1,0,0:0:0:1:
298,192,43200,1,0,0:0:0:1:
128,192,43275,1,0,0:0:0:1:
213,192,43350,1,0,0:0:0:1:
384,192,43350,1,0,0:0:0:1:
42,192,43425,1,0,0:0:0:1:
128,192,43500,1,0,0:0:0:1:
213,192,43575,1,0,0:0:0:1:
298,192,43650,1,0,0:0:0:1:
42,192,43650,1,0,0:0:0:1:
128,192,43725,1,0,0:0:0:1:
213,192,43800,1,0,0:0:0:1:
298,192,43875,1,0,0:0:0:1:
213,192,43950,1,0,0:0:0:1:
384,192,43950,1,0,0:0:0:1:
42,192,43950,1,0,0:0:0:1:
469,192,44025,1,0,0:0:0:1:
384,192,44100,1,0,0:0:0:1:
298,192,44175,1,0,0:0:0:1:
128,192,44250,1,0,0:0:0:1:
213,192,44250,1,0,0:0:0:1:
469,192,44250,1,0,0:0:0:1:
384,192,44325,1,0,0:0:0:1:
298,192,44400,1,0,0:0:0:1:
42,192,44400,128,0,44850:0:0:0:1:
213,192,44475,1,0,0:0:0:1:
128,192,44550,1,0,0:0:0:1:
384,192,44550,1,0,0:0:0:1:
298,192,44625,1,0,0:0:0:1:
213,192,44700,1,0,0:0:0:1:
298,192,44775,1,0,0:0:0:1:
384,192,44850,1,0,0:0:0:1:
469,192,44850,1,0,0:0:0:1:
128,192,44850,128,0,45000:0:0:0:1:
298,192,44925,1,0,0:0:0:1:
42,192,45000,1,0,0:0:0:1:
213,192,45000,128,0,45750:0:0:0:1:
469,192,45075,1,0,0:0:0:1:
128,192,45150,1,0,0:0:0:1:
298,192,45150,1,0,0:0:0:1:
384,192,45225,1,0,0:0:0:1:
42,192,45300,1,0,0:0:0:1:
128,192,45375,1,0,0:0:0:1:
298,192,45450,1,0,0:0:0:1:
469,192,45450,1,0,0:0:0:1:
42,192,45525,1,0,0:0:0:1:
384,192,45600,1,0,0:0:0:1:
128,192,45675,1,0,0:0:0:1:
469,192,45750,1,0,0:0:0:1:
42,192,45750,1,0,0:0:0:1:
298,192,45750,128,0,45900:0:0:0:1:
384,192,45825,1,0,0:0:0:1:
128,192,45900,1,0,0:0:0:1:
469,192,45900,128,0,46050:0:0:0:1:
213,192,45975,1,0,0:0:0:1:
298,192,46050,1,0,0:0:0:1:
384,192,46050,1,0,0:0:0:1:
42,192,46050,128,0,46237:0:0:0:1:
128,192,46125,1,0,0:0:0:1:
469,192,46200,1,0,0:0:0:1:
298,192,46200,128,0,46350:0:0:0:1:
213,192,46275,1,0,0:0:0:1:
128,192,46350,1,0,0:0:0:1:
384,192,46350,1,0,0:0:0:1:
469,192,46350,128,0,46500:0:0:0:1:
213,192,46425,1,0,0:0:0:1:
298,192,46500,1,0,0:0:0:1:
128,192,46500,128,0,46650:0:0:0:1:
213,192,46575,1,0,0:0:0:1:
469,192,46650,1,0,0:0:0:1:
42,192,46650,1,0,0:0:0:1:
384,192,46650,128,0,46800:0:0:0:1:
298,192,46725,1,0,0:0:0:1:
128,192,46800,1,0,0:0:0:1:
213,192,46800,128,0,47400:0:0:0:1:
298,192,46875,1,0,0:0:0:1:
469,192,46950,1,0,0:0:0:1:
42,192,46950,1,0,0:0:0:1:
384,192,47025,1,0,0:0:0:1:
298,192,47100,1,0,0:0:0:1:
128,192,47175,1,0,0:0:0:1:
384,192,47250,1,0,0:0:0:1:
42,192,47250,1,0,0:0:0:1:
469,192,47250,128,0,47400:0:0:0:1:
298,192,47325,1,0,0:0:0:1:
128,192,47400,1,0,0:0:0:1:
42,192,47400,128,0,49200:0:0:0:1:
384,192,47475,1,0,0:0:0:1:
298,192,47550,1,0,0:0:0:1:
213,192,47625,1,0,0:0:0:1:
384,192,47700,1,0,0:0:0:1:
469,192,47700,1,0,0:0:0:1:
213,192,47775,1,0,0:0:0:1:
298,192,47775,1,0,0:0:0:1:
128,192,47850,1,0,0:0:0:1:
469,192,47850,1,0,0:0:0:1:
298,192,47925,1,0,0:0:0:1:
384,192,47925,1,0,0:0:0:1:
213,192,48000,1,0,0:0:0:1:
469,192,48000,1,0,0:0:0:1:
384,192,48075,1,0,0:0:0:1:
298,192,48150,1,0,0:0:0:1:
469,192,48225,1,0,0:0:0:1:
213,192,48300,1,0,0:0:0:1:
384,192,48375,1,0,0:0:0:1:
298,192,48450,1,0,0:0:0:1:
128,192,48525,1,0,0:0:0:1:
384,192,48600,1,0,0:0:0:1:
298,192,48637,1,0,0:0:0:1:
213,192,48675,1,0,0:0:0:1:
469,192,48750,1,0,0:0:0:1:
128,192,48787,1,0,0:0:0:1:
298,192,48825,1,0,0:0:0:1:
213,192,48862,1,0,0:0:0:1:
384,192,48900,1,0,0:0:0:1:
213,192,48975,1,0,0:0:0:1:
469,192,49050,1,0,0:0:0:1:
298,192,49125,1,0,0:0:0:1:
128,192,49200,1,0,0:0:0:1:
469,192,49200,1,0,0:0:0:1:
213,192,49200,128,0,49650:0:0:0:1:
384,192,49200,128,0,49800:0:0:0:1:
298,192,49275,1,0,0:0:0:1:
42,192,49350,1,0,0:0:0:1:
298,192,49650,1,0,0:0:0:1:
128,192,49650,128,0,49800:0:0:0:1:
469,192,49725,1,0,0:0:0:1:
213,192,49800,1,0,0:0:0:1:
42,192,49800,128,0,50550:0:0:0:1:
298,192,49875,1,0,0:0:0:1:
469,192,49950,1,0,0:0:0:1:
213,192,50250,1,0,0:0:0:1:
384,192,50325,1,0,0:0:0:1:
213,192,50400,1,0,0:0:0:1:
469,192,50475,1,0,0:0:0:1:
128,192,50550,1,0,0:0:0:1:
298,192,50550,128,0,50850:0:0:0:1:
128,192,50700,128,0,51000:0:0:0:1:
469,192,50850,1,0,0:0:0:1:
384,192,50850,128,0,51150:0:0:0:1:
42,192,50925,1,0,0:0:0:1:
298,192,51000,1,0,0:0:0:1:
213,192,51000,128,0,51450:0:0:0:1:
42,192,51075,1,0,0:0:0:1:
128,192,51150,1,0,0:0:0:1:
469,192,51150,128,0,51600:0:0:0:1:
298,192,51225,1,0,0:0:0:1:
42,192,51300,1,0,0:0:0:1:
384,192,51375,1,0,0:0:0:1:
298,192,51450,1,0,0:0:0:1:
42,192,51450,128,0,51600:0:0:0:1:
213,192,51600,1,0,0:0:0:1:
128,192,51600,128,0,52050:0:0:0:1:
298,192,51600,128,0,52200:0:0:0:1:
213,192,51750,1,0,0:0:0:1:
42,192,52050,1,0,0:0:0:1:
469,192,52050,128,0,52200:0:0:0:1:
213,192,52125,1,0,0:0:0:1:
42,192,52200,1,0,0:0:0:1:
384,192,52200,128,0,53400:0:0:0:1:
128,192,52650,1,0,0:0:0:1:
298,192,52725,1,0,0:0:0:1:
42,192,52800,1,0,0:0:0:1:
213,192,52875,1,0,0:0:0:1:
128,192,52950,1,0,0:0:0:1:
298,192,53100,1,0,0:0:0:1:
213,192,53175,1,0,0:0:0:1:
128,192,53250,1,0,0:0:0:1:
42,192,53325,1,0,0:0:0:1:
213,192,53400,1,0,0:0:0:1:
128,192,53475,1,0,0:0:0:1:
298,192,53550,1,0,0:0:0:1:
213,192,53625,1,0,0:0:0:1:
384,192,53700,1,0,0:0:0:1:
298,192,53775,1,0,0:0:0:1:
469,192,53850,1,0,0:0:0:1:
213,192,54000,1,0,0:0:0:1:
384,192,54000,1,0,0:0:0:1:
42,192,54000,128,0,54600:0:0:0:1:
213,192,54150,1,0,0:0:0:1:
384,192,54150,1,0,0:0:0:1:
298,192,54225,1,0,0:0:0:1:
469,192,54300,1,0,0:0:0:1:
213,192,54450,1,0,0:0:0:1:
298,192,54450,128,0,54600:0:0:0:1:
384,192,54525,1,0,0:0:0:1:
128,192,54600,1,0,0:0:0:1:
469,192,54600,128,0,55350:0:0:0:1:
384,192,54675,1,0,0:0:0:1:
213,192,54750,1,0,0:0:0:1:
42,192,54825,1,0,0:0:0:1:
298,192,54900,1,0,0:0:0:1:
128,192,55200,1,0,0:0:0:1:
298,192,55275,1,0,0:0:0:1:
42,192,55350,1,0,0:0:0:1:
213,192,55350,128,0,55500:0:0:0:1:
128,192,55500,1,0,0:0:0:1:
384,192,55500,128,0,55650:0:0:0:1:
298,192,55575,1,0,0:0:0:1:
469,192,55650,1,0,0:0:0:1:
42,192,55650,128,0,55800:0:0:0:1:
298,192,55800,128,0,55950:0:0:0:1:
384,192,55950,1,0,0:0:0:1:
128,192,55950,128,0,56250:0:0:0:1:
213,192,56025,1,0,0:0:0:1:
469,192,56100,1,0,0:0:0:1:
384,192,56175,1,0,0:0:0:1:
42,192,56250,1,0,0:0:0:1:
298,192,56250,128,0,56400:0:0:0:1:
213,192,56325,1,0,0:0:0:1:
469,192,56400,1,0,0:0:0:1:
384,192,56400,128,0,57000:0:0:0:1:
128,192,56475,1,0,0:0:0:1:
298,192,56550,1,0,0:0:0:1:
42,192,56625,1,0,0:0:0:1:
213,192,56700,1,0,0:0:0:1:
469,192,56775,1,0,0:0:0:1:
128,192,56850,1,0,0:0:0:1:
42,192,56850,128,0,57000:0:0:0:1:
298,192,56925,1,0,0:0:0:1:
213,192,57000,1,0,0:0:0:1:
469,192,57000,128,0,57600:0:0:0:1:
298,192,57075,1,0,0:0:0:1:
128,192,57150,1,0,0:0:0:1:
384,192,57225,1,0,0:0:0:1:
213,192,57300,1,0,0:0:0:1:
42,192,57375,1,0,0:0:0:1:
298,192,57450,1,0,0:0:0:1:
213,192,57525,1,0,0:0:0:1:
128,192,57600,1,0,0:0:0:1:
384,192,57600,1,0,0:0:0:1:
213,192,57637,1,0,0:0:0:1:
42,192,57675,1,0,0:0:0:1:
298,192,57712,1,0,0:0:0:1:
128,192,57750,1,0,0:0:0:1:
469,192,57750,1,0,0:0:0:1:
213,192,57825,1,0,0:0:0:1:
384,192,57900,1,0,0:0:0:1:
42,192,57900,128,0,58200:0:0:0:1:
298,192,57975,1,0,0:0:0:1:
213,192,58050,1,0,0:0:0:1:
298,192,58125,1,0,0:0:0:1:
384,192,58200,1,0,0:0:0:1:
128,192,58200,128,0,58500:0:0:0:1:
469,192,58275,1,0,0:0:0:1:
298,192,58350,1,0,0:0:0:1:
384,192,58425,1,0,0:0:0:1:
42,192,58500,1,0,0:0:0:1:
213,192,58500,128,0,58800:0:0:0:1:
469,192,58575,1,0,0:0:0:1:
298,192,58650,1,0,0:0:0:1:
384,192,58725,1,0,0:0:0:1:
298,192,58800,1,0,0:0:0:1:
42,192,58800,1,0,0:0:0:1:
469,192,58800,128,0,59250:0:0:0:1:
128,192,58875,1,0,0:0:0:1:
298,192,58950,1,0,0:0:0:1:
42,192,58950,1,0,0:0:0:1:
213,192,59025,1,0,0:0:0:1:
128,192,59100,1,0,0:0:0:1:
213,192,59175,1,0,0:0:0:1:
384,192,59250,1,0,0:0:0:1:
42,192,59250,1,0,0:0:0:1:
298,192,59250,128,0,59550:0:0:0:1:
213,192,59325,1,0,0:0:0:1:
469,192,59400,1,0,0:0:0:1:
42,192,59475,1,0,0:0:0:1:
213,192,59550,1,0,0:0:0:1:
384,192,59550,1,0,0:0:0:1:
128,192,59550,128,0,60000:0:0:0:1:
469,192,59625,1,0,0:0:0:1:
298,192,59700,1,0,0:0:0:1:
213,192,59775,1,0,0:0:0:1:
469,192,59850,1,0,0:0:0:1:
42,192,59850,1,0,0:0:0:1:
384,192,59850,128,0,60000:0:0:0:1:
298,192,59925,1,0,0:0:0:1:
213,192,60000,1,0,0:0:0:1:
42,192,60000,128,0,60450:0:0:0:1:
469,192,60075,1,0,0:0:0:1:
298,192,60150,1,0,0:0:0:1:
384,192,60150,1,0,0:0:0:1:
213,192,60225,1,0,0:0:0:1:
469,192,60300,1,0,0:0:0:1:
298,192,60375,1,0,0:0:0:1:
128,192,60450,1,0,0:0:0:1:
384,192,60450,1,0,0:0:0:1:
213,192,60450,128,0,60750:0:0:0:1:
469,192,60525,1,0,0:0:0:1:
298,192,60600,1,0,0:0:0:1:
42,192,60675,1,0,0:0:0:1:
128,192,60750,1,0,0:0:0:1:
384,192,60750,1,0,0:0:0:1:
469,192,60750,128,0,61200:0:0:0:1:
298,192,60825,1,0,0:0:0:1:
128,192,60900,1,0,0:0:0:1:
213,192,60975,1,0,0:0:0:1:
384,192,61050,1,0,0:0:0:1:
42,192,61050,1,0,0:0:0:1:
298,192,61050,128,0,61200:0:0:0:1:
213,192,61125,1,0,0:0:0:1:
42,192,61200,1,0,0:0:0:1:
128,192,61200,128,0,61650:0:0:0:1:
384,192,61275,1,0,0:0:0:1:
213,192,61350,1,0,0:0:0:1:
298,192,61350,1,0,0:0:0:1:
469,192,61425,1,0,0:0:0:1:
384,192,61500,1,0,0:0:0:1:
298,192,61575,1,0,0:0:0:1:
469,192,61650,1,0,0:0:0:1:
42,192,61650,1,0,0:0:0:1:
213,192,61650,128,0,61950:0:0:0:1:
384,192,61725,1,0,0:0:0:1:
128,192,61800,1,0,0:0:0:1:
469,192,61875,1,0,0:0:0:1:
384,192,61950,1,0,0:0:0:1:
42,192,61950,1,0,0:0:0:1:
298,192,61950,128,0,62250:0:0:0:1:
128,192,62025,1,0,0:0:0:1:
213,192,62100,1,0,0:0:0:1:
469,192,62175,1,0,0:0:0:1:
128,192,62250,1,0,0:0:0:1:
42,192,62250,1,0,0:0:0:1:
384,192,62250,128,0,62400:0:0:0:1:
213,192,62325,1,0,0:0:0:1:
469,192,62400,1,0,0:0:0:1:
42,192,62400,128,0,63300:0:0:0:1:
298,192,62475,1,0,0:0:0:1:
213,192,62550,1,0,0:0:0:1:
384,192,62550,1,0,0:0:0:1:
128,192,62625,1,0,0:0:0:1:
298,192,62700,1,0,0:0:0:1:
469,192,62775,1,0,0:0:0:1:
213,192,62850,1,0,0:0:0:1:
384,192,62850,1,0,0:0:0:1:
298,192,62925,1,0,0:0:0:1:
213,192,63000,1,0,0:0:0:1:
384,192,63075,1,0,0:0:0:1:
128,192,63150,1,0,0:0:0:1:
469,192,63150,1,0,0:0:0:1:
298,192,63150,128,0,63450:0:0:0:1:
213,192,63225,1,0,0:0:0:1:
384,192,63300,1,0,0:0:0:1:
213,192,63375,1,0,0:0:0:1:
469,192,63450,1,0,0:0:0:1:
42,192,63450,1,0,0:0:0:1:
128,192,63450,128,0,63600:0:0:0:1:
384,192,63525,1,0,0:0:0:1:
213,192,63600,1,0,0:0:0:1:
469,192,63600,128,0,64050:0:0:0:1:
298,192,63675,1,0,0:0:0:1:
128,192,63750,1,0,0:0:0:1:
42,192,63750,1,0,0:0:0:1:
213,192,63825,1,0,0:0:0:1:
298,192,63900,1,0,0:0:0:1:
42,192,63975,1,0,0:0:0:1:
128,192,64050,1,0,0:0:0:1:
213,192,64050,1,0,0:0:0:1:
298,192,64050,128,0,64350:0:0:0:1:
384,192,64125,1,0,0:0:0:1:
42,192,64200,1,0,0:0:0:1:
213,192,64275,1,0,0:0:0:1:
469,192,64350,1,0,0:0:0:1:
42,192,64350,1,0,0:0:0:1:
128,192,64350,128,0,64800:0:0:0:1:
384,192,64425,1,0,0:0:0:1:
213,192,64500,1,0,0:0:0:1:
298,192,64575,1,0,0:0:0:1:
469,192,64650,1,0,0:0:0:1:
42,192,64650,1,0,0:0:0:1:
384,192,64650,128,0,64800:0:0:0:1:
213,192,64725,1,0,0:0:0:1:
298,192,64800,1,0,0:0:0:1:
42,192,64800,128,0,65250:0:0:0:1:
469,192,64875,1,0,0:0:0:1:
213,192,64950,1,0,0:0:0:1:
384,192,64950,1,0,0:0:0:1:
298,192,65025,1,0,0:0:0:1:
128,192,65100,1,0,0:0:0:1:
298,192,65175,1,0,0:0:0:1:
384,192,65250,1,0,0:0:0:1:
469,192,65250,1,0,0:0:0:1:
213,192,65250,128,0,65550:0:0:0:1:
128,192,65325,1,0,0:0:0:1:
298,192,65400,1,0,0:0:0:1:
42,192,65475,1,0,0:0:0:1:
128,192,65550,1,0,0:0:0:1:
384,192,65550,1,0,0:0:0:1:
469,192,65550,128,0,66000:0:0:0:1:
298,192,65625,1,0,0:0:0:1:
128,192,65700,1,0,0:0:0:1:
213,192,65775,1,0,0:0:0:1:
384,192,65850,1,0,0:0:0:1:
42,192,65850,1,0,0:0:0:1:
298,192,65850,128,0,66000:0:0:0:1:
128,192,65925,1,0,0:0:0:1:
213,192,66000,1,0,0:0:0:1:
42,192,66000,128,0,67800:0:0:0:1:
384,192,66075,1,0,0:0:0:1:
128,192,66150,1,0,0:0:0:1:
298,192,66150,1,0,0:0:0:1:
469,192,66225,1,0,0:0:0:1:
213,192,66300,1,0,0:0:0:1:
298,192,66375,1,0,0:0:0:1:
384,192,66450,1,0,0:0:0:1:
469,192,66450,1,0,0:0:0:1:
213,192,66525,1,0,0:0:0:1:
298,192,66600,1,0,0:0:0:1:
128,192,66675,1,0,0:0:0:1:
298,192,66750,1,0,0:0:0:1:
469,192,66750,1,0,0:0:0:1:
213,192,66825,1,0,0:0:0:1:
384,192,66900,1,0,0:0:0:1:
298,192,66975,1,0,0:0:0:1:
128,192,67050,1,0,0:0:0:1:
469,192,67050,1,0,0:0:0:1:
298,192,67125,1,0,0:0:0:1:
384,192,67200,1,0,0:0:0:1:
213,192,67275,1,0,0:0:0:1:
298,192,67350,1,0,0:0:0:1:
469,192,67350,1,0,0:0:0:1:
128,192,67425,1,0,0:0:0:1:
384,192,67500,1,0,0:0:0:1:
213,192,67575,1,0,0:0:0:1:
298,192,67650,1,0,0:0:0:1:
469,192,67725,1,0,0:0:0:1:
213,192,67800,1,0,0:0:0:1:
384,192,67875,1,0,0:0:0:1:
128,192,67950,1,0,0:0:0:1:
469,192,67950,1,0,0:0:0:1:
298,192,67950,128,0,68250:0:0:0:1:
213,192,68025,1,0,0:0:0:1:
469,192,68100,1,0,0:0:0:1:
42,192,68100,1,0,0:0:0:1:
128,192,68175,1,0,0:0:0:1:
213,192,68250,1,0,0:0:0:1:
384,192,68250,1,0,0:0:0:1:
469,192,68250,128,0,68400:0:0:0:1:
128,192,68325,1,0,0:0:0:1:
213,192,68400,1,0,0:0:0:1:
298,192,68400,1,0,0:0:0:1:
42,192,68400,128,0,68850:0:0:0:1:
384,192,68475,1,0,0:0:0:1:
128,192,68550,1,0,0:0:0:1:
213,192,68550,1,0,0:0:0:1:
469,192,68550,1,0,0:0:0:1:
298,192,68625,1,0,0:0:0:1:
213,192,68700,1,0,0:0:0:1:
384,192,68775,1,0,0:0:0:1:
128,192,68850,1,0,0:0:0:1:
298,192,68850,1,0,0:0:0:1:
213,192,68850,128,0,69150:0:0:0:1:
469,192,68925,1,0,0:0:0:1:
42,192,69000,1,0,0:0:0:1:
298,192,69075,1,0,0:0:0:1:
128,192,69150,1,0,0:0:0:1:
469,192,69150,1,0,0:0:0:1:
384,192,69150,128,0,69600:0:0:0:1:
42,192,69225,1,0,0:0:0:1:
213,192,69300,1,0,0:0:0:1:
298,192,69375,1,0,0:0:0:1:
469,192,69450,1,0,0:0:0:1:
42,192,69450,1,0,0:0:0:1:
128,192,69450,128,0,69600:0:0:0:1:
213,192,69525,1,0,0:0:0:1:
298,192,69600,1,0,0:0:0:1:
469,192,69600,128,0,70050:0:0:0:1:
42,192,69675,1,0,0:0:0:1:
128,192,69750,1,0,0:0:0:1:
213,192,69750,1,0,0:0:0:1:
298,192,69825,1,0,0:0:0:1:
42,192,69900,1,0,0:0:0:1:
213,192,69975,1,0,0:0:0:1:
128,192,70050,1,0,0:0:0:1:
384,192,70050,1,0,0:0:0:1:
298,192,70050,128,0,70350:0:0:0:1:
213,192,70125,1,0,0:0:0:1:
469,192,70200,1,0,0:0:0:1:
128,192,70275,1,0,0:0:0:1:
213,192,70350,1,0,0:0:0:1:
384,192,70350,1,0,0:0:0:1:
42,192,70350,128,0,70800:0:0:0:1:
469,192,70425,1,0,0:0:0:1:
298,192,70500,1,0,0:0:0:1:
128,192,70575,1,0,0:0:0:1:
384,192,70650,1,0,0:0:0:1:
469,192,70650,1,0,0:0:0:1:
213,192,70650,128,0,70800:0:0:0:1:
298,192,70725,1,0,0:0:0:1:
128,192,70800,1,0,0:0:0:1:
384,192,70800,128,0,71250:0:0:0:1:
298,192,70875,1,0,0:0:0:1:
469,192,70950,1,0,0:0:0:1:
42,192,70950,1,0,0:0:0:1:
213,192,71025,1,0,0:0:0:1:
128,192,71100,1,0,0:0:0:1:
213,192,71175,1,0,0:0:0:1:
469,192,71250,1,0,0:0:0:1:
42,192,71250,1,0,0:0:0:1:
298,192,71250,128,0,71550:0:0:0:1:
128,192,71325,1,0,0:0:0:1:
384,192,71400,1,0,0:0:0:1:
128,192,71475,1,0,0:0:0:1:
469,192,71550,1,0,0:0:0:1:
42,192,71550,1,0,0:0:0:1:
213,192,71550,128,0,71850:0:0:0:1:
384,192,71625,1,0,0:0:0:1:
298,192,71700,1,0,0:0:0:1:
469,192,71775,1,0,0:0:0:1:
384,192,71850,1,0,0:0:0:1:
42,192,71850,1,0,0:0:0:1:
128,192,71850,128,0,72000:0:0:0:1:
298,192,71925,1,0,0:0:0:1:
469,192,72000,1,0,0:0:0:1:
384,192,72000,128,0,72150:0:0:0:1:
213,192,72075,1,0,0:0:0:1:
128,192,72150,1,0,0:0:0:1:
298,192,72150,1,0,0:0:0:1:
42,192,72150,128,0,72450:0:0:0:1:
469,192,72225,1,0,0:0:0:1:
213,192,72300,1,0,0:0:0:1:
384,192,72375,1,0,0:0:0:1:
128,192,72450,1,0,0:0:0:1:
469,192,72450,1,0,0:0:0:1:
298,192,72450,128,0,72900:0:0:0:1:
213,192,72525,1,0,0:0:0:1:
42,192,72600,1,0,0:0:0:1:
384,192,72675,1,0,0:0:0:1:
128,192,72750,1,0,0:0:0:1:
469,192,72750,1,0,0:0:0:1:
42,192,72825,1,0,0:0:0:1:
384,192,72900,1,0,0:0:0:1:
213,192,72900,128,0,73200:0:0:0:1:
128,192,72975,1,0,0:0:0:1:
469,192,73050,1,0,0:0:0:1:
42,192,73050,1,0,0:0:0:1:
384,192,73050,128,0,73200:0:0:0:1:
298,192,73125,1,0,0:0:0:1:
128,192,73200,1,0,0:0:0:1:
469,192,73200,1,0,0:0:0:1:
42,192,73200,128,0,73650:0:0:0:1:
298,192,73275,1,0,0:0:0:1:
213,192,73350,1,0,0:0:0:1:
469,192,73350,1,0,0:0:0:1:
384,192,73425,1,0,0:0:0:1:
298,192,73500,1,0,0:0:0:1:
469,192,73575,1,0,0:0:0:1:
128,192,73650,1,0,0:0:0:1:
384,192,73650,1,0,0:0:0:1:
213,192,73650,128,0,73950:0:0:0:1:
298,192,73725,1,0,0:0:0:1:
42,192,73800,1,0,0:0:0:1:
298,192,73875,1,0,0:0:0:1:
128,192,73950,1,0,0:0:0:1:
469,192,73950,1,0,0:0:0:1:
384,192,73950,128,0,74400:0:0:0:1:
42,192,74025,1,0,0:0:0:1:
298,192,74100,1,0,0:0:0:1:
213,192,74175,1,0,0:0:0:1:
469,192,74250,1,0,0:0:0:1:
42,192,74250,1,0,0:0:0:1:
128,192,74250,128,0,74400:0:0:0:1:
298,192,74325,1,0,0:0:0:1:
213,192,74400,1,0,0:0:0:1:
469,192,74400,128,0,74850:0:0:0:1:
42,192,74475,1,0,0:0:0:1:
128,192,74550,1,0,0:0:0:1:
298,192,74550,1,0,0:0:0:1:
213,192,74625,1,0,0:0:0:1:
384,192,74700,1,0,0:0:0:1:
213,192,74775,1,0,0:0:0:1:
128,192,74850,1,0,0:0:0:1:
42,192,74850,1,0,0:0:0:1:
298,192,74850,128,0,75150:0:0:0:1:
384,192,74925,1,0,0:0:0:1:
213,192,75000,1,0,0:0:0:1:
469,192,75075,1,0,0:0:0:1:
128,192,75150,1,0,0:0:0:1:
384,192,75150,1,0,0:0:0:1:
42,192,75150,128,0,75600:0:0:0:1:
213,192,75225,1,0,0:0:0:1:
384,192,75300,1,0,0:0:0:1:
298,192,75375,1,0,0:0:0:1:
128,192,75450,1,0,0:0:0:1:
469,192,75450,1,0,0:0:0:1:
213,192,75450,128,0,75600:0:0:0:1:
384,192,75525,1,0,0:0:0:1:
298,192,75600,1,0,0:0:0:1:
469,192,75600,128,0,78000:0:0:0:1:
128,192,75675,1,0,0:0:0:1:
42,192,75750,1,0,0:0:0:1:
213,192,75825,1,0,0:0:0:1:
298,192,75900,1,0,0:0:0:1:
384,192,75900,1,0,0:0:0:1:
128,192,75975,1,0,0:0:0:1:
42,192,76050,1,0,0:0:0:1:
213,192,76125,1,0,0:0:0:1:
128,192,76200,1,0,0:0:0:1:
384,192,76200,1,0,0:0:0:1:
42,192,76275,1,0,0:0:0:1:
128,192,76350,1,0,0:0:0:1:
213,192,76350,1,0,0:0:0:1:
298,192,76425,1,0,0:0:0:1:
384,192,76500,1,0,0:0:0:1:
213,192,76575,1,0,0:0:0:1:
298,192,76650,1,0,0:0:0:1:
384,192,76650,1,0,0:0:0:1:
42,192,76650,1,0,0:0:0:1:
128,192,76725,1,0,0:0:0:1:
298,192,76800,1,0,0:0:0:1:
42,192,76875,1,0,0:0:0:1:
384,192,76950,1,0,0:0:0:1:
213,192,77025,1,0,0:0:0:1:
128,192,77100,1,0,0:0:0:1:
298,192,77100,1,0,0:0:0:1:
384,192,77175,1,0,0:0:0:1:
42,192,77175,1,0,0:0:0:1:
213,192,77250,1,0,0:0:0:1:
298,192,77250,1,0,0:0:0:1:
128,192,77325,1,0,0:0:0:1:
42,192,77325,1,0,0:0:0:1:
213,192,77400,1,0,0:0:0:1:
384,192,77400,1,0,0:0:0:1:
42,192,77475,1,0,0:0:0:1:
298,192,77550,1,0,0:0:0:1:
128,192,77625,1,0,0:0:0:1:
298,192,77700,1,0,0:0:0:1:
213,192,77775,1,0,0:0:0:1:
128,192,77850,1,0,0:0:0:1:
298,192,77925,1,0,0:0:0:1:
213,192,78000,1,0,0:0:0:1:
42,192,78000,128,0,80100:0:0:0:1:
469,192,79200,128,0,80100:0:0:0:1:
128,192,79350,1,0,0:0:0:1:
384,192,79350,1,0,0:0:0:1:
128,192,79500,1,0,0:0:0:1:
384,192,79500,1,0,0:0:0:1:
128,192,79650,1,0,0:0:0:1:
384,192,79650,1,0,0:0:0:1:
128,192,79800,1,0,0:0:0:1:
384,192,79800,1,0,0:0:0:1:
128,192,79950,1,0,0:0:0:1:
128,192,80100,1,0,0:0:0:1:
213,192,80100,1,0,0:0:0:1:
298,192,80100,1,0,0:0:0:1:
384,192,80100,1,0,0:0:0:1:
298,192,80400,1,0,0:0:0:1:
384,192,80400,1,0,0:0:0:1:
42,192,80400,1,0,0:0:0:1:
213,192,80475,1,0,0:0:0:1:
128,192,80550,1,0,0:0:0:1:
469,192,80550,1,0,0:0:0:1:
298,192,80625,1,0,0:0:0:1:
384,192,80700,1,0,0:0:0:1:
469,192,80700,1,0,0:0:0:1:
42,192,80700,1,0,0:0:0:1:
213,192,80775,1,0,0:0:0:1:
128,192,80850,1,0,0:0:0:1:
298,192,80850,1,0,0:0:0:1:
384,192,80925,1,0,0:0:0:1:
213,192,81000,1,0,0:0:0:1:
469,192,81000,1,0,0:0:0:1:
42,192,81000,1,0,0:0:0:1:
384,192,81075,1,0,0:0:0:1:
213,192,81150,1,0,0:0:0:1:
298,192,81150,1,0,0:0:0:1:
128,192,81225,1,0,0:0:0:1:
298,192,81300,1,0,0:0:0:1:
384,192,81300,1,0,0:0:0:1:
42,192,81300,1,0,0:0:0:1:
213,192,81375,1,0,0:0:0:1:
128,192,81450,1,0,0:0:0:1:
469,192,81450,1,0,0:0:0:1:
298,192,81525,1,0,0:0:0:1:
213,192,81600,1,0,0:0:0:1:
384,192,81600,1,0,0:0:0:1:
42,192,81600,1,0,0:0:0:1:
469,192,81675,1,0,0:0:0:1:
298,192,81750,1,0,0:0:0:1:
384,192,81750,1,0,0:0:0:1:
213,192,81825,1,0,0:0:0:1:
128,192,81900,1,0,0:0:0:1:
469,192,81900,1,0,0:0:0:1:
42,192,81900,1,0,0:0:0:1:
298,192,81975,1,0,0:0:0:1:
213,192,82050,1,0,0:0:0:1:
384,192,82050,1,0,0:0:0:1:
128,192,82125,1,0,0:0:0:1:
298,192,82200,1,0,0:0:0:1:
469,192,82200,1,0,0:0:0:1:
42,192,82200,1,0,0:0:0:1:
213,192,82275,1,0,0:0:0:1:
384,192,82350,1,0,0:0:0:1:
42,192,82350,1,0,0:0:0:1:
213,192,82425,1,0,0:0:0:1:
128,192,82500,1,0,0:0:0:1:
298,192,82500,1,0,0:0:0:1:
384,192,82500,1,0,0:0:0:1:
469,192,82575,1,0,0:0:0:1:
213,192,82650,1,0,0:0:0:1:
42,192,82650,1,0,0:0:0:1:
298,192,82725,1,0,0:0:0:1:
128,192,82800,1,0,0:0:0:1:
213,192,82800,1,0,0:0:0:1:
384,192,82800,1,0,0:0:0:1:
469,192,82875,1,0,0:0:0:1:
298,192,82950,1,0,0:0:0:1:
42,192,82950,1,0,0:0:0:1:
213,192,83025,1,0,0:0:0:1:
128,192,83100,1,0,0:0:0:1:
384,192,83100,1,0,0:0:0:1:
469,192,83100,1,0,0:0:0:1:
298,192,83175,1,0,0:0:0:1:
128,192,83250,1,0,0:0:0:1:
469,192,83250,1,0,0:0:0:1:
213,192,83325,1,0,0:0:0:1:
298,192,83400,1,0,0:0:0:1:
384,192,83400,1,0,0:0:0:1:
42,192,83400,1,0,0:0:0:1:
213,192,83475,1,0,0:0:0:1:
128,192,83550,1,0,0:0:0:1:
469,192,83550,1,0,0:0:0:1:
298,192,83625,1,0,0:0:0:1:
213,192,83700,1,0,0:0:0:1:
384,192,83700,1,0,0:0:0:1:
42,192,83700,1,0,0:0:0:1:
469,192,83775,1,0,0:0:0:1:
128,192,83850,1,0,0:0:0:1:
298,192,83850,1,0,0:0:0:1:
384,192,83925,1,0,0:0:0:1:
213,192,84000,1,0,0:0:0:1:
298,192,84000,1,0,0:0:0:1:
42,192,84000,1,0,0:0:0:1:
469,192,84075,1,0,0:0:0:1:
128,192,84150,1,0,0:0:0:1:
384,192,84150,1,0,0:0:0:1:
213,192,84225,1,0,0:0:0:1:
298,192,84300,1,0,0:0:0:1:
469,192,84300,1,0,0:0:0:1:
42,192,84300,1,0,0:0:0:1:
128,192,84375,1,0,0:0:0:1:
213,192,84450,1,0,0:0:0:1:
384,192,84450,1,0,0:0:0:1:
298,192,84525,1,0,0:0:0:1:
128,192,84600,1,0,0:0:0:1:
469,192,84600,1,0,0:0:0:1:
42,192,84600,1,0,0:0:0:1:
213,192,84675,1,0,0:0:0:1:
298,192,84750,1,0,0:0:0:1:
42,192,84750,1,0,0:0:0:1:
213,192,84825,1,0,0:0:0:1:
384,192,84825,1,0,0:0:0:1:
128,192,84900,1,0,0:0:0:1:
469,192,84900,1,0,0:0:0:1:
298,192,84975,1,0,0:0:0:1:
42,192,84975,1,0,0:0:0:1:
213,192,85050,1,0,0:0:0:1:
384,192,85050,1,0,0:0:0:1:
42,192,85125,1,0,0:0:0:1:
128,192,85200,1,0,0:0:0:1:
213,192,85200,1,0,0:0:0:1:
469,192,85200,1,0,0:0:0:1:
298,192,85275,1,0,0:0:0:1:
384,192,85350,1,0,0:0:0:1:
42,192,85350,1,0,0:0:0:1:
213,192,85425,1,0,0:0:0:1:
128,192,85500,1,0,0:0:0:1:
469,192,85500,1,0,0:0:0:1:
42,192,85500,1,0,0:0:0:1:
298,192,85575,1,0,0:0:0:1:
213,192,85650,1,0,0:0:0:1:
384,192,85650,1,0,0:0:0:1:
128,192,85725,1,0,0:0:0:1:
298,192,85800,1,0,0:0:0:1:
469,192,85800,1,0,0:0:0:1:
42,192,85800,1,0,0:0:0:1:
128,192,85875,1,0,0:0:0:1:
213,192,85950,1,0,0:0:0:1:
298,192,85950,1,0,0:0:0:1:
384,192,86025,1,0,0:0:0:1:
128,192,86100,1,0,0:0:0:1:
213,192,86100,1,0,0:0:0:1:
469,192,86100,1,0,0:0:0:1:
298,192,86175,1,0,0:0:0:1:
384,192,86250,1,0,0:0:0:1:
42,192,86250,1,0,0:0:0:1:
213,192,86325,1,0,0:0:0:1:
128,192,86400,1,0,0:0:0:1:
298,192,86400,1,0,0:0:0:1:
469,192,86400,1,0,0:0:0:1:
42,192,86475,1,0,0:0:0:1:
128,192,86550,1,0,0:0:0:1:
213,192,86550,1,0,0:0:0:1:
298,192,86625,1,0,0:0:0:1:
384,192,86700,1,0,0:0:0:1:
469,192,86700,1,0,0:0:0:1:
42,192,86700,1,0,0:0:0:1:
213,192,86775,1,0,0:0:0:1:
128,192,86850,1,0,0:0:0:1:
298,192,86850,1,0,0:0:0:1:
384,192,86925,1,0,0:0:0:1:
213,192,87000,1,0,0:0:0:1:
469,192,87000,1,0,0:0:0:1:
42,192,87000,1,0,0:0:0:1:
298,192,87075,1,0,0:0:0:1:
128,192,87150,1,0,0:0:0:1:
469,192,87150,1,0,0:0:0:1:
298,192,87225,1,0,0:0:0:1:
128,192,87300,1,0,0:0:0:1:
213,192,87300,1,0,0:0:0:1:
384,192,87300,1,0,0:0:0:1:
42,192,87375,1,0,0:0:0:1:
298,192,87450,1,0,0:0:0:1:
469,192,87450,1,0,0:0:0:1:
213,192,87525,1,0,0:0:0:1:
128,192,87600,1,0,0:0:0:1:
298,192,87600,1,0,0:0:0:1:
384,192,87600,1,0,0:0:0:1:
42,192,87600,1,0,0:0:0:1:
213,192,87675,1,0,0:0:0:1:
128,192,87750,1,0,0:0:0:1:
469,192,87750,1,0,0:0:0:1:
298,192,87825,1,0,0:0:0:1:
128,192,87900,1,0,0:0:0:1:
384,192,87900,1,0,0:0:0:1:
42,192,87900,1,0,0:0:0:1:
213,192,87975,1,0,0:0:0:1:
384,192,88050,1,0,0:0:0:1:
42,192,88050,1,0,0:0:0:1:
298,192,88125,1,0,0:0:0:1:
128,192,88200,1,0,0:0:0:1:
213,192,88200,1,0,0:0:0:1:
469,192,88200,1,0,0:0:0:1:
298,192,88275,1,0,0:0:0:1:
384,192,88350,1,0,0:0:0:1:
42,192,88350,1,0,0:0:0:1:
213,192,88425,1,0,0:0:0:1:
128,192,88500,1,0,0:0:0:1:
298,192,88500,1,0,0:0:0:1:
469,192,88500,1,0,0:0:0:1:
42,192,88575,1,0,0:0:0:1:
213,192,88650,1,0,0:0:0:1:
384,192,88650,1,0,0:0:0:1:
128,192,88725,1,0,0:0:0:1:
384,192,88800,1,0,0:0:0:1:
469,192,88800,1,0,0:0:0:1:
298,192,88875,1,0,0:0:0:1:
213,192,88950,1,0,0:0:0:1:
128,192,89025,1,0,0:0:0:1:
298,192,89100,1,0,0:0:0:1:
384,192,89100,1,0,0:0:0:1:
213,192,89175,1,0,0:0:0:1:
128,192,89250,1,0,0:0:0:1:
42,192,89325,1,0,0:0:0:1:
128,192,89400,1,0,0:0:0:1:
213,192,89400,1,0,0:0:0:1:
298,192,89475,1,0,0:0:0:1:
384,192,89550,1,0,0:0:0:1:
469,192,89625,1,0,0:0:0:1:
128,192,89700,1,0,0:0:0:1:
213,192,89700,1,0,0:0:0:1:
42,192,89700,1,0,0:0:0:1:
298,192,89775,1,0,0:0:0:1:
384,192,89850,1,0,0:0:0:1:
469,192,89925,1,0,0:0:0:1:
128,192,90000,1,0,0:0:0:1:
213,192,90000,1,0,0:0:0:1:
384,192,90000,1,0,0:0:0:1:
298,192,90075,1,0,0:0:0:1:
384,192,90150,1,0,0:0:0:1:
42,192,90150,1,0,0:0:0:1:
213,192,90225,1,0,0:0:0:1:
128,192,90300,1,0,0:0:0:1:
469,192,90300,1,0,0:0:0:1:
42,192,90300,1,0,0:0:0:1:
298,192,90375,1,0,0:0:0:1:
213,192,90450,1,0,0:0:0:1:
384,192,90450,1,0,0:0:0:1:
128,192,90525,1,0,0:0:0:1:
298,192,90600,1,0,0:0:0:1:
469,192,90600,1,0,0:0:0:1:
42,192,90600,1,0,0:0:0:1:
128,192,90675,1,0,0:0:0:1:
213,192,90750,1,0,0:0:0:1:
298,192,90750,1,0,0:0:0:1:
384,192,90825,1,0,0:0:0:1:
128,192,90900,1,0,0:0:0:1:
213,192,90900,1,0,0:0:0:1:
469,192,90900,1,0,0:0:0:1:
298,192,90975,1,0,0:0:0:1:
384,192,91050,1,0,0:0:0:1:
42,192,91050,1,0,0:0:0:1:
213,192,91125,1,0,0:0:0:1:
128,192,91200,1,0,0:0:0:1:
298,192,91200,1,0,0:0:0:1:
469,192,91200,1,0,0:0:0:1:
42,192,91275,1,0,0:0:0:1:
128,192,91350,1,0,0:0:0:1:
213,192,91350,1,0,0:0:0:1:
298,192,91425,1,0,0:0:0:1:
384,192,91500,1,0,0:0:0:1:
469,192,91500,1,0,0:0:0:1:
42,192,91500,1,0,0:0:0:1:
213,192,91575,1,0,0:0:0:1:
128,192,91650,1,0,0:0:0:1:
298,192,91650,1,0,0:0:0:1:
384,192,91725,1,0,0:0:0:1:
213,192,91800,1,0,0:0:0:1:
469,192,91800,1,0,0:0:0:1:
42,192,91800,1,0,0:0:0:1:
298,192,91875,1,0,0:0:0:1:
128,192,91950,1,0,0:0:0:1:
469,192,91950,1,0,0:0:0:1:
298,192,92025,1,0,0:0:0:1:
128,192,92100,1,0,0:0:0:1:
213,192,92100,1,0,0:0:0:1:
384,192,92100,1,0,0:0:0:1:
42,192,92175,1,0,0:0:0:1:
298,192,92250,1,0,0:0:0:1:
469,192,92250,1,0,0:0:0:1:
213,192,92325,1,0,0:0:0:1:
128,192,92400,1,0,0:0:0:1:
298,192,92400,1,0,0:0:0:1:
384,192,92400,1,0,0:0:0:1:
42,192,92475,1,0,0:0:0:1:
213,192,92550,1,0,0:0:0:1:
469,192,92550,1,0,0:0:0:1:
298,192,92625,1,0,0:0:0:1:
128,192,92700,1,0,0:0:0:1:
384,192,92700,1,0,0:0:0:1:
42,192,92700,1,0,0:0:0:1:
213,192,92775,1,0,0:0:0:1:
384,192,92850,1,0,0:0:0:1:
42,192,92850,1,0,0:0:0:1:
298,192,92925,1,0,0:0:0:1:
128,192,93000,1,0,0:0:0:1:
213,192,93000,1,0,0:0:0:1:
469,192,93000,1,0,0:0:0:1:
298,192,93075,1,0,0:0:0:1:
384,192,93150,1,0,0:0:0:1:
42,192,93150,1,0,0:0:0:1:
213,192,93225,1,0,0:0:0:1:
128,192,93300,1,0,0:0:0:1:
298,192,93300,1,0,0:0:0:1:
469,192,93300,1,0,0:0:0:1:
42,192,93375,1,0,0:0:0:1:
213,192,93450,1,0,0:0:0:1:
384,192,93450,1,0,0:0:0:1:
128,192,93525,1,0,0:0:0:1:
213,192,93600,1,0,0:0:0:1:
298,192,93600,1,0,0:0:0:1:
469,192,93600,1,0,0:0:0:1:
42,192,93675,1,0,0:0:0:1:
128,192,93750,1,0,0:0:0:1:
384,192,93750,1,0,0:0:0:1:
298,192,93825,1,0,0:0:0:1:
213,192,93900,1,0,0:0:0:1:
469,192,93900,1,0,0:0:0:1:
42,192,93900,1,0,0:0:0:1:
384,192,93975,1,0,0:0:0:1:
128,192,94050,1,0,0:0:0:1:
298,192,94050,1,0,0:0:0:1:
213,192,94125,1,0,0:0:0:1:
384,192,94200,1,0,0:0:0:1:
469,192,94200,1,0,0:0:0:1:
42,192,94200,1,0,0:0:0:1:
298,192,94275,1,0,0:0:0:1:
213,192,94350,1,0,0:0:0:1:
469,192,94350,1,0,0:0:0:1:
298,192,94425,1,0,0:0:0:1:
128,192,94500,1,0,0:0:0:1:
384,192,94500,1,0,0:0:0:1:
42,192,94500,1,0,0:0:0:1:
213,192,94575,1,0,0:0:0:1:
298,192,94650,1,0,0:0:0:1:
42,192,94650,1,0,0:0:0:1:
213,192,94725,1,0,0:0:0:1:
128,192,94800,1,0,0:0:0:1:
298,192,94800,1,0,0:0:0:1:
384,192,94800,1,0,0:0:0:1:
42,192,94800,1,0,0:0:0:1:
213,192,94875,1,0,0:0:0:1:
469,192,94875,1,0,0:0:0:1:
128,192,94950,1,0,0:0:0:1:
384,192,94950,1,0,0:0:0:1:
298,192,95025,1,0,0:0:0:1:
128,192,95100,1,0,0:0:0:1:
469,192,95100,1,0,0:0:0:1:
42,192,95100,1,0,0:0:0:1:
213,192,95175,1,0,0:0:0:1:
298,192,95175,1,0,0:0:0:1:
384,192,95250,1,0,0:0:0:1:
42,192,95250,1,0,0:0:0:1:
128,192,95325,1,0,0:0:0:1:
298,192,95325,1,0,0:0:0:1:
213,192,95400,1,0,0:0:0:1:
384,192,95400,1,0,0:0:0:1:
469,192,95400,1,0,0:0:0:1:
298,192,95475,1,0,0:0:0:1:
42,192,95475,1,0,0:0:0:1:
128,192,95550,1,0,0:0:0:1:
469,192,95550,1,0,0:0:0:1:
213,192,95625,1,0,0:0:0:1:
298,192,95700,1,0,0:0:0:1:
384,192,95700,1,0,0:0:0:1:
42,192,95700,1,0,0:0:0:1:
213,192,95775,1,0,0:0:0:1:
469,192,95775,1,0,0:0:0:1:
128,192,95850,1,0,0:0:0:1:
384,192,95850,1,0,0:0:0:1:
298,192,95925,1,0,0:0:0:1:
213,192,96000,1,0,0:0:0:1:
469,192,96000,1,0,0:0:0:1:
42,192,96000,1,0,0:0:0:1:
298,192,96075,1,0,0:0:0:1:
384,192,96075,1,0,0:0:0:1:
128,192,96150,1,0,0:0:0:1:
469,192,96150,1,0,0:0:0:1:
213,192,96225,1,0,0:0:0:1:
298,192,96300,1,0,0:0:0:1:
384,192,96300,1,0,0:0:0:1:
42,192,96300,1,0,0:0:0:1:
213,192,96375,1,0,0:0:0:1:
469,192,96375,1,0,0:0:0:1:
128,192,96450,1,0,0:0:0:1:
298,192,96450,1,0,0:0:0:1:
384,192,96525,1,0,0:0:0:1:
128,192,96600,1,0,0:0:0:1:
469,192,96600,1,0,0:0:0:1:
42,192,96600,1,0,0:0:0:1:
213,192,96675,1,0,0:0:0:1:
298,192,96675,1,0,0:0:0:1:
384,192,96750,1,0,0:0:0:1:
42,192,96750,1,0,0:0:0:1:
298,192,96825,1,0,0:0:0:1:
213,192,96900,1,0,0:0:0:1:
42,192,96900,1,0,0:0:0:1:
298,192,96975,1,0,0:0:0:1:
384,192,96975,1,0,0:0:0:1:
128,192,97050,1,0,0:0:0:1:
213,192,97050,1,0,0:0:0:1:
298,192,97125,1,0,0:0:0:1:
469,192,97125,1,0,0:0:0:1:
384,192,97200,1,0,0:0:0:1:
42,192,97200,1,0,0:0:0:1:
128,192,97275,1,0,0:0:0:1:
213,192,97350,1,0,0:0:0:1:
298,192,97350,1,0,0:0:0:1:
469,192,97350,1,0,0:0:0:1:
384,192,97500,1,0,0:0:0:1:
469,192,97500,1,0,0:0:0:1:
298,192,97575,1,0,0:0:0:1:
213,192,97650,1,0,0:0:0:1:
469,192,97650,1,0,0:0:0:1:
42,192,97650,1,0,0:0:0:1:
128,192,97800,1,0,0:0:0:1:
213,192,97800,1,0,0:0:0:1:
298,192,97875,1,0,0:0:0:1:
128,192,97950,1,0,0:0:0:1:
384,192,97950,1,0,0:0:0:1:
469,192,97950,1,0,0:0:0:1:
469,192,98100,1,0,0:0:0:1:
384,192,98137,1,0,0:0:0:1:
298,192,98175,1,0,0:0:0:1:
384,192,98250,1,0,0:0:0:1:
213,192,98325,1,0,0:0:0:1:
128,192,98400,1,0,0:0:0:1:
298,192,98400,1,0,0:0:0:1:
42,192,98400,1,0,0:0:0:1:
469,192,98400,128,0,99600:0:0:0:1:
128,192,99600,1,0,0:0:0:1:
42,192,99600,128,0,100050:0:0:0:1:
298,192,99675,1,0,0:0:0:1:
213,192,99750,1,0,0:0:0:1:
384,192,99750,1,0,0:0:0:1:
469,192,99825,1,0,0:0:0:1:
298,192,99900,1,0,0:0:0:1:
213,192,99975,1,0,0:0:0:1:
384,192,100050,1,0,0:0:0:1:
469,192,100050,1,0,0:0:0:1:
128,192,100050,128,0,100200:0:0:0:1:
298,192,100125,1,0,0:0:0:1:
42,192,100200,1,0,0:0:0:1:
213,192,100200,128,0,100950:0:0:0:1:
384,192,100275,1,0,0:0:0:1:
128,192,100350,1,0,0:0:0:1:
298,192,100350,1,0,0:0:0:1:
469,192,100425,1,0,0:0:0:1:
384,192,100500,1,0,0:0:0:1:
298,192,100575,1,0,0:0:0:1:
128,192,100650,1,0,0:0:0:1:
469,192,100650,1,0,0:0:0:1:
42,192,100725,1,0,0:0:0:1:
384,192,100800,1,0,0:0:0:1:
128,192,100875,1,0,0:0:0:1:
384,192,100950,1,0,0:0:0:1:
42,192,100950,1,0,0:0:0:1:
298,192,100950,128,0,101100:0:0:0:1:
128,192,101025,1,0,0:0:0:1:
213,192,101100,1,0,0:0:0:1:
469,192,101100,128,0,101250:0:0:0:1:
128,192,101175,1,0,0:0:0:1:
298,192,101250,1,0,0:0:0:1:
384,192,101250,1,0,0:0:0:1:
42,192,101250,128,0,101437:0:0:0:1:
213,192,101325,1,0,0:0:0:1:
469,192,101400,1,0,0:0:0:1:
298,192,101400,128,0,101550:0:0:0:1:
128,192,101475,1,0,0:0:0:1:
213,192,101550,1,0,0:0:0:1:
384,192,101550,1,0,0:0:0:1:
469,192,101550,128,0,101700:0:0:0:1:
42,192,101625,1,0,0:0:0:1:
298,192,101700,1,0,0:0:0:1:
128,192,101700,128,0,101850:0:0:0:1:
213,192,101775,1,0,0:0:0:1:
469,192,101850,1,0,0:0:0:1:
42,192,101850,1,0,0:0:0:1:
384,192,101850,128,0,102000:0:0:0:1:
298,192,101925,1,0,0:0:0:1:
128,192,102000,1,0,0:0:0:1:
213,192,102000,128,0,102600:0:0:0:1:
298,192,102075,1,0,0:0:0:1:
469,192,102150,1,0,0:0:0:1:
42,192,102150,1,0,0:0:0:1:
384,192,102225,1,0,0:0:0:1:
298,192,102300,1,0,0:0:0:1:
384,192,102375,1,0,0:0:0:1:
128,192,102450,1,0,0:0:0:1:
42,192,102450,1,0,0:0:0:1:
469,192,102450,128,0,102600:0:0:0:1:
298,192,102525,1,0,0:0:0:1:
384,192,102600,1,0,0:0:0:1:
42,192,102600,128,0,103800:0:0:0:1:
128,192,102675,1,0,0:0:0:1:
298,192,102750,1,0,0:0:0:1:
469,192,102750,1,0,0:0:0:1:
213,192,102825,1,0,0:0:0:1:
384,192,102900,1,0,0:0:0:1:
298,192,102975,1,0,0:0:0:1:
128,192,103050,1,0,0:0:0:1:
469,192,103050,1,0,0:0:0:1:
298,192,103125,1,0,0:0:0:1:
213,192,103200,1,0,0:0:0:1:
384,192,103275,1,0,0:0:0:1:
128,192,103350,1,0,0:0:0:1:
298,192,103350,1,0,0:0:0:1:
469,192,103425,1,0,0:0:0:1:
384,192,103500,1,0,0:0:0:1:
298,192,103575,1,0,0:0:0:1:
213,192,103650,1,0,0:0:0:1:
469,192,103650,1,0,0:0:0:1:
384,192,103725,1,0,0:0:0:1:
298,192,103800,1,0,0:0:0:1:
213,192,103875,1,0,0:0:0:1:
128,192,103950,1,0,0:0:0:1:
298,192,103950,1,0,0:0:0:1:
469,192,103950,1,0,0:0:0:1:
42,192,104025,1,0,0:0:0:1:
128,192,104100,1,0,0:0:0:1:
213,192,104175,1,0,0:0:0:1:
298,192,104250,1,0,0:0:0:1:
384,192,104250,1,0,0:0:0:1:
42,192,104250,1,0,0:0:0:1:
128,192,104325,1,0,0:0:0:1:
213,192,104400,1,0,0:0:0:1:
469,192,104400,128,0,104850:0:0:0:1:
298,192,104475,1,0,0:0:0:1:
128,192,104550,1,0,0:0:0:1:
384,192,104550,1,0,0:0:0:1:
213,192,104625,1,0,0:0:0:1:
298,192,104700,1,0,0:0:0:1:
213,192,104775,1,0,0:0:0:1:
128,192,104850,1,0,0:0:0:1:
42,192,104850,1,0,0:0:0:1:
384,192,104850,128,0,105000:0:0:0:1:
213,192,104925,1,0,0:0:0:1:
469,192,105000,1,0,0:0:0:1:
298,192,105000,128,0,105750:0:0:0:1:
42,192,105075,1,0,0:0:0:1:
213,192,105150,1,0,0:0:0:1:
384,192,105150,1,0,0:0:0:1:
128,192,105225,1,0,0:0:0:1:
469,192,105300,1,0,0:0:0:1:
384,192,105375,1,0,0:0:0:1:
213,192,105450,1,0,0:0:0:1:
42,192,105450,1,0,0:0:0:1:
469,192,105525,1,0,0:0:0:1:
128,192,105600,1,0,0:0:0:1:
384,192,105675,1,0,0:0:0:1:
469,192,105750,1,0,0:0:0:1:
42,192,105750,1,0,0:0:0:1:
213,192,105750,128,0,105900:0:0:0:1:
128,192,105825,1,0,0:0:0:1:
384,192,105900,1,0,0:0:0:1:
42,192,105900,128,0,106050:0:0:0:1:
298,192,105975,1,0,0:0:0:1:
128,192,106050,1,0,0:0:0:1:
213,192,106050,1,0,0:0:0:1:
469,192,106050,128,0,106237:0:0:0:1:
384,192,106125,1,0,0:0:0:1:
42,192,106200,1,0,0:0:0:1:
213,192,106200,128,0,106350:0:0:0:1:
298,192,106275,1,0,0:0:0:1:
128,192,106350,1,0,0:0:0:1:
384,192,106350,1,0,0:0:0:1:
42,192,106350,128,0,106500:0:0:0:1:
298,192,106425,1,0,0:0:0:1:
213,192,106500,1,0,0:0:0:1:
384,192,106500,128,0,106650:0:0:0:1:
298,192,106575,1,0,0:0:0:1:
469,192,106650,1,0,0:0:0:1:
42,192,106650,1,0,0:0:0:1:
128,192,106650,128,0,106800:0:0:0:1:
213,192,106725,1,0,0:0:0:1:
384,192,106800,1,0,0:0:0:1:
298,192,106800,128,0,107400:0:0:0:1:
213,192,106875,1,0,0:0:0:1:
469,192,106950,1,0,0:0:0:1:
42,192,106950,1,0,0:0:0:1:
128,192,107025,1,0,0:0:0:1:
213,192,107100,1,0,0:0:0:1:
384,192,107175,1,0,0:0:0:1:
128,192,107250,1,0,0:0:0:1:
469,192,107250,1,0,0:0:0:1:
42,192,107250,128,0,107400:0:0:0:1:
213,192,107325,1,0,0:0:0:1:
384,192,107400,1,0,0:0:0:1:
469,192,107400,128,0,109200:0:0:0:1:
128,192,107475,1,0,0:0:0:1:
213,192,107550,1,0,0:0:0:1:
298,192,107625,1,0,0:0:0:1:
128,192,107700,1,0,0:0:0:1:
42,192,107700,1,0,0:0:0:1:
213,192,107775,1,0,0:0:0:1:
298,192,107775,1,0,0:0:0:1:
384,192,107850,1,0,0:0:0:1:
42,192,107850,1,0,0:0:0:1:
128,192,107925,1,0,0:0:0:1:
213,192,107925,1,0,0:0:0:1:
298,192,108000,1,0,0:0:0:1:
42,192,108000,1,0,0:0:0:1:
128,192,108075,1,0,0:0:0:1:
213,192,108150,1,0,0:0:0:1:
42,192,108225,1,0,0:0:0:1:
298,192,108300,1,0,0:0:0:1:
128,192,108375,1,0,0:0:0:1:
213,192,108450,1,0,0:0:0:1:
384,192,108525,1,0,0:0:0:1:
128,192,108600,1,0,0:0:0:1:
213,192,108637,1,0,0:0:0:1:
298,192,108675,1,0,0:0:0:1:
42,192,108750,1,0,0:0:0:1:
384,192,108787,1,0,0:0:0:1:
213,192,108825,1,0,0:0:0:1:
298,192,108862,1,0,0:0:0:1:
128,192,108900,1,0,0:0:0:1:
298,192,108975,1,0,0:0:0:1:
42,192,109050,1,0,0:0:0:1:
213,192,109125,1,0,0:0:0:1:
384,192,109200,1,0,0:0:0:1:
42,192,109200,1,0,0:0:0:1:
128,192,109200,128,0,109800:0:0:0:1:
298,192,109200,128,0,109650:0:0:0:1:
213,192,109275,1,0,0:0:0:1:
469,192,109350,1,0,0:0:0:1:
213,192,109650,1,0,0:0:0:1:
384,192,109650,128,0,109800:0:0:0:1:
42,192,109725,1,0,0:0:0:1:
298,192,109800,1,0,0:0:0:1:
469,192,109800,128,0,110550:0:0:0:1:
213,192,109875,1,0,0:0:0:1:
42,192,109950,1,0,0:0:0:1:
298,192,110250,1,0,0:0:0:1:
128,192,110325,1,0,0:0:0:1:
298,192,110400,1,0,0:0:0:1:
42,192,110475,1,0,0:0:0:1:
384,192,110550,1,0,0:0:0:1:
213,192,110550,128,0,110850:0:0:0:1:
384,192,110700,128,0,111000:0:0:0:1:
42,192,110850,1,0,0:0:0:1:
128,192,110850,128,0,111150:0:0:0:1:
469,192,110925,1,0,0:0:0:1:
213,192,111000,1,0,0:0:0:1:
298,192,111000,128,0,111450:0:0:0:1:
469,192,111075,1,0,0:0:0:1:
384,192,111150,1,0,0:0:0:1:
42,192,111150,128,0,111600:0:0:0:1:
213,192,111225,1,0,0:0:0:1:
469,192,111300,1,0,0:0:0:1:
128,192,111375,1,0,0:0:0:1:
213,192,111450,1,0,0:0:0:1:
469,192,111450,128,0,111600:0:0:0:1:
298,192,111600,1,0,0:0:0:1:
213,192,111600,128,0,112200:0:0:0:1:
384,192,111600,128,0,112050:0:0:0:1:
128,192,111675,1,0,0:0:0:1:
298,192,111750,1,0,0:0:0:1:
469,192,112050,1,0,0:0:0:1:
42,192,112050,128,0,112200:0:0:0:1:
298,192,112125,1,0,0:0:0:1:
469,192,112200,1,0,0:0:0:1:
128,192,112200,128,0,113400:0:0:0:1:
384,192,112650,1,0,0:0:0:1:
213,192,112725,1,0,0:0:0:1:
469,192,112800,1,0,0:0:0:1:
298,192,112875,1,0,0:0:0:1:
384,192,112950,1,0,0:0:0:1:
213,192,113100,1,0,0:0:0:1:
298,192,113175,1,0,0:0:0:1:
384,192,113250,1,0,0:0:0:1:
469,192,113325,1,0,0:0:0:1:
298,192,113400,1,0,0:0:0:1:
384,192,113475,1,0,0:0:0:1:
213,192,113550,1,0,0:0:0:1:
298,192,113625,1,0,0:0:0:1:
128,192,113700,1,0,0:0:0:1:
213,192,113775,1,0,0:0:0:1:
42,192,113850,1,0,0:0:0:1:
128,192,114000,1,0,0:0:0:1:
298,192,114000,1,0,0:0:0:1:
469,192,114000,128,0,114600:0:0:0:1:
128,192,114150,1,0,0:0:0:1:
298,192,114150,1,0,0:0:0:1:
213,192,114225,1,0,0:0:0:1:
42,192,114300,1,0,0:0:0:1:
298,192,114450,1,0,0:0:0:1:
213,192,114450,128,0,114600:0:0:0:1:
128,192,114525,1,0,0:0:0:1:
384,192,114600,1,0,0:0:0:1:
42,192,114600,128,0,115350:0:0:0:1:
128,192,114675,1,0,0:0:0:1:
298,192,114750,1,0,0:0:0:1:
469,192,114825,1,0,0:0:0:1:
213,192,114900,1,0,0:0:0:1:
384,192,115200,1,0,0:0:0:1:
213,192,115275,1,0,0:0:0:1:
469,192,115350,1,0,0:0:0:1:
298,192,115350,128,0,115500:0:0:0:1:
384,192,115500,1,0,0:0:0:1:
128,192,115500,128,0,115650:0:0:0:1:
213,192,115575,1,0,0:0:0:1:
42,192,115650,1,0,0:0:0:1:
469,192,115650,128,0,115800:0:0:0:1:
213,192,115800,128,0,115950:0:0:0:1:
128,192,115950,1,0,0:0:0:1:
384,192,115950,128,0,116250:0:0:0:1:
298,192,116025,1,0,0:0:0:1:
42,192,116100,1,0,0:0:0:1:
128,192,116175,1,0,0:0:0:1:
469,192,116250,1,0,0:0:0:1:
213,192,116250,128,0,116400:0:0:0:1:
298,192,116325,1,0,0:0:0:1:
42,192,116400,1,0,0:0:0:1:
128,192,116400,128,0,117000:0:0:0:1:
384,192,116475,1,0,0:0:0:1:
213,192,116550,1,0,0:0:0:1:
469,192,116625,1,0,0:0:0:1:
298,192,116700,1,0,0:0:0:1:
42,192,116775,1,0,0:0:0:1:
384,192,116850,1,0,0:0:0:1:
469,192,116850,128,0,117000:0:0:0:1:
213,192,116925,1,0,0:0:0:1:
298,192,117000,1,0,0:0:0:1:
42,192,117000,128,0,117600:0:0:0:1:
213,192,117075,1,0,0:0:0:1:
384,192,117150,1,0,0:0:0:1:
128,192,117225,1,0,0:0:0:1:
298,192,117300,1,0,0:0:0:1:
469,192,117375,1,0,0:0:0:1:
213,192,117450,1,0,0:0:0:1:
298,192,117525,1,0,0:0:0:1:
128,192,117600,1,0,0:0:0:1:
384,192,117600,1,0,0:0:0:1:
469,192,117900,128,0,118200:0:0:0:1:
384,192,118200,128,0,118500:0:0:0:1:
298,192,118500,128,0,118800:0:0:0:1:
213,192,118800,1,0,0:0:0:1:
469,192,118800,128,0,119250:0:0:0:1:
128,192,118875,1,0,0:0:0:1:
298,192,118950,1,0,0:0:0:1:
42,192,118950,1,0,0:0:0:1:
213,192,119025,1,0,0:0:0:1:
128,192,119100,1,0,0:0:0:1:
213,192,119175,1,0,0:0:0:1:
384,192,119250,1,0,0:0:0:1:
42,192,119250,1,0,0:0:0:1:
298,192,119250,128,0,119550:0:0:0:1:
213,192,119325,1,0,0:0:0:1:
469,192,119400,1,0,0:0:0:1:
42,192,119475,1,0,0:0:0:1:
213,192,119550,1,0,0:0:0:1:
384,192,119550,1,0,0:0:0:1:
128,192,119550,128,0,120000:0:0:0:1:
469,192,119625,1,0,0:0:0:1:
298,192,119700,1,0,0:0:0:1:
213,192,119775,1,0,0:0:0:1:
469,192,119850,1,0,0:0:0:1:
42,192,119850,1,0,0:0:0:1:
384,192,119850,128,0,120000:0:0:0:1:
298,192,119925,1,0,0:0:0:1:
213,192,120000,1,0,0:0:0:1:
42,192,120000,128,0,120450:0:0:0:1:
469,192,120075,1,0,0:0:0:1:
298,192,120150,1,0,0:0:0:1:
384,192,120150,1,0,0:0:0:1:
213,192,120225,1,0,0:0:0:1:
469,192,120300,1,0,0:0:0:1:
298,192,120375,1,0,0:0:0:1:
128,192,120450,1,0,0:0:0:1:
384,192,120450,1,0,0:0:0:1:
213,192,120450,128,0,120750:0:0:0:1:
469,192,120525,1,0,0:0:0:1:
298,192,120600,1,0,0:0:0:1:
42,192,120675,1,0,0:0:0:1:
128,192,120750,1,0,0:0:0:1:
384,192,120750,1,0,0:0:0:1:
469,192,120750,128,0,121200:0:0:0:1:
298,192,120825,1,0,0:0:0:1:
128,192,120900,1,0,0:0:0:1:
213,192,120975,1,0,0:0:0:1:
384,192,121050,1,0,0:0:0:1:
42,192,121050,1,0,0:0:0:1:
298,192,121050,128,0,121200:0:0:0:1:
213,192,121125,1,0,0:0:0:1:
42,192,121200,1,0,0:0:0:1:
128,192,121200,128,0,121650:0:0:0:1:
384,192,121275,1,0,0:0:0:1:
213,192,121350,1,0,0:0:0:1:
298,192,121350,1,0,0:0:0:1:
469,192,121425,1,0,0:0:0:1:
384,192,121500,1,0,0:0:0:1:
298,192,121575,1,0,0:0:0:1:
469,192,121650,1,0,0:0:0:1:
42,192,121650,1,0,0:0:0:1:
213,192,121650,128,0,121950:0:0:0:1:
384,192,121725,1,0,0:0:0:1:
128,192,121800,1,0,0:0:0:1:
469,192,121875,1,0,0:0:0:1:
384,192,121950,1,0,0:0:0:1:
42,192,121950,1,0,0:0:0:1:
298,192,121950,128,0,122250:0:0:0:1:
128,192,122025,1,0,0:0:0:1:
213,192,122100,1,0,0:0:0:1:
469,192,122175,1,0,0:0:0:1:
128,192,122250,1,0,0:0:0:1:
42,192,122250,1,0,0:0:0:1:
384,192,122250,128,0,122400:0:0:0:1:
213,192,122325,1,0,0:0:0:1:
469,192,122400,1,0,0:0:0:1:
42,192,122400,128,0,123300:0:0:0:1:
298,192,122475,1,0,0:0:0:1:
213,192,122550,1,0,0:0:0:1:
384,192,122550,1,0,0:0:0:1:
128,192,122625,1,0,0:0:0:1:
298,192,122700,1,0,0:0:0:1:
469,192,122775,1,0,0:0:0:1:
213,192,122850,1,0,0:0:0:1:
384,192,122850,1,0,0:0:0:1:
298,192,122925,1,0,0:0:0:1:
213,192,123000,1,0,0:0:0:1:
384,192,123075,1,0,0:0:0:1:
128,192,123150,1,0,0:0:0:1:
469,192,123150,1,0,0:0:0:1:
298,192,123150,128,0,123450:0:0:0:1:
213,192,123225,1,0,0:0:0:1:
384,192,123300,1,0,0:0:0:1:
213,192,123375,1,0,0:0:0:1:
469,192,123450,1,0,0:0:0:1:
42,192,123450,1,0,0:0:0:1:
128,192,123450,128,0,123600:0:0:0:1:
384,192,123525,1,0,0:0:0:1:
213,192,123600,1,0,0:0:0:1:
469,192,123600,128,0,124050:0:0:0:1:
298,192,123675,1,0,0:0:0:1:
128,192,123750,1,0,0:0:0:1:
42,192,123750,1,0,0:0:0:1:
213,192,123825,1,0,0:0:0:1:
298,192,123900,1,0,0:0:0:1:
42,192,123975,1,0,0:0:0:1:
128,192,124050,1,0,0:0:0:1:
213,192,124050,1,0,0:0:0:1:
298,192,124050,128,0,124350:0:0:0:1:
384,192,124125,1,0,0:0:0:1:
42,192,124200,1,0,0:0:0:1:
213,192,124275,1,0,0:0:0:1:
469,192,124350,1,0,0:0:0:1:
42,192,124350,1,0,0:0:0:1:
128,192,124350,128,0,124800:0:0:0:1:
384,192,124425,1,0,0:0:0:1:
213,192,124500,1,0,0:0:0:1:
298,192,124575,1,0,0:0:0:1:
469,192,124650,1,0,0:0:0:1:
42,192,124650,1,0,0:0:0:1:
384,192,124650,128,0,124800:0:0:0:1:
213,192,124725,1,0,0:0:0:1:
298,192,124800,1,0,0:0:0:1:
42,192,124800,128,0,125250:0:0:0:1:
469,192,124875,1,0,0:0:0:1:
213,192,124950,1,0,0:0:0:1:
384,192,124950,1,0,0:0:0:1:
298,192,125025,1,0,0:0:0:1:
128,192,125100,1,0,0:0:0:1:
298,192,125175,1,0,0:0:0:1:
384,192,125250,1,0,0:0:0:1:
469,192,125250,1,0,0:0:0:1:
213,192,125250,128,0,125550:0:0:0:1:
128,192,125325,1,0,0:0:0:1:
298,192,125400,1,0,0:0:0:1:
42,192,125475,1,0,0:0:0:1:
128,192,125550,1,0,0:0:0:1:
384,192,125550,1,0,0:0:0:1:
469,192,125550,128,0,126000:0:0:0:1:
298,192,125625,1,0,0:0:0:1:
128,192,125700,1,0,0:0:0:1:
213,192,125775,1,0,0:0:0:1:
384,192,125850,1,0,0:0:0:1:
42,192,125850,1,0,0:0:0:1:
298,192,125850,128,0,126000:0:0:0:1:
128,192,125925,1,0,0:0:0:1:
213,192,126000,1,0,0:0:0:1:
42,192,126000,128,0,127800:0:0:0:1:
384,192,126075,1,0,0:0:0:1:
128,192,126150,1,0,0:0:0:1:
298,192,126150,1,0,0:0:0:1:
469,192,126225,1,0,0:0:0:1:
213,192,126300,1,0,0:0:0:1:
298,192,126375,1,0,0:0:0:1:
384,192,126450,1,0,0:0:0:1:
469,192,126450,1,0,0:0:0:1:
213,192,126525,1,0,0:0:0:1:
298,192,126600,1,0,0:0:0:1:
128,192,126675,1,0,0:0:0:1:
298,192,126750,1,0,0:0:0:1:
469,192,126750,1,0,0:0:0:1:
213,192,126825,1,0,0:0:0:1:
384,192,126900,1,0,0:0:0:1:
298,192,126975,1,0,0:0:0:1:
128,192,127050,1,0,0:0:0:1:
469,192,127050,1,0,0:0:0:1:
298,192,127125,1,0,0:0:0:1:
384,192,127200,1,0,0:0:0:1:
213,192,127275,1,0,0:0:0:1:
298,192,127350,1,0,0:0:0:1:
469,192,127350,1,0,0:0:0:1:
128,192,127425,1,0,0:0:0:1:
384,192,127500,1,0,0:0:0:1:
213,192,127575,1,0,0:0:0:1:
298,192,127650,1,0,0:0:0:1:
469,192,127725,1,0,0:0:0:1:
213,192,127800,1,0,0:0:0:1:
384,192,127875,1,0,0:0:0:1:
128,192,127950,1,0,0:0:0:1:
469,192,127950,1,0,0:0:0:1:
42,192,127950,1,0,0:0:0:1:
298,192,127950,128,0,128250:0:0:0:1:
213,192,128025,1,0,0:0:0:1:
469,192,128100,1,0,0:0:0:1:
42,192,128100,1,0,0:0:0:1:
128,192,128175,1,0,0:0:0:1:
213,192,128250,1,0,0:0:0:1:
384,192,128250,1,0,0:0:0:1:
469,192,128250,128,0,128400:0:0:0:1:
128,192,128325,1,0,0:0:0:1:
213,192,128400,1,0,0:0:0:1:
298,192,128400,1,0,0:0:0:1:
42,192,128400,128,0,128850:0:0:0:1:
384,192,128475,1,0,0:0:0:1:
128,192,128550,1,0,0:0:0:1:
469,192,128550,1,0,0:0:0:1:
298,192,128625,1,0,0:0:0:1:
213,192,128700,1,0,0:0:0:1:
384,192,128775,1,0,0:0:0:1:
128,192,128850,1,0,0:0:0:1:
298,192,128850,1,0,0:0:0:1:
213,192,128850,128,0,129150:0:0:0:1:
469,192,128925,1,0,0:0:0:1:
42,192,129000,1,0,0:0:0:1:
298,192,129075,1,0,0:0:0:1:
128,192,129150,1,0,0:0:0:1:
469,192,129150,1,0,0:0:0:1:
384,192,129150,128,0,129600:0:0:0:1:
42,192,129225,1,0,0:0:0:1:
213,192,129300,1,0,0:0:0:1:
298,192,129375,1,0,0:0:0:1:
469,192,129450,1,0,0:0:0:1:
42,192,129450,1,0,0:0:0:1:
128,192,129450,128,0,129600:0:0:0:1:
213,192,129525,1,0,0:0:0:1:
298,192,129600,1,0,0:0:0:1:
469,192,129600,128,0,130050:0:0:0:1:
42,192,129675,1,0,0:0:0:1:
128,192,129750,1,0,0:0:0:1:
213,192,129750,1,0,0:0:0:1:
298,192,129825,1,0,0:0:0:1:
42,192,129900,1,0,0:0:0:1:
213,192,129975,1,0,0:0:0:1:
128,192,130050,1,0,0:0:0:1:
384,192,130050,1,0,0:0:0:1:
298,192,130050,128,0,130350:0:0:0:1:
213,192,130125,1,0,0:0:0:1:
469,192,130200,1,0,0:0:0:1:
128,192,130275,1,0,0:0:0:1:
213,192,130350,1,0,0:0:0:1:
384,192,130350,1,0,0:0:0:1:
42,192,130350,128,0,130800:0:0:0:1:
469,192,130425,1,0,0:0:0:1:
298,192,130500,1,0,0:0:0:1:
128,192,130575,1,0,0:0:0:1:
384,192,130650,1,0,0:0:0:1:
469,192,130650,1,0,0:0:0:1:
213,192,130650,128,0,130800:0:0:0:1:
298,192,130725,1,0,0:0:0:1:
128,192,130800,1,0,0:0:0:1:
384,192,130800,128,0,131250:0:0:0:1:
298,192,130875,1,0,0:0:0:1:
469,192,130950,1,0,0:0:0:1:
42,192,130950,1,0,0:0:0:1:
213,192,131025,1,0,0:0:0:1:
128,192,131100,1,0,0:0:0:1:
213,192,131175,1,0,0:0:0:1:
469,192,131250,1,0,0:0:0:1:
42,192,131250,1,0,0:0:0:1:
298,192,131250,128,0,131550:0:0:0:1:
128,192,131325,1,0,0:0:0:1:
384,192,131400,1,0,0:0:0:1:
128,192,131475,1,0,0:0:0:1:
469,192,131550,1,0,0:0:0:1:
42,192,131550,1,0,0:0:0:1:
213,192,131550,128,0,131850:0:0:0:1:
384,192,131625,1,0,0:0:0:1:
298,192,131700,1,0,0:0:0:1:
469,192,131775,1,0,0:0:0:1:
384,192,131850,1,0,0:0:0:1:
42,192,131850,1,0,0:0:0:1:
128,192,131850,128,0,132000:0:0:0:1:
298,192,131925,1,0,0:0:0:1:
469,192,132000,1,0,0:0:0:1:
384,192,132000,128,0,132150:0:0:0:1:
213,192,132075,1,0,0:0:0:1:
128,192,132150,1,0,0:0:0:1:
298,192,132150,1,0,0:0:0:1:
42,192,132150,128,0,132450:0:0:0:1:
469,192,132225,1,0,0:0:0:1:
213,192,132300,1,0,0:0:0:1:
384,192,132375,1,0,0:0:0:1:
128,192,132450,1,0,0:0:0:1:
469,192,132450,1,0,0:0:0:1:
298,192,132450,128,0,132900:0:0:0:1:
213,192,132525,1,0,0:0:0:1:
42,192,132600,1,0,0:0:0:1:
384,192,132675,1,0,0:0:0:1:
128,192,132750,1,0,0:0:0:1:
469,192,132750,1,0,0:0:0:1:
42,192,132825,1,0,0:0:0:1:
384,192,132900,1,0,0:0:0:1:
213,192,132900,128,0,133200:0:0:0:1:
128,192,132975,1,0,0:0:0:1:
469,192,133050,1,0,0:0:0:1:
42,192,133050,1,0,0:0:0:1:
384,192,133050,128,0,133200:0:0:0:1:
298,192,133125,1,0,0:0:0:1:
128,192,133200,1,0,0:0:0:1:
42,192,133200,128,0,133650:0:0:0:1:
298,192,133275,1,0,0:0:0:1:
213,192,133350,1,0,0:0:0:1:
469,192,133350,1,0,0:0:0:1:
384,192,133425,1,0,0:0:0:1:
298,192,133500,1,0,0:0:0:1:
469,192,133575,1,0,0:0:0:1:
128,192,133650,1,0,0:0:0:1:
384,192,133650,1,0,0:0:0:1:
213,192,133650,128,0,133950:0:0:0:1:
298,192,133725,1,0,0:0:0:1:
42,192,133800,1,0,0:0:0:1:
298,192,133875,1,0,0:0:0:1:
128,192,133950,1,0,0:0:0:1:
469,192,133950,1,0,0:0:0:1:
384,192,133950,128,0,134400:0:0:0:1:
42,192,134025,1,0,0:0:0:1:
298,192,134100,1,0,0:0:0:1:
213,192,134175,1,0,0:0:0:1:
469,192,134250,1,0,0:0:0:1:
42,192,134250,1,0,0:0:0:1:
128,192,134250,128,0,134400:0:0:0:1:
298,192,134325,1,0,0:0:0:1:
213,192,134400,1,0,0:0:0:1:
469,192,134400,128,0,134850:0:0:0:1:
42,192,134475,1,0,0:0:0:1:
128,192,134550,1,0,0:0:0:1:
298,192,134550,1,0,0:0:0:1:
213,192,134625,1,0,0:0:0:1:
384,192,134700,1,0,0:0:0:1:
213,192,134775,1,0,0:0:0:1:
128,192,134850,1,0,0:0:0:1:
42,192,134850,1,0,0:0:0:1:
298,192,134850,128,0,135150:0:0:0:1:
384,192,134925,1,0,0:0:0:1:
213,192,135000,1,0,0:0:0:1:
469,192,135075,1,0,0:0:0:1:
128,192,135150,1,0,0:0:0:1:
384,192,135150,1,0,0:0:0:1:
42,192,135150,128,0,135600:0:0:0:1:
213,192,135225,1,0,0:0:0:1:
384,192,135300,1,0,0:0:0:1:
298,192,135375,1,0,0:0:0:1:
128,192,135450,1,0,0:0:0:1:
469,192,135450,1,0,0:0:0:1:
213,192,135450,128,0,135600:0:0:0:1:
384,192,135525,1,0,0:0:0:1:
298,192,135600,1,0,0:0:0:1:
469,192,135600,128,0,138000:0:0:0:1:
128,192,135675,1,0,0:0:0:1:
384,192,135675,1,0,0:0:0:1:
298,192,135750,1,0,0:0:0:1:
42,192,135750,1,0,0:0:0:1:
213,192,135825,1,0,0:0:0:1:
128,192,135900,1,0,0:0:0:1:
384,192,135900,1,0,0:0:0:1:
128,192,136050,1,0,0:0:0:1:
213,192,136050,1,0,0:0:0:1:
298,192,136125,1,0,0:0:0:1:
42,192,136125,1,0,0:0:0:1:
213,192,136200,1,0,0:0:0:1:
384,192,136200,1,0,0:0:0:1:
128,192,136275,1,0,0:0:0:1:
42,192,136275,1,0,0:0:0:1:
128,192,136425,1,0,0:0:0:1:
298,192,136425,1,0,0:0:0:1:
384,192,136500,1,0,0:0:0:1:
42,192,136500,1,0,0:0:0:1:
128,192,136575,1,0,0:0:0:1:
213,192,136575,1,0,0:0:0:1:
298,192,136650,1,0,0:0:0:1:
42,192,136650,1,0,0:0:0:1:
213,192,136875,1,0,0:0:0:1:
384,192,136875,1,0,0:0:0:1:
128,192,136950,1,0,0:0:0:1:
298,192,136950,1,0,0:0:0:1:
384,192,137025,1,0,0:0:0:1:
42,192,137025,1,0,0:0:0:1:
213,192,137100,1,0,0:0:0:1:
298,192,137100,1,0,0:0:0:1:
128,192,137175,1,0,0:0:0:1:
213,192,137250,1,0,0:0:0:1:
384,192,137325,1,0,0:0:0:1:
42,192,137400,1,0,0:0:0:1:
213,192,137475,1,0,0:0:0:1:
42,192,137550,1,0,0:0:0:1:
298,192,137625,1,0,0:0:0:1:
128,192,137700,1,0,0:0:0:1:
213,192,137850,1,0,0:0:0:1:
128,192,138000,1,0,0:0:0:1:
298,192,138000,1,0,0:0:0:1:
384,192,138000,1,0,0:0:0:1:
42,192,138000,1,0,0:0:0:1:
213,192,138150,1,0,0:0:0:1:
384,192,138150,1,0,0:0:0:1:
128,192,138300,1,0,0:0:0:1:
469,192,138300,1,0,0:0:0:1:
128,192,138450,1,0,0:0:0:1:
298,192,138450,1,0,0:0:0:1:
213,192,138600,1,0,0:0:0:1:
384,192,138600,1,0,0:0:0:1:
469,192,138750,1,0,0:0:0:1:
42,192,138750,1,0,0:0:0:1:
213,192,138900,1,0,0:0:0:1:
384,192,138900,1,0,0:0:0:1:
128,192,139050,1,0,0:0:0:1:
384,192,139050,1,0,0:0:0:1:
213,192,139200,1,0,0:0:0:1:
298,192,139200,1,0,0:0:0:1:
469,192,139200,1,0,0:0:0:1:
42,192,139200,1,0,0:0:0:1:
213,192,139350,1,0,0:0:0:1:
469,192,139350,1,0,0:0:0:1:
128,192,139500,1,0,0:0:0:1:
298,192,139500,1,0,0:0:0:1:
128,192,139650,1,0,0:0:0:1:
384,192,139650,1,0,0:0:0:1:
298,192,139800,1,0,0:0:0:1:
42,192,139800,1,0,0:0:0:1:
213,192,139950,1,0,0:0:0:1:
469,192,139950,1,0,0:0:0:1:
128,192,140100,1,0,0:0:0:1:
384,192,140100,1,0,0:0:0:1:
213,192,140250,1,0,0:0:0:1:
298,192,140250,1,0,0:0:0:1:
128,192,140400,1,0,0:0:0:1:
384,192,140400,1,0,0:0:0:1:
469,192,140400,1,0,0:0:0:1:
42,192,140400,1,0,0:0:0:1:
213,192,140550,1,0,0:0:0:1:
384,192,140550,1,0,0:0:0:1:
128,192,140700,1,0,0:0:0:1:
469,192,140700,1,0,0:0:0:1:
298,192,140850,1,0,0:0:0:1:
42,192,140850,1,0,0:0:0:1:
384,192,141000,1,0,0:0:0:1:
42,192,141000,1,0,0:0:0:1:
213,192,141150,1,0,0:0:0:1:
469,192,141150,1,0,0:0:0:1:
128,192,141300,1,0,0:0:0:1:
384,192,141300,1,0,0:0:0:1:
128,192,141450,1,0,0:0:0:1:
298,192,141450,1,0,0:0:0:1:
213,192,141600,1,0,0:0:0:1:
298,192,141600,1,0,0:0:0:1:
469,192,141600,1,0,0:0:0:1:
42,192,141600,1,0,0:0:0:1:
213,192,141750,1,0,0:0:0:1:
384,192,141750,1,0,0:0:0:1:
128,192,141900,1,0,0:0:0:1:
298,192,141900,1,0,0:0:0:1:
384,192,142050,1,0,0:0:0:1:
42,192,142050,1,0,0:0:0:1:
213,192,142200,1,0,0:0:0:1:
384,192,142200,1,0,0:0:0:1:
128,192,142350,1,0,0:0:0:1:
469,192,142350,1,0,0:0:0:1:
128,192,142500,1,0,0:0:0:1:
298,192,142500,1,0,0:0:0:1:
384,192,142650,1,0,0:0:0:1:
42,192,142650,1,0,0:0:0:1:
128,192,142800,1,0,0:0:0:1:
213,192,142800,1,0,0:0:0:1:
469,192,142800,1,0,0:0:0:1:
42,192,142800,1,0,0:0:0:1:
384,192,142875,1,0,0:0:0:1:
298,192,142950,1,0,0:0:0:1:
213,192,143025,1,0,0:0:0:1:
298,192,143100,1,0,0:0:0:1:
384,192,143175,1,0,0:0:0:1:
298,192,143250,1,0,0:0:0:1:
213,192,143325,1,0,0:0:0:1:
128,192,143400,1,0,0:0:0:1:
384,192,143400,1,0,0:0:0:1:
469,192,143400,1,0,0:0:0:1:
42,192,143400,1,0,0:0:0:1:
213,192,143475,1,0,0:0:0:1:
298,192,143550,1,0,0:0:0:1:
213,192,143625,1,0,0:0:0:1:
128,192,143700,1,0,0:0:0:1:
42,192,143775,1,0,0:0:0:1:
128,192,143850,1,0,0:0:0:1:
213,192,143925,1,0,0:0:0:1:
128,192,144000,1,0,0:0:0:1:
298,192,144000,1,0,0:0:0:1:
384,192,144000,1,0,0:0:0:1:
42,192,144000,1,0,0:0:0:1:
469,192,144075,1,0,0:0:0:1:
384,192,144150,1,0,0:0:0:1:
298,192,144225,1,0,0:0:0:1:
213,192,144300,1,0,0:0:0:1:
298,192,144375,1,0,0:0:0:1:
384,192,144450,1,0,0:0:0:1:
298,192,144525,1,0,0:0:0:1:
128,192,144600,1,0,0:0:0:1:
213,192,144600,1,0,0:0:0:1:
384,192,144600,1,0,0:0:0:1:
469,192,144600,1,0,0:0:0:1:
42,192,144675,1,0,0:0:0:1:
128,192,144750,1,0,0:0:0:1:
213,192,144825,1,0,0:0:0:1:
298,192,144900,1,0,0:0:0:1:
384,192,144975,1,0,0:0:0:1:
298,192,145050,1,0,0:0:0:1:
213,192,145125,1,0,0:0:0:1:
128,192,145200,1,0,0:0:0:1:
469,192,145200,1,0,0:0:0:1:
42,192,145200,1,0,0:0:0:1:
298,192,145275,1,0,0:0:0:1:
384,192,145275,1,0,0:0:0:1:
128,192,145350,1,0,0:0:0:1:
213,192,145350,1,0,0:0:0:1:
42,192,145425,1,0,0:0:0:1:
213,192,145500,1,0,0:0:0:1:
42,192,145575,1,0,0:0:0:1:
213,192,145650,1,0,0:0:0:1:
128,192,145725,1,0,0:0:0:1:
298,192,145800,1,0,0:0:0:1:
128,192,145875,1,0,0:0:0:1:
298,192,145950,1,0,0:0:0:1:
213,192,146025,1,0,0:0:0:1:
384,192,146100,1,0,0:0:0:1:
213,192,146175,1,0,0:0:0:1:
384,192,146250,1,0,0:0:0:1:
298,192,146325,1,0,0:0:0:1:
469,192,146400,1,0,0:0:0:1:
42,192,146400,1,0,0:0:0:1:
298,192,146475,1,0,0:0:0:1:
42,192,146475,1,0,0:0:0:1:
469,192,146550,1,0,0:0:0:1:
42,192,146550,1,0,0:0:0:1:
213,192,146625,1,0,0:0:0:1:
384,192,146700,1,0,0:0:0:1:
213,192,146775,1,0,0:0:0:1:
384,192,146850,1,0,0:0:0:1:
128,192,146925,1,0,0:0:0:1:
298,192,147000,1,0,0:0:0:1:
128,192,147075,1,0,0:0:0:1:
298,192,147150,1,0,0:0:0:1:
42,192,147225,1,0,0:0:0:1:
213,192,147300,1,0,0:0:0:1:
42,192,147375,1,0,0:0:0:1:
213,192,147450,1,0,0:0:0:1:
128,192,147525,1,0,0:0:0:1:
298,192,147600,1,0,0:0:0:1:
469,192,147600,1,0,0:0:0:1:
128,192,147675,1,0,0:0:0:1:
213,192,147750,1,0,0:0:0:1:
384,192,147750,1,0,0:0:0:1:
42,192,147750,1,0,0:0:0:1:
298,192,147825,1,0,0:0:0:1:
128,192,147900,1,0,0:0:0:1:
213,192,147975,1,0,0:0:0:1:
298,192,148050,1,0,0:0:0:1:
384,192,148050,1,0,0:0:0:1:
42,192,148050,1,0,0:0:0:1:
469,192,148125,1,0,0:0:0:1:
213,192,148200,1,0,0:0:0:1:
384,192,148200,1,0,0:0:0:1:
298,192,148275,1,0,0:0:0:1:
128,192,148350,1,0,0:0:0:1:
469,192,148350,1,0,0:0:0:1:
42,192,148350,1,0,0:0:0:1:
213,192,148425,1,0,0:0:0:1:
128,192,148500,1,0,0:0:0:1:
384,192,148500,1,0,0:0:0:1:
298,192,148575,1,0,0:0:0:1:
213,192,148650,1,0,0:0:0:1:
469,192,148650,1,0,0:0:0:1:
42,192,148650,1,0,0:0:0:1:
384,192,148725,1,0,0:0:0:1:
128,192,148800,1,0,0:0:0:1:
298,192,148800,1,0,0:0:0:1:
213,192,148875,1,0,0:0:0:1:
384,192,148950,1,0,0:0:0:1:
469,192,148950,1,0,0:0:0:1:
42,192,148950,1,0,0:0:0:1:
213,192,149025,1,0,0:0:0:1:
128,192,149100,1,0,0:0:0:1:
298,192,149175,1,0,0:0:0:1:
213,192,149250,1,0,0:0:0:1:
469,192,149250,1,0,0:0:0:1:
42,192,149250,1,0,0:0:0:1:
384,192,149325,1,0,0:0:0:1:
128,192,149400,1,0,0:0:0:1:
298,192,149400,1,0,0:0:0:1:
42,192,149475,1,0,0:0:0:1:
213,192,149550,1,0,0:0:0:1:
298,192,149550,1,0,0:0:0:1:
469,192,149550,1,0,0:0:0:1:
128,192,149625,1,0,0:0:0:1:
384,192,149700,1,0,0:0:0:1:
42,192,149700,1,0,0:0:0:1:
213,192,149775,1,0,0:0:0:1:
128,192,149850,1,0,0:0:0:1:
298,192,149850,1,0,0:0:0:1:
469,192,149850,1,0,0:0:0:1:
42,192,149925,1,0,0:0:0:1:
213,192,150000,1,0,0:0:0:1:
298,192,150075,1,0,0:0:0:1:
128,192,150150,1,0,0:0:0:1:
384,192,150150,1,0,0:0:0:1:
469,192,150150,1,0,0:0:0:1:
213,192,150225,1,0,0:0:0:1:
42,192,150300,1,0,0:0:0:1:
298,192,150375,1,0,0:0:0:1:
128,192,150450,1,0,0:0:0:1:
213,192,150450,1,0,0:0:0:1:
469,192,150450,1,0,0:0:0:1:
384,192,150525,1,0,0:0:0:1:
298,192,150600,1,0,0:0:0:1:
42,192,150600,1,0,0:0:0:1:
128,192,150675,1,0,0:0:0:1:
213,192,150750,1,0,0:0:0:1:
384,192,150750,1,0,0:0:0:1:
469,192,150750,1,0,0:0:0:1:
298,192,150825,1,0,0:0:0:1:
128,192,150900,1,0,0:0:0:1:
469,192,150900,1,0,0:0:0:1:
213,192,150975,1,0,0:0:0:1:
298,192,151050,1,0,0:0:0:1:
384,192,151050,1,0,0:0:0:1:
42,192,151050,1,0,0:0:0:1:
213,192,151125,1,0,0:0:0:1:
128,192,151200,1,0,0:0:0:1:
469,192,151200,1,0,0:0:0:1:
298,192,151275,1,0,0:0:0:1:
213,192,151350,1,0,0:0:0:1:
384,192,151350,1,0,0:0:0:1:
42,192,151350,1,0,0:0:0:1:
298,192,151425,1,0,0:0:0:1:
128,192,151500,1,0,0:0:0:1:
213,192,151575,1,0,0:0:0:1:
384,192,151650,1,0,0:0:0:1:
469,192,151650,1,0,0:0:0:1:
42,192,151650,1,0,0:0:0:1:
298,192,151725,1,0,0:0:0:1:
213,192,151800,1,0,0:0:0:1:
469,192,151800,1,0,0:0:0:1:
128,192,151875,1,0,0:0:0:1:
298,192,151950,1,0,0:0:0:1:
384,192,151950,1,0,0:0:0:1:
42,192,151950,1,0,0:0:0:1:
213,192,152025,1,0,0:0:0:1:
128,192,152100,1,0,0:0:0:1:
469,192,152100,1,0,0:0:0:1:
298,192,152175,1,0,0:0:0:1:
213,192,152250,1,0,0:0:0:1:
384,192,152250,1,0,0:0:0:1:
42,192,152250,1,0,0:0:0:1:
469,192,152325,1,0,0:0:0:1:
128,192,152400,1,0,0:0:0:1:
298,192,152400,1,0,0:0:0:1:
213,192,152475,1,0,0:0:0:1:
128,192,152550,1,0,0:0:0:1:
298,192,152550,1,0,0:0:0:1:
469,192,152550,1,0,0:0:0:1:
42,192,152625,1,0,0:0:0:1:
128,192,152700,1,0,0:0:0:1:
213,192,152700,1,0,0:0:0:1:
384,192,152700,1,0,0:0:0:1:
298,192,152775,1,0,0:0:0:1:
213,192,152850,1,0,0:0:0:1:
384,192,152850,1,0,0:0:0:1:
42,192,152850,1,0,0:0:0:1:
469,192,152925,1,0,0:0:0:1:
128,192,153000,1,0,0:0:0:1:
384,192,153000,1,0,0:0:0:1:
213,192,153075,1,0,0:0:0:1:
128,192,153150,1,0,0:0:0:1:
298,192,153150,1,0,0:0:0:1:
469,192,153150,1,0,0:0:0:1:
42,192,153225,1,0,0:0:0:1:
128,192,153300,1,0,0:0:0:1:
384,192,153300,1,0,0:0:0:1:
298,192,153375,1,0,0:0:0:1:
213,192,153450,1,0,0:0:0:1:
384,192,153450,1,0,0:0:0:1:
42,192,153450,1,0,0:0:0:1:
469,192,153525,1,0,0:0:0:1:
128,192,153600,1,0,0:0:0:1:
298,192,153600,1,0,0:0:0:1:
213,192,153675,1,0,0:0:0:1:
128,192,153750,1,0,0:0:0:1:
298,192,153750,1,0,0:0:0:1:
469,192,153750,1,0,0:0:0:1:
42,192,153825,1,0,0:0:0:1:
128,192,153900,1,0,0:0:0:1:
213,192,153900,1,0,0:0:0:1:
384,192,153900,1,0,0:0:0:1:
298,192,153975,1,0,0:0:0:1:
213,192,154050,1,0,0:0:0:1:
384,192,154050,1,0,0:0:0:1:
42,192,154050,1,0,0:0:0:1:
469,192,154125,1,0,0:0:0:1:
128,192,154200,1,0,0:0:0:1:
384,192,154200,1,0,0:0:0:1:
213,192,154275,1,0,0:0:0:1:
128,192,154350,1,0,0:0:0:1:
298,192,154350,1,0,0:0:0:1:
469,192,154350,1,0,0:0:0:1:
42,192,154425,1,0,0:0:0:1:
128,192,154500,1,0,0:0:0:1:
384,192,154500,1,0,0:0:0:1:
298,192,154575,1,0,0:0:0:1:
213,192,154650,1,0,0:0:0:1:
384,192,154650,1,0,0:0:0:1:
42,192,154650,1,0,0:0:0:1:
469,192,154725,1,0,0:0:0:1:
128,192,154800,1,0,0:0:0:1:
298,192,154800,1,0,0:0:0:1:
213,192,154875,1,0,0:0:0:1:
128,192,154950,1,0,0:0:0:1:
298,192,154950,1,0,0:0:0:1:
469,192,154950,1,0,0:0:0:1:
42,192,155025,1,0,0:0:0:1:
128,192,155100,1,0,0:0:0:1:
213,192,155100,1,0,0:0:0:1:
384,192,155100,1,0,0:0:0:1:
298,192,155175,1,0,0:0:0:1:
213,192,155250,1,0,0:0:0:1:
384,192,155250,1,0,0:0:0:1:
42,192,155250,1,0,0:0:0:1:
469,192,155325,1,0,0:0:0:1:
128,192,155400,1,0,0:0:0:1:
384,192,155400,1,0,0:0:0:1:
213,192,155475,1,0,0:0:0:1:
128,192,155550,1,0,0:0:0:1:
298,192,155550,1,0,0:0:0:1:
469,192,155550,1,0,0:0:0:1:
42,192,155625,1,0,0:0:0:1:
128,192,155700,1,0,0:0:0:1:
384,192,155700,1,0,0:0:0:1:
298,192,155775,1,0,0:0:0:1:
213,192,155850,1,0,0:0:0:1:
384,192,155850,1,0,0:0:0:1:
42,192,155850,1,0,0:0:0:1:
469,192,155925,1,0,0:0:0:1:
128,192,156000,1,0,0:0:0:1:
298,192,156000,1,0,0:0:0:1:
42,192,156075,1,0,0:0:0:1:
128,192,156150,1,0,0:0:0:1:
384,192,156150,1,0,0:0:0:1:
469,192,156150,1,0,0:0:0:1:
213,192,156225,1,0,0:0:0:1:
128,192,156300,1,0,0:0:0:1:
298,192,156300,1,0,0:0:0:1:
384,192,156375,1,0,0:0:0:1:
213,192,156450,1,0,0:0:0:1:
469,192,156450,1,0,0:0:0:1:
42,192,156450,1,0,0:0:0:1:
384,192,156525,1,0,0:0:0:1:
298,192,156600,1,0,0:0:0:1:
42,192,156600,1,0,0:0:0:1:
213,192,156675,1,0,0:0:0:1:
128,192,156750,1,0,0:0:0:1:
384,192,156750,1,0,0:0:0:1:
469,192,156750,1,0,0:0:0:1:
213,192,156825,1,0,0:0:0:1:
298,192,156900,1,0,0:0:0:1:
42,192,156900,1,0,0:0:0:1:
213,192,156975,1,0,0:0:0:1:
128,192,157050,1,0,0:0:0:1:
298,192,157050,1,0,0:0:0:1:
469,192,157050,1,0,0:0:0:1:
42,192,157125,1,0,0:0:0:1:
213,192,157200,1,0,0:0:0:1:
298,192,157200,1,0,0:0:0:1:
469,192,157200,1,0,0:0:0:1:
128,192,157275,1,0,0:0:0:1:
213,192,157350,1,0,0:0:0:1:
384,192,157350,1,0,0:0:0:1:
42,192,157350,1,0,0:0:0:1:
298,192,157425,1,0,0:0:0:1:
128,192,157500,1,0,0:0:0:1:
213,192,157575,1,0,0:0:0:1:
298,192,157650,1,0,0:0:0:1:
384,192,157650,1,0,0:0:0:1:
42,192,157650,1,0,0:0:0:1:
469,192,157725,1,0,0:0:0:1:
213,192,157800,1,0,0:0:0:1:
384,192,157800,1,0,0:0:0:1:
298,192,157875,1,0,0:0:0:1:
128,192,157950,1,0,0:0:0:1:
469,192,157950,1,0,0:0:0:1:
42,192,157950,1,0,0:0:0:1:
213,192,158025,1,0,0:0:0:1:
128,192,158100,1,0,0:0:0:1:
384,192,158100,1,0,0:0:0:1:
298,192,158175,1,0,0:0:0:1:
213,192,158250,1,0,0:0:0:1:
469,192,158250,1,0,0:0:0:1:
42,192,158250,1,0,0:0:0:1:
384,192,158325,1,0,0:0:0:1:
128,192,158400,1,0,0:0:0:1:
298,192,158400,1,0,0:0:0:1:
213,192,158475,1,0,0:0:0:1:
384,192,158550,1,0,0:0:0:1:
469,192,158550,1,0,0:0:0:1:
42,192,158550,1,0,0:0:0:1:
213,192,158625,1,0,0:0:0:1:
128,192,158700,1,0,0:0:0:1:
298,192,158775,1,0,0:0:0:1:
213,192,158850,1,0,0:0:0:1:
469,192,158850,1,0,0:0:0:1:
42,192,158850,1,0,0:0:0:1:
384,192,158925,1,0,0:0:0:1:
128,192,159000,1,0,0:0:0:1:
298,192,159000,1,0,0:0:0:1:
42,192,159075,1,0,0:0:0:1:
213,192,159150,1,0,0:0:0:1:
298,192,159150,1,0,0:0:0:1:
469,192,159150,1,0,0:0:0:1:
128,192,159225,1,0,0:0:0:1:
384,192,159300,1,0,0:0:0:1:
42,192,159300,1,0,0:0:0:1:
213,192,159375,1,0,0:0:0:1:
128,192,159450,1,0,0:0:0:1:
298,192,159450,1,0,0:0:0:1:
469,192,159450,1,0,0:0:0:1:
42,192,159525,1,0,0:0:0:1:
213,192,159600,1,0,0:0:0:1:
298,192,159675,1,0,0:0:0:1:
128,192,159750,1,0,0:0:0:1:
384,192,159750,1,0,0:0:0:1:
469,192,159750,1,0,0:0:0:1:
213,192,159825,1,0,0:0:0:1:
42,192,159900,1,0,0:0:0:1:
298,192,159975,1,0,0:0:0:1:
128,192,160050,1,0,0:0:0:1:
213,192,160050,1,0,0:0:0:1:
469,192,160050,1,0,0:0:0:1:
384,192,160125,1,0,0:0:0:1:
298,192,160200,1,0,0:0:0:1:
42,192,160200,1,0,0:0:0:1:
128,192,160275,1,0,0:0:0:1:
213,192,160350,1,0,0:0:0:1:
384,192,160350,1,0,0:0:0:1:
469,192,160350,1,0,0:0:0:1:
298,192,160425,1,0,0:0:0:1:
128,192,160500,1,0,0:0:0:1:
469,192,160500,1,0,0:0:0:1:
213,192,160575,1,0,0:0:0:1:
298,192,160650,1,0,0:0:0:1:
384,192,160650,1,0,0:0:0:1:
42,192,160650,1,0,0:0:0:1:
213,192,160725,1,0,0:0:0:1:
128,192,160800,1,0,0:0:0:1:
469,192,160800,1,0,0:0:0:1:
298,192,160875,1,0,0:0:0:1:
213,192,160950,1,0,0:0:0:1:
384,192,160950,1,0,0:0:0:1:
42,192,160950,1,0,0:0:0:1:
298,192,161025,1,0,0:0:0:1:
128,192,161100,1,0,0:0:0:1:
213,192,161175,1,0,0:0:0:1:
384,192,161250,1,0,0:0:0:1:
469,192,161250,1,0,0:0:0:1:
42,192,161250,1,0,0:0:0:1:
298,192,161325,1,0,0:0:0:1:
213,192,161400,1,0,0:0:0:1:
469,192,161400,1,0,0:0:0:1:
128,192,161475,1,0,0:0:0:1:
298,192,161550,1,0,0:0:0:1:
384,192,161550,1,0,0:0:0:1:
42,192,161550,1,0,0:0:0:1:
213,192,161625,1,0,0:0:0:1:
128,192,161700,1,0,0:0:0:1:
469,192,161700,1,0,0:0:0:1:
298,192,161775,1,0,0:0:0:1:
213,192,161850,1,0,0:0:0:1:
384,192,161850,1,0,0:0:0:1:
42,192,161850,1,0,0:0:0:1:
469,192,161925,1,0,0:0:0:1:
128,192,162000,1,0,0:0:0:1:
298,192,162000,1,0,0:0:0:1:
213,192,162075,1,0,0:0:0:1:
128,192,162150,1,0,0:0:0:1:
298,192,162150,1,0,0:0:0:1:
469,192,162150,1,0,0:0:0:1:
42,192,162225,1,0,0:0:0:1:
128,192,162300,1,0,0:0:0:1:
213,192,162300,1,0,0:0:0:1:
384,192,162300,1,0,0:0:0:1:
298,192,162375,1,0,0:0:0:1:
213,192,162450,1,0,0:0:0:1:
384,192,162450,1,0,0:0:0:1:
42,192,162450,1,0,0:0:0:1:
469,192,162525,1,0,0:0:0:1:
128,192,162600,1,0,0:0:0:1:
384,192,162600,1,0,0:0:0:1:
213,192,162675,1,0,0:0:0:1:
128,192,162750,1,0,0:0:0:1:
298,192,162750,1,0,0:0:0:1:
469,192,162750,1,0,0:0:0:1:
42,192,162825,1,0,0:0:0:1:
128,192,162900,1,0,0:0:0:1:
384,192,162900,1,0,0:0:0:1:
298,192,162975,1,0,0:0:0:1:
213,192,163050,1,0,0:0:0:1:
384,192,163050,1,0,0:0:0:1:
42,192,163050,1,0,0:0:0:1:
469,192,163125,1,0,0:0:0:1:
128,192,163200,1,0,0:0:0:1:
298,192,163200,1,0,0:0:0:1:
213,192,163275,1,0,0:0:0:1:
128,192,163350,1,0,0:0:0:1:
298,192,163350,1,0,0:0:0:1:
469,192,163350,1,0,0:0:0:1:
42,192,163425,1,0,0:0:0:1:
128,192,163500,1,0,0:0:0:1:
213,192,163500,1,0,0:0:0:1:
384,192,163500,1,0,0:0:0:1:
298,192,163575,1,0,0:0:0:1:
213,192,163650,1,0,0:0:0:1:
384,192,163650,1,0,0:0:0:1:
42,192,163650,1,0,0:0:0:1:
469,192,163725,1,0,0:0:0:1:
128,192,163800,1,0,0:0:0:1:
384,192,163800,1,0,0:0:0:1:
213,192,163875,1,0,0:0:0:1:
128,192,163950,1,0,0:0:0:1:
298,192,163950,1,0,0:0:0:1:
469,192,163950,1,0,0:0:0:1:
42,192,164025,1,0,0:0:0:1:
128,192,164100,1,0,0:0:0:1:
384,192,164100,1,0,0:0:0:1:
298,192,164175,1,0,0:0:0:1:
213,192,164250,1,0,0:0:0:1:
384,192,164250,1,0,0:0:0:1:
42,192,164250,1,0,0:0:0:1:
469,192,164325,1,0,0:0:0:1:
128,192,164400,1,0,0:0:0:1:
298,192,164400,1,0,0:0:0:1:
42,192,164475,1,0,0:0:0:1:
128,192,164550,1,0,0:0:0:1:
384,192,164550,1,0,0:0:0:1:
469,192,164550,1,0,0:0:0:1:
213,192,164625,1,0,0:0:0:1:
128,192,164700,1,0,0:0:0:1:
298,192,164700,1,0,0:0:0:1:
384,192,164775,1,0,0:0:0:1:
213,192,164850,1,0,0:0:0:1:
469,192,164850,1,0,0:0:0:1:
42,192,164850,1,0,0:0:0:1:
384,192,164925,1,0,0:0:0:1:
298,192,165000,1,0,0:0:0:1:
42,192,165000,1,0,0:0:0:1:
213,192,165075,1,0,0:0:0:1:
128,192,165150,1,0,0:0:0:1:
384,192,165150,1,0,0:0:0:1:
469,192,165150,1,0,0:0:0:1:
213,192,165225,1,0,0:0:0:1:
298,192,165300,1,0,0:0:0:1:
42,192,165300,1,0,0:0:0:1:
213,192,165375,1,0,0:0:0:1:
128,192,165450,1,0,0:0:0:1:
298,192,165450,1,0,0:0:0:1:
469,192,165450,1,0,0:0:0:1:
42,192,165525,1,0,0:0:0:1:
128,192,165600,1,0,0:0:0:1:
213,192,165600,1,0,0:0:0:1:
384,192,165600,1,0,0:0:0:1:
298,192,165675,1,0,0:0:0:1:
42,192,165750,1,0,0:0:0:1:
298,192,165825,1,0,0:0:0:1:
128,192,165900,1,0,0:0:0:1:
384,192,165975,1,0,0:0:0:1:
213,192,166050,1,0,0:0:0:1:
469,192,166050,1,0,0:0:0:1:
298,192,166125,1,0,0:0:0:1:
42,192,166200,1,0,0:0:0:1:
384,192,166275,1,0,0:0:0:1:
128,192,166350,1,0,0:0:0:1:
298,192,166425,1,0,0:0:0:1:
213,192,166500,1,0,0:0:0:1:
469,192,166500,1,0,0:0:0:1:
42,192,166575,1,0,0:0:0:1:
298,192,166650,1,0,0:0:0:1:
128,192,166725,1,0,0:0:0:1:
213,192,166800,128,0,167250:0:0:0:1:
384,192,166800,128,0,166950:0:0:0:1:
469,192,166800,128,0,167250:0:0:0:1:
42,192,166875,128,0,167400:0:0:0:1:
298,192,166950,128,0,167325:0:0:0:1:
128,192,167100,128,0,167775:0:0:0:1:
384,192,167100,128,0,167475:0:0:0:1:
213,192,167400,128,0,167550:0:0:0:1:
469,192,167400,128,0,167850:0:0:0:1:
298,192,167475,128,0,167700:0:0:0:1:
42,192,167550,128,0,167850:0:0:0:1:
384,192,167625,128,0,168000:0:0:0:1:
213,192,167700,128,0,167925:0:0:0:1:
298,192,167850,128,0,168225:0:0:0:1:
128,192,167925,128,0,168150:0:0:0:1:
469,192,168000,128,0,168150:0:0:0:1:
42,192,168000,128,0,168300:0:0:0:1:
213,192,168075,128,0,168450:0:0:0:1:
384,192,168150,128,0,168375:0:0:0:1:
128,192,168300,128,0,168600:0:0:0:1:
469,192,168300,128,0,168450:0:0:0:1:
298,192,168375,128,0,168675:0:0:0:1:
42,192,168450,128,0,168750:0:0:0:1:
384,192,168525,128,0,168750:0:0:0:1:
213,192,168600,128,0,168825:0:0:0:1:
469,192,168600,128,0,168900:0:0:0:1:
128,192,168750,128,0,169200:0:0:0:1:
298,192,168825,128,0,168975:0:0:0:1:
384,192,168900,128,0,169050:0:0:0:1:
42,192,168900,128,0,169050:0:0:0:1:
213,192,168975,128,0,169125:0:0:0:1:
469,192,169050,128,0,169200:0:0:0:1:
298,192,169200,1,0,0:0:0:1:
384,192,169200,1,0,0:0:0:1:
42,192,169200,128,0,170100:0:0:0:1:
298,192,169500,1,0,0:0:0:1:
384,192,169500,1,0,0:0:0:1:
298,192,169800,1,0,0:0:0:1:
384,192,169800,1,0,0:0:0:1:
298,192,170100,1,0,0:0:0:1:
384,192,170100,1,0,0:0:0:1:
384,192,170400,1,0,0:0:0:1:
469,192,170400,1,0,0:0:0:1:
128,192,170400,128,0,171300:0:0:0:1:
384,192,170700,1,0,0:0:0:1:
469,192,170700,1,0,0:0:0:1:
384,192,171000,1,0,0:0:0:1:
469,192,171000,1,0,0:0:0:1:
384,192,171300,1,0,0:0:0:1:
469,192,171300,1,0,0:0:0:1:
213,192,171450,128,0,172500:0:0:0:1:
298,192,171600,1,0,0:0:0:1:
469,192,171600,1,0,0:0:0:1:
298,192,171900,1,0,0:0:0:1:
469,192,171900,1,0,0:0:0:1:
469,192,172200,1,0,0:0:0:1:
384,192,172275,1,0,0:0:0:1:
298,192,172350,1,0,0:0:0:1:
384,192,172425,1,0,0:0:0:1:
469,192,172500,1,0,0:0:0:1:
384,192,172575,1,0,0:0:0:1:
298,192,172650,1,0,0:0:0:1:
213,192,172725,1,0,0:0:0:1:
128,192,172800,1,0,0:0:0:1:
469,192,172800,1,0,0:0:0:1:
42,192,172800,1,0,0:0:0:1:
298,192,172875,1,0,0:0:0:1:
213,192,172950,1,0,0:0:0:1:
128,192,173025,1,0,0:0:0:1:
298,192,173100,1,0,0:0:0:1:
469,192,173100,1,0,0:0:0:1:
42,192,173100,1,0,0:0:0:1:
213,192,173175,1,0,0:0:0:1:
298,192,173250,1,0,0:0:0:1:
384,192,173325,1,0,0:0:0:1:
213,192,173400,1,0,0:0:0:1:
469,192,173400,1,0,0:0:0:1:
42,192,173400,1,0,0:0:0:1:
384,192,173475,1,0,0:0:0:1:
298,192,173550,1,0,0:0:0:1:
213,192,173625,1,0,0:0:0:1:
384,192,173700,1,0,0:0:0:1:
298,192,173775,1,0,0:0:0:1:
213,192,173850,1,0,0:0:0:1:
128,192,173925,1,0,0:0:0:1:
298,192,174000,1,0,0:0:0:1:
469,192,174000,1,0,0:0:0:1:
42,192,174000,1,0,0:0:0:1:
213,192,174075,1,0,0:0:0:1:
384,192,174150,1,0,0:0:0:1:
128,192,174225,1,0,0:0:0:1:
298,192,174300,1,0,0:0:0:1:
469,192,174300,1,0,0:0:0:1:
42,192,174300,1,0,0:0:0:1:
213,192,174375,1,0,0:0:0:1:
128,192,174450,1,0,0:0:0:1:
213,192,174525,1,0,0:0:0:1:
298,192,174600,1,0,0:0:0:1:
384,192,174600,1,0,0:0:0:1:
42,192,174600,1,0,0:0:0:1:
128,192,174675,1,0,0:0:0:1:
213,192,174750,1,0,0:0:0:1:
298,192,174825,1,0,0:0:0:1:
128,192,174900,1,0,0:0:0:1:
384,192,174900,1,0,0:0:0:1:
469,192,174900,1,0,0:0:0:1:
213,192,174975,1,0,0:0:0:1:
298,192,175050,1,0,0:0:0:1:
384,192,175125,1,0,0:0:0:1:
469,192,175200,1,0,0:0:0:1:
42,192,175200,1,0,0:0:0:1:
213,192,175275,1,0,0:0:0:1:
42,192,175350,1,0,0:0:0:1:
213,192,175425,1,0,0:0:0:1:
128,192,175500,1,0,0:0:0:1:
384,192,175500,1,0,0:0:0:1:
469,192,175500,1,0,0:0:0:1:
298,192,175575,1,0,0:0:0:1:
128,192,175650,1,0,0:0:0:1:
298,192,175725,1,0,0:0:0:1:
213,192,175800,1,0,0:0:0:1:
384,192,175875,1,0,0:0:0:1:
213,192,175950,1,0,0:0:0:1:
384,192,176025,1,0,0:0:0:1:
128,192,176100,1,0,0:0:0:1:
298,192,176100,1,0,0:0:0:1:
42,192,176100,1,0,0:0:0:1:
469,192,176175,1,0,0:0:0:1:
298,192,176250,1,0,0:0:0:1:
469,192,176325,1,0,0:0:0:1:
128,192,176400,1,0,0:0:0:1:
384,192,176400,1,0,0:0:0:1:
298,192,176475,1,0,0:0:0:1:
213,192,176550,1,0,0:0:0:1:
298,192,176625,1,0,0:0:0:1:
128,192,176700,1,0,0:0:0:1:
384,192,176700,1,0,0:0:0:1:
42,192,176700,1,0,0:0:0:1:
213,192,176775,1,0,0:0:0:1:
298,192,176850,1,0,0:0:0:1:
384,192,176925,1,0,0:0:0:1:
213,192,177000,1,0,0:0:0:1:
469,192,177000,1,0,0:0:0:1:
42,192,177000,1,0,0:0:0:1:
298,192,177075,1,0,0:0:0:1:
213,192,177150,1,0,0:0:0:1:
128,192,177225,1,0,0:0:0:1:
384,192,177300,1,0,0:0:0:1:
469,192,177300,1,0,0:0:0:1:
42,192,177300,1,0,0:0:0:1:
128,192,177375,1,0,0:0:0:1:
213,192,177450,1,0,0:0:0:1:
298,192,177525,1,0,0:0:0:1:
384,192,177600,1,0,0:0:0:1:
469,192,177600,1,0,0:0:0:1:
42,192,177600,1,0,0:0:0:1:
213,192,177675,1,0,0:0:0:1:
298,192,177750,1,0,0:0:0:1:
384,192,177825,1,0,0:0:0:1:
213,192,177900,1,0,0:0:0:1:
469,192,177900,1,0,0:0:0:1:
42,192,177900,1,0,0:0:0:1:
384,192,177975,1,0,0:0:0:1:
298,192,178050,1,0,0:0:0:1:
213,192,178125,1,0,0:0:0:1:
128,192,178200,1,0,0:0:0:1:
384,192,178200,1,0,0:0:0:1:
469,192,178200,1,0,0:0:0:1:
42,192,178275,1,0,0:0:0:1:
128,192,178350,1,0,0:0:0:1:
213,192,178425,1,0,0:0:0:1:
298,192,178500,1,0,0:0:0:1:
128,192,178575,1,0,0:0:0:1:
384,192,178650,1,0,0:0:0:1:
469,192,178650,128,0,178950:0:0:0:1:
213,192,178725,1,0,0:0:0:1:
128,192,178800,1,0,0:0:0:1:
298,192,178800,1,0,0:0:0:1:
42,192,178800,1,0,0:0:0:1:
384,192,178875,1,0,0:0:0:1:
298,192,178950,1,0,0:0:0:1:
213,192,179025,1,0,0:0:0:1:
128,192,179100,1,0,0:0:0:1:
384,192,179100,1,0,0:0:0:1:
469,192,179100,1,0,0:0:0:1:
298,192,179175,1,0,0:0:0:1:
213,192,179250,1,0,0:0:0:1:
128,192,179325,1,0,0:0:0:1:
298,192,179400,1,0,0:0:0:1:
469,192,179400,1,0,0:0:0:1:
42,192,179400,1,0,0:0:0:1:
128,192,179475,1,0,0:0:0:1:
213,192,179550,1,0,0:0:0:1:
298,192,179625,1,0,0:0:0:1:
128,192,179700,1,0,0:0:0:1:
384,192,179700,1,0,0:0:0:1:
42,192,179700,1,0,0:0:0:1:
213,192,179775,1,0,0:0:0:1:
298,192,179850,1,0,0:0:0:1:
384,192,179925,1,0,0:0:0:1:
128,192,180000,1,0,0:0:0:1:
213,192,180000,1,0,0:0:0:1:
469,192,180000,1,0,0:0:0:1:
298,192,180075,1,0,0:0:0:1:
213,192,180150,1,0,0:0:0:1:
128,192,180225,1,0,0:0:0:1:
298,192,180300,1,0,0:0:0:1:
469,192,180300,1,0,0:0:0:1:
42,192,180300,1,0,0:0:0:1:
213,192,180375,1,0,0:0:0:1:
298,192,180450,1,0,0:0:0:1:
384,192,180525,1,0,0:0:0:1:
128,192,180600,1,0,0:0:0:1:
213,192,180600,1,0,0:0:0:1:
469,192,180600,1,0,0:0:0:1:
384,192,180675,1,0,0:0:0:1:
298,192,180750,1,0,0:0:0:1:
213,192,180825,1,0,0:0:0:1:
384,192,180900,1,0,0:0:0:1:
298,192,180975,1,0,0:0:0:1:
213,192,181050,1,0,0:0:0:1:
128,192,181125,1,0,0:0:0:1:
298,192,181200,1,0,0:0:0:1:
42,192,181200,1,0,0:0:0:1:
469,192,181200,128,0,181350:0:0:0:1:
213,192,181275,1,0,0:0:0:1:
384,192,181350,1,0,0:0:0:1:
128,192,181425,1,0,0:0:0:1:
298,192,181500,1,0,0:0:0:1:
469,192,181500,1,0,0:0:0:1:
42,192,181500,128,0,181650:0:0:0:1:
213,192,181575,1,0,0:0:0:1:
384,192,181650,1,0,0:0:0:1:
128,192,181725,1,0,0:0:0:1:
298,192,181800,1,0,0:0:0:1:
42,192,181800,1,0,0:0:0:1:
469,192,181800,128,0,181950:0:0:0:1:
213,192,181875,1,0,0:0:0:1:
384,192,181950,1,0,0:0:0:1:
128,192,182025,1,0,0:0:0:1:
298,192,182100,1,0,0:0:0:1:
469,192,182100,1,0,0:0:0:1:
42,192,182100,128,0,182250:0:0:0:1:
213,192,182175,1,0,0:0:0:1:
384,192,182250,1,0,0:0:0:1:
128,192,182325,1,0,0:0:0:1:
298,192,182400,1,0,0:0:0:1:
42,192,182400,1,0,0:0:0:1:
469,192,182400,128,0,182550:0:0:0:1:
213,192,182475,1,0,0:0:0:1:
384,192,182550,1,0,0:0:0:1:
128,192,182625,1,0,0:0:0:1:
298,192,182700,1,0,0:0:0:1:
469,192,182700,1,0,0:0:0:1:
42,192,182700,128,0,182850:0:0:0:1:
213,192,182775,1,0,0:0:0:1:
384,192,182850,1,0,0:0:0:1:
128,192,182925,1,0,0:0:0:1:
298,192,183000,1,0,0:0:0:1:
42,192,183000,1,0,0:0:0:1:
469,192,183000,128,0,183150:0:0:0:1:
213,192,183075,1,0,0:0:0:1:
384,192,183150,1,0,0:0:0:1:
128,192,183225,1,0,0:0:0:1:
298,192,183300,1,0,0:0:0:1:
469,192,183300,1,0,0:0:0:1:
42,192,183300,128,0,183450:0:0:0:1:
213,192,183375,1,0,0:0:0:1:
384,192,183450,1,0,0:0:0:1:
128,192,183525,1,0,0:0:0:1:
298,192,183600,1,0,0:0:0:1:
469,192,183600,1,0,0:0:0:1:
42,192,183600,1,0,0:0:0:1:
213,192,183675,1,0,0:0:0:1:
298,192,183750,1,0,0:0:0:1:
384,192,183825,1,0,0:0:0:1:
298,192,183900,1,0,0:0:0:1:
213,192,183975,1,0,0:0:0:1:
128,192,184050,1,0,0:0:0:1:
384,192,184050,1,0,0:0:0:1:
469,192,184050,1,0,0:0:0:1:
42,192,184125,1,0,0:0:0:1:
128,192,184200,1,0,0:0:0:1:
213,192,184275,1,0,0:0:0:1:
298,192,184350,1,0,0:0:0:1:
469,192,184350,1,0,0:0:0:1:
42,192,184350,1,0,0:0:0:1:
213,192,184425,1,0,0:0:0:1:
128,192,184500,1,0,0:0:0:1:
213,192,184575,1,0,0:0:0:1:
128,192,184650,1,0,0:0:0:1:
298,192,184650,1,0,0:0:0:1:
42,192,184650,1,0,0:0:0:1:
384,192,184725,1,0,0:0:0:1:
469,192,184800,1,0,0:0:0:1:
298,192,184875,1,0,0:0:0:1:
128,192,184950,1,0,0:0:0:1:
384,192,184950,1,0,0:0:0:1:
42,192,184950,1,0,0:0:0:1:
213,192,185025,1,0,0:0:0:1:
298,192,185100,1,0,0:0:0:1:
469,192,185100,1,0,0:0:0:1:
128,192,185175,1,0,0:0:0:1:
213,192,185250,1,0,0:0:0:1:
384,192,185250,1,0,0:0:0:1:
469,192,185250,1,0,0:0:0:1:
42,192,185325,1,0,0:0:0:1:
128,192,185400,1,0,0:0:0:1:
298,192,185400,1,0,0:0:0:1:
42,192,185475,1,0,0:0:0:1:
213,192,185550,1,0,0:0:0:1:
384,192,185550,1,0,0:0:0:1:
469,192,185550,1,0,0:0:0:1:
128,192,185625,1,0,0:0:0:1:
298,192,185700,1,0,0:0:0:1:
469,192,185700,1,0,0:0:0:1:
213,192,185775,1,0,0:0:0:1:
384,192,185850,1,0,0:0:0:1:
298,192,185925,1,0,0:0:0:1:
469,192,186000,1,0,0:0:0:1:
42,192,186000,1,0,0:0:0:1:
213,192,188400,1,0,0:0:0:1:
469,192,188400,1,0,0:0:0:1:
42,192,188400,1,0,0:0:0:1:
213,192,190650,1,0,0:0:0:1:
469,192,190650,1,0,0:0:0:1:
42,192,190650,1,0,0:0:0:1:
213,192,190800,1,0,0:0:0:1:
469,192,190800,1,0,0:0:0:1:
42,192,190800,1,0,0:0:0:1:
213,192,192900,128,0,193050:0:0:0:1:
469,192,192900,128,0,193050:0:0:0:1:
42,192,192900,128,0,193050:0:0:0:1:
213,192,193200,1,0,0:0:0:1:
469,192,193200,1,0,0:0:0:1:
42,192,193200,1,0,0:0:0:1:
128,192,195300,1,0,0:0:0:1:
384,192,195375,1,0,0:0:0:1:
213,192,195450,1,0,0:0:0:1:
213,192,195600,1,0,0:0:0:1:
42,192,195600,1,0,0:0:0:1:
469,192,195600,128,0,196800:0:0:0:1:
128,192,196050,1,0,0:0:0:1:
128,192,196200,1,0,0:0:0:1:
298,192,196200,1,0,0:0:0:1:
128,192,196350,1,0,0:0:0:1:
298,192,196350,1,0,0:0:0:1:
128,192,196500,1,0,0:0:0:1:
298,192,196500,1,0,0:0:0:1:
128,192,196650,1,0,0:0:0:1:
298,192,196650,1,0,0:0:0:1:
128,192,196800,1,0,0:0:0:1:
298,192,196800,1,0,0:0:0:1:
128,192,196950,1,0,0:0:0:1:
298,192,196950,1,0,0:0:0:1:
128,192,197100,1,0,0:0:0:1:
298,192,197100,1,0,0:0:0:1:
213,192,197250,1,0,0:0:0:1:
384,192,197325,1,0,0:0:0:1:
128,192,197400,1,0,0:0:0:1:
298,192,197400,1,0,0:0:0:1:
128,192,197550,128,0,197850:0:0:0:1:
298,192,197550,128,0,197850:0:0:0:1:
213,192,198000,1,0,0:0:0:1:
384,192,198075,1,0,0:0:0:1:
213,192,198150,1,0,0:0:0:1:
298,192,198450,1,0,0:0:0:1:
128,192,198600,128,0,199050:0:0:0:1:
298,192,198600,128,0,199050:0:0:0:1:
469,192,198600,128,0,199050:0:0:0:1:
384,192,199200,1,0,0:0:0:1:
213,192,199275,1,0,0:0:0:1:
384,192,199350,1,0,0:0:0:1:
213,192,199650,1,0,0:0:0:1:
213,192,199800,128,0,199950:0:0:0:1:
384,192,199800,128,0,199950:0:0:0:1:
42,192,199800,128,0,199950:0:0:0:1:
213,192,200100,128,0,200250:0:0:0:1:
384,192,200100,128,0,200250:0:0:0:1:
42,192,200100,128,0,200250:0:0:0:1:
213,192,200400,1,0,0:0:0:1:
384,192,200475,1,0,0:0:0:1:
213,192,200550,1,0,0:0:0:1:
298,192,200850,1,0,0:0:0:1:
128,192,201000,128,0,201450:0:0:0:1:
298,192,201000,128,0,201450:0:0:0:1:
469,192,201000,128,0,201450:0:0:0:1:
384,192,201600,1,0,0:0:0:1:
213,192,201675,1,0,0:0:0:1:
384,192,201750,1,0,0:0:0:1:
213,192,202050,1,0,0:0:0:1:
213,192,202200,128,0,202350:0:0:0:1:
384,192,202200,128,0,202350:0:0:0:1:
42,192,202200,128,0,202350:0:0:0:1:
213,192,202500,128,0,202650:0:0:0:1:
384,192,202500,128,0,202650:0:0:0:1:
42,192,202500,128,0,202650:0:0:0:1:
213,192,202800,1,0,0:0:0:1:
384,192,202875,1,0,0:0:0:1:
213,192,202950,1,0,0:0:0:1:
298,192,203250,1,0,0:0:0:1:
128,192,203400,128,0,203850:0:0:0:1:
298,192,203400,128,0,203850:0:0:0:1:
469,192,203400,128,0,203850:0:0:0:1:
384,192,204000,1,0,0:0:0:1:
213,192,204075,1,0,0:0:0:1:
384,192,204150,1,0,0:0:0:1:
213,192,204450,1,0,0:0:0:1:
213,192,204600,128,0,204750:0:0:0:1:
384,192,204600,128,0,204750:0:0:0:1:
42,192,204600,128,0,204750:0:0:0:1:
213,192,204900,128,0,205050:0:0:0:1:
384,192,204900,128,0,205050:0:0:0:1:
42,192,204900,128,0,205050:0:0:0:1:
213,192,205200,1,0,0:0:0:1:
384,192,205275,1,0,0:0:0:1:
213,192,205350,1,0,0:0:0:1:
298,192,205650,1,0,0:0:0:1:
128,192,205800,128,0,206250:0:0:0:1:
298,192,205800,128,0,206250:0:0:0:1:
469,192,205800,128,0,206250:0:0:0:1:
384,192,206400,1,0,0:0:0:1:
213,192,206475,1,0,0:0:0:1:
384,192,206550,1,0,0:0:0:1:
213,192,206850,1,0,0:0:0:1:
213,192,207000,128,0,207150:0:0:0:1:
384,192,207000,128,0,207150:0:0:0:1:
42,192,207000,128,0,207150:0:0:0:1:
213,192,207300,128,0,207450:0:0:0:1:
384,192,207300,128,0,207450:0:0:0:1:
42,192,207300,128,0,207450:0:0:0:1:
128,192,207600,1,0,0:0:0:1:
469,192,207600,1,0,0:0:0:1:
298,192,207675,1,0,0:0:0:1:
42,192,207675,1,0,0:0:0:1:
213,192,207750,1,0,0:0:0:1:
384,192,207750,1,0,0:0:0:1:
128,192,207825,1,0,0:0:0:1:
469,192,207825,1,0,0:0:0:1:
213,192,207900,1,0,0:0:0:1:
298,192,207900,1,0,0:0:0:1:
298,192,208050,1,0,0:0:0:1:
42,192,208050,1,0,0:0:0:1:
213,192,208125,1,0,0:0:0:1:
469,192,208125,1,0,0:0:0:1:
128,192,208200,1,0,0:0:0:1:
298,192,208200,1,0,0:0:0:1:
384,192,208275,1,0,0:0:0:1:
42,192,208275,1,0,0:0:0:1:
213,192,208350,1,0,0:0:0:1:
469,192,208350,1,0,0:0:0:1:
128,192,208425,1,0,0:0:0:1:
384,192,208425,1,0,0:0:0:1:
213,192,208500,1,0,0:0:0:1:
298,192,208500,1,0,0:0:0:1:
213,192,208800,1,0,0:0:0:1:
469,192,208800,1,0,0:0:0:1:
128,192,208875,1,0,0:0:0:1:
298,192,208875,1,0,0:0:0:1:
384,192,208950,1,0,0:0:0:1:
42,192,208950,1,0,0:0:0:1:
213,192,209025,1,0,0:0:0:1:
298,192,209025,1,0,0:0:0:1:
128,192,209100,1,0,0:0:0:1:
469,192,209100,1,0,0:0:0:1:
213,192,209250,1,0,0:0:0:1:
384,192,209250,1,0,0:0:0:1:
128,192,209325,1,0,0:0:0:1:
469,192,209325,1,0,0:0:0:1:
213,192,209400,1,0,0:0:0:1:
298,192,209400,1,0,0:0:0:1:
384,192,209475,1,0,0:0:0:1:
42,192,209475,1,0,0:0:0:1:
213,192,209550,1,0,0:0:0:1:
469,192,209550,1,0,0:0:0:1:
128,192,209625,1,0,0:0:0:1:
298,192,209625,1,0,0:0:0:1:
384,192,209700,1,0,0:0:0:1:
42,192,209700,1,0,0:0:0:1:
128,192,210000,1,0,0:0:0:1:
469,192,210000,1,0,0:0:0:1:
298,192,210075,1,0,0:0:0:1:
42,192,210075,1,0,0:0:0:1:
213,192,210150,1,0,0:0:0:1:
384,192,210150,1,0,0:0:0:1:
128,192,210225,1,0,0:0:0:1:
469,192,210225,1,0,0:0:0:1:
213,192,210300,1,0,0:0:0:1:
298,192,210300,1,0,0:0:0:1:
298,192,210450,1,0,0:0:0:1:
42,192,210450,1,0,0:0:0:1:
213,192,210525,1,0,0:0:0:1:
469,192,210525,1,0,0:0:0:1:
128,192,210600,1,0,0:0:0:1:
298,192,210600,1,0,0:0:0:1:
384,192,210675,1,0,0:0:0:1:
42,192,210675,1,0,0:0:0:1:
213,192,210750,1,0,0:0:0:1:
469,192,210750,1,0,0:0:0:1:
128,192,210825,1,0,0:0:0:1:
384,192,210825,1,0,0:0:0:1:
213,192,210900,1,0,0:0:0:1:
298,192,210900,1,0,0:0:0:1:
213,192,211200,1,0,0:0:0:1:
469,192,211200,1,0,0:0:0:1:
128,192,211275,1,0,0:0:0:1:
298,192,211275,1,0,0:0:0:1:
384,192,211350,1,0,0:0:0:1:
42,192,211350,1,0,0:0:0:1:
213,192,211425,1,0,0:0:0:1:
298,192,211425,1,0,0:0:0:1:
128,192,211500,1,0,0:0:0:1:
469,192,211500,1,0,0:0:0:1:
298,192,211575,1,0,0:0:0:1:
42,192,211575,1,0,0:0:0:1:
213,192,211650,1,0,0:0:0:1:
384,192,211650,1,0,0:0:0:1:
128,192,211725,1,0,0:0:0:1:
469,192,211725,1,0,0:0:0:1:
213,192,211800,1,0,0:0:0:1:
298,192,211800,1,0,0:0:0:1:
384,192,211875,1,0,0:0:0:1:
42,192,211875,1,0,0:0:0:1:
213,192,211950,1,0,0:0:0:1:
469,192,211950,1,0,0:0:0:1:
128,192,212025,1,0,0:0:0:1:
298,192,212025,1,0,0:0:0:1:
384,192,212100,1,0,0:0:0:1:
42,192,212100,1,0,0:0:0:1:
128,192,212400,1,0,0:0:0:1:
384,192,212400,1,0,0:0:0:1:
213,192,212475,1,0,0:0:0:1:
469,192,212475,1,0,0:0:0:1:
128,192,212550,1,0,0:0:0:1:
298,192,212550,1,0,0:0:0:1:
384,192,212625,1,0,0:0:0:1:
42,192,212625,1,0,0:0:0:1:
213,192,212700,1,0,0:0:0:1:
298,192,212700,1,0,0:0:0:1:
213,192,212850,1,0,0:0:0:1:
469,192,212850,1,0,0:0:0:1:
298,192,212925,1,0,0:0:0:1:
42,192,212925,1,0,0:0:0:1:
213,192,213000,1,0,0:0:0:1:
384,192,213000,1,0,0:0:0:1:
128,192,213075,1,0,0:0:0:1:
469,192,213075,1,0,0:0:0:1:
298,192,213150,1,0,0:0:0:1:
42,192,213150,1,0,0:0:0:1:
128,192,213225,1,0,0:0:0:1:
384,192,213225,1,0,0:0:0:1:
213,192,213300,1,0,0:0:0:1:
298,192,213300,1,0,0:0:0:1:
298,192,213600,1,0,0:0:0:1:
42,192,213600,1,0,0:0:0:1:
213,192,213675,1,0,0:0:0:1:
384,192,213675,1,0,0:0:0:1:
128,192,213750,1,0,0:0:0:1:
469,192,213750,1,0,0:0:0:1:
213,192,213825,1,0,0:0:0:1:
298,192,213825,1,0,0:0:0:1:
384,192,213900,1,0,0:0:0:1:
42,192,213900,1,0,0:0:0:1:
128,192,214050,1,0,0:0:0:1:
298,192,214050,1,0,0:0:0:1:
384,192,214125,1,0,0:0:0:1:
42,192,214125,1,0,0:0:0:1:
213,192,214200,1,0,0:0:0:1:
298,192,214200,1,0,0:0:0:1:
128,192,214275,1,0,0:0:0:1:
469,192,214275,1,0,0:0:0:1:
298,192,214350,1,0,0:0:0:1:
42,192,214350,1,0,0:0:0:1:
213,192,214425,1,0,0:0:0:1:
384,192,214425,1,0,0:0:0:1:
128,192,214500,1,0,0:0:0:1:
469,192,214500,1,0,0:0:0:1:
384,192,214800,1,0,0:0:0:1:
42,192,214800,1,0,0:0:0:1:
213,192,214875,1,0,0:0:0:1:
469,192,214875,1,0,0:0:0:1:
128,192,214950,1,0,0:0:0:1:
298,192,214950,1,0,0:0:0:1:
384,192,215025,1,0,0:0:0:1:
42,192,215025,1,0,0:0:0:1:
213,192,215100,1,0,0:0:0:1:
298,192,215100,1,0,0:0:0:1:
213,192,215250,1,0,0:0:0:1:
469,192,215250,1,0,0:0:0:1:
298,192,215325,1,0,0:0:0:1:
42,192,215325,1,0,0:0:0:1:
213,192,215400,1,0,0:0:0:1:
384,192,215400,1,0,0:0:0:1:
128,192,215475,1,0,0:0:0:1:
469,192,215475,1,0,0:0:0:1:
298,192,215550,1,0,0:0:0:1:
42,192,215550,1,0,0:0:0:1:
128,192,215625,1,0,0:0:0:1:
384,192,215625,1,0,0:0:0:1:
213,192,215700,1,0,0:0:0:1:
298,192,215700,1,0,0:0:0:1:
