osu file format v9

[General]
AudioFilename: t2_cd1_16.mp3
AudioLeadIn: 2000
PreviewTime: -1
Countdown: 1
SampleSet: Soft
StackLeniency: 0.7
Mode: 0
LetterboxInBreaks: 1

[Editor]
Bookmarks: 24121,24509
DistanceSpacing: 1.5
BeatDivisor: 4
GridSize: 8

[Metadata]
Title:DJMAX SUCK STYLE
Artist:Various Artists
Creator:LaunchedthousandShip
Version:The Guilty
Source:
Tags:

[Difficulty]
HPDrainRate:6
CircleSize:6
OverallDifficulty:7
ApproachRate:8
SliderMultiplier:1.5
SliderTickRate:4

[Events]
//Background and Video events
0,0,"guilty.jpg"
//Break Periods
//Storyboard Layer 0 (Background)
//Storyboard Layer 1 (Fail)
//Storyboard Layer 2 (Pass)
//Storyboard Layer 3 (Foreground)
//Storyboard Sound Samples
//Background Colour Transformations
3,100,163,162,255

[TimingPoints]
122,387.096774193548,4,2,0,100,1,0
6315,-66.6666666666667,4,2,0,100,0,0
6896,-66.6666666666667,4,2,0,100,0,0
7863,-100,4,2,0,100,0,0
9218,-66.6666666666667,4,2,0,100,0,0
10863,-100,4,2,0,100,0,0
13863,-200,4,2,0,100,0,0
18603,-100,4,2,0,100,0,0
20154,-66.6666666666667,4,2,0,100,0,0
25670,-100,4,2,0,100,0,0
30605,-66.6666666666667,4,2,0,100,0,0
31283,-133.333333333333,4,2,0,100,0,0
32444,-100,4,2,0,100,0,0
36896,-66.6666666666667,4,2,0,100,0,0
37283,-100,4,2,0,100,0,0
40960,-66.6666666666667,4,2,0,100,0,0
52767,-100,4,2,0,100,0,0
58960,-66.6666666666667,4,2,0,100,0,0
60509,-100,4,2,0,100,0,0
64960,-66.6666666666667,4,2,0,100,0,0
65154,-100,4,2,0,100,0,0
66702,-66.6666666666667,4,2,0,100,0,0
67283,-100,4,2,0,100,0,0
71347,-66.6666666666667,4,2,0,100,0,0
73089,-100,4,2,0,100,0,0
75992,-66.6666666666667,4,2,0,100,0,0
88380,-200,4,2,0,100,0,0
91476,-100,4,2,0,100,0,0

[HitObjects]
24,152,122,1,0
88,112,315,1,0
160,136,509,1,0
176,136,605,1,0
192,136,702,1,0
208,136,799,1,0
224,136,896,1,0
336,152,1186,1,0
352,152,1283,1,0
456,264,1670,5,0
456,264,2057,2,0,B|152:264,1,300
80,56,3412,5,0
152,56,3605,1,0
152,56,3702,1,0
200,112,3896,1,0
272,112,4089,1,0
272,112,4186,1,0
336,160,4380,1,0
336,160,4573,1,0
376,224,4767,5,0
376,224,5154,2,0,B|72:224,1,300
16,8,6315,6,0,B|72:168,1,168.749994970858
128,168,6702,2,0,B|184:8,1,168.749994970858
240,8,7089,2,0,B|296:168,1,168.749994970858
352,168,7476,2,0,B|390:56,1,112.499996647239
424,288,8057,6,0,B|48:288,1,375
32,64,9412,6,0,B|66:109|66:108,1,56.2499983236194
96,160,9605,2,0,B|130:115|130:116,1,56.2499983236194
160,64,9799,2,0,B|194:109|194:108,1,56.2499983236194
224,160,9992,2,0,B|258:115|258:116,1,56.2499983236194
288,64,10186,2,0,B|322:109|322:108,1,56.2499983236194
352,160,10379,2,0,B|386:115|386:116,1,56.2499983236194
424,160,10573,2,0,B|493:70|494:70,1,112.499996647239
424,288,11154,6,0,B|48:288,1,375
64,64,12509,5,0
64,64,12896,2,0,B|176:64,1,112.5
208,112,13283,2,0,B|360:112,1,150
440,232,14057,5,0
344,288,14347,1,0
328,288,14444,1,0
272,232,14638,2,0,B|232:232,1,37.5
184,288,15024,1,0
128,232,15218,2,0,B|88:232,1,37.5
64,160,15605,5,0
128,120,15799,1,0
200,120,15992,1,0
264,80,16186,2,0,B|344:80,1,75
416,80,16765,1,0
440,232,17154,5,0
344,288,17444,1,0
328,288,17541,1,0
272,232,17735,2,0,B|232:232,1,37.5
184,288,18121,1,0
128,232,18315,2,0,B|88:232,1,37.5
64,160,18702,6,0,B|144:160,1,75
168,96,19089,1,0
208,160,19283,2,0,B|288:160,1,75
344,112,19670,2,0,B|496:112,1,150
504,224,20251,6,0,B|402:359,1,168.749994970858
344,360,20638,1,0
168,224,21025,1,0
56,248,21218,1,0
56,248,21315,1,0
56,248,21412,1,0
56,248,21605,1,0
8,144,21799,6,0,B|110:9,1,168.749994970858
166,9,22186,1,0
360,120,22573,2,0,B|393:164|393:164|462:73,1,168.749994970858
496,120,22960,1,0
496,120,23153,1,0
504,232,23347,6,0,B|496:288,1,56.2499983236194
440,264,23541,2,0,B|432:320,1,56.2499983236194
376,304,23734,2,0,B|368:248,1,56.2499983236194
312,272,23928,2,0,B|304:216,1,56.2499983236194
248,232,24121,2,0,B|240:288,1,56.2499983236194
184,264,24315,2,0,B|176:320,1,56.2499983236194
120,304,24508,2,0,B|112:248,1,56.2499983236194
56,272,24702,2,0,B|48:216,1,56.2499983236194
48,160,24896,6,0,B|56:104,1,56.2499983236194
112,128,25089,2,0,B|128:72,1,56.2499983236194
176,112,25283,2,0,B|200:56,1,56.2499983236194
240,104,25476,2,0,B|272:48,1,56.2499983236194
312,96,25670,2,0,B|448:64|512:176,1,225
448,288,26444,5,0
448,288,26734,1,0
448,288,27025,1,0
336,288,27218,1,0
336,288,27412,2,0,B|256:288,1,75
64,96,27992,5,0
64,96,28282,1,0
64,96,28573,1,0
288,120,28960,1,0
392,160,29154,1,0
496,120,29347,1,0
496,232,29541,5,0
432,328,29734,1,0
368,232,29928,1,0
304,328,30121,1,0
240,232,30315,1,0
176,328,30509,1,0
64,328,30702,2,0,B|24:224,1,112.499996647239
120,168,31089,6,0,B|152:120,1,56.2499983236194
208,144,31283,2,0,B|488:144,1,281.249991618097
448,288,32638,5,0
448,288,32928,1,0
448,288,33219,1,0
336,288,33412,1,0
336,288,33606,2,0,B|256:288,1,75
64,96,34186,5,0
64,96,34476,1,0
64,96,34767,1,0
288,120,35154,1,0
392,160,35348,1,0
496,120,35541,1,0
496,232,35735,5,0
432,328,35928,1,0
368,232,36122,1,0
304,328,36315,1,0
240,232,36509,1,0
176,328,36703,1,0
64,328,36896,2,0,B|24:224,1,112.499996647239
96,72,37283,5,0
96,72,37573,1,0
240,160,37863,1,0
312,72,38057,1,0
312,72,38347,1,0
456,160,38637,1,0
368,232,38831,5,0
368,232,39121,1,0
224,320,39411,1,0
168,224,39605,1,0
152,224,39702,1,0
40,224,39896,1,0
40,224,40186,1,0
40,112,40380,5,0
112,88,40573,1,0
184,64,40767,1,0
248,112,40960,2,0,B|272:168,1,56.2499983236194
312,88,41251,2,0,B|336:144,1,56.2499983236194
384,72,41541,1,0
456,112,41734,2,0,B|480:168,1,56.2499983236194
496,216,41928,5,0
440,280,42121,1,0
384,216,42315,1,0
320,272,42509,2,0,B|296:216,1,56.2499983236194
232,272,42800,2,0,B|208:216,1,56.2499983236194
168,296,43090,1,0
88,272,43283,2,0,B|64:216,1,56.2499983236194
48,168,43476,5,0
112,112,43669,1,0
176,56,43863,1,0
240,112,44056,2,0,B|264:168,1,56.2499983236194
304,88,44347,2,0,B|328:144,1,56.2499983236194
384,72,44637,1,0
456,112,44830,2,0,B|480:168,1,56.2499983236194
496,216,45025,5,0
440,280,45218,1,0
384,216,45412,1,0
320,272,45606,2,0,B|296:216,1,56.2499983236194
232,272,45897,2,0,B|208:216,1,56.2499983236194
128,240,46187,1,0
40,240,46380,1,0
32,160,46573,5,0
120,160,46767,2,0,B|144:104,1,56.2499983236194
168,56,46960,1,0
216,160,47154,2,0,B|240:104,1,56.2499983236194
264,56,47347,1,0
312,160,47541,2,0,B|336:104,1,56.2499983236194
360,56,47734,1,0
456,112,47928,2,0,B|480:168,1,56.2499983236194
496,216,48121,5,0
408,216,48315,2,0,B|384:272,1,56.2499983236194
360,320,48508,1,0
312,216,48702,2,0,B|288:272,1,56.2499983236194
264,320,48895,1,0
168,264,49089,1,0
168,264,49380,1,0
168,264,49670,1,0
496,328,51218,5,0
376,280,51509,1,0
256,232,51799,1,0
248,312,51992,1,0
128,264,52283,1,0
8,216,52573,1,0
32,144,52767,5,0
136,96,53057,1,0
152,104,53154,1,0
224,136,53347,1,0
312,72,53638,1,0
416,120,53928,1,0
480,160,54121,1,0
488,232,54315,5,0
368,280,54605,1,0
352,272,54702,1,0
280,248,54896,2,0,B|176:296,1,112.5
72,256,55476,1,0
8,216,55669,1,0
32,144,55863,5,0
136,96,56153,1,0
152,104,56250,1,0
224,136,56443,1,0
312,72,56734,1,0
416,120,57024,1,0
480,160,57217,1,0
488,232,57412,5,0
368,280,57702,1,0
352,272,57799,1,0
280,248,57993,2,0,B|176:296,1,112.5
72,328,58573,2,0,B|16:280,1,75
16,168,58960,6,0,B|96:16,1,168.749994970858
150,18,59347,2,0,B|230:170,1,168.749994970858
284,167,59734,2,0,B|364:15,1,168.749994970858
418,17,60121,2,0,B|498:169,1,168.749994970858
488,280,60702,5,0
376,256,60992,1,0
264,232,61283,1,0
160,272,61573,1,0
144,264,61670,1,0
80,232,61863,1,0
48,160,62057,6,0,B|200:160,1,150
336,96,62831,2,0,B|488:96,1,150
424,312,63799,5,0
424,312,64089,1,0
424,312,64380,1,0
88,264,64960,2,0,B|56:216,1,56.2499983236194
40,160,65154,6,0,B|192:160,1,150
328,96,65928,2,0,B|480:96,1,150
392,216,66702,6,0,B|312:368,1,168.749994970858,0|0
264,336,67089,1,0
232,272,67283,1,0
224,288,67380,1,0
192,352,67573,1,0
184,336,67670,1,0
160,264,67863,1,0
88,264,68057,2,0,B|56:216,1,56.2499983236194
40,160,68251,6,0,B|192:160,1,150
312,64,69025,1,0
384,144,69315,1,0
400,144,69412,1,0
472,144,69605,1,0
496,216,69799,5,0
400,280,70089,1,0
384,280,70186,1,0
280,232,70476,2,0,B|88:232,1,187.5
16,16,71347,6,0,B|96:168,1,168.749994970858,0|0
150,165,71734,2,0,B|230:13,1,168.749994970858,0|0
284,15,72121,2,0,B|362:166|362:166|438:12|438:12|470:52,1,393.749988265336
488,224,73089,5,0
384,264,73380,1,0
280,296,73670,1,0
192,224,73960,1,0
176,232,74057,1,0
104,224,74251,1,0
64,160,74444,6,0,B|216:160,1,150
344,80,75218,2,0,B|496:80,1,150
448,304,76186,5,0
448,304,76476,1,0
448,304,76767,1,0
288,360,76960,2,0,B|261:310,1,56.2499983236194
200,368,77154,2,0,B|120:216,1,168.749994970858,0|0
64,80,77734,5,0
64,80,78024,1,0
64,80,78315,1,0
224,24,78508,2,0,B|251:74,1,56.2499983236194
312,16,78702,2,0,B|392:168,1,168.749994970858,0|0
448,304,79283,5,0
304,224,79573,1,0
448,304,79864,1,0
288,360,80057,2,0,B|261:310,1,56.2499983236194
200,368,80251,2,0,B|120:216,1,168.749994970858,0|0
64,80,80831,5,0
208,160,81121,1,0
64,80,81412,1,0
224,24,81605,2,0,B|251:74,1,56.2499983236194
312,16,81799,2,0,B|392:168,1,168.749994970858,0|0
448,304,82380,5,0
448,304,82670,1,0
448,304,82961,1,0
288,360,83154,2,0,B|261:310,1,56.2499983236194
200,368,83348,2,0,B|120:216,1,168.749994970858,0|0
64,80,83928,5,0
64,80,84218,1,0
64,80,84509,1,0
224,24,84702,2,0,B|251:74,1,56.2499983236194
312,16,84896,2,0,B|392:168,1,168.749994970858,0|0
448,304,85477,5,0
304,224,85767,1,0
448,304,86058,1,0
288,360,86251,2,0,B|261:310,1,56.2499983236194
200,368,86445,2,0,B|120:216,1,168.749994970858,0|0
64,80,87025,5,0
208,160,87315,1,0
64,80,87606,1,0
224,24,87799,2,0,B|251:74,1,56.2499983236194
312,16,87993,2,0,B|392:168,1,168.749994970858,0|0
408,216,88380,6,0,B|184:216,1,224.999993294478
64,128,89928,6,0,B|288:128,1,224.999993294478
496,280,91573,6,0,B|472:248,1,37.5
433,290,91767,2,0,B|409:258,1,37.5
360,288,91960,2,0,B|336:256,1,37.5
297,298,92154,2,0,B|273:266,1,37.5
224,288,92347,2,0,B|200:256,1,37.5
161,298,92541,2,0,B|137:266,1,37.5
88,296,92734,2,0,B|64:264,1,37.5
32,216,92928,1,0
0,168,93025,6,0,B|152:136,1,150
368,96,93799,1,0
368,96,93896,1,0
368,96,93993,1,0
464,272,94573,6,0,B|312:272,1,150
