osu file format v14

[General]
AudioFilename: Witches Brew.mp3
AudioLeadIn: 2
PreviewTime: 15000
Countdown: 0
SampleSet: None
StackLeniency: 0.7
Mode: 3
LetterboxInBreaks: 0
SpecialStyle: 0
WidescreenStoryboard: 0

[Editor]
DistanceSpacing: 0.8
BeatDivisor: 4
GridSize: 8
TimelineZoom: 1

[Metadata]
Title:Cherry Blossoms and Broken Streams
TitleUnicode:Cherry Blossoms and Broken Streams
Artist:Various Artists
ArtistUnicode:Various Artists
Creator:Shoegazer
Version:Katy B - Witches Brew [Expert] (16+)
Source:
Tags:
BeatmapID:703076
BeatmapSetID:315311

[Difficulty]
HPDrainRate:8
CircleSize:4
OverallDifficulty:8
ApproachRate:10
SliderMultiplier:1.4
SliderTickRate:1

[Events]
//Background and Video events
0,0,"background5.jpg",0,0
//Break Periods
//Storyboard Layer 0 (Background)
//Storyboard Layer 1 (Fail)
//Storyboard Layer 2 (Pass)
//Storyboard Layer 3 (Foreground)
//Storyboard Sound Samples

[TimingPoints]
0,234.375,4,1,0,15,1,0

[HitObjects]
320,192,0,5,0,0:0:0:0:
64,0,0,128,0,58:1:0:0:0:
320,192,234,1,0,0:0:0:0:
448,192,234,1,0,0:0:0:0:
64,192,468,1,0,0:0:0:0:
192,192,468,1,0,0:0:0:0:
448,0,703,128,0,761:1:0:0:0:
192,192,820,1,0,0:0:0:0:
448,0,937,128,0,996:1:0:0:0:
192,192,1054,1,0,0:0:0:0:
448,192,1171,1,0,0:0:0:0:
192,192,1289,1,0,0:0:0:0:
320,192,1406,1,0,0:0:0:0:
448,192,1406,1,0,0:0:0:0:
64,0,1640,128,0,1699:1:0:0:0:
320,192,1757,1,0,0:0:0:0:
64,192,1875,1,0,0:0:0:0:
448,0,1875,128,0,1933:1:0:0:0:
64,192,2109,1,0,0:0:0:0:
448,192,2109,1,0,0:0:0:0:
320,192,2343,1,0,0:0:0:0:
448,192,2343,1,0,0:0:0:0:
64,0,2578,128,0,2636:1:0:0:0:
448,192,2695,1,0,0:0:0:0:
64,0,2812,128,0,2871:1:0:0:0:
192,0,2812,128,0,2871:1:0:0:0:
448,192,2929,1,0,0:0:0:0:
64,192,3046,1,0,0:0:0:0:
192,192,3046,1,0,0:0:0:0:
320,192,3164,1,0,0:0:0:0:
448,192,3281,1,0,0:0:0:0:
192,192,3398,1,0,0:0:0:0:
64,0,3515,128,0,3574:1:0:0:0:
448,192,3632,1,0,0:0:0:0:
192,0,3750,128,0,3808:1:0:0:0:
320,192,3867,1,0,0:0:0:0:
64,192,3984,1,0,0:0:0:0:
192,192,4101,1,0,0:0:0:0:
320,192,4218,1,0,0:0:0:0:
448,192,4335,1,0,0:0:0:0:
192,0,4453,128,0,4511:1:0:0:0:
320,192,4570,1,0,0:0:0:0:
64,0,4687,128,0,4746:1:0:0:0:
448,192,4804,1,0,0:0:0:0:
320,192,4921,1,0,0:0:0:0:
192,192,5039,1,0,0:0:0:0:
64,192,5156,1,0,0:0:0:0:
448,192,5273,1,0,0:0:0:0:
64,0,5390,128,0,5449:1:0:0:0:
320,192,5507,1,0,0:0:0:0:
192,0,5625,128,0,5683:1:0:0:0:
448,192,5742,1,0,0:0:0:0:
320,192,5859,1,0,0:0:0:0:
192,192,5976,1,0,0:0:0:0:
64,192,6093,1,0,0:0:0:0:
448,192,6210,1,0,0:0:0:0:
320,0,6328,128,0,6386:1:0:0:0:
64,192,6445,1,0,0:0:0:0:
192,0,6562,128,0,6621:1:0:0:0:
320,192,6679,1,0,0:0:0:0:
64,192,6796,1,0,0:0:0:0:
320,192,6914,1,0,0:0:0:0:
64,192,7031,1,0,0:0:0:0:
320,192,7148,1,0,0:0:0:0:
192,0,7265,128,0,7324:1:0:0:0:
448,192,7382,1,0,0:0:0:0:
64,192,7500,1,0,0:0:0:0:
192,192,7500,1,0,0:0:0:0:
320,192,7558,1,0,0:0:0:0:
448,192,7617,1,0,0:0:0:0:
64,192,7675,1,0,0:0:0:0:
192,192,7734,1,0,0:0:0:0:
320,192,7734,1,0,0:0:0:0:
448,192,7792,1,0,0:0:0:0:
64,192,7851,1,0,0:0:0:0:
192,192,7910,1,0,0:0:0:0:
64,192,7968,1,0,0:0:0:0:
448,192,7968,1,0,0:0:0:0:
320,192,8027,1,0,0:0:0:0:
192,192,8085,1,0,0:0:0:0:
64,192,8144,1,0,0:0:0:0:
320,192,8203,1,0,0:0:0:0:
448,192,8203,1,0,0:0:0:0:
192,192,8261,1,0,0:0:0:0:
448,192,8320,1,0,0:0:0:0:
64,192,8378,1,0,0:0:0:0:
192,192,8437,1,0,0:0:0:0:
320,192,8437,1,0,0:0:0:0:
448,192,8496,1,0,0:0:0:0:
64,192,8554,1,0,0:0:0:0:
320,192,8613,1,0,0:0:0:0:
192,192,8671,1,0,0:0:0:0:
448,192,8671,1,0,0:0:0:0:
320,192,8730,1,0,0:0:0:0:
192,192,8789,1,0,0:0:0:0:
64,192,8847,1,0,0:0:0:0:
320,192,8906,1,0,0:0:0:0:
448,192,8906,1,0,0:0:0:0:
192,192,8964,1,0,0:0:0:0:
448,192,9023,1,0,0:0:0:0:
64,192,9082,1,0,0:0:0:0:
192,192,9140,1,0,0:0:0:0:
320,192,9140,1,0,0:0:0:0:
448,192,9199,1,0,0:0:0:0:
64,192,9257,1,0,0:0:0:0:
320,192,9316,1,0,0:0:0:0:
64,192,9375,1,0,0:0:0:0:
192,192,9375,1,0,0:0:0:0:
448,192,9433,1,0,0:0:0:0:
320,192,9492,1,0,0:0:0:0:
192,192,9550,1,0,0:0:0:0:
64,192,9609,1,0,0:0:0:0:
448,192,9609,1,0,0:0:0:0:
320,192,9667,1,0,0:0:0:0:
448,192,9726,1,0,0:0:0:0:
320,192,9785,1,0,0:0:0:0:
64,192,9843,1,0,0:0:0:0:
192,192,9843,1,0,0:0:0:0:
448,192,9902,1,0,0:0:0:0:
320,192,9960,1,0,0:0:0:0:
192,192,10019,1,0,0:0:0:0:
64,192,10078,1,0,0:0:0:0:
448,192,10078,1,0,0:0:0:0:
320,192,10136,1,0,0:0:0:0:
448,192,10195,1,0,0:0:0:0:
64,192,10253,1,0,0:0:0:0:
192,192,10312,1,0,0:0:0:0:
320,192,10312,1,0,0:0:0:0:
448,192,10371,1,0,0:0:0:0:
64,192,10429,1,0,0:0:0:0:
320,192,10488,1,0,0:0:0:0:
192,192,10546,1,0,0:0:0:0:
448,192,10546,1,0,0:0:0:0:
64,192,10605,1,0,0:0:0:0:
320,192,10664,1,0,0:0:0:0:
448,192,10722,1,0,0:0:0:0:
64,192,10781,1,0,0:0:0:0:
192,192,10781,1,0,0:0:0:0:
320,192,10839,1,0,0:0:0:0:
448,192,10898,1,0,0:0:0:0:
64,192,10957,1,0,0:0:0:0:
192,192,11015,1,0,0:0:0:0:
320,192,11015,1,0,0:0:0:0:
448,192,11074,1,0,0:0:0:0:
64,192,11132,1,0,0:0:0:0:
320,192,11191,1,0,0:0:0:0:
192,192,11250,1,0,0:0:0:0:
448,192,11250,1,0,0:0:0:0:
320,192,11308,1,0,0:0:0:0:
64,192,11367,1,0,0:0:0:0:
192,192,11425,1,0,0:0:0:0:
320,192,11484,1,0,0:0:0:0:
448,192,11484,1,0,0:0:0:0:
64,192,11542,1,0,0:0:0:0:
448,192,11601,1,0,0:0:0:0:
320,192,11660,1,0,0:0:0:0:
64,192,11718,1,0,0:0:0:0:
192,192,11718,1,0,0:0:0:0:
448,192,11777,1,0,0:0:0:0:
64,192,11835,1,0,0:0:0:0:
320,192,11894,1,0,0:0:0:0:
192,192,11953,1,0,0:0:0:0:
448,192,11953,1,0,0:0:0:0:
64,192,12011,1,0,0:0:0:0:
320,192,12070,1,0,0:0:0:0:
192,192,12128,1,0,0:0:0:0:
64,192,12187,1,0,0:0:0:0:
448,192,12187,1,0,0:0:0:0:
320,192,12246,1,0,0:0:0:0:
192,192,12304,1,0,0:0:0:0:
448,192,12363,1,0,0:0:0:0:
64,192,12421,1,0,0:0:0:0:
320,192,12421,1,0,0:0:0:0:
192,192,12480,1,0,0:0:0:0:
448,192,12539,1,0,0:0:0:0:
320,192,12597,1,0,0:0:0:0:
64,192,12656,1,0,0:0:0:0:
192,192,12656,1,0,0:0:0:0:
448,192,12714,1,0,0:0:0:0:
64,192,12773,1,0,0:0:0:0:
192,192,12832,1,0,0:0:0:0:
320,192,12890,1,0,0:0:0:0:
448,192,12890,1,0,0:0:0:0:
64,192,12949,1,0,0:0:0:0:
192,192,13007,1,0,0:0:0:0:
448,192,13066,1,0,0:0:0:0:
64,192,13125,1,0,0:0:0:0:
320,192,13125,1,0,0:0:0:0:
192,192,13183,1,0,0:0:0:0:
448,192,13242,1,0,0:0:0:0:
64,192,13300,1,0,0:0:0:0:
192,192,13359,1,0,0:0:0:0:
320,192,13359,1,0,0:0:0:0:
448,192,13417,1,0,0:0:0:0:
64,192,13476,1,0,0:0:0:0:
320,192,13535,1,0,0:0:0:0:
192,192,13593,1,0,0:0:0:0:
448,192,13593,1,0,0:0:0:0:
320,192,13652,1,0,0:0:0:0:
64,192,13710,1,0,0:0:0:0:
448,192,13769,1,0,0:0:0:0:
192,192,13828,1,0,0:0:0:0:
320,192,13828,1,0,0:0:0:0:
64,192,13886,1,0,0:0:0:0:
448,192,13945,1,0,0:0:0:0:
192,192,14003,1,0,0:0:0:0:
64,192,14062,1,0,0:0:0:0:
320,192,14062,1,0,0:0:0:0:
192,192,14121,1,0,0:0:0:0:
320,192,14179,1,0,0:0:0:0:
448,192,14238,1,0,0:0:0:0:
64,192,14296,1,0,0:0:0:0:
192,192,14296,1,0,0:0:0:0:
448,192,14355,1,0,0:0:0:0:
64,192,14414,1,0,0:0:0:0:
320,192,14472,1,0,0:0:0:0:
192,192,14531,1,0,0:0:0:0:
448,192,14531,1,0,0:0:0:0:
320,192,14589,1,0,0:0:0:0:
64,192,14648,1,0,0:0:0:0:
192,192,14707,1,0,0:0:0:0:
320,192,14765,1,0,0:0:0:0:
448,192,14765,1,0,0:0:0:0:
64,192,14824,1,0,0:0:0:0:
448,192,14882,1,0,0:0:0:0:
192,192,14941,1,0,0:0:0:0:
64,192,15000,1,0,0:0:0:0:
320,192,15000,1,0,0:0:0:0:
448,192,15058,1,0,0:0:0:0:
192,192,15117,1,0,0:0:0:0:
320,192,15175,1,0,0:0:0:0:
64,192,15234,1,0,0:0:0:0:
448,192,15234,1,0,0:0:0:0:
192,192,15292,1,0,0:0:0:0:
64,192,15351,1,0,0:0:0:0:
448,192,15410,1,0,0:0:0:0:
192,192,15468,1,0,0:0:0:0:
320,192,15468,1,0,0:0:0:0:
64,192,15527,1,0,0:0:0:0:
448,192,15585,1,0,0:0:0:0:
320,192,15644,1,0,0:0:0:0:
64,192,15703,1,0,0:0:0:0:
192,192,15703,1,0,0:0:0:0:
448,192,15761,1,0,0:0:0:0:
64,192,15820,1,0,0:0:0:0:
192,192,15878,1,0,0:0:0:0:
320,192,15937,1,0,0:0:0:0:
448,192,15937,1,0,0:0:0:0:
64,192,15996,1,0,0:0:0:0:
448,192,16054,1,0,0:0:0:0:
192,192,16113,1,0,0:0:0:0:
64,192,16171,1,0,0:0:0:0:
320,192,16171,1,0,0:0:0:0:
448,192,16230,1,0,0:0:0:0:
192,192,16289,1,0,0:0:0:0:
320,192,16347,1,0,0:0:0:0:
64,192,16406,1,0,0:0:0:0:
448,192,16406,1,0,0:0:0:0:
192,192,16464,1,0,0:0:0:0:
320,192,16523,1,0,0:0:0:0:
64,192,16582,1,0,0:0:0:0:
192,192,16640,1,0,0:0:0:0:
448,192,16640,1,0,0:0:0:0:
320,192,16699,1,0,0:0:0:0:
64,192,16757,1,0,0:0:0:0:
192,192,16816,1,0,0:0:0:0:
320,192,16875,1,0,0:0:0:0:
448,192,16875,1,0,0:0:0:0:
64,192,16933,1,0,0:0:0:0:
448,192,16992,1,0,0:0:0:0:
320,192,17050,1,0,0:0:0:0:
64,192,17109,1,0,0:0:0:0:
192,192,17109,1,0,0:0:0:0:
448,192,17167,1,0,0:0:0:0:
64,192,17226,1,0,0:0:0:0:
192,192,17285,1,0,0:0:0:0:
320,192,17343,1,0,0:0:0:0:
448,192,17343,1,0,0:0:0:0:
64,192,17402,1,0,0:0:0:0:
192,192,17460,1,0,0:0:0:0:
448,192,17519,1,0,0:0:0:0:
64,192,17578,1,0,0:0:0:0:
320,192,17578,1,0,0:0:0:0:
192,192,17636,1,0,0:0:0:0:
448,192,17695,1,0,0:0:0:0:
320,192,17753,1,0,0:0:0:0:
64,192,17812,1,0,0:0:0:0:
192,192,17812,1,0,0:0:0:0:
448,192,17871,1,0,0:0:0:0:
64,192,17929,1,0,0:0:0:0:
320,192,17988,1,0,0:0:0:0:
192,192,18046,1,0,0:0:0:0:
448,192,18046,1,0,0:0:0:0:
320,192,18105,1,0,0:0:0:0:
64,192,18164,1,0,0:0:0:0:
192,192,18222,1,0,0:0:0:0:
320,192,18281,1,0,0:0:0:0:
448,192,18281,1,0,0:0:0:0:
64,192,18339,1,0,0:0:0:0:
320,192,18398,1,0,0:0:0:0:
192,192,18457,1,0,0:0:0:0:
64,192,18515,1,0,0:0:0:0:
448,192,18515,1,0,0:0:0:0:
320,192,18574,1,0,0:0:0:0:
192,192,18632,1,0,0:0:0:0:
448,192,18691,1,0,0:0:0:0:
64,192,18750,1,0,0:0:0:0:
320,192,18750,1,0,0:0:0:0:
192,192,18808,1,0,0:0:0:0:
448,192,18867,1,0,0:0:0:0:
320,192,18925,1,0,0:0:0:0:
64,192,18984,1,0,0:0:0:0:
192,192,18984,1,0,0:0:0:0:
448,192,19042,1,0,0:0:0:0:
64,192,19101,1,0,0:0:0:0:
320,192,19160,1,0,0:0:0:0:
192,192,19218,1,0,0:0:0:0:
448,192,19218,1,0,0:0:0:0:
64,192,19277,1,0,0:0:0:0:
320,192,19335,1,0,0:0:0:0:
448,192,19394,1,0,0:0:0:0:
64,192,19453,1,0,0:0:0:0:
192,192,19453,1,0,0:0:0:0:
448,192,19511,1,0,0:0:0:0:
64,192,19570,1,0,0:0:0:0:
192,192,19628,1,0,0:0:0:0:
320,192,19687,1,0,0:0:0:0:
448,192,19687,1,0,0:0:0:0:
64,192,19746,1,0,0:0:0:0:
448,192,19804,1,0,0:0:0:0:
192,192,19863,1,0,0:0:0:0:
64,192,19921,1,0,0:0:0:0:
320,192,19921,1,0,0:0:0:0:
192,192,19980,1,0,0:0:0:0:
448,192,20039,1,0,0:0:0:0:
320,192,20097,1,0,0:0:0:0:
64,192,20156,1,0,0:0:0:0:
192,192,20156,1,0,0:0:0:0:
448,192,20214,1,0,0:0:0:0:
64,192,20273,1,0,0:0:0:0:
192,192,20332,1,0,0:0:0:0:
320,192,20390,1,0,0:0:0:0:
448,192,20390,1,0,0:0:0:0:
64,192,20449,1,0,0:0:0:0:
448,192,20507,1,0,0:0:0:0:
192,192,20566,1,0,0:0:0:0:
64,192,20625,1,0,0:0:0:0:
320,192,20625,1,0,0:0:0:0:
448,192,20683,1,0,0:0:0:0:
192,192,20742,1,0,0:0:0:0:
320,192,20800,1,0,0:0:0:0:
64,192,20859,1,0,0:0:0:0:
448,192,20859,1,0,0:0:0:0:
192,192,20917,1,0,0:0:0:0:
320,192,20976,1,0,0:0:0:0:
448,192,21035,1,0,0:0:0:0:
64,192,21093,1,0,0:0:0:0:
192,192,21093,1,0,0:0:0:0:
320,192,21152,1,0,0:0:0:0:
448,192,21210,1,0,0:0:0:0:
64,192,21269,1,0,0:0:0:0:
192,192,21328,1,0,0:0:0:0:
320,192,21328,1,0,0:0:0:0:
448,192,21386,1,0,0:0:0:0:
64,192,21445,1,0,0:0:0:0:
320,192,21503,1,0,0:0:0:0:
192,192,21562,1,0,0:0:0:0:
448,192,21562,1,0,0:0:0:0:
64,192,21621,1,0,0:0:0:0:
448,192,21679,1,0,0:0:0:0:
320,192,21738,1,0,0:0:0:0:
64,192,21796,1,0,0:0:0:0:
192,192,21796,1,0,0:0:0:0:
448,192,21855,1,0,0:0:0:0:
64,192,21914,1,0,0:0:0:0:
320,192,21972,1,0,0:0:0:0:
192,192,22031,1,0,0:0:0:0:
448,192,22031,1,0,0:0:0:0:
64,192,22089,1,0,0:0:0:0:
320,192,22148,1,0,0:0:0:0:
192,192,22207,1,0,0:0:0:0:
64,192,22265,1,0,0:0:0:0:
448,192,22265,1,0,0:0:0:0:
320,192,22324,1,0,0:0:0:0:
448,192,22382,1,0,0:0:0:0:
64,192,22441,1,0,0:0:0:0:
192,192,22500,1,0,0:0:0:0:
320,192,22500,1,0,0:0:0:0:
448,192,22558,1,0,0:0:0:0:
64,192,22617,1,0,0:0:0:0:
320,192,22675,1,0,0:0:0:0:
192,192,22734,1,0,0:0:0:0:
448,192,22734,1,0,0:0:0:0:
64,192,22792,1,0,0:0:0:0:
320,192,22851,1,0,0:0:0:0:
448,192,22910,1,0,0:0:0:0:
64,192,22968,1,0,0:0:0:0:
192,192,22968,1,0,0:0:0:0:
320,192,23027,1,0,0:0:0:0:
448,192,23085,1,0,0:0:0:0:
192,192,23144,1,0,0:0:0:0:
64,192,23203,1,0,0:0:0:0:
320,192,23203,1,0,0:0:0:0:
448,192,23261,1,0,0:0:0:0:
64,192,23320,1,0,0:0:0:0:
192,192,23378,1,0,0:0:0:0:
320,192,23437,1,0,0:0:0:0:
448,192,23437,1,0,0:0:0:0:
64,192,23496,1,0,0:0:0:0:
448,192,23554,1,0,0:0:0:0:
192,192,23613,1,0,0:0:0:0:
64,192,23671,1,0,0:0:0:0:
320,192,23671,1,0,0:0:0:0:
448,192,23730,1,0,0:0:0:0:
192,192,23789,1,0,0:0:0:0:
64,192,23847,1,0,0:0:0:0:
320,192,23906,1,0,0:0:0:0:
448,192,23906,1,0,0:0:0:0:
192,192,23964,1,0,0:0:0:0:
448,192,24023,1,0,0:0:0:0:
64,192,24082,1,0,0:0:0:0:
192,192,24140,1,0,0:0:0:0:
320,192,24140,1,0,0:0:0:0:
448,192,24199,1,0,0:0:0:0:
64,192,24257,1,0,0:0:0:0:
192,192,24316,1,0,0:0:0:0:
64,192,24375,1,0,0:0:0:0:
448,192,24375,1,0,0:0:0:0:
320,192,24433,1,0,0:0:0:0:
192,192,24492,1,0,0:0:0:0:
64,192,24550,1,0,0:0:0:0:
320,192,24609,1,0,0:0:0:0:
448,192,24609,1,0,0:0:0:0:
192,192,24667,1,0,0:0:0:0:
448,192,24726,1,0,0:0:0:0:
64,192,24785,1,0,0:0:0:0:
192,192,24843,1,0,0:0:0:0:
320,192,24843,1,0,0:0:0:0:
448,192,24902,1,0,0:0:0:0:
64,192,24960,1,0,0:0:0:0:
320,192,25019,1,0,0:0:0:0:
192,192,25078,1,0,0:0:0:0:
448,192,25078,1,0,0:0:0:0:
320,192,25136,1,0,0:0:0:0:
64,192,25195,1,0,0:0:0:0:
192,192,25253,1,0,0:0:0:0:
320,192,25312,1,0,0:0:0:0:
448,192,25312,1,0,0:0:0:0:
64,192,25371,1,0,0:0:0:0:
448,192,25429,1,0,0:0:0:0:
320,192,25488,1,0,0:0:0:0:
64,192,25546,1,0,0:0:0:0:
192,192,25546,1,0,0:0:0:0:
448,192,25605,1,0,0:0:0:0:
64,192,25664,1,0,0:0:0:0:
320,192,25722,1,0,0:0:0:0:
192,192,25781,1,0,0:0:0:0:
448,192,25781,1,0,0:0:0:0:
64,192,25839,1,0,0:0:0:0:
320,192,25898,1,0,0:0:0:0:
192,192,25957,1,0,0:0:0:0:
64,192,26015,1,0,0:0:0:0:
448,192,26015,1,0,0:0:0:0:
320,192,26074,1,0,0:0:0:0:
448,192,26132,1,0,0:0:0:0:
64,192,26191,1,0,0:0:0:0:
192,192,26250,1,0,0:0:0:0:
320,192,26250,1,0,0:0:0:0:
448,192,26308,1,0,0:0:0:0:
64,192,26367,1,0,0:0:0:0:
320,192,26425,1,0,0:0:0:0:
192,192,26484,1,0,0:0:0:0:
448,192,26484,1,0,0:0:0:0:
64,192,26542,1,0,0:0:0:0:
320,192,26601,1,0,0:0:0:0:
448,192,26660,1,0,0:0:0:0:
64,192,26718,1,0,0:0:0:0:
192,192,26718,1,0,0:0:0:0:
320,192,26777,1,0,0:0:0:0:
64,192,26835,1,0,0:0:0:0:
448,192,26894,1,0,0:0:0:0:
192,192,26953,1,0,0:0:0:0:
320,192,26953,1,0,0:0:0:0:
64,192,27011,1,0,0:0:0:0:
448,192,27070,1,0,0:0:0:0:
192,192,27128,1,0,0:0:0:0:
64,192,27187,1,0,0:0:0:0:
320,192,27187,1,0,0:0:0:0:
448,192,27246,1,0,0:0:0:0:
192,192,27304,1,0,0:0:0:0:
320,192,27363,1,0,0:0:0:0:
64,192,27421,1,0,0:0:0:0:
192,192,27421,1,0,0:0:0:0:
448,192,27480,1,0,0:0:0:0:
320,192,27539,1,0,0:0:0:0:
64,192,27597,1,0,0:0:0:0:
192,192,27656,1,0,0:0:0:0:
448,192,27656,1,0,0:0:0:0:
320,192,27714,1,0,0:0:0:0:
64,192,27773,1,0,0:0:0:0:
192,192,27832,1,0,0:0:0:0:
320,192,27890,1,0,0:0:0:0:
448,192,27890,1,0,0:0:0:0:
64,192,27949,1,0,0:0:0:0:
448,192,28007,1,0,0:0:0:0:
320,192,28066,1,0,0:0:0:0:
64,192,28125,1,0,0:0:0:0:
192,192,28125,1,0,0:0:0:0:
448,192,28183,1,0,0:0:0:0:
192,192,28242,1,0,0:0:0:0:
320,192,28300,1,0,0:0:0:0:
64,192,28359,1,0,0:0:0:0:
448,192,28359,1,0,0:0:0:0:
192,192,28417,1,0,0:0:0:0:
320,192,28476,1,0,0:0:0:0:
448,192,28535,1,0,0:0:0:0:
64,192,28593,1,0,0:0:0:0:
192,192,28593,1,0,0:0:0:0:
320,192,28652,1,0,0:0:0:0:
448,192,28710,1,0,0:0:0:0:
64,192,28769,1,0,0:0:0:0:
192,192,28828,1,0,0:0:0:0:
320,192,28828,1,0,0:0:0:0:
448,192,28886,1,0,0:0:0:0:
64,192,28945,1,0,0:0:0:0:
320,192,29003,1,0,0:0:0:0:
192,192,29062,1,0,0:0:0:0:
448,192,29062,1,0,0:0:0:0:
64,192,29121,1,0,0:0:0:0:
320,192,29179,1,0,0:0:0:0:
448,192,29238,1,0,0:0:0:0:
64,192,29296,1,0,0:0:0:0:
192,192,29296,1,0,0:0:0:0:
320,192,29355,1,0,0:0:0:0:
64,192,29414,1,0,0:0:0:0:
192,192,29472,1,0,0:0:0:0:
320,192,29531,1,0,0:0:0:0:
448,192,29531,1,0,0:0:0:0:
64,192,29589,1,0,0:0:0:0:
448,192,29648,1,0,0:0:0:0:
192,192,29707,1,0,0:0:0:0:
64,192,29765,1,0,0:0:0:0:
320,192,29765,1,0,0:0:0:0:
192,192,29824,1,0,0:0:0:0:
320,192,29882,1,0,0:0:0:0:
448,192,29941,1,0,0:0:0:0:
64,192,30000,1,0,0:0:0:0:
192,192,30000,1,0,0:0:0:0:
320,192,30058,1,0,0:0:0:0:
448,192,30117,1,0,0:0:0:0:
64,192,30175,1,0,0:0:0:0:
192,192,30234,1,0,0:0:0:0:
320,192,30234,1,0,0:0:0:0:
448,192,30292,1,0,0:0:0:0:
64,192,30351,1,0,0:0:0:0:
320,192,30410,1,0,0:0:0:0:
192,192,30468,1,0,0:0:0:0:
448,192,30468,1,0,0:0:0:0:
320,192,30527,1,0,0:0:0:0:
64,192,30585,1,0,0:0:0:0:
192,192,30644,1,0,0:0:0:0:
320,192,30703,1,0,0:0:0:0:
448,192,30703,1,0,0:0:0:0:
64,192,30761,1,0,0:0:0:0:
448,192,30820,1,0,0:0:0:0:
192,192,30878,1,0,0:0:0:0:
64,192,30937,1,0,0:0:0:0:
320,192,30937,1,0,0:0:0:0:
448,192,30996,1,0,0:0:0:0:
192,192,31054,1,0,0:0:0:0:
64,192,31113,1,0,0:0:0:0:
320,192,31171,1,0,0:0:0:0:
448,192,31171,1,0,0:0:0:0:
192,192,31230,1,0,0:0:0:0:
448,192,31289,1,0,0:0:0:0:
320,192,31347,1,0,0:0:0:0:
64,192,31406,1,0,0:0:0:0:
192,192,31406,1,0,0:0:0:0:
448,192,31464,1,0,0:0:0:0:
64,192,31523,1,0,0:0:0:0:
192,192,31582,1,0,0:0:0:0:
320,192,31640,1,0,0:0:0:0:
448,192,31640,1,0,0:0:0:0:
64,192,31699,1,0,0:0:0:0:
320,192,31757,1,0,0:0:0:0:
192,192,31816,1,0,0:0:0:0:
64,192,31875,1,0,0:0:0:0:
448,192,31875,1,0,0:0:0:0:
320,192,31933,1,0,0:0:0:0:
192,192,31992,1,0,0:0:0:0:
64,192,32050,1,0,0:0:0:0:
320,192,32109,1,0,0:0:0:0:
448,192,32109,1,0,0:0:0:0:
192,192,32167,1,0,0:0:0:0:
64,192,32226,1,0,0:0:0:0:
448,192,32285,1,0,0:0:0:0:
192,192,32343,1,0,0:0:0:0:
320,192,32343,1,0,0:0:0:0:
64,192,32402,1,0,0:0:0:0:
448,192,32460,1,0,0:0:0:0:
192,192,32519,1,0,0:0:0:0:
64,192,32578,1,0,0:0:0:0:
320,192,32578,1,0,0:0:0:0:
448,192,32636,1,0,0:0:0:0:
192,192,32695,1,0,0:0:0:0:
320,192,32753,1,0,0:0:0:0:
64,192,32812,1,0,0:0:0:0:
448,192,32812,1,0,0:0:0:0:
192,192,32871,1,0,0:0:0:0:
64,192,32929,1,0,0:0:0:0:
448,192,32988,1,0,0:0:0:0:
192,192,33046,1,0,0:0:0:0:
320,192,33046,1,0,0:0:0:0:
64,192,33105,1,0,0:0:0:0:
448,192,33164,1,0,0:0:0:0:
192,192,33222,1,0,0:0:0:0:
64,192,33281,1,0,0:0:0:0:
320,192,33281,1,0,0:0:0:0:
192,192,33339,1,0,0:0:0:0:
448,192,33398,1,0,0:0:0:0:
320,192,33457,1,0,0:0:0:0:
64,192,33515,1,0,0:0:0:0:
192,192,33515,1,0,0:0:0:0:
448,192,33574,1,0,0:0:0:0:
64,192,33632,1,0,0:0:0:0:
320,192,33691,1,0,0:0:0:0:
192,192,33750,1,0,0:0:0:0:
448,192,33750,1,0,0:0:0:0:
64,192,33808,1,0,0:0:0:0:
320,192,33867,1,0,0:0:0:0:
448,192,33925,1,0,0:0:0:0:
64,192,33984,1,0,0:0:0:0:
192,192,33984,1,0,0:0:0:0:
320,192,34042,1,0,0:0:0:0:
64,192,34101,1,0,0:0:0:0:
448,192,34160,1,0,0:0:0:0:
192,192,34218,1,0,0:0:0:0:
320,192,34218,1,0,0:0:0:0:
64,192,34277,1,0,0:0:0:0:
448,192,34335,1,0,0:0:0:0:
320,192,34394,1,0,0:0:0:0:
64,192,34453,1,0,0:0:0:0:
192,192,34453,1,0,0:0:0:0:
448,192,34511,1,0,0:0:0:0:
64,192,34570,1,0,0:0:0:0:
320,192,34628,1,0,0:0:0:0:
192,192,34687,1,0,0:0:0:0:
448,192,34687,1,0,0:0:0:0:
64,192,34746,1,0,0:0:0:0:
320,192,34804,1,0,0:0:0:0:
448,192,34863,1,0,0:0:0:0:
64,192,34921,1,0,0:0:0:0:
320,192,34921,1,0,0:0:0:0:
192,192,34980,1,0,0:0:0:0:
448,192,35039,1,0,0:0:0:0:
320,192,35097,1,0,0:0:0:0:
64,192,35156,1,0,0:0:0:0:
192,192,35156,1,0,0:0:0:0:
448,192,35214,1,0,0:0:0:0:
64,192,35273,1,0,0:0:0:0:
192,192,35332,1,0,0:0:0:0:
320,192,35390,1,0,0:0:0:0:
448,192,35390,1,0,0:0:0:0:
64,192,35449,1,0,0:0:0:0:
320,192,35507,1,0,0:0:0:0:
192,192,35566,1,0,0:0:0:0:
64,0,35625,128,0,35635:1:0:0:0:
448,0,35625,128,0,35635:1:0:0:0:
320,192,35683,1,0,0:0:0:0:
448,192,35742,1,0,0:0:0:0:
64,192,35800,1,0,0:0:0:0:
192,0,35859,128,0,35870:1:0:0:0:
320,0,35859,128,0,35870:1:0:0:0:
448,192,35917,1,0,0:0:0:0:
64,192,35976,1,0,0:0:0:0:
320,192,36035,1,0,0:0:0:0:
192,0,36093,128,0,36104:1:0:0:0:
448,0,36093,128,0,36104:1:0:0:0:
64,192,36152,1,0,0:0:0:0:
320,192,36210,1,0,0:0:0:0:
448,192,36269,1,0,0:0:0:0:
64,0,36328,128,0,36338:1:0:0:0:
192,0,36328,128,0,36338:1:0:0:0:
320,192,36386,1,0,0:0:0:0:
448,0,36445,128,0,36456:1:0:0:0:
64,192,36503,1,0,0:0:0:0:
192,0,36562,128,0,36573:1:0:0:0:
320,0,36562,128,0,36573:1:0:0:0:
448,192,36621,1,0,0:0:0:0:
64,0,36679,128,0,36690:1:0:0:0:
320,192,36738,1,0,0:0:0:0:
192,0,36796,128,0,36807:1:0:0:0:
448,0,36796,128,0,36807:1:0:0:0:
320,192,36855,1,0,0:0:0:0:
64,0,36914,128,0,36924:1:0:0:0:
192,192,36972,1,0,0:0:0:0:
320,0,37031,128,0,37042:1:0:0:0:
448,0,37031,128,0,37042:1:0:0:0:
64,192,37089,1,0,0:0:0:0:
448,0,37148,128,0,37159:1:0:0:0:
320,192,37207,1,0,0:0:0:0:
64,0,37265,128,0,37276:1:0:0:0:
192,0,37265,128,0,37276:1:0:0:0:
448,192,37324,1,0,0:0:0:0:
320,0,37382,128,0,37393:1:0:0:0:
64,192,37441,1,0,0:0:0:0:
192,0,37500,128,0,37510:1:0:0:0:
320,0,37500,128,0,37510:1:0:0:0:
448,0,37500,128,0,37510:1:0:0:0:
320,192,37734,1,0,0:0:0:0:
448,192,37734,1,0,0:0:0:0:
64,192,37968,1,0,0:0:0:0:
192,0,37968,128,0,38027:1:0:0:0:
448,192,38203,1,0,0:0:0:0:
320,192,38320,1,0,0:0:0:0:
192,192,38437,1,0,0:0:0:0:
64,0,38437,128,0,38496:1:0:0:0:
320,192,38554,1,0,0:0:0:0:
64,192,38671,1,0,0:0:0:0:
448,192,38789,1,0,0:0:0:0:
64,192,38906,1,0,0:0:0:0:
192,0,38906,128,0,38964:1:0:0:0:
320,0,39140,128,0,39199:1:0:0:0:
448,192,39257,1,0,0:0:0:0:
192,192,39375,1,0,0:0:0:0:
64,0,39375,128,0,39433:1:0:0:0:
192,192,39609,1,0,0:0:0:0:
320,192,39609,1,0,0:0:0:0:
448,192,39843,1,0,0:0:0:0:
64,0,39843,128,0,39902:1:0:0:0:
192,0,40078,128,0,40136:1:0:0:0:
448,192,40312,1,0,0:0:0:0:
64,192,40546,1,0,0:0:0:0:
192,0,40546,128,0,40605:1:0:0:0:
320,0,40781,128,0,40839:1:0:0:0:
448,192,41015,1,0,0:0:0:0:
64,0,41015,128,0,41074:1:0:0:0:
192,192,41250,1,0,0:0:0:0:
320,192,41250,1,0,0:0:0:0:
64,192,41484,1,0,0:0:0:0:
192,0,41484,128,0,41542:1:0:0:0:
448,192,41718,1,0,0:0:0:0:
320,0,41718,128,0,41777:1:0:0:0:
64,192,41953,1,0,0:0:0:0:
192,192,42070,1,0,0:0:0:0:
448,192,42187,1,0,0:0:0:0:
64,192,42304,1,0,0:0:0:0:
192,0,42421,128,0,42480:1:0:0:0:
448,192,42539,1,0,0:0:0:0:
64,192,42656,1,0,0:0:0:0:
320,0,42656,128,0,42714:1:0:0:0:
448,0,42890,128,0,42949:1:0:0:0:
320,192,43007,1,0,0:0:0:0:
64,192,43125,1,0,0:0:0:0:
192,192,43125,1,0,0:0:0:0:
192,192,43359,1,0,0:0:0:0:
64,0,43359,128,0,43417:1:0:0:0:
448,192,43593,1,0,0:0:0:0:
192,0,43593,128,0,43652:1:0:0:0:
320,0,43828,128,0,43886:1:0:0:0:
192,0,44062,128,0,44121:1:0:0:0:
64,192,44296,1,0,0:0:0:0:
448,192,44296,1,0,0:0:0:0:
320,0,44531,128,0,44589:1:0:0:0:
64,192,44765,1,0,0:0:0:0:
192,192,44765,1,0,0:0:0:0:
192,192,45000,1,0,0:0:0:0:
448,0,45000,128,0,45058:1:0:0:0:
320,192,45234,1,0,0:0:0:0:
448,192,45234,1,0,0:0:0:0:
64,192,45468,1,0,0:0:0:0:
320,192,45468,1,0,0:0:0:0:
64,192,45703,1,0,0:0:0:0:
192,192,45820,1,0,0:0:0:0:
448,192,45937,1,0,0:0:0:0:
320,192,46054,1,0,0:0:0:0:
64,0,46171,128,0,46230:1:0:0:0:
320,192,46289,1,0,0:0:0:0:
448,192,46406,1,0,0:0:0:0:
192,0,46406,128,0,46464:1:0:0:0:
320,0,46640,128,0,46699:1:0:0:0:
448,192,46757,1,0,0:0:0:0:
64,192,46875,1,0,0:0:0:0:
320,192,46875,1,0,0:0:0:0:
448,192,47109,1,0,0:0:0:0:
192,0,47109,128,0,47167:1:0:0:0:
64,192,47343,1,0,0:0:0:0:
320,0,47343,128,0,47402:1:0:0:0:
320,0,47578,128,0,47636:1:0:0:0:
448,0,47812,128,0,47871:1:0:0:0:
64,192,48046,1,0,0:0:0:0:
320,192,48046,1,0,0:0:0:0:
192,0,48281,128,0,48339:1:0:0:0:
192,192,48515,1,0,0:0:0:0:
64,192,48750,1,0,0:0:0:0:
448,0,48750,128,0,48808:1:0:0:0:
192,0,48984,128,0,49101:1:0:0:0:
448,0,49218,128,0,49335:1:0:0:0:
64,0,49453,128,0,49570:1:0:0:0:
192,0,49687,128,0,49804:1:0:0:0:
320,0,49921,128,0,50039:1:0:0:0:
448,0,50156,128,0,50273:1:0:0:0:
64,0,50390,128,0,50507:1:0:0:0:
320,0,50625,128,0,50742:1:0:0:0:
192,0,50859,128,0,50976:1:0:0:0:
448,0,51093,128,0,51210:1:0:0:0:
64,0,51328,128,0,51445:1:0:0:0:
448,192,51562,1,0,0:0:0:0:
64,0,51679,128,0,51738:1:0:0:0:
192,0,51796,128,0,51855:1:0:0:0:
320,0,51914,128,0,51972:1:0:0:0:
64,0,52031,128,0,52089:1:0:0:0:
192,0,52148,128,0,52207:1:0:0:0:
320,0,52265,128,0,52324:1:0:0:0:
448,0,52382,128,0,52441:1:0:0:0:
64,192,52500,1,0,0:0:0:0:
192,192,52500,1,0,0:0:0:0:
448,192,52558,1,0,0:0:0:0:
192,192,52617,1,0,0:0:0:0:
320,192,52675,1,0,0:0:0:0:
64,192,52734,1,0,0:0:0:0:
448,192,52734,1,0,0:0:0:0:
192,192,52792,1,0,0:0:0:0:
64,192,52851,1,0,0:0:0:0:
448,192,52910,1,0,0:0:0:0:
192,192,52968,1,0,0:0:0:0:
320,192,52968,1,0,0:0:0:0:
64,192,53027,1,0,0:0:0:0:
448,192,53085,1,0,0:0:0:0:
192,192,53144,1,0,0:0:0:0:
64,192,53203,1,0,0:0:0:0:
320,192,53203,1,0,0:0:0:0:
448,192,53261,1,0,0:0:0:0:
192,192,53320,1,0,0:0:0:0:
320,192,53378,1,0,0:0:0:0:
64,192,53437,1,0,0:0:0:0:
448,192,53437,1,0,0:0:0:0:
192,192,53496,1,0,0:0:0:0:
320,192,53554,1,0,0:0:0:0:
448,192,53613,1,0,0:0:0:0:
64,192,53671,1,0,0:0:0:0:
192,192,53671,1,0,0:0:0:0:
320,192,53730,1,0,0:0:0:0:
64,192,53789,1,0,0:0:0:0:
448,192,53847,1,0,0:0:0:0:
192,192,53906,1,0,0:0:0:0:
320,192,53906,1,0,0:0:0:0:
64,192,53964,1,0,0:0:0:0:
320,192,54023,1,0,0:0:0:0:
448,192,54082,1,0,0:0:0:0:
64,192,54140,1,0,0:0:0:0:
192,192,54140,1,0,0:0:0:0:
448,192,54199,1,0,0:0:0:0:
64,192,54257,1,0,0:0:0:0:
192,192,54316,1,0,0:0:0:0:
320,192,54375,1,0,0:0:0:0:
448,192,54375,1,0,0:0:0:0:
64,192,54433,1,0,0:0:0:0:
320,192,54492,1,0,0:0:0:0:
448,192,54550,1,0,0:0:0:0:
64,192,54609,1,0,0:0:0:0:
192,192,54609,1,0,0:0:0:0:
320,192,54667,1,0,0:0:0:0:
64,192,54726,1,0,0:0:0:0:
448,192,54785,1,0,0:0:0:0:
192,192,54843,1,0,0:0:0:0:
320,192,54843,1,0,0:0:0:0:
64,192,54902,1,0,0:0:0:0:
448,192,54960,1,0,0:0:0:0:
192,192,55019,1,0,0:0:0:0:
64,192,55078,1,0,0:0:0:0:
320,192,55078,1,0,0:0:0:0:
448,192,55136,1,0,0:0:0:0:
192,192,55195,1,0,0:0:0:0:
64,192,55253,1,0,0:0:0:0:
320,192,55312,1,0,0:0:0:0:
448,192,55312,1,0,0:0:0:0:
192,192,55371,1,0,0:0:0:0:
64,192,55429,1,0,0:0:0:0:
448,192,55488,1,0,0:0:0:0:
64,192,55546,1,0,0:0:0:0:
320,192,55546,1,0,0:0:0:0:
192,192,55605,1,0,0:0:0:0:
448,192,55664,1,0,0:0:0:0:
320,192,55722,1,0,0:0:0:0:
64,192,55781,1,0,0:0:0:0:
192,192,55781,1,0,0:0:0:0:
448,192,55839,1,0,0:0:0:0:
64,192,55898,1,0,0:0:0:0:
192,192,55957,1,0,0:0:0:0:
320,192,56015,1,0,0:0:0:0:
448,192,56015,1,0,0:0:0:0:
64,192,56074,1,0,0:0:0:0:
192,192,56132,1,0,0:0:0:0:
320,192,56191,1,0,0:0:0:0:
64,192,56250,1,0,0:0:0:0:
448,192,56250,1,0,0:0:0:0:
192,192,56308,1,0,0:0:0:0:
448,192,56367,1,0,0:0:0:0:
64,192,56425,1,0,0:0:0:0:
192,192,56484,1,0,0:0:0:0:
320,192,56484,1,0,0:0:0:0:
448,192,56542,1,0,0:0:0:0:
64,192,56601,1,0,0:0:0:0:
192,192,56660,1,0,0:0:0:0:
64,192,56718,1,0,0:0:0:0:
448,192,56718,1,0,0:0:0:0:
320,192,56777,1,0,0:0:0:0:
192,192,56835,1,0,0:0:0:0:
64,192,56894,1,0,0:0:0:0:
320,192,56953,1,0,0:0:0:0:
448,192,56953,1,0,0:0:0:0:
192,192,57011,1,0,0:0:0:0:
448,192,57070,1,0,0:0:0:0:
64,192,57128,1,0,0:0:0:0:
192,192,57187,1,0,0:0:0:0:
320,192,57187,1,0,0:0:0:0:
448,192,57246,1,0,0:0:0:0:
64,192,57304,1,0,0:0:0:0:
320,192,57363,1,0,0:0:0:0:
192,192,57421,1,0,0:0:0:0:
448,192,57421,1,0,0:0:0:0:
320,192,57480,1,0,0:0:0:0:
192,192,57539,1,0,0:0:0:0:
64,192,57597,1,0,0:0:0:0:
320,192,57656,1,0,0:0:0:0:
448,192,57656,1,0,0:0:0:0:
192,192,57714,1,0,0:0:0:0:
64,192,57773,1,0,0:0:0:0:
448,192,57832,1,0,0:0:0:0:
192,192,57890,1,0,0:0:0:0:
320,192,57890,1,0,0:0:0:0:
64,192,57949,1,0,0:0:0:0:
448,192,58007,1,0,0:0:0:0:
192,192,58066,1,0,0:0:0:0:
64,192,58125,1,0,0:0:0:0:
320,192,58125,1,0,0:0:0:0:
448,192,58183,1,0,0:0:0:0:
192,192,58242,1,0,0:0:0:0:
320,192,58300,1,0,0:0:0:0:
64,192,58359,1,0,0:0:0:0:
448,192,58359,1,0,0:0:0:0:
192,192,58417,1,0,0:0:0:0:
64,192,58476,1,0,0:0:0:0:
448,192,58535,1,0,0:0:0:0:
192,192,58593,1,0,0:0:0:0:
320,192,58593,1,0,0:0:0:0:
64,192,58652,1,0,0:0:0:0:
448,192,58710,1,0,0:0:0:0:
192,192,58769,1,0,0:0:0:0:
64,192,58828,1,0,0:0:0:0:
320,192,58828,1,0,0:0:0:0:
448,192,58886,1,0,0:0:0:0:
192,192,58945,1,0,0:0:0:0:
320,192,59003,1,0,0:0:0:0:
64,192,59062,1,0,0:0:0:0:
192,192,59062,1,0,0:0:0:0:
448,192,59121,1,0,0:0:0:0:
320,192,59179,1,0,0:0:0:0:
192,192,59238,1,0,0:0:0:0:
64,192,59296,1,0,0:0:0:0:
448,192,59296,1,0,0:0:0:0:
320,192,59355,1,0,0:0:0:0:
448,192,59414,1,0,0:0:0:0:
64,192,59472,1,0,0:0:0:0:
192,192,59531,1,0,0:0:0:0:
320,192,59531,1,0,0:0:0:0:
448,192,59589,1,0,0:0:0:0:
64,192,59648,1,0,0:0:0:0:
320,192,59707,1,0,0:0:0:0:
192,192,59765,1,0,0:0:0:0:
448,192,59765,1,0,0:0:0:0:
320,192,59824,1,0,0:0:0:0:
64,192,59882,1,0,0:0:0:0:
192,192,59941,1,0,0:0:0:0:
320,192,60000,1,0,0:0:0:0:
448,192,60000,1,0,0:0:0:0:
64,192,60058,1,0,0:0:0:0:
192,192,60117,1,0,0:0:0:0:
320,192,60175,1,0,0:0:0:0:
64,192,60234,1,0,0:0:0:0:
448,192,60234,1,0,0:0:0:0:
192,192,60292,1,0,0:0:0:0:
64,192,60351,1,0,0:0:0:0:
448,192,60410,1,0,0:0:0:0:
192,192,60468,1,0,0:0:0:0:
320,192,60468,1,0,0:0:0:0:
64,192,60527,1,0,0:0:0:0:
448,192,60585,1,0,0:0:0:0:
192,192,60644,1,0,0:0:0:0:
64,192,60703,1,0,0:0:0:0:
320,192,60703,1,0,0:0:0:0:
448,192,60761,1,0,0:0:0:0:
192,192,60820,1,0,0:0:0:0:
320,192,60878,1,0,0:0:0:0:
64,192,60937,1,0,0:0:0:0:
448,192,60937,1,0,0:0:0:0:
192,192,60996,1,0,0:0:0:0:
320,192,61054,1,0,0:0:0:0:
448,192,61113,1,0,0:0:0:0:
64,192,61171,1,0,0:0:0:0:
192,192,61171,1,0,0:0:0:0:
320,192,61230,1,0,0:0:0:0:
64,192,61289,1,0,0:0:0:0:
192,192,61347,1,0,0:0:0:0:
320,192,61406,1,0,0:0:0:0:
448,192,61406,1,0,0:0:0:0:
64,192,61464,1,0,0:0:0:0:
448,192,61523,1,0,0:0:0:0:
192,192,61582,1,0,0:0:0:0:
64,192,61640,1,0,0:0:0:0:
320,192,61640,1,0,0:0:0:0:
192,192,61699,1,0,0:0:0:0:
320,192,61757,1,0,0:0:0:0:
448,192,61816,1,0,0:0:0:0:
64,192,61875,1,0,0:0:0:0:
192,192,61875,1,0,0:0:0:0:
320,192,61933,1,0,0:0:0:0:
64,192,61992,1,0,0:0:0:0:
448,192,62050,1,0,0:0:0:0:
192,192,62109,1,0,0:0:0:0:
320,192,62109,1,0,0:0:0:0:
64,192,62167,1,0,0:0:0:0:
448,192,62226,1,0,0:0:0:0:
192,192,62285,1,0,0:0:0:0:
64,192,62343,1,0,0:0:0:0:
320,192,62343,1,0,0:0:0:0:
448,192,62402,1,0,0:0:0:0:
192,192,62460,1,0,0:0:0:0:
64,192,62519,1,0,0:0:0:0:
320,192,62578,1,0,0:0:0:0:
448,192,62578,1,0,0:0:0:0:
192,192,62636,1,0,0:0:0:0:
448,192,62695,1,0,0:0:0:0:
64,192,62753,1,0,0:0:0:0:
192,192,62812,1,0,0:0:0:0:
320,192,62812,1,0,0:0:0:0:
448,192,62871,1,0,0:0:0:0:
64,192,62929,1,0,0:0:0:0:
320,192,62988,1,0,0:0:0:0:
192,192,63046,1,0,0:0:0:0:
448,192,63046,1,0,0:0:0:0:
64,192,63105,1,0,0:0:0:0:
320,192,63164,1,0,0:0:0:0:
448,192,63222,1,0,0:0:0:0:
64,192,63281,1,0,0:0:0:0:
192,192,63281,1,0,0:0:0:0:
320,192,63339,1,0,0:0:0:0:
64,192,63398,1,0,0:0:0:0:
448,192,63457,1,0,0:0:0:0:
192,192,63515,1,0,0:0:0:0:
320,192,63515,1,0,0:0:0:0:
64,192,63574,1,0,0:0:0:0:
448,192,63632,1,0,0:0:0:0:
192,192,63691,1,0,0:0:0:0:
64,192,63750,1,0,0:0:0:0:
320,192,63750,1,0,0:0:0:0:
448,192,63808,1,0,0:0:0:0:
192,192,63867,1,0,0:0:0:0:
320,192,63925,1,0,0:0:0:0:
64,192,63984,1,0,0:0:0:0:
448,192,63984,1,0,0:0:0:0:
192,192,64042,1,0,0:0:0:0:
448,192,64101,1,0,0:0:0:0:
64,192,64160,1,0,0:0:0:0:
192,192,64218,1,0,0:0:0:0:
320,192,64218,1,0,0:0:0:0:
448,192,64277,1,0,0:0:0:0:
64,192,64335,1,0,0:0:0:0:
192,192,64394,1,0,0:0:0:0:
64,192,64453,1,0,0:0:0:0:
448,192,64453,1,0,0:0:0:0:
320,192,64511,1,0,0:0:0:0:
192,192,64570,1,0,0:0:0:0:
64,192,64628,1,0,0:0:0:0:
320,192,64687,1,0,0:0:0:0:
448,192,64687,1,0,0:0:0:0:
192,192,64746,1,0,0:0:0:0:
448,192,64804,1,0,0:0:0:0:
64,192,64863,1,0,0:0:0:0:
192,192,64921,1,0,0:0:0:0:
320,192,64921,1,0,0:0:0:0:
448,192,64980,1,0,0:0:0:0:
64,192,65039,1,0,0:0:0:0:
320,192,65097,1,0,0:0:0:0:
192,192,65156,1,0,0:0:0:0:
448,192,65156,1,0,0:0:0:0:
320,192,65214,1,0,0:0:0:0:
192,192,65273,1,0,0:0:0:0:
64,192,65332,1,0,0:0:0:0:
320,192,65390,1,0,0:0:0:0:
448,192,65390,1,0,0:0:0:0:
192,192,65449,1,0,0:0:0:0:
448,192,65507,1,0,0:0:0:0:
64,192,65566,1,0,0:0:0:0:
192,192,65625,1,0,0:0:0:0:
320,192,65625,1,0,0:0:0:0:
448,192,65683,1,0,0:0:0:0:
64,192,65742,1,0,0:0:0:0:
320,192,65800,1,0,0:0:0:0:
192,192,65859,1,0,0:0:0:0:
448,192,65859,1,0,0:0:0:0:
64,192,65917,1,0,0:0:0:0:
320,192,65976,1,0,0:0:0:0:
448,192,66035,1,0,0:0:0:0:
64,192,66093,1,0,0:0:0:0:
192,192,66093,1,0,0:0:0:0:
320,192,66152,1,0,0:0:0:0:
448,192,66210,1,0,0:0:0:0:
64,192,66269,1,0,0:0:0:0:
192,192,66328,1,0,0:0:0:0:
320,192,66328,1,0,0:0:0:0:
448,192,66386,1,0,0:0:0:0:
64,192,66445,1,0,0:0:0:0:
320,192,66503,1,0,0:0:0:0:
192,192,66562,1,0,0:0:0:0:
448,192,66562,1,0,0:0:0:0:
64,192,66621,1,0,0:0:0:0:
320,192,66679,1,0,0:0:0:0:
448,192,66738,1,0,0:0:0:0:
64,192,66796,1,0,0:0:0:0:
192,192,66796,1,0,0:0:0:0:
320,192,66855,1,0,0:0:0:0:
64,192,66914,1,0,0:0:0:0:
192,192,66972,1,0,0:0:0:0:
320,192,67031,1,0,0:0:0:0:
448,192,67031,1,0,0:0:0:0:
64,192,67089,1,0,0:0:0:0:
448,192,67148,1,0,0:0:0:0:
320,192,67207,1,0,0:0:0:0:
64,192,67265,1,0,0:0:0:0:
192,192,67265,1,0,0:0:0:0:
448,192,67324,1,0,0:0:0:0:
64,192,67382,1,0,0:0:0:0:
320,192,67441,1,0,0:0:0:0:
192,192,67500,1,0,0:0:0:0:
448,192,67500,1,0,0:0:0:0:
64,192,67558,1,0,0:0:0:0:
320,192,67617,1,0,0:0:0:0:
448,192,67675,1,0,0:0:0:0:
64,192,67734,1,0,0:0:0:0:
192,192,67734,1,0,0:0:0:0:
320,192,67792,1,0,0:0:0:0:
448,192,67851,1,0,0:0:0:0:
64,192,67910,1,0,0:0:0:0:
192,192,67968,1,0,0:0:0:0:
320,192,67968,1,0,0:0:0:0:
448,192,68027,1,0,0:0:0:0:
64,192,68085,1,0,0:0:0:0:
192,192,68144,1,0,0:0:0:0:
64,192,68203,1,0,0:0:0:0:
448,192,68203,1,0,0:0:0:0:
320,192,68261,1,0,0:0:0:0:
192,192,68320,1,0,0:0:0:0:
448,192,68378,1,0,0:0:0:0:
64,192,68437,1,0,0:0:0:0:
320,192,68437,1,0,0:0:0:0:
192,192,68496,1,0,0:0:0:0:
64,192,68554,1,0,0:0:0:0:
320,192,68613,1,0,0:0:0:0:
192,192,68671,1,0,0:0:0:0:
448,192,68671,1,0,0:0:0:0:
64,192,68730,1,0,0:0:0:0:
320,192,68789,1,0,0:0:0:0:
448,192,68847,1,0,0:0:0:0:
64,192,68906,1,0,0:0:0:0:
192,192,68906,1,0,0:0:0:0:
320,192,68964,1,0,0:0:0:0:
448,192,69023,1,0,0:0:0:0:
64,192,69082,1,0,0:0:0:0:
192,192,69140,1,0,0:0:0:0:
320,192,69140,1,0,0:0:0:0:
448,192,69199,1,0,0:0:0:0:
64,192,69257,1,0,0:0:0:0:
320,192,69316,1,0,0:0:0:0:
64,192,69375,1,0,0:0:0:0:
192,192,69375,1,0,0:0:0:0:
448,192,69433,1,0,0:0:0:0:
320,192,69492,1,0,0:0:0:0:
64,192,69550,1,0,0:0:0:0:
192,192,69609,1,0,0:0:0:0:
320,192,69609,1,0,0:0:0:0:
448,192,69667,1,0,0:0:0:0:
64,192,69726,1,0,0:0:0:0:
192,192,69785,1,0,0:0:0:0:
320,192,69843,1,0,0:0:0:0:
448,192,69843,1,0,0:0:0:0:
64,192,69902,1,0,0:0:0:0:
448,192,69960,1,0,0:0:0:0:
192,192,70019,1,0,0:0:0:0:
64,192,70078,1,0,0:0:0:0:
320,192,70078,1,0,0:0:0:0:
448,192,70136,1,0,0:0:0:0:
192,192,70195,1,0,0:0:0:0:
320,192,70253,1,0,0:0:0:0:
64,192,70312,1,0,0:0:0:0:
448,192,70312,1,0,0:0:0:0:
192,192,70371,1,0,0:0:0:0:
64,192,70429,1,0,0:0:0:0:
320,192,70488,1,0,0:0:0:0:
192,192,70546,1,0,0:0:0:0:
448,192,70546,1,0,0:0:0:0:
64,192,70605,1,0,0:0:0:0:
320,192,70664,1,0,0:0:0:0:
448,192,70722,1,0,0:0:0:0:
64,192,70781,1,0,0:0:0:0:
192,192,70781,1,0,0:0:0:0:
320,192,70839,1,0,0:0:0:0:
448,192,70898,1,0,0:0:0:0:
64,192,70957,1,0,0:0:0:0:
192,192,71015,1,0,0:0:0:0:
320,192,71015,1,0,0:0:0:0:
448,192,71074,1,0,0:0:0:0:
64,192,71132,1,0,0:0:0:0:
320,192,71191,1,0,0:0:0:0:
192,192,71250,1,0,0:0:0:0:
448,192,71250,1,0,0:0:0:0:
64,192,71308,1,0,0:0:0:0:
320,192,71367,1,0,0:0:0:0:
448,192,71425,1,0,0:0:0:0:
64,192,71484,1,0,0:0:0:0:
320,192,71484,1,0,0:0:0:0:
192,192,71542,1,0,0:0:0:0:
448,192,71601,1,0,0:0:0:0:
320,192,71660,1,0,0:0:0:0:
64,192,71718,1,0,0:0:0:0:
192,192,71718,1,0,0:0:0:0:
448,192,71777,1,0,0:0:0:0:
64,192,71835,1,0,0:0:0:0:
320,192,71894,1,0,0:0:0:0:
192,192,71953,1,0,0:0:0:0:
448,192,71953,1,0,0:0:0:0:
64,192,72011,1,0,0:0:0:0:
320,192,72070,1,0,0:0:0:0:
448,192,72128,1,0,0:0:0:0:
64,192,72187,1,0,0:0:0:0:
192,192,72187,1,0,0:0:0:0:
320,192,72246,1,0,0:0:0:0:
64,192,72304,1,0,0:0:0:0:
192,192,72363,1,0,0:0:0:0:
320,192,72421,1,0,0:0:0:0:
448,192,72421,1,0,0:0:0:0:
64,192,72480,1,0,0:0:0:0:
192,192,72539,1,0,0:0:0:0:
448,192,72597,1,0,0:0:0:0:
64,192,72656,1,0,0:0:0:0:
320,192,72656,1,0,0:0:0:0:
192,192,72714,1,0,0:0:0:0:
448,192,72773,1,0,0:0:0:0:
320,192,72832,1,0,0:0:0:0:
64,192,72890,1,0,0:0:0:0:
192,192,72890,1,0,0:0:0:0:
448,192,72949,1,0,0:0:0:0:
64,192,73007,1,0,0:0:0:0:
192,192,73066,1,0,0:0:0:0:
320,192,73125,1,0,0:0:0:0:
448,192,73125,1,0,0:0:0:0:
64,192,73183,1,0,0:0:0:0:
320,192,73242,1,0,0:0:0:0:
192,192,73300,1,0,0:0:0:0:
64,192,73359,1,0,0:0:0:0:
448,192,73359,1,0,0:0:0:0:
320,192,73417,1,0,0:0:0:0:
192,192,73476,1,0,0:0:0:0:
64,192,73535,1,0,0:0:0:0:
320,192,73593,1,0,0:0:0:0:
448,192,73593,1,0,0:0:0:0:
192,192,73652,1,0,0:0:0:0:
448,192,73710,1,0,0:0:0:0:
64,192,73769,1,0,0:0:0:0:
192,192,73828,1,0,0:0:0:0:
320,192,73828,1,0,0:0:0:0:
448,192,73886,1,0,0:0:0:0:
64,192,73945,1,0,0:0:0:0:
320,192,74003,1,0,0:0:0:0:
192,192,74062,1,0,0:0:0:0:
448,192,74062,1,0,0:0:0:0:
320,192,74121,1,0,0:0:0:0:
64,192,74179,1,0,0:0:0:0:
192,192,74238,1,0,0:0:0:0:
320,192,74296,1,0,0:0:0:0:
448,192,74296,1,0,0:0:0:0:
64,192,74355,1,0,0:0:0:0:
448,192,74414,1,0,0:0:0:0:
192,192,74472,1,0,0:0:0:0:
64,192,74531,1,0,0:0:0:0:
320,192,74531,1,0,0:0:0:0:
448,192,74589,1,0,0:0:0:0:
192,192,74648,1,0,0:0:0:0:
320,192,74707,1,0,0:0:0:0:
64,192,74765,1,0,0:0:0:0:
192,192,74765,1,0,0:0:0:0:
448,192,74824,1,0,0:0:0:0:
320,192,74882,1,0,0:0:0:0:
64,192,74941,1,0,0:0:0:0:
192,192,75000,1,0,0:0:0:0:
448,192,75000,1,0,0:0:0:0:
64,192,75058,1,0,0:0:0:0:
448,192,75117,1,0,0:0:0:0:
320,192,75175,1,0,0:0:0:0:
64,192,75234,1,0,0:0:0:0:
192,192,75234,1,0,0:0:0:0:
448,192,75292,1,0,0:0:0:0:
64,192,75351,1,0,0:0:0:0:
320,192,75410,1,0,0:0:0:0:
192,192,75468,1,0,0:0:0:0:
448,192,75468,1,0,0:0:0:0:
64,192,75527,1,0,0:0:0:0:
320,192,75585,1,0,0:0:0:0:
448,192,75644,1,0,0:0:0:0:
64,192,75703,1,0,0:0:0:0:
192,192,75703,1,0,0:0:0:0:
320,192,75761,1,0,0:0:0:0:
64,192,75820,1,0,0:0:0:0:
448,192,75878,1,0,0:0:0:0:
192,192,75937,1,0,0:0:0:0:
320,192,75937,1,0,0:0:0:0:
64,192,75996,1,0,0:0:0:0:
448,192,76054,1,0,0:0:0:0:
192,192,76113,1,0,0:0:0:0:
64,192,76171,1,0,0:0:0:0:
320,192,76171,1,0,0:0:0:0:
448,192,76230,1,0,0:0:0:0:
192,192,76289,1,0,0:0:0:0:
320,192,76347,1,0,0:0:0:0:
64,192,76406,1,0,0:0:0:0:
448,192,76406,1,0,0:0:0:0:
192,192,76464,1,0,0:0:0:0:
320,192,76523,1,0,0:0:0:0:
448,192,76582,1,0,0:0:0:0:
64,192,76640,1,0,0:0:0:0:
192,192,76640,1,0,0:0:0:0:
320,192,76699,1,0,0:0:0:0:
64,192,76757,1,0,0:0:0:0:
448,192,76816,1,0,0:0:0:0:
192,192,76875,1,0,0:0:0:0:
320,192,76875,1,0,0:0:0:0:
64,192,76933,1,0,0:0:0:0:
448,192,76992,1,0,0:0:0:0:
192,192,77050,1,0,0:0:0:0:
64,192,77109,1,0,0:0:0:0:
320,192,77109,1,0,0:0:0:0:
448,192,77167,1,0,0:0:0:0:
192,192,77226,1,0,0:0:0:0:
320,192,77285,1,0,0:0:0:0:
64,192,77343,1,0,0:0:0:0:
192,192,77343,1,0,0:0:0:0:
448,192,77402,1,0,0:0:0:0:
64,192,77460,1,0,0:0:0:0:
192,192,77519,1,0,0:0:0:0:
320,192,77578,1,0,0:0:0:0:
448,192,77578,1,0,0:0:0:0:
64,192,77636,1,0,0:0:0:0:
192,192,77695,1,0,0:0:0:0:
448,192,77753,1,0,0:0:0:0:
64,192,77812,1,0,0:0:0:0:
320,192,77812,1,0,0:0:0:0:
192,192,77871,1,0,0:0:0:0:
448,192,77929,1,0,0:0:0:0:
320,192,77988,1,0,0:0:0:0:
64,192,78046,1,0,0:0:0:0:
192,192,78046,1,0,0:0:0:0:
448,192,78105,1,0,0:0:0:0:
192,192,78164,1,0,0:0:0:0:
320,192,78222,1,0,0:0:0:0:
64,192,78281,1,0,0:0:0:0:
448,192,78281,1,0,0:0:0:0:
192,192,78339,1,0,0:0:0:0:
64,192,78398,1,0,0:0:0:0:
320,192,78457,1,0,0:0:0:0:
192,192,78515,1,0,0:0:0:0:
448,192,78515,1,0,0:0:0:0:
64,192,78574,1,0,0:0:0:0:
320,192,78632,1,0,0:0:0:0:
448,192,78691,1,0,0:0:0:0:
64,192,78750,1,0,0:0:0:0:
192,192,78750,1,0,0:0:0:0:
320,192,78808,1,0,0:0:0:0:
448,192,78867,1,0,0:0:0:0:
64,192,78925,1,0,0:0:0:0:
192,192,78984,1,0,0:0:0:0:
320,192,78984,1,0,0:0:0:0:
448,192,79042,1,0,0:0:0:0:
64,192,79101,1,0,0:0:0:0:
192,192,79160,1,0,0:0:0:0:
320,192,79218,1,0,0:0:0:0:
448,192,79218,1,0,0:0:0:0:
64,192,79277,1,0,0:0:0:0:
448,192,79335,1,0,0:0:0:0:
320,192,79394,1,0,0:0:0:0:
64,192,79453,1,0,0:0:0:0:
192,192,79453,1,0,0:0:0:0:
448,192,79511,1,0,0:0:0:0:
192,192,79570,1,0,0:0:0:0:
320,192,79628,1,0,0:0:0:0:
64,192,79687,1,0,0:0:0:0:
448,192,79687,1,0,0:0:0:0:
192,192,79746,1,0,0:0:0:0:
64,192,79804,1,0,0:0:0:0:
448,192,79863,1,0,0:0:0:0:
192,192,79921,1,0,0:0:0:0:
320,192,79921,1,0,0:0:0:0:
64,192,79980,1,0,0:0:0:0:
320,192,80039,1,0,0:0:0:0:
192,192,80097,1,0,0:0:0:0:
64,192,80156,1,0,0:0:0:0:
448,192,80156,1,0,0:0:0:0:
320,192,80214,1,0,0:0:0:0:
448,192,80273,1,0,0:0:0:0:
64,192,80332,1,0,0:0:0:0:
192,192,80390,1,0,0:0:0:0:
320,192,80390,1,0,0:0:0:0:
448,192,80449,1,0,0:0:0:0:
64,192,80507,1,0,0:0:0:0:
320,192,80566,1,0,0:0:0:0:
192,0,80625,128,0,80635:1:0:0:0:
448,0,80625,128,0,80635:1:0:0:0:
64,192,80683,1,0,0:0:0:0:
320,192,80742,1,0,0:0:0:0:
448,192,80800,1,0,0:0:0:0:
64,0,80859,128,0,80870:1:0:0:0:
192,0,80859,128,0,80870:1:0:0:0:
320,192,80917,1,0,0:0:0:0:
64,192,80976,1,0,0:0:0:0:
448,192,81035,1,0,0:0:0:0:
192,0,81093,128,0,81104:1:0:0:0:
320,0,81093,128,0,81104:1:0:0:0:
64,192,81152,1,0,0:0:0:0:
448,192,81210,1,0,0:0:0:0:
192,192,81269,1,0,0:0:0:0:
64,0,81328,128,0,81338:1:0:0:0:
320,0,81328,128,0,81338:1:0:0:0:
192,192,81386,1,0,0:0:0:0:
320,192,81445,1,0,0:0:0:0:
448,192,81503,1,0,0:0:0:0:
64,0,81562,128,0,81573:1:0:0:0:
192,0,81562,128,0,81573:1:0:0:0:
320,192,81621,1,0,0:0:0:0:
448,0,81679,128,0,81690:1:0:0:0:
192,192,81738,1,0,0:0:0:0:
64,0,81796,128,0,81807:1:0:0:0:
320,0,81796,128,0,81807:1:0:0:0:
448,192,81855,1,0,0:0:0:0:
192,0,81914,128,0,81924:1:0:0:0:
320,192,81972,1,0,0:0:0:0:
64,0,82031,128,0,82042:1:0:0:0:
448,0,82031,128,0,82042:1:0:0:0:
192,192,82089,1,0,0:0:0:0:
64,0,82148,128,0,82159:1:0:0:0:
448,192,82207,1,0,0:0:0:0:
192,0,82265,128,0,82276:1:0:0:0:
320,0,82265,128,0,82276:1:0:0:0:
64,192,82324,1,0,0:0:0:0:
448,0,82382,128,0,82393:1:0:0:0:
192,192,82441,1,0,0:0:0:0:
64,0,82500,128,0,82519:1:0:0:0:
320,0,82500,128,0,82519:1:0:0:0:
448,0,82500,128,0,82519:1:0:0:0:
