osu file format v14

[General]
AudioFilename: FORBIDDEN.mp3
AudioLeadIn: 2
PreviewTime: 58607
Countdown: 0
SampleSet: None
StackLeniency: 0.7
Mode: 3
LetterboxInBreaks: 0
SpecialStyle: 0
WidescreenStoryboard: 0

[Editor]
DistanceSpacing: 0.8
BeatDivisor: 4
GridSize: 8
TimelineZoom: 1

[Metadata]
Title:Cherry Blossoms and Broken Streams
TitleUnicode:Cherry Blossoms and Broken Streams
Artist:Various Artists
ArtistUnicode:Various Artists
Creator:Shoegazer
Version:403 ERROR - FORBIDDEN (17-)
Source:
Tags:
BeatmapID:703072
BeatmapSetID:315311

[Difficulty]
HPDrainRate:9
CircleSize:4
OverallDifficulty:8
ApproachRate:10
SliderMultiplier:1.4
SliderTickRate:1

[Events]
//Background and Video events
0,0,"background.jpg",0,0
//Break Periods
//Storyboard Layer 0 (Background)
//Storyboard Layer 1 (Fail)
//Storyboard Layer 2 (Pass)
//Storyboard Layer 3 (Foreground)
//Storyboard Sound Samples

[TimingPoints]
4409,245.2433,4,1,0,15,1,0

[HitObjects]
320,192,4408,5,0,0:0:0:0:
448,192,4408,1,0,0:0:0:0:
192,192,4470,1,0,0:0:0:0:
64,192,4531,1,0,0:0:0:0:
448,192,4592,1,0,0:0:0:0:
192,192,4654,1,0,0:0:0:0:
64,192,4776,1,0,0:0:0:0:
192,192,4776,1,0,0:0:0:0:
448,192,4838,1,0,0:0:0:0:
320,192,4899,1,0,0:0:0:0:
64,192,4960,1,0,0:0:0:0:
448,192,5022,1,0,0:0:0:0:
320,192,5144,1,0,0:0:0:0:
448,192,5144,1,0,0:0:0:0:
192,192,5206,1,0,0:0:0:0:
64,192,5267,1,0,0:0:0:0:
320,192,5328,1,0,0:0:0:0:
448,192,5389,1,0,0:0:0:0:
64,192,5512,1,0,0:0:0:0:
320,192,5512,1,0,0:0:0:0:
192,192,5573,1,0,0:0:0:0:
448,192,5635,1,0,0:0:0:0:
320,192,5696,1,0,0:0:0:0:
64,192,5757,1,0,0:0:0:0:
320,192,5880,1,0,0:0:0:0:
448,192,5880,1,0,0:0:0:0:
64,192,5941,1,0,0:0:0:0:
192,192,6003,1,0,0:0:0:0:
320,192,6064,1,0,0:0:0:0:
448,192,6125,1,0,0:0:0:0:
192,192,6187,1,0,0:0:0:0:
320,192,6248,1,0,0:0:0:0:
64,192,6309,1,0,0:0:0:0:
192,192,6370,1,0,0:0:0:0:
448,192,6370,1,0,0:0:0:0:
320,192,6432,1,0,0:0:0:0:
64,192,6493,1,0,0:0:0:0:
192,192,6554,1,0,0:0:0:0:
448,192,6616,1,0,0:0:0:0:
64,192,6738,1,0,0:0:0:0:
192,192,6738,1,0,0:0:0:0:
320,192,6800,1,0,0:0:0:0:
448,192,6861,1,0,0:0:0:0:
192,192,6922,1,0,0:0:0:0:
320,192,6984,1,0,0:0:0:0:
64,192,7106,1,0,0:0:0:0:
448,192,7106,1,0,0:0:0:0:
192,192,7167,1,0,0:0:0:0:
320,192,7229,1,0,0:0:0:0:
64,192,7290,1,0,0:0:0:0:
448,192,7351,1,0,0:0:0:0:
64,192,7474,1,0,0:0:0:0:
192,192,7474,1,0,0:0:0:0:
320,192,7535,1,0,0:0:0:0:
64,192,7597,1,0,0:0:0:0:
448,192,7658,1,0,0:0:0:0:
192,192,7719,1,0,0:0:0:0:
64,192,7842,1,0,0:0:0:0:
192,192,7842,1,0,0:0:0:0:
448,192,7903,1,0,0:0:0:0:
64,192,7965,1,0,0:0:0:0:
320,192,8026,1,0,0:0:0:0:
192,192,8087,1,0,0:0:0:0:
320,192,8148,1,0,0:0:0:0:
448,192,8210,1,0,0:0:0:0:
192,192,8271,1,0,0:0:0:0:
64,192,8332,1,0,0:0:0:0:
320,192,8332,1,0,0:0:0:0:
448,192,8394,1,0,0:0:0:0:
320,192,8455,1,0,0:0:0:0:
192,192,8516,1,0,0:0:0:0:
448,192,8578,1,0,0:0:0:0:
64,192,8700,1,0,0:0:0:0:
192,192,8700,1,0,0:0:0:0:
320,192,8762,1,0,0:0:0:0:
64,192,8823,1,0,0:0:0:0:
448,192,8884,1,0,0:0:0:0:
192,192,8946,1,0,0:0:0:0:
64,192,9068,1,0,0:0:0:0:
320,192,9068,1,0,0:0:0:0:
192,192,9129,1,0,0:0:0:0:
448,192,9191,1,0,0:0:0:0:
320,192,9252,1,0,0:0:0:0:
64,192,9313,1,0,0:0:0:0:
192,192,9436,1,0,0:0:0:0:
448,192,9436,1,0,0:0:0:0:
320,192,9497,1,0,0:0:0:0:
448,192,9559,1,0,0:0:0:0:
64,192,9620,1,0,0:0:0:0:
320,192,9681,1,0,0:0:0:0:
64,192,9804,1,0,0:0:0:0:
448,192,9804,1,0,0:0:0:0:
320,192,9865,1,0,0:0:0:0:
448,192,9926,1,0,0:0:0:0:
192,192,9988,1,0,0:0:0:0:
320,192,10049,1,0,0:0:0:0:
448,192,10110,1,0,0:0:0:0:
64,192,10172,1,0,0:0:0:0:
320,192,10233,1,0,0:0:0:0:
192,192,10294,1,0,0:0:0:0:
448,192,10294,1,0,0:0:0:0:
64,192,10356,1,0,0:0:0:0:
448,192,10417,1,0,0:0:0:0:
192,192,10478,1,0,0:0:0:0:
320,192,10540,1,0,0:0:0:0:
64,192,10662,1,0,0:0:0:0:
192,192,10662,1,0,0:0:0:0:
448,192,10724,1,0,0:0:0:0:
320,192,10785,1,0,0:0:0:0:
64,192,10846,1,0,0:0:0:0:
448,192,10907,1,0,0:0:0:0:
64,192,11030,1,0,0:0:0:0:
320,192,11030,1,0,0:0:0:0:
192,192,11091,1,0,0:0:0:0:
448,192,11153,1,0,0:0:0:0:
320,192,11214,1,0,0:0:0:0:
64,192,11275,1,0,0:0:0:0:
192,192,11398,1,0,0:0:0:0:
448,192,11398,1,0,0:0:0:0:
320,192,11459,1,0,0:0:0:0:
448,192,11521,1,0,0:0:0:0:
64,192,11582,1,0,0:0:0:0:
320,192,11643,1,0,0:0:0:0:
64,192,11766,1,0,0:0:0:0:
192,192,11766,1,0,0:0:0:0:
448,192,11827,1,0,0:0:0:0:
192,192,11888,1,0,0:0:0:0:
320,192,11950,1,0,0:0:0:0:
64,192,12011,1,0,0:0:0:0:
192,192,12072,1,0,0:0:0:0:
320,192,12134,1,0,0:0:0:0:
448,192,12195,1,0,0:0:0:0:
64,192,12256,1,0,0:0:0:0:
192,192,12256,1,0,0:0:0:0:
320,192,12256,1,0,0:0:0:0:
448,192,12318,1,0,0:0:0:0:
192,192,12379,1,0,0:0:0:0:
320,192,12440,1,0,0:0:0:0:
64,192,12502,1,0,0:0:0:0:
64,192,12624,1,0,0:0:0:0:
320,192,12624,1,0,0:0:0:0:
448,192,12624,1,0,0:0:0:0:
192,192,12685,1,0,0:0:0:0:
320,192,12747,1,0,0:0:0:0:
448,192,12808,1,0,0:0:0:0:
192,192,12869,1,0,0:0:0:0:
64,192,12992,1,0,0:0:0:0:
320,192,12992,1,0,0:0:0:0:
448,192,12992,1,0,0:0:0:0:
192,192,13053,1,0,0:0:0:0:
448,192,13115,1,0,0:0:0:0:
320,192,13176,1,0,0:0:0:0:
64,192,13237,1,0,0:0:0:0:
64,192,13360,1,0,0:0:0:0:
320,192,13360,1,0,0:0:0:0:
448,192,13360,1,0,0:0:0:0:
192,192,13421,1,0,0:0:0:0:
320,192,13483,1,0,0:0:0:0:
448,192,13544,1,0,0:0:0:0:
64,192,13605,1,0,0:0:0:0:
64,192,13728,1,0,0:0:0:0:
192,192,13728,1,0,0:0:0:0:
448,192,13728,1,0,0:0:0:0:
320,192,13789,1,0,0:0:0:0:
64,192,13850,1,0,0:0:0:0:
192,192,13850,1,0,0:0:0:0:
448,192,13912,1,0,0:0:0:0:
64,192,13973,1,0,0:0:0:0:
320,192,13973,1,0,0:0:0:0:
192,192,14004,1,0,0:0:0:0:
448,192,14034,1,0,0:0:0:0:
320,192,14065,1,0,0:0:0:0:
64,192,14096,1,0,0:0:0:0:
192,192,14126,1,0,0:0:0:0:
448,192,14157,1,0,0:0:0:0:
320,192,14188,1,0,0:0:0:0:
64,192,14218,1,0,0:0:0:0:
192,192,14218,1,0,0:0:0:0:
320,192,14280,1,0,0:0:0:0:
448,192,14341,1,0,0:0:0:0:
64,192,14402,1,0,0:0:0:0:
320,192,14463,1,0,0:0:0:0:
192,192,14586,1,0,0:0:0:0:
320,192,14586,1,0,0:0:0:0:
448,192,14586,1,0,0:0:0:0:
64,192,14647,1,0,0:0:0:0:
320,192,14709,1,0,0:0:0:0:
192,192,14770,1,0,0:0:0:0:
448,192,14831,1,0,0:0:0:0:
64,192,14954,1,0,0:0:0:0:
192,192,14954,1,0,0:0:0:0:
448,192,14954,1,0,0:0:0:0:
320,192,15015,1,0,0:0:0:0:
448,192,15077,1,0,0:0:0:0:
64,192,15138,1,0,0:0:0:0:
320,192,15199,1,0,0:0:0:0:
64,192,15322,1,0,0:0:0:0:
192,192,15322,1,0,0:0:0:0:
320,192,15322,1,0,0:0:0:0:
448,192,15383,1,0,0:0:0:0:
64,192,15444,1,0,0:0:0:0:
320,192,15506,1,0,0:0:0:0:
192,192,15567,1,0,0:0:0:0:
64,192,15690,1,0,0:0:0:0:
320,192,15690,1,0,0:0:0:0:
448,192,15690,1,0,0:0:0:0:
64,192,15812,1,0,0:0:0:0:
192,192,15812,1,0,0:0:0:0:
320,192,15874,1,0,0:0:0:0:
448,192,15874,1,0,0:0:0:0:
64,192,15935,1,0,0:0:0:0:
192,192,15935,1,0,0:0:0:0:
448,192,16058,1,0,0:0:0:0:
320,192,16088,1,0,0:0:0:0:
192,192,16119,1,0,0:0:0:0:
64,192,16150,1,0,0:0:0:0:
320,192,16180,1,0,0:0:0:0:
448,192,16180,1,0,0:0:0:0:
192,192,16241,1,0,0:0:0:0:
64,192,16303,1,0,0:0:0:0:
448,192,16303,1,0,0:0:0:0:
320,192,16364,1,0,0:0:0:0:
64,192,16425,1,0,0:0:0:0:
192,192,16425,1,0,0:0:0:0:
320,192,16548,1,0,0:0:0:0:
448,192,16548,1,0,0:0:0:0:
192,192,16609,1,0,0:0:0:0:
64,192,16671,1,0,0:0:0:0:
448,192,16671,1,0,0:0:0:0:
320,192,16732,1,0,0:0:0:0:
192,192,16793,1,0,0:0:0:0:
448,192,16793,1,0,0:0:0:0:
64,192,16916,1,0,0:0:0:0:
320,192,16916,1,0,0:0:0:0:
192,192,16977,1,0,0:0:0:0:
320,192,17039,1,0,0:0:0:0:
448,192,17039,1,0,0:0:0:0:
64,192,17100,1,0,0:0:0:0:
192,192,17100,1,0,0:0:0:0:
320,192,17161,1,0,0:0:0:0:
448,192,17161,1,0,0:0:0:0:
64,192,17284,1,0,0:0:0:0:
192,192,17284,1,0,0:0:0:0:
320,192,17345,1,0,0:0:0:0:
64,192,17406,1,0,0:0:0:0:
448,192,17406,1,0,0:0:0:0:
192,192,17468,1,0,0:0:0:0:
320,192,17529,1,0,0:0:0:0:
448,192,17529,1,0,0:0:0:0:
64,192,17652,1,0,0:0:0:0:
320,192,17652,1,0,0:0:0:0:
64,192,17774,1,0,0:0:0:0:
192,192,17774,1,0,0:0:0:0:
320,192,17805,1,0,0:0:0:0:
448,192,17836,1,0,0:0:0:0:
64,192,17866,1,0,0:0:0:0:
192,192,17897,1,0,0:0:0:0:
320,192,18020,1,0,0:0:0:0:
448,192,18020,1,0,0:0:0:0:
192,192,18050,1,0,0:0:0:0:
64,192,18081,1,0,0:0:0:0:
320,192,18111,1,0,0:0:0:0:
448,192,18142,1,0,0:0:0:0:
192,192,18203,1,0,0:0:0:0:
64,192,18265,1,0,0:0:0:0:
448,192,18265,1,0,0:0:0:0:
320,192,18326,1,0,0:0:0:0:
64,192,18387,1,0,0:0:0:0:
192,192,18387,1,0,0:0:0:0:
448,192,18449,1,0,0:0:0:0:
64,192,18510,1,0,0:0:0:0:
320,192,18510,1,0,0:0:0:0:
192,192,18571,1,0,0:0:0:0:
320,192,18633,1,0,0:0:0:0:
448,192,18633,1,0,0:0:0:0:
64,192,18694,1,0,0:0:0:0:
192,192,18755,1,0,0:0:0:0:
320,192,18755,1,0,0:0:0:0:
448,192,18817,1,0,0:0:0:0:
64,192,18878,1,0,0:0:0:0:
192,192,18878,1,0,0:0:0:0:
320,192,18939,1,0,0:0:0:0:
64,192,19000,1,0,0:0:0:0:
448,192,19000,1,0,0:0:0:0:
192,192,19062,1,0,0:0:0:0:
320,192,19123,1,0,0:0:0:0:
448,192,19123,1,0,0:0:0:0:
64,192,19184,1,0,0:0:0:0:
192,192,19246,1,0,0:0:0:0:
448,192,19246,1,0,0:0:0:0:
320,192,19307,1,0,0:0:0:0:
64,192,19368,1,0,0:0:0:0:
192,192,19368,1,0,0:0:0:0:
448,192,19430,1,0,0:0:0:0:
64,192,19491,1,0,0:0:0:0:
320,192,19491,1,0,0:0:0:0:
192,192,19552,1,0,0:0:0:0:
320,192,19614,1,0,0:0:0:0:
448,192,19614,1,0,0:0:0:0:
64,192,19675,1,0,0:0:0:0:
192,192,19736,1,0,0:0:0:0:
448,192,19736,1,0,0:0:0:0:
320,192,19798,1,0,0:0:0:0:
64,192,19859,1,0,0:0:0:0:
448,192,19859,1,0,0:0:0:0:
192,192,19920,1,0,0:0:0:0:
320,192,19981,1,0,0:0:0:0:
448,192,19981,1,0,0:0:0:0:
192,192,20043,1,0,0:0:0:0:
64,192,20104,1,0,0:0:0:0:
320,192,20104,1,0,0:0:0:0:
448,192,20104,1,0,0:0:0:0:
320,192,20349,1,0,0:0:0:0:
448,192,20349,1,0,0:0:0:0:
192,192,20411,1,0,0:0:0:0:
64,192,20472,1,0,0:0:0:0:
448,192,20472,1,0,0:0:0:0:
320,192,20533,1,0,0:0:0:0:
192,192,20595,1,0,0:0:0:0:
448,192,20595,1,0,0:0:0:0:
64,192,20717,1,0,0:0:0:0:
192,192,20717,1,0,0:0:0:0:
320,192,20778,1,0,0:0:0:0:
64,192,20840,1,0,0:0:0:0:
448,192,20840,1,0,0:0:0:0:
192,192,20901,1,0,0:0:0:0:
320,192,20962,1,0,0:0:0:0:
448,192,20962,1,0,0:0:0:0:
64,192,21085,1,0,0:0:0:0:
320,192,21085,1,0,0:0:0:0:
192,192,21146,1,0,0:0:0:0:
320,192,21208,1,0,0:0:0:0:
448,192,21208,1,0,0:0:0:0:
64,192,21269,1,0,0:0:0:0:
192,192,21330,1,0,0:0:0:0:
448,192,21330,1,0,0:0:0:0:
64,192,21453,1,0,0:0:0:0:
192,192,21453,1,0,0:0:0:0:
320,192,21514,1,0,0:0:0:0:
64,192,21576,1,0,0:0:0:0:
448,192,21576,1,0,0:0:0:0:
320,192,21637,1,0,0:0:0:0:
64,192,21698,1,0,0:0:0:0:
192,192,21698,1,0,0:0:0:0:
320,192,21821,1,0,0:0:0:0:
448,192,21821,1,0,0:0:0:0:
192,192,21882,1,0,0:0:0:0:
320,192,21943,1,0,0:0:0:0:
448,192,21943,1,0,0:0:0:0:
192,192,22005,1,0,0:0:0:0:
64,192,22066,1,0,0:0:0:0:
448,192,22066,1,0,0:0:0:0:
320,192,22127,1,0,0:0:0:0:
64,192,22189,1,0,0:0:0:0:
192,192,22189,1,0,0:0:0:0:
320,192,22250,1,0,0:0:0:0:
448,192,22250,1,0,0:0:0:0:
64,192,22311,1,0,0:0:0:0:
192,192,22311,1,0,0:0:0:0:
448,192,22373,1,0,0:0:0:0:
192,192,22434,1,0,0:0:0:0:
320,192,22434,1,0,0:0:0:0:
64,192,22495,1,0,0:0:0:0:
320,192,22557,1,0,0:0:0:0:
448,192,22557,1,0,0:0:0:0:
64,192,22679,1,0,0:0:0:0:
320,192,22679,1,0,0:0:0:0:
192,192,22740,1,0,0:0:0:0:
64,192,22802,1,0,0:0:0:0:
448,192,22802,1,0,0:0:0:0:
320,192,22863,1,0,0:0:0:0:
64,192,22924,1,0,0:0:0:0:
192,192,22924,1,0,0:0:0:0:
320,192,23047,1,0,0:0:0:0:
448,192,23047,1,0,0:0:0:0:
192,192,23108,1,0,0:0:0:0:
64,192,23170,1,0,0:0:0:0:
448,192,23170,1,0,0:0:0:0:
320,192,23231,1,0,0:0:0:0:
192,192,23292,1,0,0:0:0:0:
448,192,23292,1,0,0:0:0:0:
64,192,23415,1,0,0:0:0:0:
192,192,23415,1,0,0:0:0:0:
320,192,23476,1,0,0:0:0:0:
64,192,23537,1,0,0:0:0:0:
448,192,23537,1,0,0:0:0:0:
192,192,23599,1,0,0:0:0:0:
320,192,23660,1,0,0:0:0:0:
448,192,23660,1,0,0:0:0:0:
64,192,23783,1,0,0:0:0:0:
320,192,23783,1,0,0:0:0:0:
192,192,23844,1,0,0:0:0:0:
64,192,23905,1,0,0:0:0:0:
448,192,23905,1,0,0:0:0:0:
320,192,23967,1,0,0:0:0:0:
64,192,24028,1,0,0:0:0:0:
192,192,24028,1,0,0:0:0:0:
320,192,24089,1,0,0:0:0:0:
448,192,24089,1,0,0:0:0:0:
64,192,24151,1,0,0:0:0:0:
192,192,24151,1,0,0:0:0:0:
448,192,24212,1,0,0:0:0:0:
64,192,24273,1,0,0:0:0:0:
320,192,24273,1,0,0:0:0:0:
192,192,24335,1,0,0:0:0:0:
320,192,24396,1,0,0:0:0:0:
448,192,24396,1,0,0:0:0:0:
192,192,24457,1,0,0:0:0:0:
64,192,24518,1,0,0:0:0:0:
448,192,24518,1,0,0:0:0:0:
64,192,24641,1,0,0:0:0:0:
320,192,24641,1,0,0:0:0:0:
192,192,24702,1,0,0:0:0:0:
320,192,24764,1,0,0:0:0:0:
448,192,24764,1,0,0:0:0:0:
64,192,24825,1,0,0:0:0:0:
192,192,24886,1,0,0:0:0:0:
448,192,24886,1,0,0:0:0:0:
64,192,25009,1,0,0:0:0:0:
320,192,25009,1,0,0:0:0:0:
192,192,25070,1,0,0:0:0:0:
64,192,25132,1,0,0:0:0:0:
448,192,25132,1,0,0:0:0:0:
320,192,25193,1,0,0:0:0:0:
64,192,25254,1,0,0:0:0:0:
192,192,25254,1,0,0:0:0:0:
192,192,25377,1,0,0:0:0:0:
448,192,25377,1,0,0:0:0:0:
320,192,25438,1,0,0:0:0:0:
64,192,25499,1,0,0:0:0:0:
448,192,25499,1,0,0:0:0:0:
192,192,25561,1,0,0:0:0:0:
320,192,25622,1,0,0:0:0:0:
448,192,25622,1,0,0:0:0:0:
64,192,25745,1,0,0:0:0:0:
320,192,25745,1,0,0:0:0:0:
192,192,25806,1,0,0:0:0:0:
320,192,25867,1,0,0:0:0:0:
448,192,25867,1,0,0:0:0:0:
64,192,25929,1,0,0:0:0:0:
192,192,25990,1,0,0:0:0:0:
448,192,25990,1,0,0:0:0:0:
320,192,26051,1,0,0:0:0:0:
64,192,26113,1,0,0:0:0:0:
192,192,26174,1,0,0:0:0:0:
320,192,26235,1,0,0:0:0:0:
448,192,26235,1,0,0:0:0:0:
64,192,26296,1,0,0:0:0:0:
192,192,26358,1,0,0:0:0:0:
448,192,26358,1,0,0:0:0:0:
320,192,26419,1,0,0:0:0:0:
64,192,26480,1,0,0:0:0:0:
192,192,26480,1,0,0:0:0:0:
320,192,26603,1,0,0:0:0:0:
448,192,26603,1,0,0:0:0:0:
64,192,26664,1,0,0:0:0:0:
192,192,26726,1,0,0:0:0:0:
320,192,26726,1,0,0:0:0:0:
448,192,26787,1,0,0:0:0:0:
64,192,26848,1,0,0:0:0:0:
192,192,26848,1,0,0:0:0:0:
320,192,26971,1,0,0:0:0:0:
448,192,26971,1,0,0:0:0:0:
192,192,27032,1,0,0:0:0:0:
64,192,27094,1,0,0:0:0:0:
320,192,27155,1,0,0:0:0:0:
192,192,27216,1,0,0:0:0:0:
448,192,27216,1,0,0:0:0:0:
64,192,27277,1,0,0:0:0:0:
320,192,27339,1,0,0:0:0:0:
448,192,27400,1,0,0:0:0:0:
64,192,27461,1,0,0:0:0:0:
192,192,27461,1,0,0:0:0:0:
320,192,27523,1,0,0:0:0:0:
64,192,27584,1,0,0:0:0:0:
192,192,27645,1,0,0:0:0:0:
320,192,27707,1,0,0:0:0:0:
448,192,27707,1,0,0:0:0:0:
64,192,27768,1,0,0:0:0:0:
320,192,27829,1,0,0:0:0:0:
192,192,27891,1,0,0:0:0:0:
64,192,27952,1,0,0:0:0:0:
448,192,27952,1,0,0:0:0:0:
320,192,28013,1,0,0:0:0:0:
448,192,28074,1,0,0:0:0:0:
192,192,28136,1,0,0:0:0:0:
64,192,28197,1,0,0:0:0:0:
320,192,28197,1,0,0:0:0:0:
448,192,28258,1,0,0:0:0:0:
192,192,28320,1,0,0:0:0:0:
320,192,28320,1,0,0:0:0:0:
64,192,28381,1,0,0:0:0:0:
320,192,28442,1,0,0:0:0:0:
448,192,28442,1,0,0:0:0:0:
64,192,28565,1,0,0:0:0:0:
192,192,28565,1,0,0:0:0:0:
448,192,28626,1,0,0:0:0:0:
64,192,28688,1,0,0:0:0:0:
320,192,28688,1,0,0:0:0:0:
192,192,28749,1,0,0:0:0:0:
320,192,28810,1,0,0:0:0:0:
448,192,28810,1,0,0:0:0:0:
64,192,28933,1,0,0:0:0:0:
192,192,28933,1,0,0:0:0:0:
448,192,28994,1,0,0:0:0:0:
64,192,29055,1,0,0:0:0:0:
320,192,29055,1,0,0:0:0:0:
192,192,29117,1,0,0:0:0:0:
320,192,29178,1,0,0:0:0:0:
448,192,29178,1,0,0:0:0:0:
64,192,29301,1,0,0:0:0:0:
192,192,29301,1,0,0:0:0:0:
320,192,29362,1,0,0:0:0:0:
192,192,29423,1,0,0:0:0:0:
448,192,29423,1,0,0:0:0:0:
320,192,29485,1,0,0:0:0:0:
64,192,29546,1,0,0:0:0:0:
192,192,29546,1,0,0:0:0:0:
64,192,29669,1,0,0:0:0:0:
448,192,29669,1,0,0:0:0:0:
320,192,29730,1,0,0:0:0:0:
192,192,29791,1,0,0:0:0:0:
448,192,29791,1,0,0:0:0:0:
320,192,29852,1,0,0:0:0:0:
64,192,29914,1,0,0:0:0:0:
192,192,29914,1,0,0:0:0:0:
320,192,29975,1,0,0:0:0:0:
64,192,30036,1,0,0:0:0:0:
448,192,30036,1,0,0:0:0:0:
192,192,30098,1,0,0:0:0:0:
320,192,30159,1,0,0:0:0:0:
448,192,30159,1,0,0:0:0:0:
64,192,30282,1,0,0:0:0:0:
192,192,30282,1,0,0:0:0:0:
320,192,30343,1,0,0:0:0:0:
192,192,30404,1,0,0:0:0:0:
448,192,30404,1,0,0:0:0:0:
64,192,30466,1,0,0:0:0:0:
320,192,30527,1,0,0:0:0:0:
448,192,30527,1,0,0:0:0:0:
64,192,30650,1,0,0:0:0:0:
320,192,30650,1,0,0:0:0:0:
192,192,30711,1,0,0:0:0:0:
64,192,30772,1,0,0:0:0:0:
448,192,30772,1,0,0:0:0:0:
320,192,30833,1,0,0:0:0:0:
64,192,30895,1,0,0:0:0:0:
192,192,30895,1,0,0:0:0:0:
320,192,31017,1,0,0:0:0:0:
448,192,31017,1,0,0:0:0:0:
192,192,31079,1,0,0:0:0:0:
64,192,31140,1,0,0:0:0:0:
320,192,31140,1,0,0:0:0:0:
448,192,31201,1,0,0:0:0:0:
64,192,31263,1,0,0:0:0:0:
192,192,31263,1,0,0:0:0:0:
64,192,31385,1,0,0:0:0:0:
320,192,31385,1,0,0:0:0:0:
192,192,31447,1,0,0:0:0:0:
64,192,31508,1,0,0:0:0:0:
448,192,31508,1,0,0:0:0:0:
192,192,31569,1,0,0:0:0:0:
320,192,31631,1,0,0:0:0:0:
448,192,31631,1,0,0:0:0:0:
64,192,31753,1,0,0:0:0:0:
192,192,31753,1,0,0:0:0:0:
320,192,31814,1,0,0:0:0:0:
64,192,31876,1,0,0:0:0:0:
448,192,31876,1,0,0:0:0:0:
192,192,31937,1,0,0:0:0:0:
320,192,31998,1,0,0:0:0:0:
448,192,31998,1,0,0:0:0:0:
64,192,32060,1,0,0:0:0:0:
192,192,32121,1,0,0:0:0:0:
320,192,32121,1,0,0:0:0:0:
448,192,32121,1,0,0:0:0:0:
64,192,32182,1,0,0:0:0:0:
320,192,32244,1,0,0:0:0:0:
448,192,32244,1,0,0:0:0:0:
192,192,32305,1,0,0:0:0:0:
64,192,32366,1,0,0:0:0:0:
448,192,32366,1,0,0:0:0:0:
64,192,32489,1,0,0:0:0:0:
192,192,32489,1,0,0:0:0:0:
320,192,32550,1,0,0:0:0:0:
64,192,32611,1,0,0:0:0:0:
448,192,32611,1,0,0:0:0:0:
192,192,32673,1,0,0:0:0:0:
320,192,32734,1,0,0:0:0:0:
448,192,32734,1,0,0:0:0:0:
64,192,32857,1,0,0:0:0:0:
320,192,32857,1,0,0:0:0:0:
192,192,32918,1,0,0:0:0:0:
320,192,32979,1,0,0:0:0:0:
448,192,32979,1,0,0:0:0:0:
64,192,33041,1,0,0:0:0:0:
192,192,33102,1,0,0:0:0:0:
320,192,33102,1,0,0:0:0:0:
448,192,33102,1,0,0:0:0:0:
64,192,33225,1,0,0:0:0:0:
192,192,33225,1,0,0:0:0:0:
448,192,33286,1,0,0:0:0:0:
64,192,33347,1,0,0:0:0:0:
320,192,33347,1,0,0:0:0:0:
192,192,33409,1,0,0:0:0:0:
320,192,33470,1,0,0:0:0:0:
448,192,33470,1,0,0:0:0:0:
64,192,33592,1,0,0:0:0:0:
192,192,33592,1,0,0:0:0:0:
448,192,33654,1,0,0:0:0:0:
192,192,33715,1,0,0:0:0:0:
320,192,33715,1,0,0:0:0:0:
64,192,33776,1,0,0:0:0:0:
320,192,33838,1,0,0:0:0:0:
448,192,33838,1,0,0:0:0:0:
192,192,33899,1,0,0:0:0:0:
64,192,33960,1,0,0:0:0:0:
320,192,34022,1,0,0:0:0:0:
64,192,34083,1,0,0:0:0:0:
192,192,34083,1,0,0:0:0:0:
448,192,34083,1,0,0:0:0:0:
320,192,34144,1,0,0:0:0:0:
192,192,34206,1,0,0:0:0:0:
448,192,34206,1,0,0:0:0:0:
64,192,34267,1,0,0:0:0:0:
320,192,34328,1,0,0:0:0:0:
448,192,34328,1,0,0:0:0:0:
64,192,34451,1,0,0:0:0:0:
192,192,34451,1,0,0:0:0:0:
448,192,34512,1,0,0:0:0:0:
64,192,34573,1,0,0:0:0:0:
192,192,34573,1,0,0:0:0:0:
320,192,34573,1,0,0:0:0:0:
448,192,34635,1,0,0:0:0:0:
64,192,34696,1,0,0:0:0:0:
320,192,34696,1,0,0:0:0:0:
64,192,34819,1,0,0:0:0:0:
192,192,34819,1,0,0:0:0:0:
320,192,34880,1,0,0:0:0:0:
192,192,34941,1,0,0:0:0:0:
448,192,34941,1,0,0:0:0:0:
64,192,35003,1,0,0:0:0:0:
192,192,35064,1,0,0:0:0:0:
320,192,35064,1,0,0:0:0:0:
448,192,35064,1,0,0:0:0:0:
64,192,35125,1,0,0:0:0:0:
320,192,35187,1,0,0:0:0:0:
448,192,35248,1,0,0:0:0:0:
64,192,35309,1,0,0:0:0:0:
192,192,35309,1,0,0:0:0:0:
320,192,35309,1,0,0:0:0:0:
448,192,35370,1,0,0:0:0:0:
64,192,35432,1,0,0:0:0:0:
192,192,35493,1,0,0:0:0:0:
64,192,35554,1,0,0:0:0:0:
320,192,35554,1,0,0:0:0:0:
448,192,35554,1,0,0:0:0:0:
192,192,35616,1,0,0:0:0:0:
320,192,35677,1,0,0:0:0:0:
448,192,35738,1,0,0:0:0:0:
64,192,35800,1,0,0:0:0:0:
192,192,35800,1,0,0:0:0:0:
320,192,35800,1,0,0:0:0:0:
448,192,35861,1,0,0:0:0:0:
64,192,35922,1,0,0:0:0:0:
192,192,35984,1,0,0:0:0:0:
320,192,36045,1,0,0:0:0:0:
448,192,36045,1,0,0:0:0:0:
192,192,36106,1,0,0:0:0:0:
64,192,36168,1,0,0:0:0:0:
448,192,36168,1,0,0:0:0:0:
320,192,36229,1,0,0:0:0:0:
192,192,36290,1,0,0:0:0:0:
448,192,36290,1,0,0:0:0:0:
64,192,36413,1,0,0:0:0:0:
192,192,36413,1,0,0:0:0:0:
320,192,36474,1,0,0:0:0:0:
64,192,36535,1,0,0:0:0:0:
448,192,36535,1,0,0:0:0:0:
192,192,36597,1,0,0:0:0:0:
320,192,36658,1,0,0:0:0:0:
448,192,36658,1,0,0:0:0:0:
64,192,36781,1,0,0:0:0:0:
320,192,36781,1,0,0:0:0:0:
192,192,36842,1,0,0:0:0:0:
320,192,36903,1,0,0:0:0:0:
448,192,36903,1,0,0:0:0:0:
64,192,36965,1,0,0:0:0:0:
192,192,37026,1,0,0:0:0:0:
448,192,37026,1,0,0:0:0:0:
64,192,37148,1,0,0:0:0:0:
192,192,37148,1,0,0:0:0:0:
320,192,37210,1,0,0:0:0:0:
64,192,37271,1,0,0:0:0:0:
448,192,37271,1,0,0:0:0:0:
320,192,37332,1,0,0:0:0:0:
64,192,37394,1,0,0:0:0:0:
192,192,37394,1,0,0:0:0:0:
320,192,37516,1,0,0:0:0:0:
448,192,37516,1,0,0:0:0:0:
192,192,37578,1,0,0:0:0:0:
64,192,37639,1,0,0:0:0:0:
448,192,37639,1,0,0:0:0:0:
320,192,37700,1,0,0:0:0:0:
192,192,37762,1,0,0:0:0:0:
448,192,37762,1,0,0:0:0:0:
320,192,37823,1,0,0:0:0:0:
64,192,37884,1,0,0:0:0:0:
192,192,37884,1,0,0:0:0:0:
320,192,37946,1,0,0:0:0:0:
448,192,37946,1,0,0:0:0:0:
64,192,38007,1,0,0:0:0:0:
192,192,38007,1,0,0:0:0:0:
448,192,38068,1,0,0:0:0:0:
192,192,38129,1,0,0:0:0:0:
320,192,38129,1,0,0:0:0:0:
64,192,38191,1,0,0:0:0:0:
320,192,38252,1,0,0:0:0:0:
448,192,38252,1,0,0:0:0:0:
64,192,38375,1,0,0:0:0:0:
320,192,38375,1,0,0:0:0:0:
192,192,38436,1,0,0:0:0:0:
64,192,38497,1,0,0:0:0:0:
448,192,38497,1,0,0:0:0:0:
320,192,38559,1,0,0:0:0:0:
64,192,38620,1,0,0:0:0:0:
192,192,38620,1,0,0:0:0:0:
320,192,38743,1,0,0:0:0:0:
448,192,38743,1,0,0:0:0:0:
192,192,38804,1,0,0:0:0:0:
64,192,38865,1,0,0:0:0:0:
448,192,38865,1,0,0:0:0:0:
320,192,38926,1,0,0:0:0:0:
192,192,38988,1,0,0:0:0:0:
448,192,38988,1,0,0:0:0:0:
64,192,39110,1,0,0:0:0:0:
192,192,39110,1,0,0:0:0:0:
320,192,39172,1,0,0:0:0:0:
64,192,39233,1,0,0:0:0:0:
448,192,39233,1,0,0:0:0:0:
192,192,39294,1,0,0:0:0:0:
320,192,39356,1,0,0:0:0:0:
448,192,39356,1,0,0:0:0:0:
64,192,39478,1,0,0:0:0:0:
320,192,39478,1,0,0:0:0:0:
192,192,39540,1,0,0:0:0:0:
64,192,39601,1,0,0:0:0:0:
448,192,39601,1,0,0:0:0:0:
320,192,39662,1,0,0:0:0:0:
64,192,39724,1,0,0:0:0:0:
192,192,39724,1,0,0:0:0:0:
320,192,39785,1,0,0:0:0:0:
448,192,39785,1,0,0:0:0:0:
64,192,39846,1,0,0:0:0:0:
192,192,39846,1,0,0:0:0:0:
448,192,39907,1,0,0:0:0:0:
64,192,39969,1,0,0:0:0:0:
320,192,39969,1,0,0:0:0:0:
192,192,40030,1,0,0:0:0:0:
320,192,40091,1,0,0:0:0:0:
448,192,40091,1,0,0:0:0:0:
192,192,40153,1,0,0:0:0:0:
64,192,40214,1,0,0:0:0:0:
448,192,40214,1,0,0:0:0:0:
64,192,40337,1,0,0:0:0:0:
320,192,40337,1,0,0:0:0:0:
192,192,40398,1,0,0:0:0:0:
320,192,40459,1,0,0:0:0:0:
448,192,40459,1,0,0:0:0:0:
64,192,40521,1,0,0:0:0:0:
192,192,40582,1,0,0:0:0:0:
448,192,40582,1,0,0:0:0:0:
64,192,40705,1,0,0:0:0:0:
320,192,40705,1,0,0:0:0:0:
192,192,40766,1,0,0:0:0:0:
64,192,40827,1,0,0:0:0:0:
448,192,40827,1,0,0:0:0:0:
320,192,40888,1,0,0:0:0:0:
64,192,40950,1,0,0:0:0:0:
192,192,40950,1,0,0:0:0:0:
192,192,41072,1,0,0:0:0:0:
448,192,41072,1,0,0:0:0:0:
320,192,41134,1,0,0:0:0:0:
64,192,41195,1,0,0:0:0:0:
448,192,41195,1,0,0:0:0:0:
192,192,41256,1,0,0:0:0:0:
320,192,41318,1,0,0:0:0:0:
448,192,41318,1,0,0:0:0:0:
64,192,41440,1,0,0:0:0:0:
320,192,41440,1,0,0:0:0:0:
192,192,41502,1,0,0:0:0:0:
320,192,41563,1,0,0:0:0:0:
448,192,41563,1,0,0:0:0:0:
64,192,41624,1,0,0:0:0:0:
192,192,41685,1,0,0:0:0:0:
448,192,41685,1,0,0:0:0:0:
320,192,41747,1,0,0:0:0:0:
64,192,41808,1,0,0:0:0:0:
192,192,41869,1,0,0:0:0:0:
320,192,41931,1,0,0:0:0:0:
448,192,41931,1,0,0:0:0:0:
64,192,41992,1,0,0:0:0:0:
192,192,42053,1,0,0:0:0:0:
448,192,42053,1,0,0:0:0:0:
320,192,42115,1,0,0:0:0:0:
64,192,42176,1,0,0:0:0:0:
192,192,42176,1,0,0:0:0:0:
320,192,42299,1,0,0:0:0:0:
448,192,42299,1,0,0:0:0:0:
64,192,42360,1,0,0:0:0:0:
192,192,42421,1,0,0:0:0:0:
320,192,42421,1,0,0:0:0:0:
448,192,42483,1,0,0:0:0:0:
64,192,42544,1,0,0:0:0:0:
192,192,42544,1,0,0:0:0:0:
320,192,42666,1,0,0:0:0:0:
448,192,42666,1,0,0:0:0:0:
192,192,42728,1,0,0:0:0:0:
64,192,42789,1,0,0:0:0:0:
320,192,42850,1,0,0:0:0:0:
192,192,42912,1,0,0:0:0:0:
448,192,42912,1,0,0:0:0:0:
64,192,42973,1,0,0:0:0:0:
320,192,43034,1,0,0:0:0:0:
448,192,43096,1,0,0:0:0:0:
64,192,43157,1,0,0:0:0:0:
192,192,43157,1,0,0:0:0:0:
320,192,43218,1,0,0:0:0:0:
64,192,43280,1,0,0:0:0:0:
192,192,43341,1,0,0:0:0:0:
320,192,43402,1,0,0:0:0:0:
448,192,43402,1,0,0:0:0:0:
64,192,43463,1,0,0:0:0:0:
320,192,43525,1,0,0:0:0:0:
192,192,43586,1,0,0:0:0:0:
64,192,43647,1,0,0:0:0:0:
448,192,43647,1,0,0:0:0:0:
320,192,43709,1,0,0:0:0:0:
192,192,43770,1,0,0:0:0:0:
64,192,43831,1,0,0:0:0:0:
320,192,43893,1,0,0:0:0:0:
448,192,43893,1,0,0:0:0:0:
192,192,43954,1,0,0:0:0:0:
64,192,44015,1,0,0:0:0:0:
448,192,44015,1,0,0:0:0:0:
320,192,44077,1,0,0:0:0:0:
192,192,44138,1,0,0:0:0:0:
448,192,44138,1,0,0:0:0:0:
64,192,44261,1,0,0:0:0:0:
192,192,44261,1,0,0:0:0:0:
320,192,44322,1,0,0:0:0:0:
64,192,44383,1,0,0:0:0:0:
448,192,44383,1,0,0:0:0:0:
192,192,44444,1,0,0:0:0:0:
320,192,44506,1,0,0:0:0:0:
448,192,44506,1,0,0:0:0:0:
64,192,44628,1,0,0:0:0:0:
320,192,44628,1,0,0:0:0:0:
192,192,44690,1,0,0:0:0:0:
320,192,44751,1,0,0:0:0:0:
448,192,44751,1,0,0:0:0:0:
64,192,44812,1,0,0:0:0:0:
192,192,44874,1,0,0:0:0:0:
448,192,44874,1,0,0:0:0:0:
64,192,44996,1,0,0:0:0:0:
192,192,44996,1,0,0:0:0:0:
320,192,45058,1,0,0:0:0:0:
64,192,45119,1,0,0:0:0:0:
448,192,45119,1,0,0:0:0:0:
320,192,45180,1,0,0:0:0:0:
64,192,45242,1,0,0:0:0:0:
192,192,45242,1,0,0:0:0:0:
320,192,45364,1,0,0:0:0:0:
448,192,45364,1,0,0:0:0:0:
192,192,45425,1,0,0:0:0:0:
320,192,45487,1,0,0:0:0:0:
448,192,45487,1,0,0:0:0:0:
64,192,45548,1,0,0:0:0:0:
192,192,45609,1,0,0:0:0:0:
448,192,45609,1,0,0:0:0:0:
320,192,45671,1,0,0:0:0:0:
64,192,45732,1,0,0:0:0:0:
192,192,45732,1,0,0:0:0:0:
320,192,45793,1,0,0:0:0:0:
448,192,45793,1,0,0:0:0:0:
64,192,45855,1,0,0:0:0:0:
192,192,45855,1,0,0:0:0:0:
448,192,45916,1,0,0:0:0:0:
192,192,45977,1,0,0:0:0:0:
320,192,45977,1,0,0:0:0:0:
64,192,46039,1,0,0:0:0:0:
320,192,46100,1,0,0:0:0:0:
448,192,46100,1,0,0:0:0:0:
64,192,46222,1,0,0:0:0:0:
320,192,46222,1,0,0:0:0:0:
192,192,46284,1,0,0:0:0:0:
64,192,46345,1,0,0:0:0:0:
448,192,46345,1,0,0:0:0:0:
320,192,46406,1,0,0:0:0:0:
64,192,46468,1,0,0:0:0:0:
192,192,46468,1,0,0:0:0:0:
320,192,46590,1,0,0:0:0:0:
448,192,46590,1,0,0:0:0:0:
192,192,46652,1,0,0:0:0:0:
64,192,46713,1,0,0:0:0:0:
448,192,46713,1,0,0:0:0:0:
320,192,46774,1,0,0:0:0:0:
192,192,46836,1,0,0:0:0:0:
448,192,46836,1,0,0:0:0:0:
64,192,46958,1,0,0:0:0:0:
192,192,46958,1,0,0:0:0:0:
320,192,47020,1,0,0:0:0:0:
64,192,47081,1,0,0:0:0:0:
448,192,47081,1,0,0:0:0:0:
192,192,47142,1,0,0:0:0:0:
320,192,47203,1,0,0:0:0:0:
448,192,47203,1,0,0:0:0:0:
64,192,47326,1,0,0:0:0:0:
320,192,47326,1,0,0:0:0:0:
192,192,47387,1,0,0:0:0:0:
64,192,47449,1,0,0:0:0:0:
448,192,47449,1,0,0:0:0:0:
320,192,47510,1,0,0:0:0:0:
64,192,47571,1,0,0:0:0:0:
192,192,47571,1,0,0:0:0:0:
320,192,47633,1,0,0:0:0:0:
448,192,47633,1,0,0:0:0:0:
64,192,47694,1,0,0:0:0:0:
192,192,47694,1,0,0:0:0:0:
320,192,47755,1,0,0:0:0:0:
64,192,47817,1,0,0:0:0:0:
448,192,47817,1,0,0:0:0:0:
192,192,47878,1,0,0:0:0:0:
320,192,47939,1,0,0:0:0:0:
448,192,47939,1,0,0:0:0:0:
192,192,48000,1,0,0:0:0:0:
64,192,48062,1,0,0:0:0:0:
448,192,48062,1,0,0:0:0:0:
64,192,48184,1,0,0:0:0:0:
320,192,48184,1,0,0:0:0:0:
192,192,48246,1,0,0:0:0:0:
320,192,48307,1,0,0:0:0:0:
448,192,48307,1,0,0:0:0:0:
64,192,48368,1,0,0:0:0:0:
192,192,48430,1,0,0:0:0:0:
448,192,48430,1,0,0:0:0:0:
64,192,48552,1,0,0:0:0:0:
320,192,48552,1,0,0:0:0:0:
192,192,48614,1,0,0:0:0:0:
64,192,48675,1,0,0:0:0:0:
448,192,48675,1,0,0:0:0:0:
320,192,48736,1,0,0:0:0:0:
64,192,48798,1,0,0:0:0:0:
192,192,48798,1,0,0:0:0:0:
192,192,48920,1,0,0:0:0:0:
448,192,48920,1,0,0:0:0:0:
320,192,48981,1,0,0:0:0:0:
64,192,49043,1,0,0:0:0:0:
448,192,49043,1,0,0:0:0:0:
192,192,49104,1,0,0:0:0:0:
320,192,49165,1,0,0:0:0:0:
448,192,49165,1,0,0:0:0:0:
64,192,49288,1,0,0:0:0:0:
320,192,49288,1,0,0:0:0:0:
192,192,49349,1,0,0:0:0:0:
320,192,49411,1,0,0:0:0:0:
448,192,49411,1,0,0:0:0:0:
64,192,49472,1,0,0:0:0:0:
192,192,49533,1,0,0:0:0:0:
448,192,49533,1,0,0:0:0:0:
320,192,49595,1,0,0:0:0:0:
64,192,49656,1,0,0:0:0:0:
192,192,49717,1,0,0:0:0:0:
320,192,49779,1,0,0:0:0:0:
448,192,49779,1,0,0:0:0:0:
64,192,49840,1,0,0:0:0:0:
192,192,49901,1,0,0:0:0:0:
448,192,49901,1,0,0:0:0:0:
320,192,49962,1,0,0:0:0:0:
64,192,50024,1,0,0:0:0:0:
192,192,50039,1,0,0:0:0:0:
320,192,50085,1,0,0:0:0:0:
448,192,50100,1,0,0:0:0:0:
64,192,50146,1,0,0:0:0:0:
192,192,50162,1,0,0:0:0:0:
320,192,50208,1,0,0:0:0:0:
448,192,50223,1,0,0:0:0:0:
64,192,50269,1,0,0:0:0:0:
192,192,50284,1,0,0:0:0:0:
320,192,50330,1,0,0:0:0:0:
448,192,50346,1,0,0:0:0:0:
64,192,50392,1,0,0:0:0:0:
192,192,50407,1,0,0:0:0:0:
320,192,50453,1,0,0:0:0:0:
448,192,50468,1,0,0:0:0:0:
64,192,50514,1,0,0:0:0:0:
192,192,50530,1,0,0:0:0:0:
320,192,50576,1,0,0:0:0:0:
448,192,50591,1,0,0:0:0:0:
64,192,50637,1,0,0:0:0:0:
192,192,50652,1,0,0:0:0:0:
320,192,50698,1,0,0:0:0:0:
448,192,50714,1,0,0:0:0:0:
64,192,50759,1,0,0:0:0:0:
192,192,50759,1,0,0:0:0:0:
448,192,50821,1,0,0:0:0:0:
192,192,50882,1,0,0:0:0:0:
320,192,50943,1,0,0:0:0:0:
64,192,51005,1,0,0:0:0:0:
192,192,51066,1,0,0:0:0:0:
448,192,51127,1,0,0:0:0:0:
192,192,51189,1,0,0:0:0:0:
320,192,51250,1,0,0:0:0:0:
64,192,51311,1,0,0:0:0:0:
448,192,51373,1,0,0:0:0:0:
320,192,51434,1,0,0:0:0:0:
64,192,51495,1,0,0:0:0:0:
192,192,51557,1,0,0:0:0:0:
448,192,51618,1,0,0:0:0:0:
64,192,51679,1,0,0:0:0:0:
192,192,51740,1,0,0:0:0:0:
320,192,51740,1,0,0:0:0:0:
448,192,51740,1,0,0:0:0:0:
64,192,51863,1,0,0:0:0:0:
448,192,51986,1,0,0:0:0:0:
320,192,52108,1,0,0:0:0:0:
192,192,52170,1,0,0:0:0:0:
320,192,52231,1,0,0:0:0:0:
192,192,52292,1,0,0:0:0:0:
320,192,52354,1,0,0:0:0:0:
192,192,52476,1,0,0:0:0:0:
448,192,52844,1,0,0:0:0:0:
192,192,53089,1,0,0:0:0:0:
320,192,53151,1,0,0:0:0:0:
192,192,53212,1,0,0:0:0:0:
320,192,53273,1,0,0:0:0:0:
192,192,53335,1,0,0:0:0:0:
320,192,53457,1,0,0:0:0:0:
64,192,53580,1,0,0:0:0:0:
192,192,53580,1,0,0:0:0:0:
448,192,53580,1,0,0:0:0:0:
64,192,53702,1,0,0:0:0:0:
192,192,53702,1,0,0:0:0:0:
448,192,53702,1,0,0:0:0:0:
64,192,53825,1,0,0:0:0:0:
320,192,54070,1,0,0:0:0:0:
192,192,54132,1,0,0:0:0:0:
320,192,54193,1,0,0:0:0:0:
192,192,54254,1,0,0:0:0:0:
320,192,54316,1,0,0:0:0:0:
192,192,54438,1,0,0:0:0:0:
448,192,54806,1,0,0:0:0:0:
192,192,55051,1,0,0:0:0:0:
448,192,55113,1,0,0:0:0:0:
192,192,55174,1,0,0:0:0:0:
448,192,55235,1,0,0:0:0:0:
192,192,55296,1,0,0:0:0:0:
320,192,55419,1,0,0:0:0:0:
448,192,55450,1,0,0:0:0:0:
192,192,55480,1,0,0:0:0:0:
64,192,55511,1,0,0:0:0:0:
320,192,55542,1,0,0:0:0:0:
448,192,55572,1,0,0:0:0:0:
192,192,55603,1,0,0:0:0:0:
64,192,55634,1,0,0:0:0:0:
320,192,55664,1,0,0:0:0:0:
448,192,55664,1,0,0:0:0:0:
64,192,55787,1,0,0:0:0:0:
64,192,56032,1,0,0:0:0:0:
320,192,56032,1,0,0:0:0:0:
448,192,56032,1,0,0:0:0:0:
192,192,56094,1,0,0:0:0:0:
320,192,56155,1,0,0:0:0:0:
192,192,56216,1,0,0:0:0:0:
320,192,56277,1,0,0:0:0:0:
64,192,56400,1,0,0:0:0:0:
192,192,56400,1,0,0:0:0:0:
448,192,56400,1,0,0:0:0:0:
64,192,56645,1,0,0:0:0:0:
192,192,56645,1,0,0:0:0:0:
448,192,56645,1,0,0:0:0:0:
320,192,56768,1,0,0:0:0:0:
64,192,57013,1,0,0:0:0:0:
320,192,57013,1,0,0:0:0:0:
448,192,57013,1,0,0:0:0:0:
192,192,57074,1,0,0:0:0:0:
448,192,57136,1,0,0:0:0:0:
192,192,57197,1,0,0:0:0:0:
448,192,57258,1,0,0:0:0:0:
64,192,57381,1,0,0:0:0:0:
192,192,57381,1,0,0:0:0:0:
320,192,57381,1,0,0:0:0:0:
64,192,57626,1,0,0:0:0:0:
320,192,57626,1,0,0:0:0:0:
448,192,57626,1,0,0:0:0:0:
192,192,57749,1,0,0:0:0:0:
64,192,57872,1,0,0:0:0:0:
192,192,57872,1,0,0:0:0:0:
448,192,57872,1,0,0:0:0:0:
320,192,57994,1,0,0:0:0:0:
448,192,58055,1,0,0:0:0:0:
64,192,58117,1,0,0:0:0:0:
192,192,58117,1,0,0:0:0:0:
320,192,58117,1,0,0:0:0:0:
448,192,58178,1,0,0:0:0:0:
320,192,58239,1,0,0:0:0:0:
64,192,58362,1,0,0:0:0:0:
192,192,58362,1,0,0:0:0:0:
448,192,58362,1,0,0:0:0:0:
64,192,58607,1,0,0:0:0:0:
192,192,58607,1,0,0:0:0:0:
320,192,58607,1,0,0:0:0:0:
192,192,58730,1,0,0:0:0:0:
320,192,58730,1,0,0:0:0:0:
448,192,58730,1,0,0:0:0:0:
64,192,58853,1,0,0:0:0:0:
192,192,58853,1,0,0:0:0:0:
448,192,58853,1,0,0:0:0:0:
64,192,58975,1,0,0:0:0:0:
192,192,58975,1,0,0:0:0:0:
320,192,58975,1,0,0:0:0:0:
320,192,59098,1,0,0:0:0:0:
448,192,59098,1,0,0:0:0:0:
64,192,59128,1,0,0:0:0:0:
192,192,59159,1,0,0:0:0:0:
448,192,59190,1,0,0:0:0:0:
320,192,59220,1,0,0:0:0:0:
64,192,59251,1,0,0:0:0:0:
192,192,59282,1,0,0:0:0:0:
448,192,59312,1,0,0:0:0:0:
320,192,59343,1,0,0:0:0:0:
64,192,59374,1,0,0:0:0:0:
192,192,59404,1,0,0:0:0:0:
448,192,59435,1,0,0:0:0:0:
320,192,59466,1,0,0:0:0:0:
64,192,59496,1,0,0:0:0:0:
192,192,59527,1,0,0:0:0:0:
448,192,59558,1,0,0:0:0:0:
64,192,59588,1,0,0:0:0:0:
320,192,59588,1,0,0:0:0:0:
192,192,59711,1,0,0:0:0:0:
320,192,59711,1,0,0:0:0:0:
64,192,59833,1,0,0:0:0:0:
192,192,59833,1,0,0:0:0:0:
64,192,59956,1,0,0:0:0:0:
448,192,59956,1,0,0:0:0:0:
192,192,60017,1,0,0:0:0:0:
320,192,60079,1,0,0:0:0:0:
448,192,60079,1,0,0:0:0:0:
192,192,60140,1,0,0:0:0:0:
64,192,60201,1,0,0:0:0:0:
320,192,60201,1,0,0:0:0:0:
192,192,60324,1,0,0:0:0:0:
448,192,60324,1,0,0:0:0:0:
320,192,60447,1,0,0:0:0:0:
448,192,60447,1,0,0:0:0:0:
64,192,60569,1,0,0:0:0:0:
320,192,60569,1,0,0:0:0:0:
448,192,60569,1,0,0:0:0:0:
64,192,60692,1,0,0:0:0:0:
320,192,60692,1,0,0:0:0:0:
64,192,60814,1,0,0:0:0:0:
192,192,60814,1,0,0:0:0:0:
320,192,60876,1,0,0:0:0:0:
192,192,60937,1,0,0:0:0:0:
448,192,60937,1,0,0:0:0:0:
64,192,60998,1,0,0:0:0:0:
320,192,61060,1,0,0:0:0:0:
448,192,61060,1,0,0:0:0:0:
64,192,61182,1,0,0:0:0:0:
320,192,61182,1,0,0:0:0:0:
192,192,61305,1,0,0:0:0:0:
448,192,61305,1,0,0:0:0:0:
320,192,61428,1,0,0:0:0:0:
448,192,61428,1,0,0:0:0:0:
64,192,61489,1,0,0:0:0:0:
192,192,61489,1,0,0:0:0:0:
320,192,61550,1,0,0:0:0:0:
448,192,61550,1,0,0:0:0:0:
192,192,61673,1,0,0:0:0:0:
448,192,61673,1,0,0:0:0:0:
64,192,61795,1,0,0:0:0:0:
192,192,61795,1,0,0:0:0:0:
64,192,61918,1,0,0:0:0:0:
448,192,61918,1,0,0:0:0:0:
192,192,61979,1,0,0:0:0:0:
320,192,62041,1,0,0:0:0:0:
448,192,62041,1,0,0:0:0:0:
64,192,62102,1,0,0:0:0:0:
192,192,62163,1,0,0:0:0:0:
320,192,62163,1,0,0:0:0:0:
64,192,62286,1,0,0:0:0:0:
320,192,62286,1,0,0:0:0:0:
64,192,62409,1,0,0:0:0:0:
192,192,62409,1,0,0:0:0:0:
320,192,62470,1,0,0:0:0:0:
64,192,62531,1,0,0:0:0:0:
192,192,62531,1,0,0:0:0:0:
448,192,62531,1,0,0:0:0:0:
320,192,62654,1,0,0:0:0:0:
448,192,62654,1,0,0:0:0:0:
192,192,62776,1,0,0:0:0:0:
448,192,62776,1,0,0:0:0:0:
64,192,62899,1,0,0:0:0:0:
192,192,62899,1,0,0:0:0:0:
320,192,62960,1,0,0:0:0:0:
192,192,63022,1,0,0:0:0:0:
448,192,63022,1,0,0:0:0:0:
64,192,63083,1,0,0:0:0:0:
320,192,63144,1,0,0:0:0:0:
448,192,63144,1,0,0:0:0:0:
320,192,63267,1,0,0:0:0:0:
448,192,63267,1,0,0:0:0:0:
64,192,63328,1,0,0:0:0:0:
192,192,63328,1,0,0:0:0:0:
320,192,63390,1,0,0:0:0:0:
448,192,63390,1,0,0:0:0:0:
64,192,63451,1,0,0:0:0:0:
192,192,63451,1,0,0:0:0:0:
320,192,63512,1,0,0:0:0:0:
448,192,63512,1,0,0:0:0:0:
64,192,63635,1,0,0:0:0:0:
320,192,63635,1,0,0:0:0:0:
64,192,63757,1,0,0:0:0:0:
192,192,63757,1,0,0:0:0:0:
192,192,63880,1,0,0:0:0:0:
448,192,63880,1,0,0:0:0:0:
64,192,63941,1,0,0:0:0:0:
320,192,64003,1,0,0:0:0:0:
448,192,64003,1,0,0:0:0:0:
192,192,64064,1,0,0:0:0:0:
64,192,64125,1,0,0:0:0:0:
320,192,64125,1,0,0:0:0:0:
64,192,64248,1,0,0:0:0:0:
192,192,64248,1,0,0:0:0:0:
320,192,64370,1,0,0:0:0:0:
448,192,64370,1,0,0:0:0:0:
64,192,64493,1,0,0:0:0:0:
320,192,64493,1,0,0:0:0:0:
448,192,64493,1,0,0:0:0:0:
64,192,64616,1,0,0:0:0:0:
320,192,64616,1,0,0:0:0:0:
64,192,64738,1,0,0:0:0:0:
192,192,64738,1,0,0:0:0:0:
192,192,64861,1,0,0:0:0:0:
448,192,64861,1,0,0:0:0:0:
64,192,64922,1,0,0:0:0:0:
320,192,64984,1,0,0:0:0:0:
448,192,64984,1,0,0:0:0:0:
192,192,65045,1,0,0:0:0:0:
64,192,65106,1,0,0:0:0:0:
320,192,65106,1,0,0:0:0:0:
320,192,65229,1,0,0:0:0:0:
448,192,65229,1,0,0:0:0:0:
64,192,65351,1,0,0:0:0:0:
192,192,65351,1,0,0:0:0:0:
320,192,65413,1,0,0:0:0:0:
448,192,65413,1,0,0:0:0:0:
64,192,65474,1,0,0:0:0:0:
192,192,65474,1,0,0:0:0:0:
192,192,65597,1,0,0:0:0:0:
448,192,65597,1,0,0:0:0:0:
320,192,65719,1,0,0:0:0:0:
448,192,65719,1,0,0:0:0:0:
64,192,65842,1,0,0:0:0:0:
320,192,65842,1,0,0:0:0:0:
192,192,65903,1,0,0:0:0:0:
64,192,65965,1,0,0:0:0:0:
448,192,65965,1,0,0:0:0:0:
320,192,66026,1,0,0:0:0:0:
192,192,66087,1,0,0:0:0:0:
448,192,66087,1,0,0:0:0:0:
320,192,66210,1,0,0:0:0:0:
448,192,66210,1,0,0:0:0:0:
64,192,66332,1,0,0:0:0:0:
192,192,66332,1,0,0:0:0:0:
320,192,66394,1,0,0:0:0:0:
64,192,66455,1,0,0:0:0:0:
448,192,66455,1,0,0:0:0:0:
192,192,66516,1,0,0:0:0:0:
320,192,66578,1,0,0:0:0:0:
64,192,66639,1,0,0:0:0:0:
192,192,66700,1,0,0:0:0:0:
448,192,66700,1,0,0:0:0:0:
320,192,66762,1,0,0:0:0:0:
448,192,66823,1,0,0:0:0:0:
192,192,66884,1,0,0:0:0:0:
64,192,66946,1,0,0:0:0:0:
320,192,66946,1,0,0:0:0:0:
448,192,67007,1,0,0:0:0:0:
320,192,67068,1,0,0:0:0:0:
192,192,67129,1,0,0:0:0:0:
64,192,67191,1,0,0:0:0:0:
448,192,67191,1,0,0:0:0:0:
192,192,67252,1,0,0:0:0:0:
448,192,67313,1,0,0:0:0:0:
320,192,67375,1,0,0:0:0:0:
64,192,67436,1,0,0:0:0:0:
192,192,67436,1,0,0:0:0:0:
320,192,67497,1,0,0:0:0:0:
64,192,67559,1,0,0:0:0:0:
448,192,67559,1,0,0:0:0:0:
192,192,67620,1,0,0:0:0:0:
64,192,67681,1,0,0:0:0:0:
320,192,67681,1,0,0:0:0:0:
320,192,67804,1,0,0:0:0:0:
448,192,67804,1,0,0:0:0:0:
192,192,67865,1,0,0:0:0:0:
64,192,67927,1,0,0:0:0:0:
448,192,67927,1,0,0:0:0:0:
320,192,67988,1,0,0:0:0:0:
64,192,68049,1,0,0:0:0:0:
192,192,68049,1,0,0:0:0:0:
192,192,68172,1,0,0:0:0:0:
448,192,68172,1,0,0:0:0:0:
320,192,68233,1,0,0:0:0:0:
64,192,68294,1,0,0:0:0:0:
192,192,68294,1,0,0:0:0:0:
448,192,68356,1,0,0:0:0:0:
64,192,68417,1,0,0:0:0:0:
320,192,68417,1,0,0:0:0:0:
320,192,68540,1,0,0:0:0:0:
448,192,68540,1,0,0:0:0:0:
192,192,68601,1,0,0:0:0:0:
64,192,68662,1,0,0:0:0:0:
448,192,68662,1,0,0:0:0:0:
192,192,68724,1,0,0:0:0:0:
320,192,68785,1,0,0:0:0:0:
448,192,68785,1,0,0:0:0:0:
64,192,68907,1,0,0:0:0:0:
192,192,68907,1,0,0:0:0:0:
320,192,68969,1,0,0:0:0:0:
64,192,69030,1,0,0:0:0:0:
448,192,69030,1,0,0:0:0:0:
192,192,69091,1,0,0:0:0:0:
64,192,69153,1,0,0:0:0:0:
320,192,69153,1,0,0:0:0:0:
192,192,69214,1,0,0:0:0:0:
320,192,69275,1,0,0:0:0:0:
448,192,69275,1,0,0:0:0:0:
64,192,69337,1,0,0:0:0:0:
192,192,69337,1,0,0:0:0:0:
320,192,69398,1,0,0:0:0:0:
448,192,69398,1,0,0:0:0:0:
64,192,69459,1,0,0:0:0:0:
192,192,69521,1,0,0:0:0:0:
320,192,69521,1,0,0:0:0:0:
448,192,69582,1,0,0:0:0:0:
64,192,69643,1,0,0:0:0:0:
192,192,69643,1,0,0:0:0:0:
192,192,69766,1,0,0:0:0:0:
448,192,69766,1,0,0:0:0:0:
320,192,69827,1,0,0:0:0:0:
64,192,69888,1,0,0:0:0:0:
448,192,69888,1,0,0:0:0:0:
192,192,69950,1,0,0:0:0:0:
320,192,70011,1,0,0:0:0:0:
448,192,70011,1,0,0:0:0:0:
64,192,70134,1,0,0:0:0:0:
192,192,70134,1,0,0:0:0:0:
320,192,70195,1,0,0:0:0:0:
64,192,70256,1,0,0:0:0:0:
448,192,70256,1,0,0:0:0:0:
192,192,70318,1,0,0:0:0:0:
64,192,70379,1,0,0:0:0:0:
320,192,70379,1,0,0:0:0:0:
320,192,70502,1,0,0:0:0:0:
448,192,70502,1,0,0:0:0:0:
192,192,70563,1,0,0:0:0:0:
64,192,70624,1,0,0:0:0:0:
448,192,70624,1,0,0:0:0:0:
320,192,70686,1,0,0:0:0:0:
64,192,70747,1,0,0:0:0:0:
192,192,70747,1,0,0:0:0:0:
192,192,70869,1,0,0:0:0:0:
448,192,70869,1,0,0:0:0:0:
320,192,70931,1,0,0:0:0:0:
64,192,70992,1,0,0:0:0:0:
448,192,70992,1,0,0:0:0:0:
192,192,71053,1,0,0:0:0:0:
448,192,71115,1,0,0:0:0:0:
320,192,71145,1,0,0:0:0:0:
192,192,71176,1,0,0:0:0:0:
64,192,71207,1,0,0:0:0:0:
448,192,71237,1,0,0:0:0:0:
320,192,71268,1,0,0:0:0:0:
192,192,71299,1,0,0:0:0:0:
64,192,71329,1,0,0:0:0:0:
320,192,71360,1,0,0:0:0:0:
448,192,71360,1,0,0:0:0:0:
192,192,71421,1,0,0:0:0:0:
64,192,71483,1,0,0:0:0:0:
320,192,71483,1,0,0:0:0:0:
192,192,71544,1,0,0:0:0:0:
64,192,71605,1,0,0:0:0:0:
448,192,71605,1,0,0:0:0:0:
192,192,71728,1,0,0:0:0:0:
448,192,71728,1,0,0:0:0:0:
320,192,71789,1,0,0:0:0:0:
64,192,71850,1,0,0:0:0:0:
192,192,71850,1,0,0:0:0:0:
448,192,71912,1,0,0:0:0:0:
64,192,71973,1,0,0:0:0:0:
320,192,71973,1,0,0:0:0:0:
192,192,72096,1,0,0:0:0:0:
448,192,72096,1,0,0:0:0:0:
320,192,72157,1,0,0:0:0:0:
64,192,72218,1,0,0:0:0:0:
448,192,72218,1,0,0:0:0:0:
192,192,72280,1,0,0:0:0:0:
320,192,72341,1,0,0:0:0:0:
448,192,72341,1,0,0:0:0:0:
64,192,72464,1,0,0:0:0:0:
320,192,72464,1,0,0:0:0:0:
192,192,72525,1,0,0:0:0:0:
64,192,72586,1,0,0:0:0:0:
448,192,72586,1,0,0:0:0:0:
320,192,72647,1,0,0:0:0:0:
64,192,72709,1,0,0:0:0:0:
192,192,72709,1,0,0:0:0:0:
192,192,72831,1,0,0:0:0:0:
448,192,72831,1,0,0:0:0:0:
320,192,72893,1,0,0:0:0:0:
64,192,72954,1,0,0:0:0:0:
192,192,72954,1,0,0:0:0:0:
448,192,73015,1,0,0:0:0:0:
64,192,73077,1,0,0:0:0:0:
320,192,73077,1,0,0:0:0:0:
192,192,73138,1,0,0:0:0:0:
448,192,73199,1,0,0:0:0:0:
320,192,73261,1,0,0:0:0:0:
64,192,73322,1,0,0:0:0:0:
192,192,73322,1,0,0:0:0:0:
448,192,73383,1,0,0:0:0:0:
64,192,73444,1,0,0:0:0:0:
320,192,73444,1,0,0:0:0:0:
192,192,73506,1,0,0:0:0:0:
320,192,73567,1,0,0:0:0:0:
448,192,73567,1,0,0:0:0:0:
64,192,73690,1,0,0:0:0:0:
192,192,73690,1,0,0:0:0:0:
448,192,73751,1,0,0:0:0:0:
192,192,73812,1,0,0:0:0:0:
320,192,73812,1,0,0:0:0:0:
64,192,73874,1,0,0:0:0:0:
320,192,73935,1,0,0:0:0:0:
448,192,73935,1,0,0:0:0:0:
64,192,74058,1,0,0:0:0:0:
192,192,74058,1,0,0:0:0:0:
320,192,74119,1,0,0:0:0:0:
448,192,74180,1,0,0:0:0:0:
192,192,74242,1,0,0:0:0:0:
64,192,74303,1,0,0:0:0:0:
320,192,74303,1,0,0:0:0:0:
448,192,74364,1,0,0:0:0:0:
192,192,74425,1,0,0:0:0:0:
64,192,74487,1,0,0:0:0:0:
320,192,74548,1,0,0:0:0:0:
448,192,74548,1,0,0:0:0:0:
192,192,74609,1,0,0:0:0:0:
448,192,74671,1,0,0:0:0:0:
320,192,74732,1,0,0:0:0:0:
64,192,74793,1,0,0:0:0:0:
192,192,74793,1,0,0:0:0:0:
448,192,74855,1,0,0:0:0:0:
192,192,74916,1,0,0:0:0:0:
320,192,74977,1,0,0:0:0:0:
64,192,75039,1,0,0:0:0:0:
448,192,75039,1,0,0:0:0:0:
192,192,75100,1,0,0:0:0:0:
64,192,75161,1,0,0:0:0:0:
192,192,75223,1,0,0:0:0:0:
320,192,75284,1,0,0:0:0:0:
448,192,75284,1,0,0:0:0:0:
192,192,75345,1,0,0:0:0:0:
64,192,75406,1,0,0:0:0:0:
448,192,75406,1,0,0:0:0:0:
320,192,75468,1,0,0:0:0:0:
192,192,75529,1,0,0:0:0:0:
448,192,75529,1,0,0:0:0:0:
64,192,75652,1,0,0:0:0:0:
192,192,75652,1,0,0:0:0:0:
320,192,75713,1,0,0:0:0:0:
64,192,75774,1,0,0:0:0:0:
448,192,75774,1,0,0:0:0:0:
192,192,75836,1,0,0:0:0:0:
320,192,75897,1,0,0:0:0:0:
448,192,75897,1,0,0:0:0:0:
64,192,76020,1,0,0:0:0:0:
320,192,76020,1,0,0:0:0:0:
192,192,76081,1,0,0:0:0:0:
320,192,76142,1,0,0:0:0:0:
448,192,76142,1,0,0:0:0:0:
64,192,76203,1,0,0:0:0:0:
192,192,76265,1,0,0:0:0:0:
448,192,76265,1,0,0:0:0:0:
64,192,76387,1,0,0:0:0:0:
192,192,76387,1,0,0:0:0:0:
320,192,76449,1,0,0:0:0:0:
64,192,76510,1,0,0:0:0:0:
448,192,76510,1,0,0:0:0:0:
320,192,76571,1,0,0:0:0:0:
64,192,76633,1,0,0:0:0:0:
192,192,76633,1,0,0:0:0:0:
320,192,76755,1,0,0:0:0:0:
448,192,76755,1,0,0:0:0:0:
192,192,76817,1,0,0:0:0:0:
320,192,76878,1,0,0:0:0:0:
448,192,76878,1,0,0:0:0:0:
64,192,76939,1,0,0:0:0:0:
192,192,77001,1,0,0:0:0:0:
448,192,77001,1,0,0:0:0:0:
320,192,77062,1,0,0:0:0:0:
64,192,77123,1,0,0:0:0:0:
192,192,77123,1,0,0:0:0:0:
320,192,77184,1,0,0:0:0:0:
448,192,77184,1,0,0:0:0:0:
64,192,77246,1,0,0:0:0:0:
192,192,77246,1,0,0:0:0:0:
448,192,77307,1,0,0:0:0:0:
192,192,77368,1,0,0:0:0:0:
320,192,77368,1,0,0:0:0:0:
64,192,77430,1,0,0:0:0:0:
320,192,77491,1,0,0:0:0:0:
448,192,77491,1,0,0:0:0:0:
64,192,77614,1,0,0:0:0:0:
320,192,77614,1,0,0:0:0:0:
192,192,77675,1,0,0:0:0:0:
64,192,77736,1,0,0:0:0:0:
448,192,77736,1,0,0:0:0:0:
320,192,77798,1,0,0:0:0:0:
64,192,77859,1,0,0:0:0:0:
192,192,77859,1,0,0:0:0:0:
320,192,77981,1,0,0:0:0:0:
448,192,77981,1,0,0:0:0:0:
192,192,78043,1,0,0:0:0:0:
64,192,78104,1,0,0:0:0:0:
448,192,78104,1,0,0:0:0:0:
320,192,78165,1,0,0:0:0:0:
192,192,78227,1,0,0:0:0:0:
448,192,78227,1,0,0:0:0:0:
64,192,78349,1,0,0:0:0:0:
192,192,78349,1,0,0:0:0:0:
320,192,78411,1,0,0:0:0:0:
64,192,78472,1,0,0:0:0:0:
448,192,78472,1,0,0:0:0:0:
192,192,78533,1,0,0:0:0:0:
320,192,78595,1,0,0:0:0:0:
448,192,78595,1,0,0:0:0:0:
64,192,78717,1,0,0:0:0:0:
320,192,78717,1,0,0:0:0:0:
192,192,78779,1,0,0:0:0:0:
64,192,78840,1,0,0:0:0:0:
448,192,78840,1,0,0:0:0:0:
320,192,78901,1,0,0:0:0:0:
64,192,78962,1,0,0:0:0:0:
192,192,78993,1,0,0:0:0:0:
320,192,79024,1,0,0:0:0:0:
448,192,79054,1,0,0:0:0:0:
64,192,79085,1,0,0:0:0:0:
192,192,79116,1,0,0:0:0:0:
320,192,79146,1,0,0:0:0:0:
448,192,79177,1,0,0:0:0:0:
64,192,79208,1,0,0:0:0:0:
192,192,79208,1,0,0:0:0:0:
320,192,79269,1,0,0:0:0:0:
64,192,79330,1,0,0:0:0:0:
448,192,79330,1,0,0:0:0:0:
192,192,79392,1,0,0:0:0:0:
320,192,79453,1,0,0:0:0:0:
448,192,79453,1,0,0:0:0:0:
64,192,79576,1,0,0:0:0:0:
320,192,79576,1,0,0:0:0:0:
192,192,79637,1,0,0:0:0:0:
320,192,79698,1,0,0:0:0:0:
448,192,79698,1,0,0:0:0:0:
64,192,79760,1,0,0:0:0:0:
192,192,79821,1,0,0:0:0:0:
448,192,79821,1,0,0:0:0:0:
64,192,79943,1,0,0:0:0:0:
320,192,79943,1,0,0:0:0:0:
192,192,80005,1,0,0:0:0:0:
64,192,80066,1,0,0:0:0:0:
448,192,80066,1,0,0:0:0:0:
320,192,80127,1,0,0:0:0:0:
64,192,80189,1,0,0:0:0:0:
192,192,80189,1,0,0:0:0:0:
192,192,80311,1,0,0:0:0:0:
448,192,80311,1,0,0:0:0:0:
320,192,80373,1,0,0:0:0:0:
64,192,80434,1,0,0:0:0:0:
448,192,80434,1,0,0:0:0:0:
192,192,80495,1,0,0:0:0:0:
320,192,80557,1,0,0:0:0:0:
448,192,80557,1,0,0:0:0:0:
64,192,80679,1,0,0:0:0:0:
320,192,80679,1,0,0:0:0:0:
192,192,80740,1,0,0:0:0:0:
320,192,80802,1,0,0:0:0:0:
448,192,80802,1,0,0:0:0:0:
64,192,80863,1,0,0:0:0:0:
192,192,80924,1,0,0:0:0:0:
448,192,80924,1,0,0:0:0:0:
320,192,80986,1,0,0:0:0:0:
64,192,81047,1,0,0:0:0:0:
192,192,81108,1,0,0:0:0:0:
320,192,81170,1,0,0:0:0:0:
448,192,81170,1,0,0:0:0:0:
64,192,81231,1,0,0:0:0:0:
192,192,81292,1,0,0:0:0:0:
448,192,81292,1,0,0:0:0:0:
320,192,81354,1,0,0:0:0:0:
64,192,81415,1,0,0:0:0:0:
192,192,81415,1,0,0:0:0:0:
320,192,81476,1,0,0:0:0:0:
192,192,81538,1,0,0:0:0:0:
448,192,81538,1,0,0:0:0:0:
64,192,81599,1,0,0:0:0:0:
448,192,81660,1,0,0:0:0:0:
320,192,81675,1,0,0:0:0:0:
192,192,81721,1,0,0:0:0:0:
64,192,81737,1,0,0:0:0:0:
448,192,81783,1,0,0:0:0:0:
320,192,81798,1,0,0:0:0:0:
192,192,81844,1,0,0:0:0:0:
64,192,81859,1,0,0:0:0:0:
448,192,81905,1,0,0:0:0:0:
320,192,81921,1,0,0:0:0:0:
192,192,81967,1,0,0:0:0:0:
64,192,81982,1,0,0:0:0:0:
448,192,82028,1,0,0:0:0:0:
320,192,82043,1,0,0:0:0:0:
192,192,82089,1,0,0:0:0:0:
64,192,82105,1,0,0:0:0:0:
320,192,82151,1,0,0:0:0:0:
448,192,82151,1,0,0:0:0:0:
192,192,82212,1,0,0:0:0:0:
448,192,82273,1,0,0:0:0:0:
64,192,82335,1,0,0:0:0:0:
448,192,82396,1,0,0:0:0:0:
320,192,82457,1,0,0:0:0:0:
64,192,82518,1,0,0:0:0:0:
192,192,82580,1,0,0:0:0:0:
64,192,82641,1,0,0:0:0:0:
448,192,82702,1,0,0:0:0:0:
320,192,82764,1,0,0:0:0:0:
192,192,82825,1,0,0:0:0:0:
448,192,82886,1,0,0:0:0:0:
320,192,82948,1,0,0:0:0:0:
64,192,83009,1,0,0:0:0:0:
192,192,83070,1,0,0:0:0:0:
64,192,83132,1,0,0:0:0:0:
448,192,83132,1,0,0:0:0:0:
64,192,84848,1,0,0:0:0:0:
192,192,84869,1,0,0:0:0:0:
320,192,84910,1,0,0:0:0:0:
448,192,84930,1,0,0:0:0:0:
64,192,84971,1,0,0:0:0:0:
192,192,84991,1,0,0:0:0:0:
320,192,85032,1,0,0:0:0:0:
448,192,85053,1,0,0:0:0:0:
64,192,85094,1,0,0:0:0:0:
192,192,85094,1,0,0:0:0:0:
320,192,85094,1,0,0:0:0:0:
64,192,85461,1,0,0:0:0:0:
192,192,85461,1,0,0:0:0:0:
320,192,85461,1,0,0:0:0:0:
64,192,85829,1,0,0:0:0:0:
192,192,85829,1,0,0:0:0:0:
448,192,85829,1,0,0:0:0:0:
192,192,86197,1,0,0:0:0:0:
320,192,86197,1,0,0:0:0:0:
448,192,86197,1,0,0:0:0:0:
64,192,86442,1,0,0:0:0:0:
192,192,86442,1,0,0:0:0:0:
320,192,86504,1,0,0:0:0:0:
64,192,86565,1,0,0:0:0:0:
448,192,86565,1,0,0:0:0:0:
192,192,86626,1,0,0:0:0:0:
320,192,86688,1,0,0:0:0:0:
448,192,86688,1,0,0:0:0:0:
64,192,86749,1,0,0:0:0:0:
192,192,86810,1,0,0:0:0:0:
448,192,86810,1,0,0:0:0:0:
320,192,86872,1,0,0:0:0:0:
64,192,86933,1,0,0:0:0:0:
192,192,86933,1,0,0:0:0:0:
320,192,86994,1,0,0:0:0:0:
192,192,87055,1,0,0:0:0:0:
448,192,87055,1,0,0:0:0:0:
64,192,87117,1,0,0:0:0:0:
320,192,87178,1,0,0:0:0:0:
192,192,87239,1,0,0:0:0:0:
64,192,87301,1,0,0:0:0:0:
448,192,87301,1,0,0:0:0:0:
320,192,87362,1,0,0:0:0:0:
192,192,87423,1,0,0:0:0:0:
64,192,87485,1,0,0:0:0:0:
448,192,87546,1,0,0:0:0:0:
320,192,87561,1,0,0:0:0:0:
192,192,87607,1,0,0:0:0:0:
64,192,87623,1,0,0:0:0:0:
448,192,87669,1,0,0:0:0:0:
320,192,87684,1,0,0:0:0:0:
192,192,87730,1,0,0:0:0:0:
64,192,87745,1,0,0:0:0:0:
448,192,87791,1,0,0:0:0:0:
320,192,87807,1,0,0:0:0:0:
192,192,87853,1,0,0:0:0:0:
64,192,87868,1,0,0:0:0:0:
448,192,87914,1,0,0:0:0:0:
320,192,87929,1,0,0:0:0:0:
192,192,87975,1,0,0:0:0:0:
64,192,87990,1,0,0:0:0:0:
320,0,88036,128,0,88052:1:0:0:0:
448,0,88036,128,0,88052:1:0:0:0:
192,192,88098,1,0,0:0:0:0:
64,192,88159,1,0,0:0:0:0:
448,192,88159,1,0,0:0:0:0:
320,192,88220,1,0,0:0:0:0:
192,192,88282,1,0,0:0:0:0:
448,192,88282,1,0,0:0:0:0:
64,192,88404,1,0,0:0:0:0:
192,192,88404,1,0,0:0:0:0:
320,192,88466,1,0,0:0:0:0:
64,192,88527,1,0,0:0:0:0:
448,192,88527,1,0,0:0:0:0:
192,192,88588,1,0,0:0:0:0:
320,192,88650,1,0,0:0:0:0:
448,192,88650,1,0,0:0:0:0:
64,192,88772,1,0,0:0:0:0:
320,192,88772,1,0,0:0:0:0:
192,192,88834,1,0,0:0:0:0:
320,192,88895,1,0,0:0:0:0:
448,192,88895,1,0,0:0:0:0:
64,192,88956,1,0,0:0:0:0:
192,192,89017,1,0,0:0:0:0:
448,192,89017,1,0,0:0:0:0:
64,192,89140,1,0,0:0:0:0:
192,192,89140,1,0,0:0:0:0:
320,192,89201,1,0,0:0:0:0:
64,192,89263,1,0,0:0:0:0:
448,192,89263,1,0,0:0:0:0:
320,192,89324,1,0,0:0:0:0:
64,192,89385,1,0,0:0:0:0:
192,192,89385,1,0,0:0:0:0:
320,192,89508,1,0,0:0:0:0:
448,192,89508,1,0,0:0:0:0:
64,192,89569,1,0,0:0:0:0:
192,192,89631,1,0,0:0:0:0:
448,192,89631,1,0,0:0:0:0:
320,192,89692,1,0,0:0:0:0:
64,192,89753,1,0,0:0:0:0:
192,192,89753,1,0,0:0:0:0:
448,192,89814,1,0,0:0:0:0:
64,192,89876,1,0,0:0:0:0:
192,192,89876,1,0,0:0:0:0:
320,192,89937,1,0,0:0:0:0:
448,192,89937,1,0,0:0:0:0:
64,192,89998,1,0,0:0:0:0:
192,192,89998,1,0,0:0:0:0:
448,192,90060,1,0,0:0:0:0:
192,192,90121,1,0,0:0:0:0:
320,192,90121,1,0,0:0:0:0:
64,192,90182,1,0,0:0:0:0:
320,192,90244,1,0,0:0:0:0:
448,192,90244,1,0,0:0:0:0:
64,192,90366,1,0,0:0:0:0:
320,192,90366,1,0,0:0:0:0:
192,192,90428,1,0,0:0:0:0:
64,192,90489,1,0,0:0:0:0:
448,192,90489,1,0,0:0:0:0:
320,192,90550,1,0,0:0:0:0:
64,192,90612,1,0,0:0:0:0:
192,192,90612,1,0,0:0:0:0:
320,192,90734,1,0,0:0:0:0:
448,192,90734,1,0,0:0:0:0:
192,192,90795,1,0,0:0:0:0:
64,192,90857,1,0,0:0:0:0:
448,192,90857,1,0,0:0:0:0:
320,192,90918,1,0,0:0:0:0:
192,192,90979,1,0,0:0:0:0:
448,192,90979,1,0,0:0:0:0:
64,192,91102,1,0,0:0:0:0:
192,192,91102,1,0,0:0:0:0:
320,192,91163,1,0,0:0:0:0:
64,192,91225,1,0,0:0:0:0:
448,192,91225,1,0,0:0:0:0:
192,192,91286,1,0,0:0:0:0:
320,192,91347,1,0,0:0:0:0:
448,192,91347,1,0,0:0:0:0:
64,192,91470,1,0,0:0:0:0:
320,192,91470,1,0,0:0:0:0:
192,192,91531,1,0,0:0:0:0:
64,192,91592,1,0,0:0:0:0:
448,192,91592,1,0,0:0:0:0:
320,192,91654,1,0,0:0:0:0:
64,192,91715,1,0,0:0:0:0:
192,192,91715,1,0,0:0:0:0:
320,192,91776,1,0,0:0:0:0:
448,192,91776,1,0,0:0:0:0:
64,192,91838,1,0,0:0:0:0:
192,192,91838,1,0,0:0:0:0:
448,192,91899,1,0,0:0:0:0:
64,0,91960,128,0,91976:1:0:0:0:
320,0,91960,128,0,91976:1:0:0:0:
192,192,92022,1,0,0:0:0:0:
320,192,92083,1,0,0:0:0:0:
448,192,92083,1,0,0:0:0:0:
192,192,92144,1,0,0:0:0:0:
64,192,92206,1,0,0:0:0:0:
448,192,92206,1,0,0:0:0:0:
64,192,92328,1,0,0:0:0:0:
320,192,92328,1,0,0:0:0:0:
192,192,92390,1,0,0:0:0:0:
320,192,92451,1,0,0:0:0:0:
448,192,92451,1,0,0:0:0:0:
64,192,92512,1,0,0:0:0:0:
192,192,92573,1,0,0:0:0:0:
448,192,92573,1,0,0:0:0:0:
64,192,92696,1,0,0:0:0:0:
320,192,92696,1,0,0:0:0:0:
192,192,92757,1,0,0:0:0:0:
64,192,92819,1,0,0:0:0:0:
448,192,92819,1,0,0:0:0:0:
320,192,92880,1,0,0:0:0:0:
64,192,92941,1,0,0:0:0:0:
192,192,92941,1,0,0:0:0:0:
192,192,93064,1,0,0:0:0:0:
448,192,93064,1,0,0:0:0:0:
320,192,93125,1,0,0:0:0:0:
64,192,93187,1,0,0:0:0:0:
448,192,93187,1,0,0:0:0:0:
192,192,93248,1,0,0:0:0:0:
320,192,93309,1,0,0:0:0:0:
448,192,93309,1,0,0:0:0:0:
64,192,93432,1,0,0:0:0:0:
320,192,93432,1,0,0:0:0:0:
192,192,93493,1,0,0:0:0:0:
320,192,93554,1,0,0:0:0:0:
448,192,93554,1,0,0:0:0:0:
64,192,93616,1,0,0:0:0:0:
192,192,93677,1,0,0:0:0:0:
448,192,93677,1,0,0:0:0:0:
320,192,93738,1,0,0:0:0:0:
64,192,93800,1,0,0:0:0:0:
192,192,93861,1,0,0:0:0:0:
320,0,93922,128,0,93938:1:0:0:0:
448,0,93922,128,0,93938:1:0:0:0:
64,192,93984,1,0,0:0:0:0:
192,192,94045,1,0,0:0:0:0:
448,192,94045,1,0,0:0:0:0:
320,192,94106,1,0,0:0:0:0:
64,192,94168,1,0,0:0:0:0:
192,192,94168,1,0,0:0:0:0:
320,192,94290,1,0,0:0:0:0:
448,192,94290,1,0,0:0:0:0:
64,192,94351,1,0,0:0:0:0:
192,192,94413,1,0,0:0:0:0:
320,192,94413,1,0,0:0:0:0:
448,192,94474,1,0,0:0:0:0:
64,192,94535,1,0,0:0:0:0:
192,192,94535,1,0,0:0:0:0:
320,192,94658,1,0,0:0:0:0:
448,192,94658,1,0,0:0:0:0:
192,192,94719,1,0,0:0:0:0:
64,192,94781,1,0,0:0:0:0:
320,192,94842,1,0,0:0:0:0:
192,192,94903,1,0,0:0:0:0:
448,192,94903,1,0,0:0:0:0:
64,192,94965,1,0,0:0:0:0:
320,192,95026,1,0,0:0:0:0:
448,192,95087,1,0,0:0:0:0:
64,192,95149,1,0,0:0:0:0:
192,192,95149,1,0,0:0:0:0:
320,192,95210,1,0,0:0:0:0:
64,192,95271,1,0,0:0:0:0:
192,192,95332,1,0,0:0:0:0:
320,192,95394,1,0,0:0:0:0:
448,192,95394,1,0,0:0:0:0:
64,192,95455,1,0,0:0:0:0:
320,192,95516,1,0,0:0:0:0:
192,192,95578,1,0,0:0:0:0:
64,192,95639,1,0,0:0:0:0:
448,192,95639,1,0,0:0:0:0:
320,192,95700,1,0,0:0:0:0:
448,192,95762,1,0,0:0:0:0:
192,192,95823,1,0,0:0:0:0:
64,0,95884,128,0,95900:1:0:0:0:
320,0,95884,128,0,95900:1:0:0:0:
448,192,95946,1,0,0:0:0:0:
192,192,96007,1,0,0:0:0:0:
320,192,96007,1,0,0:0:0:0:
64,192,96068,1,0,0:0:0:0:
320,192,96131,1,0,0:0:0:0:
448,192,96131,1,0,0:0:0:0:
192,192,96252,1,0,0:0:0:0:
448,192,96252,1,0,0:0:0:0:
64,192,96313,1,0,0:0:0:0:
192,192,96375,1,0,0:0:0:0:
320,192,96375,1,0,0:0:0:0:
448,192,96436,1,0,0:0:0:0:
64,192,96497,1,0,0:0:0:0:
320,192,96497,1,0,0:0:0:0:
64,192,96620,1,0,0:0:0:0:
192,192,96620,1,0,0:0:0:0:
448,192,96681,1,0,0:0:0:0:
64,192,96743,1,0,0:0:0:0:
320,192,96743,1,0,0:0:0:0:
192,192,96804,1,0,0:0:0:0:
320,192,96865,1,0,0:0:0:0:
448,192,96865,1,0,0:0:0:0:
192,192,96988,1,0,0:0:0:0:
448,192,96988,1,0,0:0:0:0:
64,192,97049,1,0,0:0:0:0:
192,192,97112,1,0,0:0:0:0:
320,192,97112,1,0,0:0:0:0:
64,192,97172,1,0,0:0:0:0:
192,192,97233,1,0,0:0:0:0:
448,192,97233,1,0,0:0:0:0:
64,192,97356,1,0,0:0:0:0:
320,192,97356,1,0,0:0:0:0:
448,192,97417,1,0,0:0:0:0:
192,192,97478,1,0,0:0:0:0:
320,192,97478,1,0,0:0:0:0:
64,192,97540,1,0,0:0:0:0:
320,192,97601,1,0,0:0:0:0:
448,192,97601,1,0,0:0:0:0:
64,192,97662,1,0,0:0:0:0:
192,192,97724,1,0,0:0:0:0:
448,192,97724,1,0,0:0:0:0:
64,192,97785,1,0,0:0:0:0:
320,192,97785,1,0,0:0:0:0:
192,192,97846,1,0,0:0:0:0:
448,192,97846,1,0,0:0:0:0:
320,192,97908,1,0,0:0:0:0:
64,192,97969,1,0,0:0:0:0:
448,192,97969,1,0,0:0:0:0:
192,192,98030,1,0,0:0:0:0:
64,192,98093,1,0,0:0:0:0:
320,192,98093,1,0,0:0:0:0:
64,192,98214,1,0,0:0:0:0:
192,192,98214,1,0,0:0:0:0:
448,192,98275,1,0,0:0:0:0:
192,192,98337,1,0,0:0:0:0:
320,192,98337,1,0,0:0:0:0:
64,192,98398,1,0,0:0:0:0:
192,192,98459,1,0,0:0:0:0:
448,192,98459,1,0,0:0:0:0:
64,192,98582,1,0,0:0:0:0:
320,192,98582,1,0,0:0:0:0:
448,192,98643,1,0,0:0:0:0:
192,192,98705,1,0,0:0:0:0:
320,192,98705,1,0,0:0:0:0:
64,192,98766,1,0,0:0:0:0:
320,0,98827,128,0,98844:1:0:0:0:
448,0,98827,128,0,98844:1:0:0:0:
192,192,98950,1,0,0:0:0:0:
448,192,98950,1,0,0:0:0:0:
64,192,99011,1,0,0:0:0:0:
192,192,99074,1,0,0:0:0:0:
320,192,99074,1,0,0:0:0:0:
448,192,99134,1,0,0:0:0:0:
64,192,99195,1,0,0:0:0:0:
320,192,99195,1,0,0:0:0:0:
64,192,99318,1,0,0:0:0:0:
192,192,99318,1,0,0:0:0:0:
448,192,99379,1,0,0:0:0:0:
192,192,99440,1,0,0:0:0:0:
320,192,99440,1,0,0:0:0:0:
64,192,99502,1,0,0:0:0:0:
192,192,99563,1,0,0:0:0:0:
448,192,99563,1,0,0:0:0:0:
64,192,99624,1,0,0:0:0:0:
320,192,99624,1,0,0:0:0:0:
192,192,99686,1,0,0:0:0:0:
448,192,99686,1,0,0:0:0:0:
320,192,99747,1,0,0:0:0:0:
64,192,99808,1,0,0:0:0:0:
192,192,99808,1,0,0:0:0:0:
448,192,99871,1,0,0:0:0:0:
64,192,99931,1,0,0:0:0:0:
320,192,99931,1,0,0:0:0:0:
448,192,99992,1,0,0:0:0:0:
192,0,100055,128,0,100069:1:0:0:0:
320,0,100055,128,0,100069:1:0:0:0:
64,192,100176,1,0,0:0:0:0:
192,192,100176,1,0,0:0:0:0:
448,192,100237,1,0,0:0:0:0:
64,192,100299,1,0,0:0:0:0:
320,192,100299,1,0,0:0:0:0:
192,192,100360,1,0,0:0:0:0:
320,192,100421,1,0,0:0:0:0:
448,192,100421,1,0,0:0:0:0:
64,192,100544,1,0,0:0:0:0:
192,192,100544,1,0,0:0:0:0:
448,192,100605,1,0,0:0:0:0:
192,192,100668,1,0,0:0:0:0:
320,192,100668,1,0,0:0:0:0:
64,192,100728,1,0,0:0:0:0:
192,192,100789,1,0,0:0:0:0:
448,192,100789,1,0,0:0:0:0:
320,192,100912,1,0,0:0:0:0:
448,192,100912,1,0,0:0:0:0:
64,192,100973,1,0,0:0:0:0:
192,192,101036,1,0,0:0:0:0:
320,192,101036,1,0,0:0:0:0:
448,192,101096,1,0,0:0:0:0:
64,192,101157,1,0,0:0:0:0:
320,192,101157,1,0,0:0:0:0:
64,192,101280,1,0,0:0:0:0:
192,192,101280,1,0,0:0:0:0:
448,192,101341,1,0,0:0:0:0:
64,192,101402,1,0,0:0:0:0:
320,192,101402,1,0,0:0:0:0:
192,192,101464,1,0,0:0:0:0:
320,192,101525,1,0,0:0:0:0:
448,192,101525,1,0,0:0:0:0:
64,192,101586,1,0,0:0:0:0:
192,192,101649,1,0,0:0:0:0:
448,192,101709,1,0,0:0:0:0:
64,0,101770,128,0,101787:1:0:0:0:
320,0,101770,128,0,101787:1:0:0:0:
192,192,101833,1,0,0:0:0:0:
320,192,101893,1,0,0:0:0:0:
448,192,101893,1,0,0:0:0:0:
64,192,101954,1,0,0:0:0:0:
192,192,102017,1,0,0:0:0:0:
448,192,102017,1,0,0:0:0:0:
64,192,102138,1,0,0:0:0:0:
320,192,102138,1,0,0:0:0:0:
192,192,102199,1,0,0:0:0:0:
64,192,102261,1,0,0:0:0:0:
448,192,102261,1,0,0:0:0:0:
320,192,102322,1,0,0:0:0:0:
192,192,102383,1,0,0:0:0:0:
448,192,102383,1,0,0:0:0:0:
64,192,102506,1,0,0:0:0:0:
320,192,102506,1,0,0:0:0:0:
448,192,102567,1,0,0:0:0:0:
192,192,102630,1,0,0:0:0:0:
64,192,102690,1,0,0:0:0:0:
320,192,102757,1,0,0:0:0:0:
448,192,102757,1,0,0:0:0:0:
192,192,102819,1,0,0:0:0:0:
64,192,102880,1,0,0:0:0:0:
320,192,102941,1,0,0:0:0:0:
192,192,103003,1,0,0:0:0:0:
448,192,103003,1,0,0:0:0:0:
64,192,103064,1,0,0:0:0:0:
192,192,103125,1,0,0:0:0:0:
448,192,103187,1,0,0:0:0:0:
64,192,103248,1,0,0:0:0:0:
320,192,103248,1,0,0:0:0:0:
192,192,103309,1,0,0:0:0:0:
64,192,103371,1,0,0:0:0:0:
448,192,103432,1,0,0:0:0:0:
192,192,103493,1,0,0:0:0:0:
320,192,103493,1,0,0:0:0:0:
64,192,103554,1,0,0:0:0:0:
320,192,103616,1,0,0:0:0:0:
448,192,103677,1,0,0:0:0:0:
64,0,103738,128,0,103759:1:0:0:0:
192,0,103738,128,0,103759:1:0:0:0:
320,192,103800,1,0,0:0:0:0:
64,192,103861,1,0,0:0:0:0:
448,192,103861,1,0,0:0:0:0:
320,192,103922,1,0,0:0:0:0:
192,192,103984,1,0,0:0:0:0:
448,192,103984,1,0,0:0:0:0:
64,192,104100,1,0,0:0:0:0:
192,192,104100,1,0,0:0:0:0:
320,192,104161,1,0,0:0:0:0:
64,192,104223,1,0,0:0:0:0:
448,192,104223,1,0,0:0:0:0:
192,192,104284,1,0,0:0:0:0:
320,192,104345,1,0,0:0:0:0:
448,192,104345,1,0,0:0:0:0:
64,192,104468,1,0,0:0:0:0:
320,192,104468,1,0,0:0:0:0:
192,192,104529,1,0,0:0:0:0:
320,192,104592,1,0,0:0:0:0:
448,192,104592,1,0,0:0:0:0:
64,192,104652,1,0,0:0:0:0:
192,192,104713,1,0,0:0:0:0:
448,192,104713,1,0,0:0:0:0:
64,192,104836,1,0,0:0:0:0:
192,192,104836,1,0,0:0:0:0:
320,192,104897,1,0,0:0:0:0:
64,192,104960,1,0,0:0:0:0:
448,192,104960,1,0,0:0:0:0:
320,192,105020,1,0,0:0:0:0:
64,192,105081,1,0,0:0:0:0:
192,192,105081,1,0,0:0:0:0:
320,192,105205,1,0,0:0:0:0:
448,192,105205,1,0,0:0:0:0:
192,192,105265,1,0,0:0:0:0:
320,192,105326,1,0,0:0:0:0:
448,192,105326,1,0,0:0:0:0:
64,192,105389,1,0,0:0:0:0:
192,192,105449,1,0,0:0:0:0:
448,192,105449,1,0,0:0:0:0:
320,192,105510,1,0,0:0:0:0:
64,192,105573,1,0,0:0:0:0:
192,192,105573,1,0,0:0:0:0:
320,192,105633,1,0,0:0:0:0:
448,192,105633,1,0,0:0:0:0:
64,192,105694,1,0,0:0:0:0:
192,192,105694,1,0,0:0:0:0:
448,192,105757,1,0,0:0:0:0:
192,192,105817,1,0,0:0:0:0:
320,192,105817,1,0,0:0:0:0:
64,192,105878,1,0,0:0:0:0:
320,192,105941,1,0,0:0:0:0:
448,192,105941,1,0,0:0:0:0:
64,192,106062,1,0,0:0:0:0:
320,192,106062,1,0,0:0:0:0:
192,192,106123,1,0,0:0:0:0:
64,192,106186,1,0,0:0:0:0:
448,192,106186,1,0,0:0:0:0:
320,192,106246,1,0,0:0:0:0:
64,192,106307,1,0,0:0:0:0:
192,192,106307,1,0,0:0:0:0:
320,192,106430,1,0,0:0:0:0:
448,192,106430,1,0,0:0:0:0:
192,192,106491,1,0,0:0:0:0:
64,192,106554,1,0,0:0:0:0:
448,192,106554,1,0,0:0:0:0:
320,192,106614,1,0,0:0:0:0:
192,192,106675,1,0,0:0:0:0:
448,192,106675,1,0,0:0:0:0:
64,192,106798,1,0,0:0:0:0:
192,192,106798,1,0,0:0:0:0:
320,192,106859,1,0,0:0:0:0:
64,192,106922,1,0,0:0:0:0:
448,192,106922,1,0,0:0:0:0:
192,192,106982,1,0,0:0:0:0:
320,192,107043,1,0,0:0:0:0:
448,192,107043,1,0,0:0:0:0:
64,192,107167,1,0,0:0:0:0:
320,192,107167,1,0,0:0:0:0:
192,192,107227,1,0,0:0:0:0:
64,192,107288,1,0,0:0:0:0:
448,192,107288,1,0,0:0:0:0:
320,192,107351,1,0,0:0:0:0:
64,192,107411,1,0,0:0:0:0:
192,192,107411,1,0,0:0:0:0:
320,192,107472,1,0,0:0:0:0:
448,192,107472,1,0,0:0:0:0:
64,192,107535,1,0,0:0:0:0:
192,192,107535,1,0,0:0:0:0:
448,192,107595,1,0,0:0:0:0:
64,0,107656,128,0,107673:1:0:0:0:
320,0,107656,128,0,107673:1:0:0:0:
192,192,107719,1,0,0:0:0:0:
320,192,107779,1,0,0:0:0:0:
448,192,107779,1,0,0:0:0:0:
192,192,107840,1,0,0:0:0:0:
64,192,107903,1,0,0:0:0:0:
448,192,107903,1,0,0:0:0:0:
64,192,108024,1,0,0:0:0:0:
320,192,108024,1,0,0:0:0:0:
192,192,108085,1,0,0:0:0:0:
320,192,108148,1,0,0:0:0:0:
448,192,108148,1,0,0:0:0:0:
64,192,108208,1,0,0:0:0:0:
192,192,108269,1,0,0:0:0:0:
448,192,108269,1,0,0:0:0:0:
64,192,108392,1,0,0:0:0:0:
320,192,108392,1,0,0:0:0:0:
192,192,108453,1,0,0:0:0:0:
64,192,108516,1,0,0:0:0:0:
448,192,108516,1,0,0:0:0:0:
320,192,108576,1,0,0:0:0:0:
64,192,108637,1,0,0:0:0:0:
192,192,108637,1,0,0:0:0:0:
192,192,108760,1,0,0:0:0:0:
448,192,108760,1,0,0:0:0:0:
320,192,108821,1,0,0:0:0:0:
64,192,108884,1,0,0:0:0:0:
448,192,108884,1,0,0:0:0:0:
192,192,108945,1,0,0:0:0:0:
320,192,109005,1,0,0:0:0:0:
448,192,109005,1,0,0:0:0:0:
64,192,109129,1,0,0:0:0:0:
320,192,109129,1,0,0:0:0:0:
192,192,109189,1,0,0:0:0:0:
320,192,109250,1,0,0:0:0:0:
448,192,109250,1,0,0:0:0:0:
64,192,109313,1,0,0:0:0:0:
192,192,109373,1,0,0:0:0:0:
448,192,109373,1,0,0:0:0:0:
320,192,109434,1,0,0:0:0:0:
64,192,109497,1,0,0:0:0:0:
192,192,109557,1,0,0:0:0:0:
320,192,109618,1,0,0:0:0:0:
448,192,109618,1,0,0:0:0:0:
64,192,109681,1,0,0:0:0:0:
192,192,109742,1,0,0:0:0:0:
448,192,109742,1,0,0:0:0:0:
320,192,109802,1,0,0:0:0:0:
64,0,109865,128,0,109880:1:0:0:0:
192,0,109865,128,0,109880:1:0:0:0:
320,192,109986,1,0,0:0:0:0:
448,192,109986,1,0,0:0:0:0:
64,192,110047,1,0,0:0:0:0:
192,192,110110,1,0,0:0:0:0:
320,192,110110,1,0,0:0:0:0:
448,192,110170,1,0,0:0:0:0:
64,192,110231,1,0,0:0:0:0:
192,192,110231,1,0,0:0:0:0:
320,192,110354,1,0,0:0:0:0:
448,192,110354,1,0,0:0:0:0:
192,192,110415,1,0,0:0:0:0:
64,192,110478,1,0,0:0:0:0:
320,192,110538,1,0,0:0:0:0:
192,192,110599,1,0,0:0:0:0:
448,192,110599,1,0,0:0:0:0:
64,192,110662,1,0,0:0:0:0:
320,192,110723,1,0,0:0:0:0:
448,192,110783,1,0,0:0:0:0:
64,192,110846,1,0,0:0:0:0:
192,192,110846,1,0,0:0:0:0:
320,192,110907,1,0,0:0:0:0:
64,192,110967,1,0,0:0:0:0:
192,192,111028,1,0,0:0:0:0:
320,192,111091,1,0,0:0:0:0:
448,192,111091,1,0,0:0:0:0:
64,192,111151,1,0,0:0:0:0:
320,192,111212,1,0,0:0:0:0:
192,192,111275,1,0,0:0:0:0:
64,192,111335,1,0,0:0:0:0:
448,192,111335,1,0,0:0:0:0:
320,192,111396,1,0,0:0:0:0:
448,192,111459,1,0,0:0:0:0:
192,192,111519,1,0,0:0:0:0:
64,0,111580,128,0,111597:1:0:0:0:
448,0,111580,128,0,111597:1:0:0:0:
320,192,111643,1,0,0:0:0:0:
192,192,111704,1,0,0:0:0:0:
448,192,111704,1,0,0:0:0:0:
64,192,111764,1,0,0:0:0:0:
192,192,111827,1,0,0:0:0:0:
320,192,111827,1,0,0:0:0:0:
448,192,111888,1,0,0:0:0:0:
64,192,111948,1,0,0:0:0:0:
192,192,111948,1,0,0:0:0:0:
320,192,112009,1,0,0:0:0:0:
64,192,112072,1,0,0:0:0:0:
448,192,112072,1,0,0:0:0:0:
192,192,112132,1,0,0:0:0:0:
64,192,112193,1,0,0:0:0:0:
320,192,112193,1,0,0:0:0:0:
448,192,112256,1,0,0:0:0:0:
192,192,112316,1,0,0:0:0:0:
320,192,112316,1,0,0:0:0:0:
64,192,112377,1,0,0:0:0:0:
192,192,112440,1,0,0:0:0:0:
448,192,112440,1,0,0:0:0:0:
320,192,112501,1,0,0:0:0:0:
64,192,112561,1,0,0:0:0:0:
448,192,112561,1,0,0:0:0:0:
192,192,112685,1,0,0:0:0:0:
320,192,112685,1,0,0:0:0:0:
448,192,112745,1,0,0:0:0:0:
64,192,112808,1,0,0:0:0:0:
192,192,112808,1,0,0:0:0:0:
320,192,112869,1,0,0:0:0:0:
64,192,112929,1,0,0:0:0:0:
448,192,112929,1,0,0:0:0:0:
64,192,113053,1,0,0:0:0:0:
192,192,113053,1,0,0:0:0:0:
320,192,113113,1,0,0:0:0:0:
192,192,113174,1,0,0:0:0:0:
448,192,113174,1,0,0:0:0:0:
320,192,113237,1,0,0:0:0:0:
64,192,113297,1,0,0:0:0:0:
448,192,113297,1,0,0:0:0:0:
64,192,113421,1,0,0:0:0:0:
192,192,113421,1,0,0:0:0:0:
448,192,113482,1,0,0:0:0:0:
64,192,113542,1,0,0:0:0:0:
320,192,113542,1,0,0:0:0:0:
448,192,113605,1,0,0:0:0:0:
192,192,113666,1,0,0:0:0:0:
320,192,113666,1,0,0:0:0:0:
64,192,113726,1,0,0:0:0:0:
192,192,113789,1,0,0:0:0:0:
448,192,113789,1,0,0:0:0:0:
320,192,113850,1,0,0:0:0:0:
64,192,113910,1,0,0:0:0:0:
448,192,113910,1,0,0:0:0:0:
192,192,113971,1,0,0:0:0:0:
320,192,114034,1,0,0:0:0:0:
448,192,114034,1,0,0:0:0:0:
192,192,114094,1,0,0:0:0:0:
64,192,114155,1,0,0:0:0:0:
448,192,114155,1,0,0:0:0:0:
320,192,114218,1,0,0:0:0:0:
64,192,114279,1,0,0:0:0:0:
192,192,114279,1,0,0:0:0:0:
320,192,114339,1,0,0:0:0:0:
64,192,114402,1,0,0:0:0:0:
448,192,114402,1,0,0:0:0:0:
192,192,114463,1,0,0:0:0:0:
320,0,114523,128,0,114540:1:0:0:0:
448,0,114523,128,0,114540:1:0:0:0:
64,192,114647,1,0,0:0:0:0:
320,192,114647,1,0,0:0:0:0:
192,192,114707,1,0,0:0:0:0:
320,192,114770,1,0,0:0:0:0:
448,192,114770,1,0,0:0:0:0:
64,192,114831,1,0,0:0:0:0:
192,192,114891,1,0,0:0:0:0:
448,192,114891,1,0,0:0:0:0:
320,192,115015,1,0,0:0:0:0:
448,192,115015,1,0,0:0:0:0:
192,192,115075,1,0,0:0:0:0:
64,192,115136,1,0,0:0:0:0:
320,192,115136,1,0,0:0:0:0:
448,192,115199,1,0,0:0:0:0:
64,192,115260,1,0,0:0:0:0:
192,192,115260,1,0,0:0:0:0:
320,192,115320,1,0,0:0:0:0:
448,192,115383,1,0,0:0:0:0:
64,192,115444,1,0,0:0:0:0:
320,0,115504,128,0,115521:1:0:0:0:
448,0,115504,128,0,115521:1:0:0:0:
192,192,115567,1,0,0:0:0:0:
64,192,115628,1,0,0:0:0:0:
448,192,115628,1,0,0:0:0:0:
320,192,115688,1,0,0:0:0:0:
64,192,115751,1,0,0:0:0:0:
192,192,115751,1,0,0:0:0:0:
320,192,115812,1,0,0:0:0:0:
64,192,115872,1,0,0:0:0:0:
448,192,115872,1,0,0:0:0:0:
192,192,115933,1,0,0:0:0:0:
320,192,115996,1,0,0:0:0:0:
448,192,115996,1,0,0:0:0:0:
192,192,116056,1,0,0:0:0:0:
64,192,116117,1,0,0:0:0:0:
448,192,116117,1,0,0:0:0:0:
320,192,116180,1,0,0:0:0:0:
64,192,116241,1,0,0:0:0:0:
192,192,116241,1,0,0:0:0:0:
320,192,116301,1,0,0:0:0:0:
192,192,116364,1,0,0:0:0:0:
448,192,116364,1,0,0:0:0:0:
64,192,116425,1,0,0:0:0:0:
320,192,116485,1,0,0:0:0:0:
448,192,116485,1,0,0:0:0:0:
192,192,116548,1,0,0:0:0:0:
64,192,116609,1,0,0:0:0:0:
448,192,116609,1,0,0:0:0:0:
192,192,116669,1,0,0:0:0:0:
320,192,116732,1,0,0:0:0:0:
448,192,116732,1,0,0:0:0:0:
192,192,116793,1,0,0:0:0:0:
64,192,116853,1,0,0:0:0:0:
320,192,116853,1,0,0:0:0:0:
448,192,116914,1,0,0:0:0:0:
192,192,116977,1,0,0:0:0:0:
320,192,116977,1,0,0:0:0:0:
64,192,117038,1,0,0:0:0:0:
192,192,117098,1,0,0:0:0:0:
448,192,117098,1,0,0:0:0:0:
320,192,117161,1,0,0:0:0:0:
64,192,117222,1,0,0:0:0:0:
448,192,117222,1,0,0:0:0:0:
320,192,117282,1,0,0:0:0:0:
64,192,117345,1,0,0:0:0:0:
192,192,117345,1,0,0:0:0:0:
448,192,117406,1,0,0:0:0:0:
64,192,117466,1,0,0:0:0:0:
192,192,117488,1,0,0:0:0:0:
320,192,117529,1,0,0:0:0:0:
448,192,117549,1,0,0:0:0:0:
64,192,117590,1,0,0:0:0:0:
192,192,117609,1,0,0:0:0:0:
320,192,117650,1,0,0:0:0:0:
448,192,117672,1,0,0:0:0:0:
64,192,117713,1,0,0:0:0:0:
192,192,117733,1,0,0:0:0:0:
320,192,117774,1,0,0:0:0:0:
448,192,117793,1,0,0:0:0:0:
64,192,117834,1,0,0:0:0:0:
192,192,117856,1,0,0:0:0:0:
320,192,117895,1,0,0:0:0:0:
448,192,117917,1,0,0:0:0:0:
64,192,117958,1,0,0:0:0:0:
192,192,117977,1,0,0:0:0:0:
320,192,118019,1,0,0:0:0:0:
448,192,118040,1,0,0:0:0:0:
64,192,118079,1,0,0:0:0:0:
192,192,118101,1,0,0:0:0:0:
320,192,118142,1,0,0:0:0:0:
448,192,118161,1,0,0:0:0:0:
64,192,118203,1,0,0:0:0:0:
192,192,118222,1,0,0:0:0:0:
320,192,118263,1,0,0:0:0:0:
448,192,118285,1,0,0:0:0:0:
64,192,118326,1,0,0:0:0:0:
192,192,118346,1,0,0:0:0:0:
320,192,118387,1,0,0:0:0:0:
448,192,118406,1,0,0:0:0:0:
64,192,118447,1,0,0:0:0:0:
192,192,118469,1,0,0:0:0:0:
320,192,118510,1,0,0:0:0:0:
448,192,118530,1,0,0:0:0:0:
64,192,118571,1,0,0:0:0:0:
192,192,118590,1,0,0:0:0:0:
320,192,118631,1,0,0:0:0:0:
448,192,118653,1,0,0:0:0:0:
64,192,118694,1,0,0:0:0:0:
192,192,118714,1,0,0:0:0:0:
320,192,118755,1,0,0:0:0:0:
448,192,118774,1,0,0:0:0:0:
64,192,118816,1,0,0:0:0:0:
192,192,118837,1,0,0:0:0:0:
320,192,118876,1,0,0:0:0:0:
448,192,118898,1,0,0:0:0:0:
64,192,118939,1,0,0:0:0:0:
192,192,118954,1,0,0:0:0:0:
448,192,119000,1,0,0:0:0:0:
320,192,119014,1,0,0:0:0:0:
64,192,119060,1,0,0:0:0:0:
192,192,119077,1,0,0:0:0:0:
448,192,119123,1,0,0:0:0:0:
320,192,119138,1,0,0:0:0:0:
64,192,119184,1,0,0:0:0:0:
192,192,119198,1,0,0:0:0:0:
448,192,119244,1,0,0:0:0:0:
320,192,119261,1,0,0:0:0:0:
64,192,119307,1,0,0:0:0:0:
192,192,119322,1,0,0:0:0:0:
448,192,119368,1,0,0:0:0:0:
320,192,119382,1,0,0:0:0:0:
64,192,119428,1,0,0:0:0:0:
192,192,119428,1,0,0:0:0:0:
