osu file format v14

[General]
AudioFilename: MEGALOMANIA.mp3
AudioLeadIn: 0
PreviewTime: -1
Countdown: 1
SampleSet: Soft
StackLeniency: 0.7
Mode: 0
LetterboxInBreaks: 1
WidescreenStoryboard: 1

[Editor]
Bookmarks: 45326,88882,120882,152882,209771
DistanceSpacing: 0.8
BeatDivisor: 4
GridSize: 16
TimelineZoom: 2.899999

[Metadata]
Title:Burst Stream Practice Maps 2
TitleUnicode:Burst Stream Practice Maps 2
Artist:Various Artists
ArtistUnicode:Various Artists
Creator:nooblet
Version:270 BPM 8 notes
Source:
Tags:
BeatmapID:1022621
BeatmapSetID:478861

[Difficulty]
HPDrainRate:0
CircleSize:4
OverallDifficulty:10
ApproachRate:10
SliderMultiplier:1.4
SliderTickRate:1

[Events]
//Background and Video events
//Break Periods
2,89023,91987
2,121023,123987
2,153023,166654
2,209912,212876
//Storyboard Layer 0 (Background)
//Storyboard Layer 1 (Fail)
//Storyboard Layer 2 (Pass)
//Storyboard Layer 3 (Foreground)
//Storyboard Sound Samples

[TimingPoints]
2660,222.222222222222,4,2,0,100,1,0

[HitObjects]
128,64,16882,5,2,0:0:0:0:
144,64,16937,1,0,0:0:0:0:
160,64,16993,1,0,0:0:0:0:
176,64,17048,1,0,0:0:0:0:
192,64,17104,1,2,0:0:0:0:
208,64,17159,1,0,0:0:0:0:
224,64,17215,1,0,0:0:0:0:
240,64,17271,1,0,0:0:0:0:
256,64,17326,2,0,L|304:64,3,35,2|0|0|0,0:0|0:0|0:0|0:0,0:0:0:0:
320,64,17548,2,0,L|368:64,3,35,2|0|0|0,0:0|0:0|0:0|0:0,0:0:0:0:
384,64,17771,5,2,0:0:0:0:
384,80,17826,1,0,0:0:0:0:
384,96,17882,1,0,0:0:0:0:
384,112,17937,1,0,0:0:0:0:
384,128,17993,1,2,0:0:0:0:
384,144,18048,1,0,0:0:0:0:
384,160,18104,1,0,0:0:0:0:
384,176,18160,1,0,0:0:0:0:
384,192,18215,2,0,L|384:240,3,35,2|0|0|0,0:0|0:0|0:0|0:0,0:0:0:0:
384,256,18437,2,0,L|384:304,3,35,2|0|0|0,0:0|0:0|0:0|0:0,0:0:0:0:
384,320,18659,5,2,0:0:0:0:
368,320,18714,1,0,0:0:0:0:
352,320,18770,1,0,0:0:0:0:
336,320,18825,1,0,0:0:0:0:
320,320,18881,1,2,0:0:0:0:
304,320,18936,1,0,0:0:0:0:
288,320,18992,1,0,0:0:0:0:
272,320,19048,1,0,0:0:0:0:
256,320,19103,2,0,L|208:320,3,35,2|0|0|0,0:0|0:0|0:0|0:0,0:0:0:0:
192,320,19325,2,0,L|144:320,3,35,2|0|0|0,0:0|0:0|0:0|0:0,0:0:0:0:
128,320,19548,5,2,0:0:0:0:
128,304,19603,1,0,0:0:0:0:
128,288,19659,1,0,0:0:0:0:
128,272,19714,1,0,0:0:0:0:
128,256,19770,1,2,0:0:0:0:
128,240,19825,1,0,0:0:0:0:
128,224,19881,1,0,0:0:0:0:
128,207,19937,1,0,0:0:0:0:
128,192,19992,2,0,L|128:144,3,35,2|0|0|0,0:0|0:0|0:0|0:0,0:0:0:0:
128,128,20214,2,0,L|128:80,3,35,2|0|0|0,0:0|0:0|0:0|0:0,0:0:0:0:
128,64,20437,5,2,0:0:0:0:
144,64,20492,1,0,0:0:0:0:
160,64,20548,1,0,0:0:0:0:
176,64,20603,1,0,0:0:0:0:
192,64,20659,1,2,0:0:0:0:
208,64,20714,1,0,0:0:0:0:
224,64,20770,1,0,0:0:0:0:
240,64,20826,1,0,0:0:0:0:
256,64,20881,2,0,L|304:64,3,35,2|0|0|0,0:0|0:0|0:0|0:0,0:0:0:0:
320,64,21103,2,0,L|368:64,3,35,2|0|0|0,0:0|0:0|0:0|0:0,0:0:0:0:
384,64,21326,5,2,0:0:0:0:
384,80,21381,1,0,0:0:0:0:
384,96,21437,1,0,0:0:0:0:
384,112,21492,1,0,0:0:0:0:
384,128,21548,1,2,0:0:0:0:
384,144,21603,1,0,0:0:0:0:
384,160,21659,1,0,0:0:0:0:
384,176,21715,1,0,0:0:0:0:
384,192,21770,2,0,L|384:240,3,35,2|0|0|0,0:0|0:0|0:0|0:0,0:0:0:0:
384,256,21992,2,0,L|384:304,3,35,2|0|0|0,0:0|0:0|0:0|0:0,0:0:0:0:
384,320,22214,5,2,0:0:0:0:
368,320,22269,1,0,0:0:0:0:
352,320,22325,1,0,0:0:0:0:
336,320,22380,1,0,0:0:0:0:
320,320,22436,1,2,0:0:0:0:
304,320,22491,1,0,0:0:0:0:
288,320,22547,1,0,0:0:0:0:
272,320,22603,1,0,0:0:0:0:
256,320,22658,2,0,L|208:320,3,35,2|0|0|0,0:0|0:0|0:0|0:0,0:0:0:0:
192,320,22880,2,0,L|144:320,3,35,2|0|0|0,0:0|0:0|0:0|0:0,0:0:0:0:
128,320,23103,5,2,0:0:0:0:
128,304,23158,1,0,0:0:0:0:
128,288,23214,1,0,0:0:0:0:
128,272,23269,1,0,0:0:0:0:
128,256,23325,1,2,0:0:0:0:
128,240,23380,1,0,0:0:0:0:
128,224,23436,1,0,0:0:0:0:
128,207,23492,1,0,0:0:0:0:
128,192,23547,2,0,L|128:144,3,35,2|0|0|0,0:0|0:0|0:0|0:0,0:0:0:0:
128,128,23769,2,0,L|128:80,3,35,2|0|0|0,0:0|0:0|0:0|0:0,0:0:0:0:
128,64,23993,5,2,0:0:0:0:
144,64,24048,1,0,0:0:0:0:
160,64,24104,1,0,0:0:0:0:
176,64,24159,1,0,0:0:0:0:
192,64,24215,1,2,0:0:0:0:
208,64,24270,1,0,0:0:0:0:
224,64,24326,1,0,0:0:0:0:
240,64,24382,1,0,0:0:0:0:
256,64,24437,2,0,L|304:64,3,35,2|0|0|0,0:0|0:0|0:0|0:0,0:0:0:0:
320,64,24659,2,0,L|368:64,3,35,2|0|0|0,0:0|0:0|0:0|0:0,0:0:0:0:
384,64,24882,5,2,0:0:0:0:
384,80,24937,1,0,0:0:0:0:
384,96,24993,1,0,0:0:0:0:
384,112,25048,1,0,0:0:0:0:
384,128,25104,1,2,0:0:0:0:
384,144,25159,1,0,0:0:0:0:
384,160,25215,1,0,0:0:0:0:
384,176,25271,1,0,0:0:0:0:
384,192,25326,2,0,L|384:240,3,35,2|0|0|0,0:0|0:0|0:0|0:0,0:0:0:0:
384,256,25548,2,0,L|384:304,3,35,2|0|0|0,0:0|0:0|0:0|0:0,0:0:0:0:
384,320,25770,5,2,0:0:0:0:
368,320,25825,1,0,0:0:0:0:
352,320,25881,1,0,0:0:0:0:
336,320,25936,1,0,0:0:0:0:
320,320,25992,1,2,0:0:0:0:
304,320,26047,1,0,0:0:0:0:
288,320,26103,1,0,0:0:0:0:
272,320,26159,1,0,0:0:0:0:
256,320,26214,2,0,L|208:320,3,35,2|0|0|0,0:0|0:0|0:0|0:0,0:0:0:0:
192,320,26436,2,0,L|144:320,3,35,2|0|0|0,0:0|0:0|0:0|0:0,0:0:0:0:
128,320,26659,5,2,0:0:0:0:
128,304,26714,1,0,0:0:0:0:
128,288,26770,1,0,0:0:0:0:
128,272,26825,1,0,0:0:0:0:
128,256,26881,1,2,0:0:0:0:
128,240,26936,1,0,0:0:0:0:
128,224,26992,1,0,0:0:0:0:
128,207,27048,1,0,0:0:0:0:
128,192,27103,2,0,L|128:144,3,35,2|0|0|0,0:0|0:0|0:0|0:0,0:0:0:0:
128,128,27325,2,0,L|128:80,3,35,2|0|0|0,0:0|0:0|0:0|0:0,0:0:0:0:
128,64,27548,5,2,0:0:0:0:
144,64,27603,1,0,0:0:0:0:
160,64,27659,1,0,0:0:0:0:
176,64,27714,1,0,0:0:0:0:
192,64,27770,1,2,0:0:0:0:
208,64,27825,1,0,0:0:0:0:
224,64,27881,1,0,0:0:0:0:
240,64,27937,1,0,0:0:0:0:
256,64,27992,2,0,L|304:64,3,35,2|0|0|0,0:0|0:0|0:0|0:0,0:0:0:0:
320,64,28214,2,0,L|368:64,3,35,2|0|0|0,0:0|0:0|0:0|0:0,0:0:0:0:
384,64,28437,5,2,0:0:0:0:
384,80,28492,1,0,0:0:0:0:
384,96,28548,1,0,0:0:0:0:
384,112,28603,1,0,0:0:0:0:
384,128,28659,1,2,0:0:0:0:
384,144,28714,1,0,0:0:0:0:
384,160,28770,1,0,0:0:0:0:
384,176,28826,1,0,0:0:0:0:
384,192,28881,2,0,L|384:240,3,35,2|0|0|0,0:0|0:0|0:0|0:0,0:0:0:0:
384,256,29103,2,0,L|384:304,3,35,2|0|0|0,0:0|0:0|0:0|0:0,0:0:0:0:
384,320,29325,5,2,0:0:0:0:
368,320,29380,1,0,0:0:0:0:
352,320,29436,1,0,0:0:0:0:
336,320,29491,1,0,0:0:0:0:
320,320,29547,1,2,0:0:0:0:
304,320,29602,1,0,0:0:0:0:
288,320,29658,1,0,0:0:0:0:
272,320,29714,1,0,0:0:0:0:
256,320,29769,2,0,L|208:320,3,35,2|0|0|0,0:0|0:0|0:0|0:0,0:0:0:0:
192,320,29991,2,0,L|144:320,3,35,2|0|0|0,0:0|0:0|0:0|0:0,0:0:0:0:
128,320,30214,5,2,0:0:0:0:
128,304,30269,1,0,0:0:0:0:
128,288,30325,1,0,0:0:0:0:
128,272,30380,1,0,0:0:0:0:
128,256,30436,1,2,0:0:0:0:
128,240,30491,1,0,0:0:0:0:
128,224,30547,1,0,0:0:0:0:
128,207,30603,1,0,0:0:0:0:
128,192,30658,2,0,L|128:144,3,35,2|0|0|0,0:0|0:0|0:0|0:0,0:0:0:0:
128,128,30880,2,0,L|128:80,3,35,2|0|0|0,0:0|0:0|0:0|0:0,0:0:0:0:
128,64,31104,5,2,0:0:0:0:
144,64,31159,1,0,0:0:0:0:
160,64,31215,1,0,0:0:0:0:
176,64,31270,1,0,0:0:0:0:
192,64,31326,1,2,0:0:0:0:
208,64,31381,1,0,0:0:0:0:
224,64,31437,1,0,0:0:0:0:
240,64,31493,1,0,0:0:0:0:
256,64,31548,2,0,L|304:64,3,35,2|0|0|0,0:0|0:0|0:0|0:0,0:0:0:0:
320,64,31770,2,0,L|368:64,3,35,2|0|0|0,0:0|0:0|0:0|0:0,0:0:0:0:
384,64,31993,5,2,0:0:0:0:
384,80,32048,1,0,0:0:0:0:
384,96,32104,1,0,0:0:0:0:
384,112,32159,1,0,0:0:0:0:
384,128,32215,1,2,0:0:0:0:
384,144,32270,1,0,0:0:0:0:
384,160,32326,1,0,0:0:0:0:
384,176,32382,1,0,0:0:0:0:
384,192,32437,2,0,L|384:240,3,35,2|0|0|0,0:0|0:0|0:0|0:0,0:0:0:0:
384,256,32659,2,0,L|384:304,3,35,2|0|0|0,0:0|0:0|0:0|0:0,0:0:0:0:
384,320,32881,5,2,0:0:0:0:
368,320,32936,1,0,0:0:0:0:
352,320,32992,1,0,0:0:0:0:
336,320,33047,1,0,0:0:0:0:
320,320,33103,1,2,0:0:0:0:
304,320,33158,1,0,0:0:0:0:
288,320,33214,1,0,0:0:0:0:
272,320,33270,1,0,0:0:0:0:
256,320,33325,2,0,L|208:320,3,35,2|0|0|0,0:0|0:0|0:0|0:0,0:0:0:0:
192,320,33547,2,0,L|144:320,3,35,2|0|0|0,0:0|0:0|0:0|0:0,0:0:0:0:
128,320,33770,5,2,0:0:0:0:
128,304,33825,1,0,0:0:0:0:
128,288,33881,1,0,0:0:0:0:
128,272,33936,1,0,0:0:0:0:
128,256,33992,1,2,0:0:0:0:
128,240,34047,1,0,0:0:0:0:
128,224,34103,1,0,0:0:0:0:
128,207,34159,1,0,0:0:0:0:
128,192,34214,2,0,L|128:144,3,35,2|0|0|0,0:0|0:0|0:0|0:0,0:0:0:0:
128,128,34436,2,0,L|128:80,3,35,2|0|0|0,0:0|0:0|0:0|0:0,0:0:0:0:
128,64,34659,5,2,0:0:0:0:
144,64,34714,1,0,0:0:0:0:
160,64,34770,1,0,0:0:0:0:
176,64,34825,1,0,0:0:0:0:
192,64,34881,1,2,0:0:0:0:
208,64,34936,1,0,0:0:0:0:
224,64,34992,1,0,0:0:0:0:
240,64,35048,1,0,0:0:0:0:
256,64,35103,2,0,L|304:64,3,35,2|0|0|0,0:0|0:0|0:0|0:0,0:0:0:0:
320,64,35325,2,0,L|368:64,3,35,2|0|0|0,0:0|0:0|0:0|0:0,0:0:0:0:
384,64,35548,5,2,0:0:0:0:
384,80,35603,1,0,0:0:0:0:
384,96,35659,1,0,0:0:0:0:
384,112,35714,1,0,0:0:0:0:
384,128,35770,1,2,0:0:0:0:
384,144,35825,1,0,0:0:0:0:
384,160,35881,1,0,0:0:0:0:
384,176,35937,1,0,0:0:0:0:
384,192,35992,2,0,L|384:240,3,35,2|0|0|0,0:0|0:0|0:0|0:0,0:0:0:0:
384,256,36214,2,0,L|384:304,3,35,2|0|0|0,0:0|0:0|0:0|0:0,0:0:0:0:
384,320,36436,5,2,0:0:0:0:
368,320,36491,1,0,0:0:0:0:
352,320,36547,1,0,0:0:0:0:
336,320,36602,1,0,0:0:0:0:
320,320,36658,1,2,0:0:0:0:
304,320,36713,1,0,0:0:0:0:
288,320,36769,1,0,0:0:0:0:
272,320,36825,1,0,0:0:0:0:
256,320,36880,2,0,L|208:320,3,35,2|0|0|0,0:0|0:0|0:0|0:0,0:0:0:0:
192,320,37102,2,0,L|144:320,3,35,2|0|0|0,0:0|0:0|0:0|0:0,0:0:0:0:
128,320,37325,5,2,0:0:0:0:
128,304,37380,1,0,0:0:0:0:
128,288,37436,1,0,0:0:0:0:
128,272,37491,1,0,0:0:0:0:
128,256,37547,1,2,0:0:0:0:
128,240,37602,1,0,0:0:0:0:
128,224,37658,1,0,0:0:0:0:
128,207,37714,1,0,0:0:0:0:
128,192,37769,2,0,L|128:144,3,35,2|0|0|0,0:0|0:0|0:0|0:0,0:0:0:0:
128,128,37991,2,0,L|128:80,3,35,2|0|0|0,0:0|0:0|0:0|0:0,0:0:0:0:
128,64,38215,5,2,0:0:0:0:
144,64,38270,1,0,0:0:0:0:
160,64,38326,1,0,0:0:0:0:
176,64,38381,1,0,0:0:0:0:
192,64,38437,1,2,0:0:0:0:
208,64,38492,1,0,0:0:0:0:
224,64,38548,1,0,0:0:0:0:
240,64,38604,1,0,0:0:0:0:
256,64,38659,2,0,L|304:64,3,35,2|0|0|0,0:0|0:0|0:0|0:0,0:0:0:0:
320,64,38881,2,0,L|368:64,3,35,2|0|0|0,0:0|0:0|0:0|0:0,0:0:0:0:
384,64,39104,5,2,0:0:0:0:
384,80,39159,1,0,0:0:0:0:
384,96,39215,1,0,0:0:0:0:
384,112,39270,1,0,0:0:0:0:
384,128,39326,1,2,0:0:0:0:
384,144,39381,1,0,0:0:0:0:
384,160,39437,1,0,0:0:0:0:
384,176,39493,1,0,0:0:0:0:
384,192,39548,2,0,L|384:240,3,35,2|0|0|0,0:0|0:0|0:0|0:0,0:0:0:0:
384,256,39770,2,0,L|384:304,3,35,2|0|0|0,0:0|0:0|0:0|0:0,0:0:0:0:
384,320,39992,5,2,0:0:0:0:
368,320,40047,1,0,0:0:0:0:
352,320,40103,1,0,0:0:0:0:
336,320,40158,1,0,0:0:0:0:
320,320,40214,1,2,0:0:0:0:
304,320,40269,1,0,0:0:0:0:
288,320,40325,1,0,0:0:0:0:
272,320,40381,1,0,0:0:0:0:
256,320,40436,2,0,L|208:320,3,35,2|0|0|0,0:0|0:0|0:0|0:0,0:0:0:0:
192,320,40658,2,0,L|144:320,3,35,2|0|0|0,0:0|0:0|0:0|0:0,0:0:0:0:
128,320,40881,5,2,0:0:0:0:
128,304,40936,1,0,0:0:0:0:
128,288,40992,1,0,0:0:0:0:
128,272,41047,1,0,0:0:0:0:
128,256,41103,1,2,0:0:0:0:
128,240,41158,1,0,0:0:0:0:
128,224,41214,1,0,0:0:0:0:
128,207,41270,1,0,0:0:0:0:
128,192,41325,2,0,L|128:144,3,35,2|0|0|0,0:0|0:0|0:0|0:0,0:0:0:0:
128,128,41547,2,0,L|128:80,3,35,2|0|0|0,0:0|0:0|0:0|0:0,0:0:0:0:
128,64,41770,5,2,0:0:0:0:
144,64,41825,1,0,0:0:0:0:
160,64,41881,1,0,0:0:0:0:
176,64,41936,1,0,0:0:0:0:
192,64,41992,1,2,0:0:0:0:
208,64,42047,1,0,0:0:0:0:
224,64,42103,1,0,0:0:0:0:
240,64,42159,1,0,0:0:0:0:
256,64,42214,2,0,L|304:64,3,35,2|0|0|0,0:0|0:0|0:0|0:0,0:0:0:0:
320,64,42436,2,0,L|368:64,3,35,2|0|0|0,0:0|0:0|0:0|0:0,0:0:0:0:
384,64,42659,5,2,0:0:0:0:
384,80,42714,1,0,0:0:0:0:
384,96,42770,1,0,0:0:0:0:
384,112,42825,1,0,0:0:0:0:
384,128,42881,1,2,0:0:0:0:
384,144,42936,1,0,0:0:0:0:
384,160,42992,1,0,0:0:0:0:
384,176,43048,1,0,0:0:0:0:
384,192,43103,2,0,L|384:240,3,35,2|0|0|0,0:0|0:0|0:0|0:0,0:0:0:0:
384,256,43325,2,0,L|384:304,3,35,2|0|0|0,0:0|0:0|0:0|0:0,0:0:0:0:
384,320,43547,5,2,0:0:0:0:
368,320,43602,1,0,0:0:0:0:
352,320,43658,1,0,0:0:0:0:
336,320,43713,1,0,0:0:0:0:
320,320,43769,1,2,0:0:0:0:
304,320,43824,1,0,0:0:0:0:
288,320,43880,1,0,0:0:0:0:
272,320,43936,1,0,0:0:0:0:
256,320,43991,2,0,L|208:320,3,35,2|0|0|0,0:0|0:0|0:0|0:0,0:0:0:0:
192,320,44213,2,0,L|144:320,3,35,2|0|0|0,0:0|0:0|0:0|0:0,0:0:0:0:
128,320,44436,5,2,0:0:0:0:
128,304,44491,1,0,0:0:0:0:
128,288,44547,1,0,0:0:0:0:
128,272,44602,1,0,0:0:0:0:
128,256,44658,1,2,0:0:0:0:
128,240,44713,1,0,0:0:0:0:
128,224,44769,1,0,0:0:0:0:
128,207,44825,1,0,0:0:0:0:
128,192,44880,2,0,L|128:144,3,35,2|0|0|0,0:0|0:0|0:0|0:0,0:0:0:0:
128,128,45102,2,0,L|128:80,3,35,2|0|0|0,0:0|0:0|0:0|0:0,0:0:0:0:
128,64,46215,5,2,0:0:0:0:
144,64,46270,1,0,0:0:0:0:
160,64,46326,1,0,0:0:0:0:
176,64,46381,1,0,0:0:0:0:
192,64,46437,1,2,0:0:0:0:
208,64,46492,1,0,0:0:0:0:
224,64,46548,1,0,0:0:0:0:
240,64,46604,1,0,0:0:0:0:
256,64,46659,2,0,L|304:64,3,35,2|0|0|0,0:0|0:0|0:0|0:0,0:0:0:0:
320,64,46881,2,0,L|368:64,3,35,2|0|0|0,0:0|0:0|0:0|0:0,0:0:0:0:
384,64,47104,5,2,0:0:0:0:
384,80,47159,1,0,0:0:0:0:
384,96,47215,1,0,0:0:0:0:
384,112,47270,1,0,0:0:0:0:
384,128,47326,1,2,0:0:0:0:
384,144,47381,1,0,0:0:0:0:
384,160,47437,1,0,0:0:0:0:
384,176,47493,1,0,0:0:0:0:
384,192,47548,2,0,L|384:240,3,35,2|0|0|0,0:0|0:0|0:0|0:0,0:0:0:0:
384,256,47770,2,0,L|384:304,3,35,2|0|0|0,0:0|0:0|0:0|0:0,0:0:0:0:
384,320,47992,5,2,0:0:0:0:
368,320,48047,1,0,0:0:0:0:
352,320,48103,1,0,0:0:0:0:
336,320,48158,1,0,0:0:0:0:
320,320,48214,1,2,0:0:0:0:
304,320,48269,1,0,0:0:0:0:
288,320,48325,1,0,0:0:0:0:
272,320,48381,1,0,0:0:0:0:
256,320,48436,2,0,L|208:320,3,35,2|0|0|0,0:0|0:0|0:0|0:0,0:0:0:0:
192,320,48658,2,0,L|144:320,3,35,2|0|0|0,0:0|0:0|0:0|0:0,0:0:0:0:
128,320,48881,5,2,0:0:0:0:
128,304,48936,1,0,0:0:0:0:
128,288,48992,1,0,0:0:0:0:
128,272,49047,1,0,0:0:0:0:
128,256,49103,1,2,0:0:0:0:
128,240,49158,1,0,0:0:0:0:
128,224,49214,1,0,0:0:0:0:
128,207,49270,1,0,0:0:0:0:
128,192,49325,2,0,L|128:144,3,35,2|0|0|0,0:0|0:0|0:0|0:0,0:0:0:0:
128,128,49547,2,0,L|128:80,3,35,2|0|0|0,0:0|0:0|0:0|0:0,0:0:0:0:
128,64,49770,5,2,0:0:0:0:
144,64,49825,1,0,0:0:0:0:
160,64,49881,1,0,0:0:0:0:
176,64,49936,1,0,0:0:0:0:
192,64,49992,1,2,0:0:0:0:
208,64,50047,1,0,0:0:0:0:
224,64,50103,1,0,0:0:0:0:
240,64,50159,1,0,0:0:0:0:
256,64,50214,2,0,L|304:64,3,35,2|0|0|0,0:0|0:0|0:0|0:0,0:0:0:0:
320,64,50436,2,0,L|368:64,3,35,2|0|0|0,0:0|0:0|0:0|0:0,0:0:0:0:
384,64,50659,5,2,0:0:0:0:
384,80,50714,1,0,0:0:0:0:
384,96,50770,1,0,0:0:0:0:
384,112,50825,1,0,0:0:0:0:
384,128,50881,1,2,0:0:0:0:
384,144,50936,1,0,0:0:0:0:
384,160,50992,1,0,0:0:0:0:
384,176,51048,1,0,0:0:0:0:
384,192,51103,2,0,L|384:240,3,35,2|0|0|0,0:0|0:0|0:0|0:0,0:0:0:0:
384,256,51325,2,0,L|384:304,3,35,2|0|0|0,0:0|0:0|0:0|0:0,0:0:0:0:
384,320,51547,5,2,0:0:0:0:
368,320,51602,1,0,0:0:0:0:
352,320,51658,1,0,0:0:0:0:
336,320,51713,1,0,0:0:0:0:
320,320,51769,1,2,0:0:0:0:
304,320,51824,1,0,0:0:0:0:
288,320,51880,1,0,0:0:0:0:
272,320,51936,1,0,0:0:0:0:
256,320,51991,2,0,L|208:320,3,35,2|0|0|0,0:0|0:0|0:0|0:0,0:0:0:0:
192,320,52213,2,0,L|144:320,3,35,2|0|0|0,0:0|0:0|0:0|0:0,0:0:0:0:
128,320,52436,5,2,0:0:0:0:
128,304,52491,1,0,0:0:0:0:
128,288,52547,1,0,0:0:0:0:
128,272,52602,1,0,0:0:0:0:
128,256,52658,1,2,0:0:0:0:
128,240,52713,1,0,0:0:0:0:
128,224,52769,1,0,0:0:0:0:
128,207,52825,1,0,0:0:0:0:
128,192,52880,2,0,L|128:144,3,35,2|0|0|0,0:0|0:0|0:0|0:0,0:0:0:0:
128,128,53102,2,0,L|128:80,3,35,2|0|0|0,0:0|0:0|0:0|0:0,0:0:0:0:
128,64,53326,5,2,0:0:0:0:
144,64,53381,1,0,0:0:0:0:
160,64,53437,1,0,0:0:0:0:
176,64,53492,1,0,0:0:0:0:
192,64,53548,1,2,0:0:0:0:
208,64,53603,1,0,0:0:0:0:
224,64,53659,1,0,0:0:0:0:
240,64,53715,1,0,0:0:0:0:
256,64,53770,2,0,L|304:64,3,35,2|0|0|0,0:0|0:0|0:0|0:0,0:0:0:0:
320,64,53992,2,0,L|368:64,3,35,2|0|0|0,0:0|0:0|0:0|0:0,0:0:0:0:
384,64,54215,5,2,0:0:0:0:
384,80,54270,1,0,0:0:0:0:
384,96,54326,1,0,0:0:0:0:
384,112,54381,1,0,0:0:0:0:
384,128,54437,1,2,0:0:0:0:
384,144,54492,1,0,0:0:0:0:
384,160,54548,1,0,0:0:0:0:
384,176,54604,1,0,0:0:0:0:
384,192,54659,2,0,L|384:240,3,35,2|0|0|0,0:0|0:0|0:0|0:0,0:0:0:0:
384,256,54881,2,0,L|384:304,3,35,2|0|0|0,0:0|0:0|0:0|0:0,0:0:0:0:
384,320,55103,5,2,0:0:0:0:
368,320,55158,1,0,0:0:0:0:
352,320,55214,1,0,0:0:0:0:
336,320,55269,1,0,0:0:0:0:
320,320,55325,1,2,0:0:0:0:
304,320,55380,1,0,0:0:0:0:
288,320,55436,1,0,0:0:0:0:
272,320,55492,1,0,0:0:0:0:
256,320,55547,2,0,L|208:320,3,35,2|0|0|0,0:0|0:0|0:0|0:0,0:0:0:0:
192,320,55769,2,0,L|144:320,3,35,2|0|0|0,0:0|0:0|0:0|0:0,0:0:0:0:
128,320,55992,5,2,0:0:0:0:
128,304,56047,1,0,0:0:0:0:
128,288,56103,1,0,0:0:0:0:
128,272,56158,1,0,0:0:0:0:
128,256,56214,1,2,0:0:0:0:
128,240,56269,1,0,0:0:0:0:
128,224,56325,1,0,0:0:0:0:
128,207,56381,1,0,0:0:0:0:
128,192,56436,2,0,L|128:144,3,35,2|0|0|0,0:0|0:0|0:0|0:0,0:0:0:0:
128,128,56658,2,0,L|128:80,3,35,2|0|0|0,0:0|0:0|0:0|0:0,0:0:0:0:
128,64,56881,5,2,0:0:0:0:
144,64,56936,1,0,0:0:0:0:
160,64,56992,1,0,0:0:0:0:
176,64,57047,1,0,0:0:0:0:
192,64,57103,1,2,0:0:0:0:
208,64,57158,1,0,0:0:0:0:
224,64,57214,1,0,0:0:0:0:
240,64,57270,1,0,0:0:0:0:
256,64,57325,2,0,L|304:64,3,35,2|0|0|0,0:0|0:0|0:0|0:0,0:0:0:0:
320,64,57547,2,0,L|368:64,3,35,2|0|0|0,0:0|0:0|0:0|0:0,0:0:0:0:
384,64,57770,5,2,0:0:0:0:
384,80,57825,1,0,0:0:0:0:
384,96,57881,1,0,0:0:0:0:
384,112,57936,1,0,0:0:0:0:
384,128,57992,1,2,0:0:0:0:
384,144,58047,1,0,0:0:0:0:
384,160,58103,1,0,0:0:0:0:
384,176,58159,1,0,0:0:0:0:
384,192,58214,2,0,L|384:240,3,35,2|0|0|0,0:0|0:0|0:0|0:0,0:0:0:0:
384,256,58436,2,0,L|384:304,3,35,2|0|0|0,0:0|0:0|0:0|0:0,0:0:0:0:
384,320,58658,5,2,0:0:0:0:
368,320,58713,1,0,0:0:0:0:
352,320,58769,1,0,0:0:0:0:
336,320,58824,1,0,0:0:0:0:
320,320,58880,1,2,0:0:0:0:
304,320,58935,1,0,0:0:0:0:
288,320,58991,1,0,0:0:0:0:
272,320,59047,1,0,0:0:0:0:
256,320,59102,2,0,L|208:320,3,35,2|0|0|0,0:0|0:0|0:0|0:0,0:0:0:0:
192,320,59324,2,0,L|144:320,3,35,2|0|0|0,0:0|0:0|0:0|0:0,0:0:0:0:
128,320,59547,5,2,0:0:0:0:
128,304,59602,1,0,0:0:0:0:
128,288,59658,1,0,0:0:0:0:
128,272,59713,1,0,0:0:0:0:
128,256,59769,1,2,0:0:0:0:
128,240,59824,1,0,0:0:0:0:
128,224,59880,1,0,0:0:0:0:
128,207,59936,1,0,0:0:0:0:
128,192,59991,2,0,L|128:144,3,35,2|0|0|0,0:0|0:0|0:0|0:0,0:0:0:0:
128,128,60213,2,0,L|128:80,3,35,2|0|0|0,0:0|0:0|0:0|0:0,0:0:0:0:
128,64,60437,5,2,0:0:0:0:
144,64,60492,1,0,0:0:0:0:
160,64,60548,1,0,0:0:0:0:
176,64,60603,1,0,0:0:0:0:
192,64,60659,1,2,0:0:0:0:
208,64,60714,1,0,0:0:0:0:
224,64,60770,1,0,0:0:0:0:
240,64,60826,1,0,0:0:0:0:
256,64,60881,2,0,L|304:64,3,35,2|0|0|0,0:0|0:0|0:0|0:0,0:0:0:0:
320,64,61103,2,0,L|368:64,3,35,2|0|0|0,0:0|0:0|0:0|0:0,0:0:0:0:
384,64,61326,5,2,0:0:0:0:
384,80,61381,1,0,0:0:0:0:
384,96,61437,1,0,0:0:0:0:
384,112,61492,1,0,0:0:0:0:
384,128,61548,1,2,0:0:0:0:
384,144,61603,1,0,0:0:0:0:
384,160,61659,1,0,0:0:0:0:
384,176,61715,1,0,0:0:0:0:
384,192,61770,2,0,L|384:240,3,35,2|0|0|0,0:0|0:0|0:0|0:0,0:0:0:0:
384,256,61992,2,0,L|384:304,3,35,2|0|0|0,0:0|0:0|0:0|0:0,0:0:0:0:
384,320,62214,5,2,0:0:0:0:
368,320,62269,1,0,0:0:0:0:
352,320,62325,1,0,0:0:0:0:
336,320,62380,1,0,0:0:0:0:
320,320,62436,1,2,0:0:0:0:
304,320,62491,1,0,0:0:0:0:
288,320,62547,1,0,0:0:0:0:
272,320,62603,1,0,0:0:0:0:
256,320,62658,2,0,L|208:320,3,35,2|0|0|0,0:0|0:0|0:0|0:0,0:0:0:0:
192,320,62880,2,0,L|144:320,3,35,2|0|0|0,0:0|0:0|0:0|0:0,0:0:0:0:
128,320,63103,5,2,0:0:0:0:
128,304,63158,1,0,0:0:0:0:
128,288,63214,1,0,0:0:0:0:
128,272,63269,1,0,0:0:0:0:
128,256,63325,1,2,0:0:0:0:
128,240,63380,1,0,0:0:0:0:
128,224,63436,1,0,0:0:0:0:
128,207,63492,1,0,0:0:0:0:
128,192,63547,2,0,L|128:144,3,35,2|0|0|0,0:0|0:0|0:0|0:0,0:0:0:0:
128,128,63769,2,0,L|128:80,3,35,2|0|0|0,0:0|0:0|0:0|0:0,0:0:0:0:
128,64,63992,5,2,0:0:0:0:
144,64,64047,1,0,0:0:0:0:
160,64,64103,1,0,0:0:0:0:
176,64,64158,1,0,0:0:0:0:
192,64,64214,1,2,0:0:0:0:
208,64,64269,1,0,0:0:0:0:
224,64,64325,1,0,0:0:0:0:
240,64,64381,1,0,0:0:0:0:
256,64,64436,2,0,L|304:64,3,35,2|0|0|0,0:0|0:0|0:0|0:0,0:0:0:0:
320,64,64658,2,0,L|368:64,3,35,2|0|0|0,0:0|0:0|0:0|0:0,0:0:0:0:
384,64,64881,5,2,0:0:0:0:
384,80,64936,1,0,0:0:0:0:
384,96,64992,1,0,0:0:0:0:
384,112,65047,1,0,0:0:0:0:
384,128,65103,1,2,0:0:0:0:
384,144,65158,1,0,0:0:0:0:
384,160,65214,1,0,0:0:0:0:
384,176,65270,1,0,0:0:0:0:
384,192,65325,2,0,L|384:240,3,35,2|0|0|0,0:0|0:0|0:0|0:0,0:0:0:0:
384,256,65547,2,0,L|384:304,3,35,2|0|0|0,0:0|0:0|0:0|0:0,0:0:0:0:
384,320,65769,5,2,0:0:0:0:
368,320,65824,1,0,0:0:0:0:
352,320,65880,1,0,0:0:0:0:
336,320,65935,1,0,0:0:0:0:
320,320,65991,1,2,0:0:0:0:
304,320,66046,1,0,0:0:0:0:
288,320,66102,1,0,0:0:0:0:
272,320,66158,1,0,0:0:0:0:
256,320,66213,2,0,L|208:320,3,35,2|0|0|0,0:0|0:0|0:0|0:0,0:0:0:0:
192,320,66435,2,0,L|144:320,3,35,2|0|0|0,0:0|0:0|0:0|0:0,0:0:0:0:
128,320,66658,5,2,0:0:0:0:
128,304,66713,1,0,0:0:0:0:
128,288,66769,1,0,0:0:0:0:
128,272,66824,1,0,0:0:0:0:
128,256,66880,1,2,0:0:0:0:
128,240,66935,1,0,0:0:0:0:
128,224,66991,1,0,0:0:0:0:
128,207,67047,1,0,0:0:0:0:
128,192,67102,2,0,L|128:144,3,35,2|0|0|0,0:0|0:0|0:0|0:0,0:0:0:0:
128,128,67324,2,0,L|128:80,3,35,2|0|0|0,0:0|0:0|0:0|0:0,0:0:0:0:
128,64,67548,5,2,0:0:0:0:
144,64,67603,1,0,0:0:0:0:
160,64,67659,1,0,0:0:0:0:
176,64,67714,1,0,0:0:0:0:
192,64,67770,1,2,0:0:0:0:
208,64,67825,1,0,0:0:0:0:
224,64,67881,1,0,0:0:0:0:
240,64,67937,1,0,0:0:0:0:
256,64,67992,2,0,L|304:64,3,35,2|0|0|0,0:0|0:0|0:0|0:0,0:0:0:0:
320,64,68214,2,0,L|368:64,3,35,2|0|0|0,0:0|0:0|0:0|0:0,0:0:0:0:
384,64,68437,5,2,0:0:0:0:
384,80,68492,1,0,0:0:0:0:
384,96,68548,1,0,0:0:0:0:
384,112,68603,1,0,0:0:0:0:
384,128,68659,1,2,0:0:0:0:
384,144,68714,1,0,0:0:0:0:
384,160,68770,1,0,0:0:0:0:
384,176,68826,1,0,0:0:0:0:
384,192,68881,2,0,L|384:240,3,35,2|0|0|0,0:0|0:0|0:0|0:0,0:0:0:0:
384,256,69103,2,0,L|384:304,3,35,2|0|0|0,0:0|0:0|0:0|0:0,0:0:0:0:
384,320,69325,5,2,0:0:0:0:
368,320,69380,1,0,0:0:0:0:
352,320,69436,1,0,0:0:0:0:
336,320,69491,1,0,0:0:0:0:
320,320,69547,1,2,0:0:0:0:
304,320,69602,1,0,0:0:0:0:
288,320,69658,1,0,0:0:0:0:
272,320,69714,1,0,0:0:0:0:
256,320,69769,2,0,L|208:320,3,35,2|0|0|0,0:0|0:0|0:0|0:0,0:0:0:0:
192,320,69991,2,0,L|144:320,3,35,2|0|0|0,0:0|0:0|0:0|0:0,0:0:0:0:
128,320,70214,5,2,0:0:0:0:
128,304,70269,1,0,0:0:0:0:
128,288,70325,1,0,0:0:0:0:
128,272,70380,1,0,0:0:0:0:
128,256,70436,1,2,0:0:0:0:
128,240,70491,1,0,0:0:0:0:
128,224,70547,1,0,0:0:0:0:
128,207,70603,1,0,0:0:0:0:
128,192,70658,2,0,L|128:144,3,35,2|0|0|0,0:0|0:0|0:0|0:0,0:0:0:0:
128,128,70880,2,0,L|128:80,3,35,2|0|0|0,0:0|0:0|0:0|0:0,0:0:0:0:
128,64,71103,5,2,0:0:0:0:
144,64,71158,1,0,0:0:0:0:
160,64,71214,1,0,0:0:0:0:
176,64,71269,1,0,0:0:0:0:
192,64,71325,1,2,0:0:0:0:
208,64,71380,1,0,0:0:0:0:
224,64,71436,1,0,0:0:0:0:
240,64,71492,1,0,0:0:0:0:
256,64,71547,2,0,L|304:64,3,35,2|0|0|0,0:0|0:0|0:0|0:0,0:0:0:0:
320,64,71769,2,0,L|368:64,3,35,2|0|0|0,0:0|0:0|0:0|0:0,0:0:0:0:
384,64,71992,5,2,0:0:0:0:
384,80,72047,1,0,0:0:0:0:
384,96,72103,1,0,0:0:0:0:
384,112,72158,1,0,0:0:0:0:
384,128,72214,1,2,0:0:0:0:
384,144,72269,1,0,0:0:0:0:
384,160,72325,1,0,0:0:0:0:
384,176,72381,1,0,0:0:0:0:
384,192,72436,2,0,L|384:240,3,35,2|0|0|0,0:0|0:0|0:0|0:0,0:0:0:0:
384,256,72658,2,0,L|384:304,3,35,2|0|0|0,0:0|0:0|0:0|0:0,0:0:0:0:
384,320,72880,5,2,0:0:0:0:
368,320,72935,1,0,0:0:0:0:
352,320,72991,1,0,0:0:0:0:
336,320,73046,1,0,0:0:0:0:
320,320,73102,1,2,0:0:0:0:
304,320,73157,1,0,0:0:0:0:
288,320,73213,1,0,0:0:0:0:
272,320,73269,1,0,0:0:0:0:
256,320,73324,2,0,L|208:320,3,35,2|0|0|0,0:0|0:0|0:0|0:0,0:0:0:0:
192,320,73546,2,0,L|144:320,3,35,2|0|0|0,0:0|0:0|0:0|0:0,0:0:0:0:
128,320,73769,5,2,0:0:0:0:
128,304,73824,1,0,0:0:0:0:
128,288,73880,1,0,0:0:0:0:
128,272,73935,1,0,0:0:0:0:
128,256,73991,1,2,0:0:0:0:
128,240,74046,1,0,0:0:0:0:
128,224,74102,1,0,0:0:0:0:
128,207,74158,1,0,0:0:0:0:
128,192,74213,2,0,L|128:144,3,35,2|0|0|0,0:0|0:0|0:0|0:0,0:0:0:0:
128,128,74435,2,0,L|128:80,3,35,2|0|0|0,0:0|0:0|0:0|0:0,0:0:0:0:
128,64,74659,5,2,0:0:0:0:
144,64,74714,1,0,0:0:0:0:
160,64,74770,1,0,0:0:0:0:
176,64,74825,1,0,0:0:0:0:
192,64,74881,1,2,0:0:0:0:
208,64,74936,1,0,0:0:0:0:
224,64,74992,1,0,0:0:0:0:
240,64,75048,1,0,0:0:0:0:
256,64,75103,2,0,L|304:64,3,35,2|0|0|0,0:0|0:0|0:0|0:0,0:0:0:0:
320,64,75325,2,0,L|368:64,3,35,2|0|0|0,0:0|0:0|0:0|0:0,0:0:0:0:
384,64,75548,5,2,0:0:0:0:
384,80,75603,1,0,0:0:0:0:
384,96,75659,1,0,0:0:0:0:
384,112,75714,1,0,0:0:0:0:
384,128,75770,1,2,0:0:0:0:
384,144,75825,1,0,0:0:0:0:
384,160,75881,1,0,0:0:0:0:
384,176,75937,1,0,0:0:0:0:
384,192,75992,2,0,L|384:240,3,35,2|0|0|0,0:0|0:0|0:0|0:0,0:0:0:0:
384,256,76214,2,0,L|384:304,3,35,2|0|0|0,0:0|0:0|0:0|0:0,0:0:0:0:
384,320,76436,5,2,0:0:0:0:
368,320,76491,1,0,0:0:0:0:
352,320,76547,1,0,0:0:0:0:
336,320,76602,1,0,0:0:0:0:
320,320,76658,1,2,0:0:0:0:
304,320,76713,1,0,0:0:0:0:
288,320,76769,1,0,0:0:0:0:
272,320,76825,1,0,0:0:0:0:
256,320,76880,2,0,L|208:320,3,35,2|0|0|0,0:0|0:0|0:0|0:0,0:0:0:0:
192,320,77102,2,0,L|144:320,3,35,2|0|0|0,0:0|0:0|0:0|0:0,0:0:0:0:
128,320,77325,5,2,0:0:0:0:
128,304,77380,1,0,0:0:0:0:
128,288,77436,1,0,0:0:0:0:
128,272,77491,1,0,0:0:0:0:
128,256,77547,1,2,0:0:0:0:
128,240,77602,1,0,0:0:0:0:
128,224,77658,1,0,0:0:0:0:
128,207,77714,1,0,0:0:0:0:
128,192,77769,2,0,L|128:144,3,35,2|0|0|0,0:0|0:0|0:0|0:0,0:0:0:0:
128,128,77991,2,0,L|128:80,3,35,2|0|0|0,0:0|0:0|0:0|0:0,0:0:0:0:
128,64,78214,5,2,0:0:0:0:
144,64,78269,1,0,0:0:0:0:
160,64,78325,1,0,0:0:0:0:
176,64,78380,1,0,0:0:0:0:
192,64,78436,1,2,0:0:0:0:
208,64,78491,1,0,0:0:0:0:
224,64,78547,1,0,0:0:0:0:
240,64,78603,1,0,0:0:0:0:
256,64,78658,2,0,L|304:64,3,35,2|0|0|0,0:0|0:0|0:0|0:0,0:0:0:0:
320,64,78880,2,0,L|368:64,3,35,2|0|0|0,0:0|0:0|0:0|0:0,0:0:0:0:
384,64,79103,5,2,0:0:0:0:
384,80,79158,1,0,0:0:0:0:
384,96,79214,1,0,0:0:0:0:
384,112,79269,1,0,0:0:0:0:
384,128,79325,1,2,0:0:0:0:
384,144,79380,1,0,0:0:0:0:
384,160,79436,1,0,0:0:0:0:
384,176,79492,1,0,0:0:0:0:
384,192,79547,2,0,L|384:240,3,35,2|0|0|0,0:0|0:0|0:0|0:0,0:0:0:0:
384,256,79769,2,0,L|384:304,3,35,2|0|0|0,0:0|0:0|0:0|0:0,0:0:0:0:
384,320,79991,5,2,0:0:0:0:
368,320,80046,1,0,0:0:0:0:
352,320,80102,1,0,0:0:0:0:
336,320,80157,1,0,0:0:0:0:
320,320,80213,1,2,0:0:0:0:
304,320,80268,1,0,0:0:0:0:
288,320,80324,1,0,0:0:0:0:
272,320,80380,1,0,0:0:0:0:
256,320,80435,2,0,L|208:320,3,35,2|0|0|0,0:0|0:0|0:0|0:0,0:0:0:0:
192,320,80657,2,0,L|144:320,3,35,2|0|0|0,0:0|0:0|0:0|0:0,0:0:0:0:
128,320,80880,5,2,0:0:0:0:
128,304,80935,1,0,0:0:0:0:
128,288,80991,1,0,0:0:0:0:
128,272,81046,1,0,0:0:0:0:
128,256,81102,1,2,0:0:0:0:
128,240,81157,1,0,0:0:0:0:
128,224,81213,1,0,0:0:0:0:
128,207,81269,1,0,0:0:0:0:
128,192,81324,2,0,L|128:144,3,35,2|0|0|0,0:0|0:0|0:0|0:0,0:0:0:0:
128,128,81546,2,0,L|128:80,3,35,2|0|0|0,0:0|0:0|0:0|0:0,0:0:0:0:
128,64,81770,5,2,0:0:0:0:
144,64,81825,1,0,0:0:0:0:
160,64,81881,1,0,0:0:0:0:
176,64,81936,1,0,0:0:0:0:
192,64,81992,1,2,0:0:0:0:
208,64,82047,1,0,0:0:0:0:
224,64,82103,1,0,0:0:0:0:
240,64,82159,1,0,0:0:0:0:
256,64,82214,2,0,L|304:64,3,35,2|0|0|0,0:0|0:0|0:0|0:0,0:0:0:0:
320,64,82436,2,0,L|368:64,3,35,2|0|0|0,0:0|0:0|0:0|0:0,0:0:0:0:
384,64,82659,5,2,0:0:0:0:
384,80,82714,1,0,0:0:0:0:
384,96,82770,1,0,0:0:0:0:
384,112,82825,1,0,0:0:0:0:
384,128,82881,1,2,0:0:0:0:
384,144,82936,1,0,0:0:0:0:
384,160,82992,1,0,0:0:0:0:
384,176,83048,1,0,0:0:0:0:
384,192,83103,2,0,L|384:240,3,35,2|0|0|0,0:0|0:0|0:0|0:0,0:0:0:0:
384,256,83325,2,0,L|384:304,3,35,2|0|0|0,0:0|0:0|0:0|0:0,0:0:0:0:
384,320,83547,5,2,0:0:0:0:
368,320,83602,1,0,0:0:0:0:
352,320,83658,1,0,0:0:0:0:
336,320,83713,1,0,0:0:0:0:
320,320,83769,1,2,0:0:0:0:
304,320,83824,1,0,0:0:0:0:
288,320,83880,1,0,0:0:0:0:
272,320,83936,1,0,0:0:0:0:
256,320,83991,2,0,L|208:320,3,35,2|0|0|0,0:0|0:0|0:0|0:0,0:0:0:0:
192,320,84213,2,0,L|144:320,3,35,2|0|0|0,0:0|0:0|0:0|0:0,0:0:0:0:
128,320,84436,5,2,0:0:0:0:
128,304,84491,1,0,0:0:0:0:
128,288,84547,1,0,0:0:0:0:
128,272,84602,1,0,0:0:0:0:
128,256,84658,1,2,0:0:0:0:
128,240,84713,1,0,0:0:0:0:
128,224,84769,1,0,0:0:0:0:
128,207,84825,1,0,0:0:0:0:
128,192,84880,2,0,L|128:144,3,35,2|0|0|0,0:0|0:0|0:0|0:0,0:0:0:0:
128,128,85102,2,0,L|128:80,3,35,2|0|0|0,0:0|0:0|0:0|0:0,0:0:0:0:
128,64,85325,5,2,0:0:0:0:
144,64,85380,1,0,0:0:0:0:
160,64,85436,1,0,0:0:0:0:
176,64,85491,1,0,0:0:0:0:
192,64,85547,1,2,0:0:0:0:
208,64,85602,1,0,0:0:0:0:
224,64,85658,1,0,0:0:0:0:
240,64,85714,1,0,0:0:0:0:
256,64,85769,2,0,L|304:64,3,35,2|0|0|0,0:0|0:0|0:0|0:0,0:0:0:0:
320,64,85991,2,0,L|368:64,3,35,2|0|0|0,0:0|0:0|0:0|0:0,0:0:0:0:
384,64,86214,5,2,0:0:0:0:
384,80,86269,1,0,0:0:0:0:
384,96,86325,1,0,0:0:0:0:
384,112,86380,1,0,0:0:0:0:
384,128,86436,1,2,0:0:0:0:
384,144,86491,1,0,0:0:0:0:
384,160,86547,1,0,0:0:0:0:
384,176,86603,1,0,0:0:0:0:
384,192,86658,2,0,L|384:240,3,35,2|0|0|0,0:0|0:0|0:0|0:0,0:0:0:0:
384,256,86880,2,0,L|384:304,3,35,2|0|0|0,0:0|0:0|0:0|0:0,0:0:0:0:
384,320,87102,5,2,0:0:0:0:
368,320,87157,1,0,0:0:0:0:
352,320,87213,1,0,0:0:0:0:
336,320,87268,1,0,0:0:0:0:
320,320,87324,1,2,0:0:0:0:
304,320,87379,1,0,0:0:0:0:
288,320,87435,1,0,0:0:0:0:
272,320,87491,1,0,0:0:0:0:
256,320,87546,2,0,L|208:320,3,35,2|0|0|0,0:0|0:0|0:0|0:0,0:0:0:0:
192,320,87768,2,0,L|144:320,3,35,2|0|0|0,0:0|0:0|0:0|0:0,0:0:0:0:
128,320,87991,5,2,0:0:0:0:
128,304,88046,1,0,0:0:0:0:
128,288,88102,1,0,0:0:0:0:
128,272,88157,1,0,0:0:0:0:
128,256,88213,1,2,0:0:0:0:
128,240,88268,1,0,0:0:0:0:
128,224,88324,1,0,0:0:0:0:
128,207,88380,1,0,0:0:0:0:
128,192,88435,2,0,L|128:144,3,35,2|0|0|0,0:0|0:0|0:0|0:0,0:0:0:0:
128,128,88657,2,0,L|128:80,3,35,2|0|0|0,0:0|0:0|0:0|0:0,0:0:0:0:
128,64,92437,5,2,0:0:0:0:
144,64,92492,1,0,0:0:0:0:
160,64,92548,1,0,0:0:0:0:
176,64,92603,1,0,0:0:0:0:
192,64,92659,1,2,0:0:0:0:
208,64,92714,1,0,0:0:0:0:
224,64,92770,1,0,0:0:0:0:
240,64,92826,1,0,0:0:0:0:
256,64,92881,2,0,L|304:64,3,35,2|0|0|0,0:0|0:0|0:0|0:0,0:0:0:0:
320,64,93103,2,0,L|368:64,3,35,2|0|0|0,0:0|0:0|0:0|0:0,0:0:0:0:
384,64,93326,5,2,0:0:0:0:
384,80,93381,1,0,0:0:0:0:
384,96,93437,1,0,0:0:0:0:
384,112,93492,1,0,0:0:0:0:
384,128,93548,1,2,0:0:0:0:
384,144,93603,1,0,0:0:0:0:
384,160,93659,1,0,0:0:0:0:
384,176,93715,1,0,0:0:0:0:
384,192,93770,2,0,L|384:240,3,35,2|0|0|0,0:0|0:0|0:0|0:0,0:0:0:0:
384,256,93992,2,0,L|384:304,3,35,2|0|0|0,0:0|0:0|0:0|0:0,0:0:0:0:
384,320,94214,5,2,0:0:0:0:
368,320,94269,1,0,0:0:0:0:
352,320,94325,1,0,0:0:0:0:
336,320,94380,1,0,0:0:0:0:
320,320,94436,1,2,0:0:0:0:
304,320,94491,1,0,0:0:0:0:
288,320,94547,1,0,0:0:0:0:
272,320,94603,1,0,0:0:0:0:
256,320,94658,2,0,L|208:320,3,35,2|0|0|0,0:0|0:0|0:0|0:0,0:0:0:0:
192,320,94880,2,0,L|144:320,3,35,2|0|0|0,0:0|0:0|0:0|0:0,0:0:0:0:
128,320,95103,5,2,0:0:0:0:
128,304,95158,1,0,0:0:0:0:
128,288,95214,1,0,0:0:0:0:
128,272,95269,1,0,0:0:0:0:
128,256,95325,1,2,0:0:0:0:
128,240,95380,1,0,0:0:0:0:
128,224,95436,1,0,0:0:0:0:
128,207,95492,1,0,0:0:0:0:
128,192,95547,2,0,L|128:144,3,35,2|0|0|0,0:0|0:0|0:0|0:0,0:0:0:0:
128,128,95769,2,0,L|128:80,3,35,2|0|0|0,0:0|0:0|0:0|0:0,0:0:0:0:
128,64,95992,5,2,0:0:0:0:
144,64,96047,1,0,0:0:0:0:
160,64,96103,1,0,0:0:0:0:
176,64,96158,1,0,0:0:0:0:
192,64,96214,1,2,0:0:0:0:
208,64,96269,1,0,0:0:0:0:
224,64,96325,1,0,0:0:0:0:
240,64,96381,1,0,0:0:0:0:
256,64,96436,2,0,L|304:64,3,35,2|0|0|0,0:0|0:0|0:0|0:0,0:0:0:0:
320,64,96658,2,0,L|368:64,3,35,2|0|0|0,0:0|0:0|0:0|0:0,0:0:0:0:
384,64,96881,5,2,0:0:0:0:
384,80,96936,1,0,0:0:0:0:
384,96,96992,1,0,0:0:0:0:
384,112,97047,1,0,0:0:0:0:
384,128,97103,1,2,0:0:0:0:
384,144,97158,1,0,0:0:0:0:
384,160,97214,1,0,0:0:0:0:
384,176,97270,1,0,0:0:0:0:
384,192,97325,2,0,L|384:240,3,35,2|0|0|0,0:0|0:0|0:0|0:0,0:0:0:0:
384,256,97547,2,0,L|384:304,3,35,2|0|0|0,0:0|0:0|0:0|0:0,0:0:0:0:
384,320,97769,5,2,0:0:0:0:
368,320,97824,1,0,0:0:0:0:
352,320,97880,1,0,0:0:0:0:
336,320,97935,1,0,0:0:0:0:
320,320,97991,1,2,0:0:0:0:
304,320,98046,1,0,0:0:0:0:
288,320,98102,1,0,0:0:0:0:
272,320,98158,1,0,0:0:0:0:
256,320,98213,2,0,L|208:320,3,35,2|0|0|0,0:0|0:0|0:0|0:0,0:0:0:0:
192,320,98435,2,0,L|144:320,3,35,2|0|0|0,0:0|0:0|0:0|0:0,0:0:0:0:
128,320,98658,5,2,0:0:0:0:
128,304,98713,1,0,0:0:0:0:
128,288,98769,1,0,0:0:0:0:
128,272,98824,1,0,0:0:0:0:
128,256,98880,1,2,0:0:0:0:
128,240,98935,1,0,0:0:0:0:
128,224,98991,1,0,0:0:0:0:
128,207,99047,1,0,0:0:0:0:
128,192,99102,2,0,L|128:144,3,35,2|0|0|0,0:0|0:0|0:0|0:0,0:0:0:0:
128,128,99324,2,0,L|128:80,3,35,2|0|0|0,0:0|0:0|0:0|0:0,0:0:0:0:
128,64,99548,5,2,0:0:0:0:
144,64,99603,1,0,0:0:0:0:
160,64,99659,1,0,0:0:0:0:
176,64,99714,1,0,0:0:0:0:
192,64,99770,1,2,0:0:0:0:
208,64,99825,1,0,0:0:0:0:
224,64,99881,1,0,0:0:0:0:
240,64,99937,1,0,0:0:0:0:
256,64,99992,2,0,L|304:64,3,35,2|0|0|0,0:0|0:0|0:0|0:0,0:0:0:0:
320,64,100214,2,0,L|368:64,3,35,2|0|0|0,0:0|0:0|0:0|0:0,0:0:0:0:
384,64,100437,5,2,0:0:0:0:
384,80,100492,1,0,0:0:0:0:
384,96,100548,1,0,0:0:0:0:
384,112,100603,1,0,0:0:0:0:
384,128,100659,1,2,0:0:0:0:
384,144,100714,1,0,0:0:0:0:
384,160,100770,1,0,0:0:0:0:
384,176,100826,1,0,0:0:0:0:
384,192,100881,2,0,L|384:240,3,35,2|0|0|0,0:0|0:0|0:0|0:0,0:0:0:0:
384,256,101103,2,0,L|384:304,3,35,2|0|0|0,0:0|0:0|0:0|0:0,0:0:0:0:
384,320,101325,5,2,0:0:0:0:
368,320,101380,1,0,0:0:0:0:
352,320,101436,1,0,0:0:0:0:
336,320,101491,1,0,0:0:0:0:
320,320,101547,1,2,0:0:0:0:
304,320,101602,1,0,0:0:0:0:
288,320,101658,1,0,0:0:0:0:
272,320,101714,1,0,0:0:0:0:
256,320,101769,2,0,L|208:320,3,35,2|0|0|0,0:0|0:0|0:0|0:0,0:0:0:0:
192,320,101991,2,0,L|144:320,3,35,2|0|0|0,0:0|0:0|0:0|0:0,0:0:0:0:
128,320,102214,5,2,0:0:0:0:
128,304,102269,1,0,0:0:0:0:
128,288,102325,1,0,0:0:0:0:
128,272,102380,1,0,0:0:0:0:
128,256,102436,1,2,0:0:0:0:
128,240,102491,1,0,0:0:0:0:
128,224,102547,1,0,0:0:0:0:
128,207,102603,1,0,0:0:0:0:
128,192,102658,2,0,L|128:144,3,35,2|0|0|0,0:0|0:0|0:0|0:0,0:0:0:0:
128,128,102880,2,0,L|128:80,3,35,2|0|0|0,0:0|0:0|0:0|0:0,0:0:0:0:
128,64,103103,5,2,0:0:0:0:
144,64,103158,1,0,0:0:0:0:
160,64,103214,1,0,0:0:0:0:
176,64,103269,1,0,0:0:0:0:
192,64,103325,1,2,0:0:0:0:
208,64,103380,1,0,0:0:0:0:
224,64,103436,1,0,0:0:0:0:
240,64,103492,1,0,0:0:0:0:
256,64,103547,2,0,L|304:64,3,35,2|0|0|0,0:0|0:0|0:0|0:0,0:0:0:0:
320,64,103769,2,0,L|368:64,3,35,2|0|0|0,0:0|0:0|0:0|0:0,0:0:0:0:
384,64,103992,5,2,0:0:0:0:
384,80,104047,1,0,0:0:0:0:
384,96,104103,1,0,0:0:0:0:
384,112,104158,1,0,0:0:0:0:
384,128,104214,1,2,0:0:0:0:
384,144,104269,1,0,0:0:0:0:
384,160,104325,1,0,0:0:0:0:
384,176,104381,1,0,0:0:0:0:
384,192,104436,2,0,L|384:240,3,35,2|0|0|0,0:0|0:0|0:0|0:0,0:0:0:0:
384,256,104658,2,0,L|384:304,3,35,2|0|0|0,0:0|0:0|0:0|0:0,0:0:0:0:
384,320,104880,5,2,0:0:0:0:
368,320,104935,1,0,0:0:0:0:
352,320,104991,1,0,0:0:0:0:
336,320,105046,1,0,0:0:0:0:
320,320,105102,1,2,0:0:0:0:
304,320,105157,1,0,0:0:0:0:
288,320,105213,1,0,0:0:0:0:
272,320,105269,1,0,0:0:0:0:
256,320,105324,2,0,L|208:320,3,35,2|0|0|0,0:0|0:0|0:0|0:0,0:0:0:0:
192,320,105546,2,0,L|144:320,3,35,2|0|0|0,0:0|0:0|0:0|0:0,0:0:0:0:
128,320,105769,5,2,0:0:0:0:
128,304,105824,1,0,0:0:0:0:
128,288,105880,1,0,0:0:0:0:
128,272,105935,1,0,0:0:0:0:
128,256,105991,1,2,0:0:0:0:
128,240,106046,1,0,0:0:0:0:
128,224,106102,1,0,0:0:0:0:
128,207,106158,1,0,0:0:0:0:
128,192,106213,2,0,L|128:144,3,35,2|0|0|0,0:0|0:0|0:0|0:0,0:0:0:0:
128,128,106435,2,0,L|128:80,3,35,2|0|0|0,0:0|0:0|0:0|0:0,0:0:0:0:
128,64,106659,5,2,0:0:0:0:
144,64,106714,1,0,0:0:0:0:
160,64,106770,1,0,0:0:0:0:
176,64,106825,1,0,0:0:0:0:
192,64,106881,1,2,0:0:0:0:
208,64,106936,1,0,0:0:0:0:
224,64,106992,1,0,0:0:0:0:
240,64,107048,1,0,0:0:0:0:
256,64,107103,2,0,L|304:64,3,35,2|0|0|0,0:0|0:0|0:0|0:0,0:0:0:0:
320,64,107325,2,0,L|368:64,3,35,2|0|0|0,0:0|0:0|0:0|0:0,0:0:0:0:
384,64,107548,5,2,0:0:0:0:
384,80,107603,1,0,0:0:0:0:
384,96,107659,1,0,0:0:0:0:
384,112,107714,1,0,0:0:0:0:
384,128,107770,1,2,0:0:0:0:
384,144,107825,1,0,0:0:0:0:
384,160,107881,1,0,0:0:0:0:
384,176,107937,1,0,0:0:0:0:
384,192,107992,2,0,L|384:240,3,35,2|0|0|0,0:0|0:0|0:0|0:0,0:0:0:0:
384,256,108214,2,0,L|384:304,3,35,2|0|0|0,0:0|0:0|0:0|0:0,0:0:0:0:
384,320,108436,5,2,0:0:0:0:
368,320,108491,1,0,0:0:0:0:
352,320,108547,1,0,0:0:0:0:
336,320,108602,1,0,0:0:0:0:
320,320,108658,1,2,0:0:0:0:
304,320,108713,1,0,0:0:0:0:
288,320,108769,1,0,0:0:0:0:
272,320,108825,1,0,0:0:0:0:
256,320,108880,2,0,L|208:320,3,35,2|0|0|0,0:0|0:0|0:0|0:0,0:0:0:0:
192,320,109102,2,0,L|144:320,3,35,2|0|0|0,0:0|0:0|0:0|0:0,0:0:0:0:
128,320,109325,5,2,0:0:0:0:
128,304,109380,1,0,0:0:0:0:
128,288,109436,1,0,0:0:0:0:
128,272,109491,1,0,0:0:0:0:
128,256,109547,1,2,0:0:0:0:
128,240,109602,1,0,0:0:0:0:
128,224,109658,1,0,0:0:0:0:
128,207,109714,1,0,0:0:0:0:
128,192,109769,2,0,L|128:144,3,35,2|0|0|0,0:0|0:0|0:0|0:0,0:0:0:0:
128,128,109991,2,0,L|128:80,3,35,2|0|0|0,0:0|0:0|0:0|0:0,0:0:0:0:
128,64,110214,5,2,0:0:0:0:
144,64,110269,1,0,0:0:0:0:
160,64,110325,1,0,0:0:0:0:
176,64,110380,1,0,0:0:0:0:
192,64,110436,1,2,0:0:0:0:
208,64,110491,1,0,0:0:0:0:
224,64,110547,1,0,0:0:0:0:
240,64,110603,1,0,0:0:0:0:
256,64,110658,2,0,L|304:64,3,35,2|0|0|0,0:0|0:0|0:0|0:0,0:0:0:0:
320,64,110880,2,0,L|368:64,3,35,2|0|0|0,0:0|0:0|0:0|0:0,0:0:0:0:
384,64,111103,5,2,0:0:0:0:
384,80,111158,1,0,0:0:0:0:
384,96,111214,1,0,0:0:0:0:
384,112,111269,1,0,0:0:0:0:
384,128,111325,1,2,0:0:0:0:
384,144,111380,1,0,0:0:0:0:
384,160,111436,1,0,0:0:0:0:
384,176,111492,1,0,0:0:0:0:
384,192,111547,2,0,L|384:240,3,35,2|0|0|0,0:0|0:0|0:0|0:0,0:0:0:0:
384,256,111769,2,0,L|384:304,3,35,2|0|0|0,0:0|0:0|0:0|0:0,0:0:0:0:
384,320,111991,5,2,0:0:0:0:
368,320,112046,1,0,0:0:0:0:
352,320,112102,1,0,0:0:0:0:
336,320,112157,1,0,0:0:0:0:
320,320,112213,1,2,0:0:0:0:
304,320,112268,1,0,0:0:0:0:
288,320,112324,1,0,0:0:0:0:
272,320,112380,1,0,0:0:0:0:
256,320,112435,2,0,L|208:320,3,35,2|0|0|0,0:0|0:0|0:0|0:0,0:0:0:0:
192,320,112657,2,0,L|144:320,3,35,2|0|0|0,0:0|0:0|0:0|0:0,0:0:0:0:
128,320,112880,5,2,0:0:0:0:
128,304,112935,1,0,0:0:0:0:
128,288,112991,1,0,0:0:0:0:
128,272,113046,1,0,0:0:0:0:
128,256,113102,1,2,0:0:0:0:
128,240,113157,1,0,0:0:0:0:
128,224,113213,1,0,0:0:0:0:
128,207,113269,1,0,0:0:0:0:
128,192,113324,2,0,L|128:144,3,35,2|0|0|0,0:0|0:0|0:0|0:0,0:0:0:0:
128,128,113546,2,0,L|128:80,3,35,2|0|0|0,0:0|0:0|0:0|0:0,0:0:0:0:
128,64,113770,5,2,0:0:0:0:
144,64,113825,1,0,0:0:0:0:
160,64,113881,1,0,0:0:0:0:
176,64,113936,1,0,0:0:0:0:
192,64,113992,1,2,0:0:0:0:
208,64,114047,1,0,0:0:0:0:
224,64,114103,1,0,0:0:0:0:
240,64,114159,1,0,0:0:0:0:
256,64,114214,2,0,L|304:64,3,35,2|0|0|0,0:0|0:0|0:0|0:0,0:0:0:0:
320,64,114436,2,0,L|368:64,3,35,2|0|0|0,0:0|0:0|0:0|0:0,0:0:0:0:
384,64,114659,5,2,0:0:0:0:
384,80,114714,1,0,0:0:0:0:
384,96,114770,1,0,0:0:0:0:
384,112,114825,1,0,0:0:0:0:
384,128,114881,1,2,0:0:0:0:
384,144,114936,1,0,0:0:0:0:
384,160,114992,1,0,0:0:0:0:
384,176,115048,1,0,0:0:0:0:
384,192,115103,2,0,L|384:240,3,35,2|0|0|0,0:0|0:0|0:0|0:0,0:0:0:0:
384,256,115325,2,0,L|384:304,3,35,2|0|0|0,0:0|0:0|0:0|0:0,0:0:0:0:
384,320,115547,5,2,0:0:0:0:
368,320,115602,1,0,0:0:0:0:
352,320,115658,1,0,0:0:0:0:
336,320,115713,1,0,0:0:0:0:
320,320,115769,1,2,0:0:0:0:
304,320,115824,1,0,0:0:0:0:
288,320,115880,1,0,0:0:0:0:
272,320,115936,1,0,0:0:0:0:
256,320,115991,2,0,L|208:320,3,35,2|0|0|0,0:0|0:0|0:0|0:0,0:0:0:0:
192,320,116213,2,0,L|144:320,3,35,2|0|0|0,0:0|0:0|0:0|0:0,0:0:0:0:
128,320,116436,5,2,0:0:0:0:
128,304,116491,1,0,0:0:0:0:
128,288,116547,1,0,0:0:0:0:
128,272,116602,1,0,0:0:0:0:
128,256,116658,1,2,0:0:0:0:
128,240,116713,1,0,0:0:0:0:
128,224,116769,1,0,0:0:0:0:
128,207,116825,1,0,0:0:0:0:
128,192,116880,2,0,L|128:144,3,35,2|0|0|0,0:0|0:0|0:0|0:0,0:0:0:0:
128,128,117102,2,0,L|128:80,3,35,2|0|0|0,0:0|0:0|0:0|0:0,0:0:0:0:
128,64,117325,5,2,0:0:0:0:
144,64,117380,1,0,0:0:0:0:
160,64,117436,1,0,0:0:0:0:
176,64,117491,1,0,0:0:0:0:
192,64,117547,1,2,0:0:0:0:
208,64,117602,1,0,0:0:0:0:
224,64,117658,1,0,0:0:0:0:
240,64,117714,1,0,0:0:0:0:
256,64,117769,2,0,L|304:64,3,35,2|0|0|0,0:0|0:0|0:0|0:0,0:0:0:0:
320,64,117991,2,0,L|368:64,3,35,2|0|0|0,0:0|0:0|0:0|0:0,0:0:0:0:
384,64,118214,5,2,0:0:0:0:
384,80,118269,1,0,0:0:0:0:
384,96,118325,1,0,0:0:0:0:
384,112,118380,1,0,0:0:0:0:
384,128,118436,1,2,0:0:0:0:
384,144,118491,1,0,0:0:0:0:
384,160,118547,1,0,0:0:0:0:
384,176,118603,1,0,0:0:0:0:
384,192,118658,2,0,L|384:240,3,35,2|0|0|0,0:0|0:0|0:0|0:0,0:0:0:0:
384,256,118880,2,0,L|384:304,3,35,2|0|0|0,0:0|0:0|0:0|0:0,0:0:0:0:
384,320,119102,5,2,0:0:0:0:
368,320,119157,1,0,0:0:0:0:
352,320,119213,1,0,0:0:0:0:
336,320,119268,1,0,0:0:0:0:
320,320,119324,1,2,0:0:0:0:
304,320,119379,1,0,0:0:0:0:
288,320,119435,1,0,0:0:0:0:
272,320,119491,1,0,0:0:0:0:
256,320,119546,2,0,L|208:320,3,35,2|0|0|0,0:0|0:0|0:0|0:0,0:0:0:0:
192,320,119768,2,0,L|144:320,3,35,2|0|0|0,0:0|0:0|0:0|0:0,0:0:0:0:
128,320,119991,5,2,0:0:0:0:
128,304,120046,1,0,0:0:0:0:
128,288,120102,1,0,0:0:0:0:
128,272,120157,1,0,0:0:0:0:
128,256,120213,1,2,0:0:0:0:
128,240,120268,1,0,0:0:0:0:
128,224,120324,1,0,0:0:0:0:
128,207,120380,1,0,0:0:0:0:
128,192,120435,2,0,L|128:144,3,35,2|0|0|0,0:0|0:0|0:0|0:0,0:0:0:0:
128,128,120657,2,0,L|128:80,3,35,2|0|0|0,0:0|0:0|0:0|0:0,0:0:0:0:
128,64,124437,5,2,0:0:0:0:
144,64,124492,1,0,0:0:0:0:
160,64,124548,1,0,0:0:0:0:
176,64,124603,1,0,0:0:0:0:
192,64,124659,1,2,0:0:0:0:
208,64,124714,1,0,0:0:0:0:
224,64,124770,1,0,0:0:0:0:
240,64,124826,1,0,0:0:0:0:
256,64,124881,2,0,L|304:64,3,35,2|0|0|0,0:0|0:0|0:0|0:0,0:0:0:0:
320,64,125103,2,0,L|368:64,3,35,2|0|0|0,0:0|0:0|0:0|0:0,0:0:0:0:
384,64,125326,5,2,0:0:0:0:
384,80,125381,1,0,0:0:0:0:
384,96,125437,1,0,0:0:0:0:
384,112,125492,1,0,0:0:0:0:
384,128,125548,1,2,0:0:0:0:
384,144,125603,1,0,0:0:0:0:
384,160,125659,1,0,0:0:0:0:
384,176,125715,1,0,0:0:0:0:
384,192,125770,2,0,L|384:240,3,35,2|0|0|0,0:0|0:0|0:0|0:0,0:0:0:0:
384,256,125992,2,0,L|384:304,3,35,2|0|0|0,0:0|0:0|0:0|0:0,0:0:0:0:
384,320,126214,5,2,0:0:0:0:
368,320,126269,1,0,0:0:0:0:
352,320,126325,1,0,0:0:0:0:
336,320,126380,1,0,0:0:0:0:
320,320,126436,1,2,0:0:0:0:
304,320,126491,1,0,0:0:0:0:
288,320,126547,1,0,0:0:0:0:
272,320,126603,1,0,0:0:0:0:
256,320,126658,2,0,L|208:320,3,35,2|0|0|0,0:0|0:0|0:0|0:0,0:0:0:0:
192,320,126880,2,0,L|144:320,3,35,2|0|0|0,0:0|0:0|0:0|0:0,0:0:0:0:
128,320,127103,5,2,0:0:0:0:
128,304,127158,1,0,0:0:0:0:
128,288,127214,1,0,0:0:0:0:
128,272,127269,1,0,0:0:0:0:
128,256,127325,1,2,0:0:0:0:
128,240,127380,1,0,0:0:0:0:
128,224,127436,1,0,0:0:0:0:
128,207,127492,1,0,0:0:0:0:
128,192,127547,2,0,L|128:144,3,35,2|0|0|0,0:0|0:0|0:0|0:0,0:0:0:0:
128,128,127769,2,0,L|128:80,3,35,2|0|0|0,0:0|0:0|0:0|0:0,0:0:0:0:
128,64,127992,5,2,0:0:0:0:
144,64,128047,1,0,0:0:0:0:
160,64,128103,1,0,0:0:0:0:
176,64,128158,1,0,0:0:0:0:
192,64,128214,1,2,0:0:0:0:
208,64,128269,1,0,0:0:0:0:
224,64,128325,1,0,0:0:0:0:
240,64,128381,1,0,0:0:0:0:
256,64,128436,2,0,L|304:64,3,35,2|0|0|0,0:0|0:0|0:0|0:0,0:0:0:0:
320,64,128658,2,0,L|368:64,3,35,2|0|0|0,0:0|0:0|0:0|0:0,0:0:0:0:
384,64,128881,5,2,0:0:0:0:
384,80,128936,1,0,0:0:0:0:
384,96,128992,1,0,0:0:0:0:
384,112,129047,1,0,0:0:0:0:
384,128,129103,1,2,0:0:0:0:
384,144,129158,1,0,0:0:0:0:
384,160,129214,1,0,0:0:0:0:
384,176,129270,1,0,0:0:0:0:
384,192,129325,2,0,L|384:240,3,35,2|0|0|0,0:0|0:0|0:0|0:0,0:0:0:0:
384,256,129547,2,0,L|384:304,3,35,2|0|0|0,0:0|0:0|0:0|0:0,0:0:0:0:
384,320,129769,5,2,0:0:0:0:
368,320,129824,1,0,0:0:0:0:
352,320,129880,1,0,0:0:0:0:
336,320,129935,1,0,0:0:0:0:
320,320,129991,1,2,0:0:0:0:
304,320,130046,1,0,0:0:0:0:
288,320,130102,1,0,0:0:0:0:
272,320,130158,1,0,0:0:0:0:
256,320,130213,2,0,L|208:320,3,35,2|0|0|0,0:0|0:0|0:0|0:0,0:0:0:0:
192,320,130435,2,0,L|144:320,3,35,2|0|0|0,0:0|0:0|0:0|0:0,0:0:0:0:
128,320,130658,5,2,0:0:0:0:
128,304,130713,1,0,0:0:0:0:
128,288,130769,1,0,0:0:0:0:
128,272,130824,1,0,0:0:0:0:
128,256,130880,1,2,0:0:0:0:
128,240,130935,1,0,0:0:0:0:
128,224,130991,1,0,0:0:0:0:
128,207,131047,1,0,0:0:0:0:
128,192,131102,2,0,L|128:144,3,35,2|0|0|0,0:0|0:0|0:0|0:0,0:0:0:0:
128,128,131324,2,0,L|128:80,3,35,2|0|0|0,0:0|0:0|0:0|0:0,0:0:0:0:
128,64,131548,5,2,0:0:0:0:
144,64,131603,1,0,0:0:0:0:
160,64,131659,1,0,0:0:0:0:
176,64,131714,1,0,0:0:0:0:
192,64,131770,1,2,0:0:0:0:
208,64,131825,1,0,0:0:0:0:
224,64,131881,1,0,0:0:0:0:
240,64,131937,1,0,0:0:0:0:
256,64,131992,2,0,L|304:64,3,35,2|0|0|0,0:0|0:0|0:0|0:0,0:0:0:0:
320,64,132214,2,0,L|368:64,3,35,2|0|0|0,0:0|0:0|0:0|0:0,0:0:0:0:
384,64,132437,5,2,0:0:0:0:
384,80,132492,1,0,0:0:0:0:
384,96,132548,1,0,0:0:0:0:
384,112,132603,1,0,0:0:0:0:
384,128,132659,1,2,0:0:0:0:
384,144,132714,1,0,0:0:0:0:
384,160,132770,1,0,0:0:0:0:
384,176,132826,1,0,0:0:0:0:
384,192,132881,2,0,L|384:240,3,35,2|0|0|0,0:0|0:0|0:0|0:0,0:0:0:0:
384,256,133103,2,0,L|384:304,3,35,2|0|0|0,0:0|0:0|0:0|0:0,0:0:0:0:
384,320,133325,5,2,0:0:0:0:
368,320,133380,1,0,0:0:0:0:
352,320,133436,1,0,0:0:0:0:
336,320,133491,1,0,0:0:0:0:
320,320,133547,1,2,0:0:0:0:
304,320,133602,1,0,0:0:0:0:
288,320,133658,1,0,0:0:0:0:
272,320,133714,1,0,0:0:0:0:
256,320,133769,2,0,L|208:320,3,35,2|0|0|0,0:0|0:0|0:0|0:0,0:0:0:0:
192,320,133991,2,0,L|144:320,3,35,2|0|0|0,0:0|0:0|0:0|0:0,0:0:0:0:
128,320,134214,5,2,0:0:0:0:
128,304,134269,1,0,0:0:0:0:
128,288,134325,1,0,0:0:0:0:
128,272,134380,1,0,0:0:0:0:
128,256,134436,1,2,0:0:0:0:
128,240,134491,1,0,0:0:0:0:
128,224,134547,1,0,0:0:0:0:
128,207,134603,1,0,0:0:0:0:
128,192,134658,2,0,L|128:144,3,35,2|0|0|0,0:0|0:0|0:0|0:0,0:0:0:0:
128,128,134880,2,0,L|128:80,3,35,2|0|0|0,0:0|0:0|0:0|0:0,0:0:0:0:
128,64,135103,5,2,0:0:0:0:
144,64,135158,1,0,0:0:0:0:
160,64,135214,1,0,0:0:0:0:
176,64,135269,1,0,0:0:0:0:
192,64,135325,1,2,0:0:0:0:
208,64,135380,1,0,0:0:0:0:
224,64,135436,1,0,0:0:0:0:
240,64,135492,1,0,0:0:0:0:
256,64,135547,2,0,L|304:64,3,35,2|0|0|0,0:0|0:0|0:0|0:0,0:0:0:0:
320,64,135769,2,0,L|368:64,3,35,2|0|0|0,0:0|0:0|0:0|0:0,0:0:0:0:
384,64,135992,5,2,0:0:0:0:
384,80,136047,1,0,0:0:0:0:
384,96,136103,1,0,0:0:0:0:
384,112,136158,1,0,0:0:0:0:
384,128,136214,1,2,0:0:0:0:
384,144,136269,1,0,0:0:0:0:
384,160,136325,1,0,0:0:0:0:
384,176,136381,1,0,0:0:0:0:
384,192,136436,2,0,L|384:240,3,35,2|0|0|0,0:0|0:0|0:0|0:0,0:0:0:0:
384,256,136658,2,0,L|384:304,3,35,2|0|0|0,0:0|0:0|0:0|0:0,0:0:0:0:
384,320,136880,5,2,0:0:0:0:
368,320,136935,1,0,0:0:0:0:
352,320,136991,1,0,0:0:0:0:
336,320,137046,1,0,0:0:0:0:
320,320,137102,1,2,0:0:0:0:
304,320,137157,1,0,0:0:0:0:
288,320,137213,1,0,0:0:0:0:
272,320,137269,1,0,0:0:0:0:
256,320,137324,2,0,L|208:320,3,35,2|0|0|0,0:0|0:0|0:0|0:0,0:0:0:0:
192,320,137546,2,0,L|144:320,3,35,2|0|0|0,0:0|0:0|0:0|0:0,0:0:0:0:
128,320,137769,5,2,0:0:0:0:
128,304,137824,1,0,0:0:0:0:
128,288,137880,1,0,0:0:0:0:
128,272,137935,1,0,0:0:0:0:
128,256,137991,1,2,0:0:0:0:
128,240,138046,1,0,0:0:0:0:
128,224,138102,1,0,0:0:0:0:
128,207,138158,1,0,0:0:0:0:
128,192,138213,2,0,L|128:144,3,35,2|0|0|0,0:0|0:0|0:0|0:0,0:0:0:0:
128,128,138435,2,0,L|128:80,3,35,2|0|0|0,0:0|0:0|0:0|0:0,0:0:0:0:
128,64,138659,5,2,0:0:0:0:
144,64,138714,1,0,0:0:0:0:
160,64,138770,1,0,0:0:0:0:
176,64,138825,1,0,0:0:0:0:
192,64,138881,1,2,0:0:0:0:
208,64,138936,1,0,0:0:0:0:
224,64,138992,1,0,0:0:0:0:
240,64,139048,1,0,0:0:0:0:
256,64,139103,2,0,L|304:64,3,35,2|0|0|0,0:0|0:0|0:0|0:0,0:0:0:0:
320,64,139325,2,0,L|368:64,3,35,2|0|0|0,0:0|0:0|0:0|0:0,0:0:0:0:
384,64,139548,5,2,0:0:0:0:
384,80,139603,1,0,0:0:0:0:
384,96,139659,1,0,0:0:0:0:
384,112,139714,1,0,0:0:0:0:
384,128,139770,1,2,0:0:0:0:
384,144,139825,1,0,0:0:0:0:
384,160,139881,1,0,0:0:0:0:
384,176,139937,1,0,0:0:0:0:
384,192,139992,2,0,L|384:240,3,35,2|0|0|0,0:0|0:0|0:0|0:0,0:0:0:0:
384,256,140214,2,0,L|384:304,3,35,2|0|0|0,0:0|0:0|0:0|0:0,0:0:0:0:
384,320,140436,5,2,0:0:0:0:
368,320,140491,1,0,0:0:0:0:
352,320,140547,1,0,0:0:0:0:
336,320,140602,1,0,0:0:0:0:
320,320,140658,1,2,0:0:0:0:
304,320,140713,1,0,0:0:0:0:
288,320,140769,1,0,0:0:0:0:
272,320,140825,1,0,0:0:0:0:
256,320,140880,2,0,L|208:320,3,35,2|0|0|0,0:0|0:0|0:0|0:0,0:0:0:0:
192,320,141102,2,0,L|144:320,3,35,2|0|0|0,0:0|0:0|0:0|0:0,0:0:0:0:
128,320,141325,5,2,0:0:0:0:
128,304,141380,1,0,0:0:0:0:
128,288,141436,1,0,0:0:0:0:
128,272,141491,1,0,0:0:0:0:
128,256,141547,1,2,0:0:0:0:
128,240,141602,1,0,0:0:0:0:
128,224,141658,1,0,0:0:0:0:
128,207,141714,1,0,0:0:0:0:
128,192,141769,2,0,L|128:144,3,35,2|0|0|0,0:0|0:0|0:0|0:0,0:0:0:0:
128,128,141991,2,0,L|128:80,3,35,2|0|0|0,0:0|0:0|0:0|0:0,0:0:0:0:
128,64,142214,5,2,0:0:0:0:
144,64,142269,1,0,0:0:0:0:
160,64,142325,1,0,0:0:0:0:
176,64,142380,1,0,0:0:0:0:
192,64,142436,1,2,0:0:0:0:
208,64,142491,1,0,0:0:0:0:
224,64,142547,1,0,0:0:0:0:
240,64,142603,1,0,0:0:0:0:
256,64,142658,2,0,L|304:64,3,35,2|0|0|0,0:0|0:0|0:0|0:0,0:0:0:0:
320,64,142880,2,0,L|368:64,3,35,2|0|0|0,0:0|0:0|0:0|0:0,0:0:0:0:
384,64,143103,5,2,0:0:0:0:
384,80,143158,1,0,0:0:0:0:
384,96,143214,1,0,0:0:0:0:
384,112,143269,1,0,0:0:0:0:
384,128,143325,1,2,0:0:0:0:
384,144,143380,1,0,0:0:0:0:
384,160,143436,1,0,0:0:0:0:
384,176,143492,1,0,0:0:0:0:
384,192,143547,2,0,L|384:240,3,35,2|0|0|0,0:0|0:0|0:0|0:0,0:0:0:0:
384,256,143769,2,0,L|384:304,3,35,2|0|0|0,0:0|0:0|0:0|0:0,0:0:0:0:
384,320,143991,5,2,0:0:0:0:
368,320,144046,1,0,0:0:0:0:
352,320,144102,1,0,0:0:0:0:
336,320,144157,1,0,0:0:0:0:
320,320,144213,1,2,0:0:0:0:
304,320,144268,1,0,0:0:0:0:
288,320,144324,1,0,0:0:0:0:
272,320,144380,1,0,0:0:0:0:
256,320,144435,2,0,L|208:320,3,35,2|0|0|0,0:0|0:0|0:0|0:0,0:0:0:0:
192,320,144657,2,0,L|144:320,3,35,2|0|0|0,0:0|0:0|0:0|0:0,0:0:0:0:
128,320,144880,5,2,0:0:0:0:
128,304,144935,1,0,0:0:0:0:
128,288,144991,1,0,0:0:0:0:
128,272,145046,1,0,0:0:0:0:
128,256,145102,1,2,0:0:0:0:
128,240,145157,1,0,0:0:0:0:
128,224,145213,1,0,0:0:0:0:
128,207,145269,1,0,0:0:0:0:
128,192,145324,2,0,L|128:144,3,35,2|0|0|0,0:0|0:0|0:0|0:0,0:0:0:0:
128,128,145546,2,0,L|128:80,3,35,2|0|0|0,0:0|0:0|0:0|0:0,0:0:0:0:
128,64,145770,5,2,0:0:0:0:
144,64,145825,1,0,0:0:0:0:
160,64,145881,1,0,0:0:0:0:
176,64,145936,1,0,0:0:0:0:
192,64,145992,1,2,0:0:0:0:
208,64,146047,1,0,0:0:0:0:
224,64,146103,1,0,0:0:0:0:
240,64,146159,1,0,0:0:0:0:
256,64,146214,2,0,L|304:64,3,35,2|0|0|0,0:0|0:0|0:0|0:0,0:0:0:0:
320,64,146436,2,0,L|368:64,3,35,2|0|0|0,0:0|0:0|0:0|0:0,0:0:0:0:
384,64,146659,5,2,0:0:0:0:
384,80,146714,1,0,0:0:0:0:
384,96,146770,1,0,0:0:0:0:
384,112,146825,1,0,0:0:0:0:
384,128,146881,1,2,0:0:0:0:
384,144,146936,1,0,0:0:0:0:
384,160,146992,1,0,0:0:0:0:
384,176,147048,1,0,0:0:0:0:
384,192,147103,2,0,L|384:240,3,35,2|0|0|0,0:0|0:0|0:0|0:0,0:0:0:0:
384,256,147325,2,0,L|384:304,3,35,2|0|0|0,0:0|0:0|0:0|0:0,0:0:0:0:
384,320,147547,5,2,0:0:0:0:
368,320,147602,1,0,0:0:0:0:
352,320,147658,1,0,0:0:0:0:
336,320,147713,1,0,0:0:0:0:
320,320,147769,1,2,0:0:0:0:
304,320,147824,1,0,0:0:0:0:
288,320,147880,1,0,0:0:0:0:
272,320,147936,1,0,0:0:0:0:
256,320,147991,2,0,L|208:320,3,35,2|0|0|0,0:0|0:0|0:0|0:0,0:0:0:0:
192,320,148213,2,0,L|144:320,3,35,2|0|0|0,0:0|0:0|0:0|0:0,0:0:0:0:
128,320,148436,5,2,0:0:0:0:
128,304,148491,1,0,0:0:0:0:
128,288,148547,1,0,0:0:0:0:
128,272,148602,1,0,0:0:0:0:
128,256,148658,1,2,0:0:0:0:
128,240,148713,1,0,0:0:0:0:
128,224,148769,1,0,0:0:0:0:
128,207,148825,1,0,0:0:0:0:
128,192,148880,2,0,L|128:144,3,35,2|0|0|0,0:0|0:0|0:0|0:0,0:0:0:0:
128,128,149102,2,0,L|128:80,3,35,2|0|0|0,0:0|0:0|0:0|0:0,0:0:0:0:
128,64,149325,5,2,0:0:0:0:
144,64,149380,1,0,0:0:0:0:
160,64,149436,1,0,0:0:0:0:
176,64,149491,1,0,0:0:0:0:
192,64,149547,1,2,0:0:0:0:
208,64,149602,1,0,0:0:0:0:
224,64,149658,1,0,0:0:0:0:
240,64,149714,1,0,0:0:0:0:
256,64,149769,2,0,L|304:64,3,35,2|0|0|0,0:0|0:0|0:0|0:0,0:0:0:0:
320,64,149991,2,0,L|368:64,3,35,2|0|0|0,0:0|0:0|0:0|0:0,0:0:0:0:
384,64,150214,5,2,0:0:0:0:
384,80,150269,1,0,0:0:0:0:
384,96,150325,1,0,0:0:0:0:
384,112,150380,1,0,0:0:0:0:
384,128,150436,1,2,0:0:0:0:
384,144,150491,1,0,0:0:0:0:
384,160,150547,1,0,0:0:0:0:
384,176,150603,1,0,0:0:0:0:
384,192,150658,2,0,L|384:240,3,35,2|0|0|0,0:0|0:0|0:0|0:0,0:0:0:0:
384,256,150880,2,0,L|384:304,3,35,2|0|0|0,0:0|0:0|0:0|0:0,0:0:0:0:
384,320,151102,5,2,0:0:0:0:
368,320,151157,1,0,0:0:0:0:
352,320,151213,1,0,0:0:0:0:
336,320,151268,1,0,0:0:0:0:
320,320,151324,1,2,0:0:0:0:
304,320,151379,1,0,0:0:0:0:
288,320,151435,1,0,0:0:0:0:
272,320,151491,1,0,0:0:0:0:
256,320,151546,2,0,L|208:320,3,35,2|0|0|0,0:0|0:0|0:0|0:0,0:0:0:0:
192,320,151768,2,0,L|144:320,3,35,2|0|0|0,0:0|0:0|0:0|0:0,0:0:0:0:
128,320,151991,5,2,0:0:0:0:
128,304,152046,1,0,0:0:0:0:
128,288,152102,1,0,0:0:0:0:
128,272,152157,1,0,0:0:0:0:
128,256,152213,1,2,0:0:0:0:
128,240,152268,1,0,0:0:0:0:
128,224,152324,1,0,0:0:0:0:
128,207,152380,1,0,0:0:0:0:
128,192,152435,2,0,L|128:144,3,35,2|0|0|0,0:0|0:0|0:0|0:0,0:0:0:0:
128,128,152657,2,0,L|128:80,3,35,2|0|0|0,0:0|0:0|0:0|0:0,0:0:0:0:
128,64,167104,5,2,0:0:0:0:
144,64,167159,1,0,0:0:0:0:
160,64,167215,1,0,0:0:0:0:
176,64,167270,1,0,0:0:0:0:
192,64,167326,1,2,0:0:0:0:
208,64,167381,1,0,0:0:0:0:
224,64,167437,1,0,0:0:0:0:
240,64,167493,1,0,0:0:0:0:
256,64,167548,2,0,L|304:64,3,35,2|0|0|0,0:0|0:0|0:0|0:0,0:0:0:0:
320,64,167770,2,0,L|368:64,3,35,2|0|0|0,0:0|0:0|0:0|0:0,0:0:0:0:
384,64,167993,5,2,0:0:0:0:
384,80,168048,1,0,0:0:0:0:
384,96,168104,1,0,0:0:0:0:
384,112,168159,1,0,0:0:0:0:
384,128,168215,1,2,0:0:0:0:
384,144,168270,1,0,0:0:0:0:
384,160,168326,1,0,0:0:0:0:
384,176,168382,1,0,0:0:0:0:
384,192,168437,2,0,L|384:240,3,35,2|0|0|0,0:0|0:0|0:0|0:0,0:0:0:0:
384,256,168659,2,0,L|384:304,3,35,2|0|0|0,0:0|0:0|0:0|0:0,0:0:0:0:
384,320,168881,5,2,0:0:0:0:
368,320,168936,1,0,0:0:0:0:
352,320,168992,1,0,0:0:0:0:
336,320,169047,1,0,0:0:0:0:
320,320,169103,1,2,0:0:0:0:
304,320,169158,1,0,0:0:0:0:
288,320,169214,1,0,0:0:0:0:
272,320,169270,1,0,0:0:0:0:
256,320,169325,2,0,L|208:320,3,35,2|0|0|0,0:0|0:0|0:0|0:0,0:0:0:0:
192,320,169547,2,0,L|144:320,3,35,2|0|0|0,0:0|0:0|0:0|0:0,0:0:0:0:
128,320,169770,5,2,0:0:0:0:
128,304,169825,1,0,0:0:0:0:
128,288,169881,1,0,0:0:0:0:
128,272,169936,1,0,0:0:0:0:
128,256,169992,1,2,0:0:0:0:
128,240,170047,1,0,0:0:0:0:
128,224,170103,1,0,0:0:0:0:
128,207,170159,1,0,0:0:0:0:
128,192,170214,2,0,L|128:144,3,35,2|0|0|0,0:0|0:0|0:0|0:0,0:0:0:0:
128,128,170436,2,0,L|128:80,3,35,2|0|0|0,0:0|0:0|0:0|0:0,0:0:0:0:
128,64,170659,5,2,0:0:0:0:
144,64,170714,1,0,0:0:0:0:
160,64,170770,1,0,0:0:0:0:
176,64,170825,1,0,0:0:0:0:
192,64,170881,1,2,0:0:0:0:
208,64,170936,1,0,0:0:0:0:
224,64,170992,1,0,0:0:0:0:
240,64,171048,1,0,0:0:0:0:
256,64,171103,2,0,L|304:64,3,35,2|0|0|0,0:0|0:0|0:0|0:0,0:0:0:0:
320,64,171325,2,0,L|368:64,3,35,2|0|0|0,0:0|0:0|0:0|0:0,0:0:0:0:
384,64,171548,5,2,0:0:0:0:
384,80,171603,1,0,0:0:0:0:
384,96,171659,1,0,0:0:0:0:
384,112,171714,1,0,0:0:0:0:
384,128,171770,1,2,0:0:0:0:
384,144,171825,1,0,0:0:0:0:
384,160,171881,1,0,0:0:0:0:
384,176,171937,1,0,0:0:0:0:
384,192,171992,2,0,L|384:240,3,35,2|0|0|0,0:0|0:0|0:0|0:0,0:0:0:0:
384,256,172214,2,0,L|384:304,3,35,2|0|0|0,0:0|0:0|0:0|0:0,0:0:0:0:
384,320,172436,5,2,0:0:0:0:
368,320,172491,1,0,0:0:0:0:
352,320,172547,1,0,0:0:0:0:
336,320,172602,1,0,0:0:0:0:
320,320,172658,1,2,0:0:0:0:
304,320,172713,1,0,0:0:0:0:
288,320,172769,1,0,0:0:0:0:
272,320,172825,1,0,0:0:0:0:
256,320,172880,2,0,L|208:320,3,35,2|0|0|0,0:0|0:0|0:0|0:0,0:0:0:0:
192,320,173102,2,0,L|144:320,3,35,2|0|0|0,0:0|0:0|0:0|0:0,0:0:0:0:
128,320,173325,5,2,0:0:0:0:
128,304,173380,1,0,0:0:0:0:
128,288,173436,1,0,0:0:0:0:
128,272,173491,1,0,0:0:0:0:
128,256,173547,1,2,0:0:0:0:
128,240,173602,1,0,0:0:0:0:
128,224,173658,1,0,0:0:0:0:
128,207,173714,1,0,0:0:0:0:
128,192,173769,2,0,L|128:144,3,35,2|0|0|0,0:0|0:0|0:0|0:0,0:0:0:0:
128,128,173991,2,0,L|128:80,3,35,2|0|0|0,0:0|0:0|0:0|0:0,0:0:0:0:
128,64,174215,5,2,0:0:0:0:
144,64,174270,1,0,0:0:0:0:
160,64,174326,1,0,0:0:0:0:
176,64,174381,1,0,0:0:0:0:
192,64,174437,1,2,0:0:0:0:
208,64,174492,1,0,0:0:0:0:
224,64,174548,1,0,0:0:0:0:
240,64,174604,1,0,0:0:0:0:
256,64,174659,2,0,L|304:64,3,35,2|0|0|0,0:0|0:0|0:0|0:0,0:0:0:0:
320,64,174881,2,0,L|368:64,3,35,2|0|0|0,0:0|0:0|0:0|0:0,0:0:0:0:
384,64,175104,5,2,0:0:0:0:
384,80,175159,1,0,0:0:0:0:
384,96,175215,1,0,0:0:0:0:
384,112,175270,1,0,0:0:0:0:
384,128,175326,1,2,0:0:0:0:
384,144,175381,1,0,0:0:0:0:
384,160,175437,1,0,0:0:0:0:
384,176,175493,1,0,0:0:0:0:
384,192,175548,2,0,L|384:240,3,35,2|0|0|0,0:0|0:0|0:0|0:0,0:0:0:0:
384,256,175770,2,0,L|384:304,3,35,2|0|0|0,0:0|0:0|0:0|0:0,0:0:0:0:
384,320,175992,5,2,0:0:0:0:
368,320,176047,1,0,0:0:0:0:
352,320,176103,1,0,0:0:0:0:
336,320,176158,1,0,0:0:0:0:
320,320,176214,1,2,0:0:0:0:
304,320,176269,1,0,0:0:0:0:
288,320,176325,1,0,0:0:0:0:
272,320,176381,1,0,0:0:0:0:
256,320,176436,2,0,L|208:320,3,35,2|0|0|0,0:0|0:0|0:0|0:0,0:0:0:0:
192,320,176658,2,0,L|144:320,3,35,2|0|0|0,0:0|0:0|0:0|0:0,0:0:0:0:
128,320,176881,5,2,0:0:0:0:
128,304,176936,1,0,0:0:0:0:
128,288,176992,1,0,0:0:0:0:
128,272,177047,1,0,0:0:0:0:
128,256,177103,1,2,0:0:0:0:
128,240,177158,1,0,0:0:0:0:
128,224,177214,1,0,0:0:0:0:
128,207,177270,1,0,0:0:0:0:
128,192,177325,2,0,L|128:144,3,35,2|0|0|0,0:0|0:0|0:0|0:0,0:0:0:0:
128,128,177547,2,0,L|128:80,3,35,2|0|0|0,0:0|0:0|0:0|0:0,0:0:0:0:
128,64,177770,5,2,0:0:0:0:
144,64,177825,1,0,0:0:0:0:
160,64,177881,1,0,0:0:0:0:
176,64,177936,1,0,0:0:0:0:
192,64,177992,1,2,0:0:0:0:
208,64,178047,1,0,0:0:0:0:
224,64,178103,1,0,0:0:0:0:
240,64,178159,1,0,0:0:0:0:
256,64,178214,2,0,L|304:64,3,35,2|0|0|0,0:0|0:0|0:0|0:0,0:0:0:0:
320,64,178436,2,0,L|368:64,3,35,2|0|0|0,0:0|0:0|0:0|0:0,0:0:0:0:
384,64,178659,5,2,0:0:0:0:
384,80,178714,1,0,0:0:0:0:
384,96,178770,1,0,0:0:0:0:
384,112,178825,1,0,0:0:0:0:
384,128,178881,1,2,0:0:0:0:
384,144,178936,1,0,0:0:0:0:
384,160,178992,1,0,0:0:0:0:
384,176,179048,1,0,0:0:0:0:
384,192,179103,2,0,L|384:240,3,35,2|0|0|0,0:0|0:0|0:0|0:0,0:0:0:0:
384,256,179325,2,0,L|384:304,3,35,2|0|0|0,0:0|0:0|0:0|0:0,0:0:0:0:
384,320,179547,5,2,0:0:0:0:
368,320,179602,1,0,0:0:0:0:
352,320,179658,1,0,0:0:0:0:
336,320,179713,1,0,0:0:0:0:
320,320,179769,1,2,0:0:0:0:
304,320,179824,1,0,0:0:0:0:
288,320,179880,1,0,0:0:0:0:
272,320,179936,1,0,0:0:0:0:
256,320,179991,2,0,L|208:320,3,35,2|0|0|0,0:0|0:0|0:0|0:0,0:0:0:0:
192,320,180213,2,0,L|144:320,3,35,2|0|0|0,0:0|0:0|0:0|0:0,0:0:0:0:
128,320,180436,5,2,0:0:0:0:
128,304,180491,1,0,0:0:0:0:
128,288,180547,1,0,0:0:0:0:
128,272,180602,1,0,0:0:0:0:
128,256,180658,1,2,0:0:0:0:
128,240,180713,1,0,0:0:0:0:
128,224,180769,1,0,0:0:0:0:
128,207,180825,1,0,0:0:0:0:
128,192,180880,2,0,L|128:144,3,35,2|0|0|0,0:0|0:0|0:0|0:0,0:0:0:0:
128,128,181102,2,0,L|128:80,3,35,2|0|0|0,0:0|0:0|0:0|0:0,0:0:0:0:
128,64,181326,5,2,0:0:0:0:
144,64,181381,1,0,0:0:0:0:
160,64,181437,1,0,0:0:0:0:
176,64,181492,1,0,0:0:0:0:
192,64,181548,1,2,0:0:0:0:
208,64,181603,1,0,0:0:0:0:
224,64,181659,1,0,0:0:0:0:
240,64,181715,1,0,0:0:0:0:
256,64,181770,2,0,L|304:64,3,35,2|0|0|0,0:0|0:0|0:0|0:0,0:0:0:0:
320,64,181992,2,0,L|368:64,3,35,2|0|0|0,0:0|0:0|0:0|0:0,0:0:0:0:
384,64,182215,5,2,0:0:0:0:
384,80,182270,1,0,0:0:0:0:
384,96,182326,1,0,0:0:0:0:
384,112,182381,1,0,0:0:0:0:
384,128,182437,1,2,0:0:0:0:
384,144,182492,1,0,0:0:0:0:
384,160,182548,1,0,0:0:0:0:
384,176,182604,1,0,0:0:0:0:
384,192,182659,2,0,L|384:240,3,35,2|0|0|0,0:0|0:0|0:0|0:0,0:0:0:0:
384,256,182881,2,0,L|384:304,3,35,2|0|0|0,0:0|0:0|0:0|0:0,0:0:0:0:
384,320,183103,5,2,0:0:0:0:
368,320,183158,1,0,0:0:0:0:
352,320,183214,1,0,0:0:0:0:
336,320,183269,1,0,0:0:0:0:
320,320,183325,1,2,0:0:0:0:
304,320,183380,1,0,0:0:0:0:
288,320,183436,1,0,0:0:0:0:
272,320,183492,1,0,0:0:0:0:
256,320,183547,2,0,L|208:320,3,35,2|0|0|0,0:0|0:0|0:0|0:0,0:0:0:0:
192,320,183769,2,0,L|144:320,3,35,2|0|0|0,0:0|0:0|0:0|0:0,0:0:0:0:
128,320,183992,5,2,0:0:0:0:
128,304,184047,1,0,0:0:0:0:
128,288,184103,1,0,0:0:0:0:
128,272,184158,1,0,0:0:0:0:
128,256,184214,1,2,0:0:0:0:
128,240,184269,1,0,0:0:0:0:
128,224,184325,1,0,0:0:0:0:
128,207,184381,1,0,0:0:0:0:
128,192,184436,2,0,L|128:144,3,35,2|0|0|0,0:0|0:0|0:0|0:0,0:0:0:0:
128,128,184658,2,0,L|128:80,3,35,2|0|0|0,0:0|0:0|0:0|0:0,0:0:0:0:
128,64,184881,5,2,0:0:0:0:
144,64,184936,1,0,0:0:0:0:
160,64,184992,1,0,0:0:0:0:
176,64,185047,1,0,0:0:0:0:
192,64,185103,1,2,0:0:0:0:
208,64,185158,1,0,0:0:0:0:
224,64,185214,1,0,0:0:0:0:
240,64,185270,1,0,0:0:0:0:
256,64,185325,2,0,L|304:64,3,35,2|0|0|0,0:0|0:0|0:0|0:0,0:0:0:0:
320,64,185547,2,0,L|368:64,3,35,2|0|0|0,0:0|0:0|0:0|0:0,0:0:0:0:
384,64,185770,5,2,0:0:0:0:
384,80,185825,1,0,0:0:0:0:
384,96,185881,1,0,0:0:0:0:
384,112,185936,1,0,0:0:0:0:
384,128,185992,1,2,0:0:0:0:
384,144,186047,1,0,0:0:0:0:
384,160,186103,1,0,0:0:0:0:
384,176,186159,1,0,0:0:0:0:
384,192,186214,2,0,L|384:240,3,35,2|0|0|0,0:0|0:0|0:0|0:0,0:0:0:0:
384,256,186436,2,0,L|384:304,3,35,2|0|0|0,0:0|0:0|0:0|0:0,0:0:0:0:
384,320,186658,5,2,0:0:0:0:
368,320,186713,1,0,0:0:0:0:
352,320,186769,1,0,0:0:0:0:
336,320,186824,1,0,0:0:0:0:
320,320,186880,1,2,0:0:0:0:
304,320,186935,1,0,0:0:0:0:
288,320,186991,1,0,0:0:0:0:
272,320,187047,1,0,0:0:0:0:
256,320,187102,2,0,L|208:320,3,35,2|0|0|0,0:0|0:0|0:0|0:0,0:0:0:0:
192,320,187324,2,0,L|144:320,3,35,2|0|0|0,0:0|0:0|0:0|0:0,0:0:0:0:
128,320,187547,5,2,0:0:0:0:
128,304,187602,1,0,0:0:0:0:
128,288,187658,1,0,0:0:0:0:
128,272,187713,1,0,0:0:0:0:
128,256,187769,1,2,0:0:0:0:
128,240,187824,1,0,0:0:0:0:
128,224,187880,1,0,0:0:0:0:
128,207,187936,1,0,0:0:0:0:
128,192,187991,2,0,L|128:144,3,35,2|0|0|0,0:0|0:0|0:0|0:0,0:0:0:0:
128,128,188213,2,0,L|128:80,3,35,2|0|0|0,0:0|0:0|0:0|0:0,0:0:0:0:
128,64,188437,5,2,0:0:0:0:
144,64,188492,1,0,0:0:0:0:
160,64,188548,1,0,0:0:0:0:
176,64,188603,1,0,0:0:0:0:
192,64,188659,1,2,0:0:0:0:
208,64,188714,1,0,0:0:0:0:
224,64,188770,1,0,0:0:0:0:
240,64,188826,1,0,0:0:0:0:
256,64,188881,2,0,L|304:64,3,35,2|0|0|0,0:0|0:0|0:0|0:0,0:0:0:0:
320,64,189103,2,0,L|368:64,3,35,2|0|0|0,0:0|0:0|0:0|0:0,0:0:0:0:
384,64,189326,5,2,0:0:0:0:
384,80,189381,1,0,0:0:0:0:
384,96,189437,1,0,0:0:0:0:
384,112,189492,1,0,0:0:0:0:
384,128,189548,1,2,0:0:0:0:
384,144,189603,1,0,0:0:0:0:
384,160,189659,1,0,0:0:0:0:
384,176,189715,1,0,0:0:0:0:
384,192,189770,2,0,L|384:240,3,35,2|0|0|0,0:0|0:0|0:0|0:0,0:0:0:0:
384,256,189992,2,0,L|384:304,3,35,2|0|0|0,0:0|0:0|0:0|0:0,0:0:0:0:
384,320,190214,5,2,0:0:0:0:
368,320,190269,1,0,0:0:0:0:
352,320,190325,1,0,0:0:0:0:
336,320,190380,1,0,0:0:0:0:
320,320,190436,1,2,0:0:0:0:
304,320,190491,1,0,0:0:0:0:
288,320,190547,1,0,0:0:0:0:
272,320,190603,1,0,0:0:0:0:
256,320,190658,2,0,L|208:320,3,35,2|0|0|0,0:0|0:0|0:0|0:0,0:0:0:0:
192,320,190880,2,0,L|144:320,3,35,2|0|0|0,0:0|0:0|0:0|0:0,0:0:0:0:
128,320,191103,5,2,0:0:0:0:
128,304,191158,1,0,0:0:0:0:
128,288,191214,1,0,0:0:0:0:
128,272,191269,1,0,0:0:0:0:
128,256,191325,1,2,0:0:0:0:
128,240,191380,1,0,0:0:0:0:
128,224,191436,1,0,0:0:0:0:
128,207,191492,1,0,0:0:0:0:
128,192,191547,2,0,L|128:144,3,35,2|0|0|0,0:0|0:0|0:0|0:0,0:0:0:0:
128,128,191769,2,0,L|128:80,3,35,2|0|0|0,0:0|0:0|0:0|0:0,0:0:0:0:
128,64,191992,5,2,0:0:0:0:
144,64,192047,1,0,0:0:0:0:
160,64,192103,1,0,0:0:0:0:
176,64,192158,1,0,0:0:0:0:
192,64,192214,1,2,0:0:0:0:
208,64,192269,1,0,0:0:0:0:
224,64,192325,1,0,0:0:0:0:
240,64,192381,1,0,0:0:0:0:
256,64,192436,2,0,L|304:64,3,35,2|0|0|0,0:0|0:0|0:0|0:0,0:0:0:0:
320,64,192658,2,0,L|368:64,3,35,2|0|0|0,0:0|0:0|0:0|0:0,0:0:0:0:
384,64,192881,5,2,0:0:0:0:
384,80,192936,1,0,0:0:0:0:
384,96,192992,1,0,0:0:0:0:
384,112,193047,1,0,0:0:0:0:
384,128,193103,1,2,0:0:0:0:
384,144,193158,1,0,0:0:0:0:
384,160,193214,1,0,0:0:0:0:
384,176,193270,1,0,0:0:0:0:
384,192,193325,2,0,L|384:240,3,35,2|0|0|0,0:0|0:0|0:0|0:0,0:0:0:0:
384,256,193547,2,0,L|384:304,3,35,2|0|0|0,0:0|0:0|0:0|0:0,0:0:0:0:
384,320,193769,5,2,0:0:0:0:
368,320,193824,1,0,0:0:0:0:
352,320,193880,1,0,0:0:0:0:
336,320,193935,1,0,0:0:0:0:
320,320,193991,1,2,0:0:0:0:
304,320,194046,1,0,0:0:0:0:
288,320,194102,1,0,0:0:0:0:
272,320,194158,1,0,0:0:0:0:
256,320,194213,2,0,L|208:320,3,35,2|0|0|0,0:0|0:0|0:0|0:0,0:0:0:0:
192,320,194435,2,0,L|144:320,3,35,2|0|0|0,0:0|0:0|0:0|0:0,0:0:0:0:
128,320,194658,5,2,0:0:0:0:
128,304,194713,1,0,0:0:0:0:
128,288,194769,1,0,0:0:0:0:
128,272,194824,1,0,0:0:0:0:
128,256,194880,1,2,0:0:0:0:
128,240,194935,1,0,0:0:0:0:
128,224,194991,1,0,0:0:0:0:
128,207,195047,1,0,0:0:0:0:
128,192,195102,2,0,L|128:144,3,35,2|0|0|0,0:0|0:0|0:0|0:0,0:0:0:0:
128,128,195324,2,0,L|128:80,3,35,2|0|0|0,0:0|0:0|0:0|0:0,0:0:0:0:
128,64,195548,5,2,0:0:0:0:
144,64,195603,1,0,0:0:0:0:
160,64,195659,1,0,0:0:0:0:
176,64,195714,1,0,0:0:0:0:
192,64,195770,1,2,0:0:0:0:
208,64,195825,1,0,0:0:0:0:
224,64,195881,1,0,0:0:0:0:
240,64,195937,1,0,0:0:0:0:
256,64,195992,2,0,L|304:64,3,35,2|0|0|0,0:0|0:0|0:0|0:0,0:0:0:0:
320,64,196214,2,0,L|368:64,3,35,2|0|0|0,0:0|0:0|0:0|0:0,0:0:0:0:
384,64,196437,5,2,0:0:0:0:
384,80,196492,1,0,0:0:0:0:
384,96,196548,1,0,0:0:0:0:
384,112,196603,1,0,0:0:0:0:
384,128,196659,1,2,0:0:0:0:
384,144,196714,1,0,0:0:0:0:
384,160,196770,1,0,0:0:0:0:
384,176,196826,1,0,0:0:0:0:
384,192,196881,2,0,L|384:240,3,35,2|0|0|0,0:0|0:0|0:0|0:0,0:0:0:0:
384,256,197103,2,0,L|384:304,3,35,2|0|0|0,0:0|0:0|0:0|0:0,0:0:0:0:
384,320,197325,5,2,0:0:0:0:
368,320,197380,1,0,0:0:0:0:
352,320,197436,1,0,0:0:0:0:
336,320,197491,1,0,0:0:0:0:
320,320,197547,1,2,0:0:0:0:
304,320,197602,1,0,0:0:0:0:
288,320,197658,1,0,0:0:0:0:
272,320,197714,1,0,0:0:0:0:
256,320,197769,2,0,L|208:320,3,35,2|0|0|0,0:0|0:0|0:0|0:0,0:0:0:0:
192,320,197991,2,0,L|144:320,3,35,2|0|0|0,0:0|0:0|0:0|0:0,0:0:0:0:
128,320,198214,5,2,0:0:0:0:
128,304,198269,1,0,0:0:0:0:
128,288,198325,1,0,0:0:0:0:
128,272,198380,1,0,0:0:0:0:
128,256,198436,1,2,0:0:0:0:
128,240,198491,1,0,0:0:0:0:
128,224,198547,1,0,0:0:0:0:
128,207,198603,1,0,0:0:0:0:
128,192,198658,2,0,L|128:144,3,35,2|0|0|0,0:0|0:0|0:0|0:0,0:0:0:0:
128,128,198880,2,0,L|128:80,3,35,2|0|0|0,0:0|0:0|0:0|0:0,0:0:0:0:
128,64,199103,5,2,0:0:0:0:
144,64,199158,1,0,0:0:0:0:
160,64,199214,1,0,0:0:0:0:
176,64,199269,1,0,0:0:0:0:
192,64,199325,1,2,0:0:0:0:
208,64,199380,1,0,0:0:0:0:
224,64,199436,1,0,0:0:0:0:
240,64,199492,1,0,0:0:0:0:
256,64,199547,2,0,L|304:64,3,35,2|0|0|0,0:0|0:0|0:0|0:0,0:0:0:0:
320,64,199769,2,0,L|368:64,3,35,2|0|0|0,0:0|0:0|0:0|0:0,0:0:0:0:
384,64,199992,5,2,0:0:0:0:
384,80,200047,1,0,0:0:0:0:
384,96,200103,1,0,0:0:0:0:
384,112,200158,1,0,0:0:0:0:
384,128,200214,1,2,0:0:0:0:
384,144,200269,1,0,0:0:0:0:
384,160,200325,1,0,0:0:0:0:
384,176,200381,1,0,0:0:0:0:
384,192,200436,2,0,L|384:240,3,35,2|0|0|0,0:0|0:0|0:0|0:0,0:0:0:0:
384,256,200658,2,0,L|384:304,3,35,2|0|0|0,0:0|0:0|0:0|0:0,0:0:0:0:
384,320,200880,5,2,0:0:0:0:
368,320,200935,1,0,0:0:0:0:
352,320,200991,1,0,0:0:0:0:
336,320,201046,1,0,0:0:0:0:
320,320,201102,1,2,0:0:0:0:
304,320,201157,1,0,0:0:0:0:
288,320,201213,1,0,0:0:0:0:
272,320,201269,1,0,0:0:0:0:
256,320,201324,2,0,L|208:320,3,35,2|0|0|0,0:0|0:0|0:0|0:0,0:0:0:0:
192,320,201546,2,0,L|144:320,3,35,2|0|0|0,0:0|0:0|0:0|0:0,0:0:0:0:
128,320,201769,5,2,0:0:0:0:
128,304,201824,1,0,0:0:0:0:
128,288,201880,1,0,0:0:0:0:
128,272,201935,1,0,0:0:0:0:
128,256,201991,1,2,0:0:0:0:
128,240,202046,1,0,0:0:0:0:
128,224,202102,1,0,0:0:0:0:
128,207,202158,1,0,0:0:0:0:
128,192,202213,2,0,L|128:144,3,35,2|0|0|0,0:0|0:0|0:0|0:0,0:0:0:0:
128,128,202435,2,0,L|128:80,3,35,2|0|0|0,0:0|0:0|0:0|0:0,0:0:0:0:
128,64,202659,5,2,0:0:0:0:
144,64,202714,1,0,0:0:0:0:
160,64,202770,1,0,0:0:0:0:
176,64,202825,1,0,0:0:0:0:
192,64,202881,1,2,0:0:0:0:
208,64,202936,1,0,0:0:0:0:
224,64,202992,1,0,0:0:0:0:
240,64,203048,1,0,0:0:0:0:
256,64,203103,2,0,L|304:64,3,35,2|0|0|0,0:0|0:0|0:0|0:0,0:0:0:0:
320,64,203325,2,0,L|368:64,3,35,2|0|0|0,0:0|0:0|0:0|0:0,0:0:0:0:
384,64,203548,5,2,0:0:0:0:
384,80,203603,1,0,0:0:0:0:
384,96,203659,1,0,0:0:0:0:
384,112,203714,1,0,0:0:0:0:
384,128,203770,1,2,0:0:0:0:
384,144,203825,1,0,0:0:0:0:
384,160,203881,1,0,0:0:0:0:
384,176,203937,1,0,0:0:0:0:
384,192,203992,2,0,L|384:240,3,35,2|0|0|0,0:0|0:0|0:0|0:0,0:0:0:0:
384,256,204214,2,0,L|384:304,3,35,2|0|0|0,0:0|0:0|0:0|0:0,0:0:0:0:
384,320,204436,5,2,0:0:0:0:
368,320,204491,1,0,0:0:0:0:
352,320,204547,1,0,0:0:0:0:
336,320,204602,1,0,0:0:0:0:
320,320,204658,1,2,0:0:0:0:
304,320,204713,1,0,0:0:0:0:
288,320,204769,1,0,0:0:0:0:
272,320,204825,1,0,0:0:0:0:
256,320,204880,2,0,L|208:320,3,35,2|0|0|0,0:0|0:0|0:0|0:0,0:0:0:0:
192,320,205102,2,0,L|144:320,3,35,2|0|0|0,0:0|0:0|0:0|0:0,0:0:0:0:
128,320,205325,5,2,0:0:0:0:
128,304,205380,1,0,0:0:0:0:
128,288,205436,1,0,0:0:0:0:
128,272,205491,1,0,0:0:0:0:
128,256,205547,1,2,0:0:0:0:
128,240,205602,1,0,0:0:0:0:
128,224,205658,1,0,0:0:0:0:
128,207,205714,1,0,0:0:0:0:
128,192,205769,2,0,L|128:144,3,35,2|0|0|0,0:0|0:0|0:0|0:0,0:0:0:0:
128,128,205991,2,0,L|128:80,3,35,2|0|0|0,0:0|0:0|0:0|0:0,0:0:0:0:
128,64,206214,5,2,0:0:0:0:
144,64,206269,1,0,0:0:0:0:
160,64,206325,1,0,0:0:0:0:
176,64,206380,1,0,0:0:0:0:
192,64,206436,1,2,0:0:0:0:
208,64,206491,1,0,0:0:0:0:
224,64,206547,1,0,0:0:0:0:
240,64,206603,1,0,0:0:0:0:
256,64,206658,2,0,L|304:64,3,35,2|0|0|0,0:0|0:0|0:0|0:0,0:0:0:0:
320,64,206880,2,0,L|368:64,3,35,2|0|0|0,0:0|0:0|0:0|0:0,0:0:0:0:
384,64,207103,5,2,0:0:0:0:
384,80,207158,1,0,0:0:0:0:
384,96,207214,1,0,0:0:0:0:
384,112,207269,1,0,0:0:0:0:
384,128,207325,1,2,0:0:0:0:
384,144,207380,1,0,0:0:0:0:
384,160,207436,1,0,0:0:0:0:
384,176,207492,1,0,0:0:0:0:
384,192,207547,2,0,L|384:240,3,35,2|0|0|0,0:0|0:0|0:0|0:0,0:0:0:0:
384,256,207769,2,0,L|384:304,3,35,2|0|0|0,0:0|0:0|0:0|0:0,0:0:0:0:
384,320,207991,5,2,0:0:0:0:
368,320,208046,1,0,0:0:0:0:
352,320,208102,1,0,0:0:0:0:
336,320,208157,1,0,0:0:0:0:
320,320,208213,1,2,0:0:0:0:
304,320,208268,1,0,0:0:0:0:
288,320,208324,1,0,0:0:0:0:
272,320,208380,1,0,0:0:0:0:
256,320,208435,2,0,L|208:320,3,35,2|0|0|0,0:0|0:0|0:0|0:0,0:0:0:0:
192,320,208657,2,0,L|144:320,3,35,2|0|0|0,0:0|0:0|0:0|0:0,0:0:0:0:
128,320,208880,5,2,0:0:0:0:
128,304,208935,1,0,0:0:0:0:
128,288,208991,1,0,0:0:0:0:
128,272,209046,1,0,0:0:0:0:
128,256,209102,1,2,0:0:0:0:
128,240,209157,1,0,0:0:0:0:
128,224,209213,1,0,0:0:0:0:
128,207,209269,1,0,0:0:0:0:
128,192,209324,2,0,L|128:144,3,35,2|0|0|0,0:0|0:0|0:0|0:0,0:0:0:0:
128,128,209546,2,0,L|128:80,3,35,2|0|0|0,0:0|0:0|0:0|0:0,0:0:0:0:
128,64,213326,5,2,0:0:0:0:
144,64,213381,1,0,0:0:0:0:
160,64,213437,1,0,0:0:0:0:
176,64,213492,1,0,0:0:0:0:
192,64,213548,1,2,0:0:0:0:
208,64,213603,1,0,0:0:0:0:
224,64,213659,1,0,0:0:0:0:
240,64,213715,1,0,0:0:0:0:
256,64,213770,2,0,L|304:64,3,35,2|0|0|0,0:0|0:0|0:0|0:0,0:0:0:0:
320,64,213992,2,0,L|368:64,3,35,2|0|0|0,0:0|0:0|0:0|0:0,0:0:0:0:
384,64,214215,5,2,0:0:0:0:
384,80,214270,1,0,0:0:0:0:
384,96,214326,1,0,0:0:0:0:
384,112,214381,1,0,0:0:0:0:
384,128,214437,1,2,0:0:0:0:
384,144,214492,1,0,0:0:0:0:
384,160,214548,1,0,0:0:0:0:
384,176,214604,1,0,0:0:0:0:
384,192,214659,2,0,L|384:240,3,35,2|0|0|0,0:0|0:0|0:0|0:0,0:0:0:0:
384,256,214881,2,0,L|384:304,3,35,2|0|0|0,0:0|0:0|0:0|0:0,0:0:0:0:
384,320,215103,5,2,0:0:0:0:
368,320,215158,1,0,0:0:0:0:
352,320,215214,1,0,0:0:0:0:
336,320,215269,1,0,0:0:0:0:
320,320,215325,1,2,0:0:0:0:
304,320,215380,1,0,0:0:0:0:
288,320,215436,1,0,0:0:0:0:
272,320,215492,1,0,0:0:0:0:
256,320,215547,2,0,L|208:320,3,35,2|0|0|0,0:0|0:0|0:0|0:0,0:0:0:0:
192,320,215769,2,0,L|144:320,3,35,2|0|0|0,0:0|0:0|0:0|0:0,0:0:0:0:
128,320,215992,5,2,0:0:0:0:
128,304,216047,1,0,0:0:0:0:
128,288,216103,1,0,0:0:0:0:
128,272,216158,1,0,0:0:0:0:
128,256,216214,1,2,0:0:0:0:
128,240,216269,1,0,0:0:0:0:
128,224,216325,1,0,0:0:0:0:
128,207,216381,1,0,0:0:0:0:
128,192,216436,2,0,L|128:144,3,35,2|0|0|0,0:0|0:0|0:0|0:0,0:0:0:0:
128,128,216658,2,0,L|128:80,3,35,2|0|0|0,0:0|0:0|0:0|0:0,0:0:0:0:
128,64,216881,5,2,0:0:0:0:
144,64,216936,1,0,0:0:0:0:
160,64,216992,1,0,0:0:0:0:
176,64,217047,1,0,0:0:0:0:
192,64,217103,1,2,0:0:0:0:
208,64,217158,1,0,0:0:0:0:
224,64,217214,1,0,0:0:0:0:
240,64,217270,1,0,0:0:0:0:
256,64,217325,2,0,L|304:64,3,35,2|0|0|0,0:0|0:0|0:0|0:0,0:0:0:0:
320,64,217547,2,0,L|368:64,3,35,2|0|0|0,0:0|0:0|0:0|0:0,0:0:0:0:
384,64,217770,5,2,0:0:0:0:
384,80,217825,1,0,0:0:0:0:
384,96,217881,1,0,0:0:0:0:
384,112,217936,1,0,0:0:0:0:
384,128,217992,1,2,0:0:0:0:
384,144,218047,1,0,0:0:0:0:
384,160,218103,1,0,0:0:0:0:
384,176,218159,1,0,0:0:0:0:
384,192,218214,2,0,L|384:240,3,35,2|0|0|0,0:0|0:0|0:0|0:0,0:0:0:0:
384,256,218436,2,0,L|384:304,3,35,2|0|0|0,0:0|0:0|0:0|0:0,0:0:0:0:
384,320,218658,5,2,0:0:0:0:
368,320,218713,1,0,0:0:0:0:
352,320,218769,1,0,0:0:0:0:
336,320,218824,1,0,0:0:0:0:
320,320,218880,1,2,0:0:0:0:
304,320,218935,1,0,0:0:0:0:
288,320,218991,1,0,0:0:0:0:
272,320,219047,1,0,0:0:0:0:
256,320,219102,2,0,L|208:320,3,35,2|0|0|0,0:0|0:0|0:0|0:0,0:0:0:0:
192,320,219324,2,0,L|144:320,3,35,2|0|0|0,0:0|0:0|0:0|0:0,0:0:0:0:
128,320,219547,5,2,0:0:0:0:
128,304,219602,1,0,0:0:0:0:
128,288,219658,1,0,0:0:0:0:
128,272,219713,1,0,0:0:0:0:
128,256,219769,1,2,0:0:0:0:
128,240,219824,1,0,0:0:0:0:
128,224,219880,1,0,0:0:0:0:
128,207,219936,1,0,0:0:0:0:
128,192,219991,2,0,L|128:144,3,35,2|0|0|0,0:0|0:0|0:0|0:0,0:0:0:0:
128,128,220213,2,0,L|128:80,3,35,2|0|0|0,0:0|0:0|0:0|0:0,0:0:0:0:
128,64,220437,5,2,0:0:0:0:
144,64,220492,1,0,0:0:0:0:
160,64,220548,1,0,0:0:0:0:
176,64,220603,1,0,0:0:0:0:
192,64,220659,1,2,0:0:0:0:
208,64,220714,1,0,0:0:0:0:
224,64,220770,1,0,0:0:0:0:
240,64,220826,1,0,0:0:0:0:
256,64,220881,2,0,L|304:64,3,35,2|0|0|0,0:0|0:0|0:0|0:0,0:0:0:0:
320,64,221103,2,0,L|368:64,3,35,2|0|0|0,0:0|0:0|0:0|0:0,0:0:0:0:
384,64,221326,5,2,0:0:0:0:
384,80,221381,1,0,0:0:0:0:
384,96,221437,1,0,0:0:0:0:
384,112,221492,1,0,0:0:0:0:
384,128,221548,1,2,0:0:0:0:
384,144,221603,1,0,0:0:0:0:
384,160,221659,1,0,0:0:0:0:
384,176,221715,1,0,0:0:0:0:
384,192,221770,2,0,L|384:240,3,35,2|0|0|0,0:0|0:0|0:0|0:0,0:0:0:0:
384,256,221992,2,0,L|384:304,3,35,2|0|0|0,0:0|0:0|0:0|0:0,0:0:0:0:
384,320,222214,5,2,0:0:0:0:
368,320,222269,1,0,0:0:0:0:
352,320,222325,1,0,0:0:0:0:
336,320,222380,1,0,0:0:0:0:
320,320,222436,1,2,0:0:0:0:
304,320,222491,1,0,0:0:0:0:
288,320,222547,1,0,0:0:0:0:
272,320,222603,1,0,0:0:0:0:
256,320,222658,2,0,L|208:320,3,35,2|0|0|0,0:0|0:0|0:0|0:0,0:0:0:0:
192,320,222880,2,0,L|144:320,3,35,2|0|0|0,0:0|0:0|0:0|0:0,0:0:0:0:
128,320,223103,5,2,0:0:0:0:
128,304,223158,1,0,0:0:0:0:
128,288,223214,1,0,0:0:0:0:
128,272,223269,1,0,0:0:0:0:
128,256,223325,1,2,0:0:0:0:
128,240,223380,1,0,0:0:0:0:
128,224,223436,1,0,0:0:0:0:
128,207,223492,1,0,0:0:0:0:
128,192,223547,2,0,L|128:144,3,35,2|0|0|0,0:0|0:0|0:0|0:0,0:0:0:0:
128,128,223769,2,0,L|128:80,3,35,2|0|0|0,0:0|0:0|0:0|0:0,0:0:0:0:
128,64,223992,5,2,0:0:0:0:
144,64,224047,1,0,0:0:0:0:
160,64,224103,1,0,0:0:0:0:
176,64,224158,1,0,0:0:0:0:
192,64,224214,1,2,0:0:0:0:
208,64,224269,1,0,0:0:0:0:
224,64,224325,1,0,0:0:0:0:
240,64,224381,1,0,0:0:0:0:
256,64,224436,2,0,L|304:64,3,35,2|0|0|0,0:0|0:0|0:0|0:0,0:0:0:0:
320,64,224658,2,0,L|368:64,3,35,2|0|0|0,0:0|0:0|0:0|0:0,0:0:0:0:
384,64,224881,5,2,0:0:0:0:
384,80,224936,1,0,0:0:0:0:
384,96,224992,1,0,0:0:0:0:
384,112,225047,1,0,0:0:0:0:
384,128,225103,1,2,0:0:0:0:
384,144,225158,1,0,0:0:0:0:
384,160,225214,1,0,0:0:0:0:
384,176,225270,1,0,0:0:0:0:
384,192,225325,2,0,L|384:240,3,35,2|0|0|0,0:0|0:0|0:0|0:0,0:0:0:0:
384,256,225547,2,0,L|384:304,3,35,2|0|0|0,0:0|0:0|0:0|0:0,0:0:0:0:
384,320,225769,5,2,0:0:0:0:
368,320,225824,1,0,0:0:0:0:
352,320,225880,1,0,0:0:0:0:
336,320,225935,1,0,0:0:0:0:
320,320,225991,1,2,0:0:0:0:
304,320,226046,1,0,0:0:0:0:
288,320,226102,1,0,0:0:0:0:
272,320,226158,1,0,0:0:0:0:
256,320,226213,2,0,L|208:320,3,35,2|0|0|0,0:0|0:0|0:0|0:0,0:0:0:0:
192,320,226435,2,0,L|144:320,3,35,2|0|0|0,0:0|0:0|0:0|0:0,0:0:0:0:
128,320,226658,5,2,0:0:0:0:
128,304,226713,1,0,0:0:0:0:
128,288,226769,1,0,0:0:0:0:
128,272,226824,1,0,0:0:0:0:
128,256,226880,1,2,0:0:0:0:
128,240,226935,1,0,0:0:0:0:
128,224,226991,1,0,0:0:0:0:
128,207,227047,1,0,0:0:0:0:
128,192,227102,2,0,L|128:144,3,35,2|0|0|0,0:0|0:0|0:0|0:0,0:0:0:0:
128,128,227324,2,0,L|128:80,3,35,2|0|0|0,0:0|0:0|0:0|0:0,0:0:0:0:
128,64,227548,5,2,0:0:0:0:
144,64,227603,1,0,0:0:0:0:
160,64,227659,1,0,0:0:0:0:
176,64,227714,1,0,0:0:0:0:
192,64,227770,1,2,0:0:0:0:
208,64,227825,1,0,0:0:0:0:
224,64,227881,1,0,0:0:0:0:
240,64,227937,1,0,0:0:0:0:
256,64,227992,2,0,L|304:64,3,35,2|0|0|0,0:0|0:0|0:0|0:0,0:0:0:0:
320,64,228214,2,0,L|368:64,3,35,2|0|0|0,0:0|0:0|0:0|0:0,0:0:0:0:
384,64,228437,5,2,0:0:0:0:
384,80,228492,1,0,0:0:0:0:
384,96,228548,1,0,0:0:0:0:
384,112,228603,1,0,0:0:0:0:
384,128,228659,1,2,0:0:0:0:
384,144,228714,1,0,0:0:0:0:
384,160,228770,1,0,0:0:0:0:
384,176,228826,1,0,0:0:0:0:
384,192,228881,2,0,L|384:240,3,35,2|0|0|0,0:0|0:0|0:0|0:0,0:0:0:0:
384,256,229103,2,0,L|384:304,3,35,2|0|0|0,0:0|0:0|0:0|0:0,0:0:0:0:
384,320,229325,5,2,0:0:0:0:
368,320,229380,1,0,0:0:0:0:
352,320,229436,1,0,0:0:0:0:
336,320,229491,1,0,0:0:0:0:
320,320,229547,1,2,0:0:0:0:
304,320,229602,1,0,0:0:0:0:
288,320,229658,1,0,0:0:0:0:
272,320,229714,1,0,0:0:0:0:
256,320,229769,2,0,L|208:320,3,35,2|0|0|0,0:0|0:0|0:0|0:0,0:0:0:0:
192,320,229991,2,0,L|144:320,3,35,2|0|0|0,0:0|0:0|0:0|0:0,0:0:0:0:
128,320,230214,5,2,0:0:0:0:
128,304,230269,1,0,0:0:0:0:
128,288,230325,1,0,0:0:0:0:
128,272,230380,1,0,0:0:0:0:
128,256,230436,1,2,0:0:0:0:
128,240,230491,1,0,0:0:0:0:
128,224,230547,1,0,0:0:0:0:
128,207,230603,1,0,0:0:0:0:
128,192,230658,2,0,L|128:144,3,35,2|0|0|0,0:0|0:0|0:0|0:0,0:0:0:0:
128,128,230880,2,0,L|128:80,3,35,2|0|0|0,0:0|0:0|0:0|0:0,0:0:0:0:
128,64,231103,5,2,0:0:0:0:
144,64,231158,1,0,0:0:0:0:
160,64,231214,1,0,0:0:0:0:
176,64,231269,1,0,0:0:0:0:
192,64,231325,1,2,0:0:0:0:
208,64,231380,1,0,0:0:0:0:
224,64,231436,1,0,0:0:0:0:
240,64,231492,1,0,0:0:0:0:
256,64,231547,2,0,L|304:64,3,35,2|0|0|0,0:0|0:0|0:0|0:0,0:0:0:0:
320,64,231769,2,0,L|368:64,3,35,2|0|0|0,0:0|0:0|0:0|0:0,0:0:0:0:
384,64,231992,5,2,0:0:0:0:
384,80,232047,1,0,0:0:0:0:
384,96,232103,1,0,0:0:0:0:
384,112,232158,1,0,0:0:0:0:
384,128,232214,1,2,0:0:0:0:
384,144,232269,1,0,0:0:0:0:
384,160,232325,1,0,0:0:0:0:
384,176,232381,1,0,0:0:0:0:
384,192,232436,2,0,L|384:240,3,35,2|0|0|0,0:0|0:0|0:0|0:0,0:0:0:0:
384,256,232658,2,0,L|384:304,3,35,2|0|0|0,0:0|0:0|0:0|0:0,0:0:0:0:
384,320,232880,5,2,0:0:0:0:
368,320,232935,1,0,0:0:0:0:
352,320,232991,1,0,0:0:0:0:
336,320,233046,1,0,0:0:0:0:
320,320,233102,1,2,0:0:0:0:
304,320,233157,1,0,0:0:0:0:
288,320,233213,1,0,0:0:0:0:
272,320,233269,1,0,0:0:0:0:
256,320,233324,2,0,L|208:320,3,35,2|0|0|0,0:0|0:0|0:0|0:0,0:0:0:0:
192,320,233546,2,0,L|144:320,3,35,2|0|0|0,0:0|0:0|0:0|0:0,0:0:0:0:
128,320,233769,5,2,0:0:0:0:
128,304,233824,1,0,0:0:0:0:
128,288,233880,1,0,0:0:0:0:
128,272,233935,1,0,0:0:0:0:
128,256,233991,1,2,0:0:0:0:
128,240,234046,1,0,0:0:0:0:
128,224,234102,1,0,0:0:0:0:
128,207,234158,1,0,0:0:0:0:
128,192,234213,2,0,L|128:144,3,35,2|0|0|0,0:0|0:0|0:0|0:0,0:0:0:0:
128,128,234435,2,0,L|128:80,3,35,2|0|0|0,0:0|0:0|0:0|0:0,0:0:0:0:
128,64,234659,5,2,0:0:0:0:
144,64,234714,1,0,0:0:0:0:
160,64,234770,1,0,0:0:0:0:
176,64,234825,1,0,0:0:0:0:
192,64,234881,1,2,0:0:0:0:
208,64,234936,1,0,0:0:0:0:
224,64,234992,1,0,0:0:0:0:
240,64,235048,1,0,0:0:0:0:
256,64,235103,2,0,L|304:64,3,35,2|0|0|0,0:0|0:0|0:0|0:0,0:0:0:0:
320,64,235325,2,0,L|368:64,3,35,2|0|0|0,0:0|0:0|0:0|0:0,0:0:0:0:
384,64,235548,5,2,0:0:0:0:
384,80,235603,1,0,0:0:0:0:
384,96,235659,1,0,0:0:0:0:
384,112,235714,1,0,0:0:0:0:
384,128,235770,1,2,0:0:0:0:
384,144,235825,1,0,0:0:0:0:
384,160,235881,1,0,0:0:0:0:
384,176,235937,1,0,0:0:0:0:
384,192,235992,2,0,L|384:240,3,35,2|0|0|0,0:0|0:0|0:0|0:0,0:0:0:0:
384,256,236214,2,0,L|384:304,3,35,2|0|0|0,0:0|0:0|0:0|0:0,0:0:0:0:
384,320,236436,5,2,0:0:0:0:
368,320,236491,1,0,0:0:0:0:
352,320,236547,1,0,0:0:0:0:
336,320,236602,1,0,0:0:0:0:
320,320,236658,1,2,0:0:0:0:
304,320,236713,1,0,0:0:0:0:
288,320,236769,1,0,0:0:0:0:
272,320,236825,1,0,0:0:0:0:
256,320,236880,2,0,L|208:320,3,35,2|0|0|0,0:0|0:0|0:0|0:0,0:0:0:0:
192,320,237102,2,0,L|144:320,3,35,2|0|0|0,0:0|0:0|0:0|0:0,0:0:0:0:
128,320,237325,5,2,0:0:0:0:
128,304,237380,1,0,0:0:0:0:
128,288,237436,1,0,0:0:0:0:
128,272,237491,1,0,0:0:0:0:
128,256,237547,1,2,0:0:0:0:
128,240,237602,1,0,0:0:0:0:
128,224,237658,1,0,0:0:0:0:
128,207,237714,1,0,0:0:0:0:
128,192,237769,2,0,L|128:144,3,35,2|0|0|0,0:0|0:0|0:0|0:0,0:0:0:0:
128,128,237991,2,0,L|128:80,3,35,2|0|0|0,0:0|0:0|0:0|0:0,0:0:0:0:
128,64,238214,5,2,0:0:0:0:
144,64,238269,1,0,0:0:0:0:
160,64,238325,1,0,0:0:0:0:
176,64,238380,1,0,0:0:0:0:
192,64,238436,1,2,0:0:0:0:
208,64,238491,1,0,0:0:0:0:
224,64,238547,1,0,0:0:0:0:
240,64,238603,1,0,0:0:0:0:
256,64,238658,2,0,L|304:64,3,35,2|0|0|0,0:0|0:0|0:0|0:0,0:0:0:0:
320,64,238880,2,0,L|368:64,3,35,2|0|0|0,0:0|0:0|0:0|0:0,0:0:0:0:
384,64,239103,5,2,0:0:0:0:
384,80,239158,1,0,0:0:0:0:
384,96,239214,1,0,0:0:0:0:
384,112,239269,1,0,0:0:0:0:
384,128,239325,1,2,0:0:0:0:
384,144,239380,1,0,0:0:0:0:
384,160,239436,1,0,0:0:0:0:
384,176,239492,1,0,0:0:0:0:
384,192,239547,2,0,L|384:240,3,35,2|0|0|0,0:0|0:0|0:0|0:0,0:0:0:0:
384,256,239769,2,0,L|384:304,3,35,2|0|0|0,0:0|0:0|0:0|0:0,0:0:0:0:
384,320,239991,5,2,0:0:0:0:
368,320,240046,1,0,0:0:0:0:
352,320,240102,1,0,0:0:0:0:
336,320,240157,1,0,0:0:0:0:
320,320,240213,1,2,0:0:0:0:
304,320,240268,1,0,0:0:0:0:
288,320,240324,1,0,0:0:0:0:
272,320,240380,1,0,0:0:0:0:
256,320,240435,2,0,L|208:320,3,35,2|0|0|0,0:0|0:0|0:0|0:0,0:0:0:0:
192,320,240657,2,0,L|144:320,3,35,2|0|0|0,0:0|0:0|0:0|0:0,0:0:0:0:
128,320,240880,5,2,0:0:0:0:
128,304,240935,1,0,0:0:0:0:
128,288,240991,1,0,0:0:0:0:
128,272,241046,1,0,0:0:0:0:
128,256,241102,1,2,0:0:0:0:
128,240,241157,1,0,0:0:0:0:
128,224,241213,1,0,0:0:0:0:
128,207,241269,1,0,0:0:0:0:
128,192,241324,2,0,L|128:144,3,35,2|0|0|0,0:0|0:0|0:0|0:0,0:0:0:0:
128,128,241546,2,0,L|128:80,3,35,2|0|0|0,0:0|0:0|0:0|0:0,0:0:0:0:
128,64,241771,5,2,0:0:0:0:
144,64,241826,1,0,0:0:0:0:
160,64,241882,1,0,0:0:0:0:
176,64,241937,1,0,0:0:0:0:
192,64,241993,1,2,0:0:0:0:
208,64,242048,1,0,0:0:0:0:
224,64,242104,1,0,0:0:0:0:
240,64,242160,1,0,0:0:0:0:
256,64,242215,2,0,L|304:64,3,35,2|0|0|0,0:0|0:0|0:0|0:0,0:0:0:0:
320,64,242437,2,0,L|368:64,3,35,2|0|0|0,0:0|0:0|0:0|0:0,0:0:0:0:
384,64,242660,5,2,0:0:0:0:
384,80,242715,1,0,0:0:0:0:
384,96,242771,1,0,0:0:0:0:
384,112,242826,1,0,0:0:0:0:
384,128,242882,1,2,0:0:0:0:
384,144,242937,1,0,0:0:0:0:
384,160,242993,1,0,0:0:0:0:
384,176,243049,1,0,0:0:0:0:
384,192,243104,2,0,L|384:240,3,35,2|0|0|0,0:0|0:0|0:0|0:0,0:0:0:0:
384,256,243326,2,0,L|384:304,3,35,2|0|0|0,0:0|0:0|0:0|0:0,0:0:0:0:
384,320,243548,5,2,0:0:0:0:
368,320,243603,1,0,0:0:0:0:
352,320,243659,1,0,0:0:0:0:
336,320,243714,1,0,0:0:0:0:
320,320,243770,1,2,0:0:0:0:
304,320,243825,1,0,0:0:0:0:
288,320,243881,1,0,0:0:0:0:
272,320,243937,1,0,0:0:0:0:
256,320,243992,2,0,L|208:320,3,35,2|0|0|0,0:0|0:0|0:0|0:0,0:0:0:0:
192,320,244214,2,0,L|144:320,3,35,2|0|0|0,0:0|0:0|0:0|0:0,0:0:0:0:
128,320,244437,5,2,0:0:0:0:
128,304,244492,1,0,0:0:0:0:
128,288,244548,1,0,0:0:0:0:
128,272,244603,1,0,0:0:0:0:
128,256,244659,1,2,0:0:0:0:
128,240,244714,1,0,0:0:0:0:
128,224,244770,1,0,0:0:0:0:
128,207,244826,1,0,0:0:0:0:
128,192,244881,2,0,L|128:144,3,35,2|0|0|0,0:0|0:0|0:0|0:0,0:0:0:0:
128,128,245103,2,0,L|128:80,3,35,2|0|0|0,0:0|0:0|0:0|0:0,0:0:0:0:
128,64,245326,5,2,0:0:0:0:
144,64,245381,1,0,0:0:0:0:
160,64,245437,1,0,0:0:0:0:
176,64,245492,1,0,0:0:0:0:
192,64,245548,1,2,0:0:0:0:
208,64,245603,1,0,0:0:0:0:
224,64,245659,1,0,0:0:0:0:
240,64,245715,1,0,0:0:0:0:
256,64,245770,2,0,L|304:64,3,35,2|0|0|0,0:0|0:0|0:0|0:0,0:0:0:0:
320,64,245992,2,0,L|368:64,3,35,2|0|0|0,0:0|0:0|0:0|0:0,0:0:0:0:
384,64,246215,5,2,0:0:0:0:
384,80,246270,1,0,0:0:0:0:
384,96,246326,1,0,0:0:0:0:
384,112,246381,1,0,0:0:0:0:
384,128,246437,1,2,0:0:0:0:
384,144,246492,1,0,0:0:0:0:
384,160,246548,1,0,0:0:0:0:
384,176,246604,1,0,0:0:0:0:
384,192,246659,2,0,L|384:240,3,35,2|0|0|0,0:0|0:0|0:0|0:0,0:0:0:0:
384,256,246881,2,0,L|384:304,3,35,2|0|0|0,0:0|0:0|0:0|0:0,0:0:0:0:
384,320,247103,5,2,0:0:0:0:
368,320,247158,1,0,0:0:0:0:
352,320,247214,1,0,0:0:0:0:
336,320,247269,1,0,0:0:0:0:
320,320,247325,1,2,0:0:0:0:
304,320,247380,1,0,0:0:0:0:
288,320,247436,1,0,0:0:0:0:
272,320,247492,1,0,0:0:0:0:
256,320,247547,2,0,L|208:320,3,35,2|0|0|0,0:0|0:0|0:0|0:0,0:0:0:0:
192,320,247769,2,0,L|144:320,3,35,2|0|0|0,0:0|0:0|0:0|0:0,0:0:0:0:
128,320,247992,5,2,0:0:0:0:
128,304,248047,1,0,0:0:0:0:
128,288,248103,1,0,0:0:0:0:
128,272,248158,1,0,0:0:0:0:
128,256,248214,1,2,0:0:0:0:
128,240,248269,1,0,0:0:0:0:
128,224,248325,1,0,0:0:0:0:
128,207,248381,1,0,0:0:0:0:
128,192,248436,2,0,L|128:144,3,35,2|0|0|0,0:0|0:0|0:0|0:0,0:0:0:0:
128,128,248658,2,0,L|128:80,3,35,2|0|0|0,0:0|0:0|0:0|0:0,0:0:0:0:
128,64,248882,5,2,0:0:0:0:
144,64,248937,1,0,0:0:0:0:
160,64,248993,1,0,0:0:0:0:
176,64,249048,1,0,0:0:0:0:
192,64,249104,1,2,0:0:0:0:
208,64,249159,1,0,0:0:0:0:
224,64,249215,1,0,0:0:0:0:
240,64,249271,1,0,0:0:0:0:
256,64,249326,2,0,L|304:64,3,35,2|0|0|0,0:0|0:0|0:0|0:0,0:0:0:0:
320,64,249548,2,0,L|368:64,3,35,2|0|0|0,0:0|0:0|0:0|0:0,0:0:0:0:
384,64,249771,5,2,0:0:0:0:
384,80,249826,1,0,0:0:0:0:
384,96,249882,1,0,0:0:0:0:
384,112,249937,1,0,0:0:0:0:
384,128,249993,1,2,0:0:0:0:
384,144,250048,1,0,0:0:0:0:
384,160,250104,1,0,0:0:0:0:
384,176,250160,1,0,0:0:0:0:
384,192,250215,2,0,L|384:240,3,35,2|0|0|0,0:0|0:0|0:0|0:0,0:0:0:0:
384,256,250437,2,0,L|384:304,3,35,2|0|0|0,0:0|0:0|0:0|0:0,0:0:0:0:
384,320,250659,5,2,0:0:0:0:
368,320,250714,1,0,0:0:0:0:
352,320,250770,1,0,0:0:0:0:
336,320,250825,1,0,0:0:0:0:
320,320,250881,1,2,0:0:0:0:
304,320,250936,1,0,0:0:0:0:
288,320,250992,1,0,0:0:0:0:
272,320,251048,1,0,0:0:0:0:
256,320,251103,2,0,L|208:320,3,35,2|0|0|0,0:0|0:0|0:0|0:0,0:0:0:0:
192,320,251325,2,0,L|144:320,3,35,2|0|0|0,0:0|0:0|0:0|0:0,0:0:0:0:
128,320,251548,5,2,0:0:0:0:
128,304,251603,1,0,0:0:0:0:
128,288,251659,1,0,0:0:0:0:
128,272,251714,1,0,0:0:0:0:
128,256,251770,1,2,0:0:0:0:
128,240,251825,1,0,0:0:0:0:
128,224,251881,1,0,0:0:0:0:
128,207,251937,1,0,0:0:0:0:
128,192,251992,2,0,L|128:144,3,35,2|0|0|0,0:0|0:0|0:0|0:0,0:0:0:0:
128,128,252214,2,0,L|128:80,3,35,2|0|0|0,0:0|0:0|0:0|0:0,0:0:0:0:
128,64,252437,5,2,0:0:0:0:
144,64,252492,1,0,0:0:0:0:
160,64,252548,1,0,0:0:0:0:
176,64,252603,1,0,0:0:0:0:
192,64,252659,1,2,0:0:0:0:
208,64,252714,1,0,0:0:0:0:
224,64,252770,1,0,0:0:0:0:
240,64,252826,1,0,0:0:0:0:
256,64,252881,2,0,L|304:64,3,35,2|0|0|0,0:0|0:0|0:0|0:0,0:0:0:0:
320,64,253103,2,0,L|368:64,3,35,2|0|0|0,0:0|0:0|0:0|0:0,0:0:0:0:
384,64,253326,5,2,0:0:0:0:
384,80,253381,1,0,0:0:0:0:
384,96,253437,1,0,0:0:0:0:
384,112,253492,1,0,0:0:0:0:
384,128,253548,1,2,0:0:0:0:
384,144,253603,1,0,0:0:0:0:
384,160,253659,1,0,0:0:0:0:
384,176,253715,1,0,0:0:0:0:
384,192,253770,2,0,L|384:240,3,35,2|0|0|0,0:0|0:0|0:0|0:0,0:0:0:0:
384,256,253992,2,0,L|384:304,3,35,2|0|0|0,0:0|0:0|0:0|0:0,0:0:0:0:
384,320,254214,5,2,0:0:0:0:
368,320,254269,1,0,0:0:0:0:
352,320,254325,1,0,0:0:0:0:
336,320,254380,1,0,0:0:0:0:
320,320,254436,1,2,0:0:0:0:
304,320,254491,1,0,0:0:0:0:
288,320,254547,1,0,0:0:0:0:
272,320,254603,1,0,0:0:0:0:
256,320,254658,2,0,L|208:320,3,35,2|0|0|0,0:0|0:0|0:0|0:0,0:0:0:0:
192,320,254880,2,0,L|144:320,3,35,2|0|0|0,0:0|0:0|0:0|0:0,0:0:0:0:
128,320,255103,5,2,0:0:0:0:
128,304,255158,1,0,0:0:0:0:
128,288,255214,1,0,0:0:0:0:
128,272,255269,1,0,0:0:0:0:
128,256,255325,1,2,0:0:0:0:
128,240,255380,1,0,0:0:0:0:
128,224,255436,1,0,0:0:0:0:
128,207,255492,1,0,0:0:0:0:
128,192,255547,2,0,L|128:144,3,35,2|0|0|0,0:0|0:0|0:0|0:0,0:0:0:0:
128,128,255769,2,0,L|128:80,3,35,2|0|0|0,0:0|0:0|0:0|0:0,0:0:0:0:
128,64,255993,5,2,0:0:0:0:
144,64,256048,1,0,0:0:0:0:
160,64,256104,1,0,0:0:0:0:
176,64,256159,1,0,0:0:0:0:
192,64,256215,1,2,0:0:0:0:
208,64,256270,1,0,0:0:0:0:
224,64,256326,1,0,0:0:0:0:
240,64,256382,1,0,0:0:0:0:
256,64,256437,2,0,L|304:64,3,35,2|0|0|0,0:0|0:0|0:0|0:0,0:0:0:0:
320,64,256659,2,0,L|368:64,3,35,2|0|0|0,0:0|0:0|0:0|0:0,0:0:0:0:
384,64,256882,5,2,0:0:0:0:
384,80,256937,1,0,0:0:0:0:
384,96,256993,1,0,0:0:0:0:
384,112,257048,1,0,0:0:0:0:
384,128,257104,1,2,0:0:0:0:
384,144,257159,1,0,0:0:0:0:
384,160,257215,1,0,0:0:0:0:
384,176,257271,1,0,0:0:0:0:
384,192,257326,2,0,L|384:240,3,35,2|0|0|0,0:0|0:0|0:0|0:0,0:0:0:0:
384,256,257548,2,0,L|384:304,3,35,2|0|0|0,0:0|0:0|0:0|0:0,0:0:0:0:
384,320,257770,5,2,0:0:0:0:
368,320,257825,1,0,0:0:0:0:
352,320,257881,1,0,0:0:0:0:
336,320,257936,1,0,0:0:0:0:
320,320,257992,1,2,0:0:0:0:
304,320,258047,1,0,0:0:0:0:
288,320,258103,1,0,0:0:0:0:
272,320,258159,1,0,0:0:0:0:
256,320,258214,2,0,L|208:320,3,35,2|0|0|0,0:0|0:0|0:0|0:0,0:0:0:0:
192,320,258436,2,0,L|144:320,3,35,2|0|0|0,0:0|0:0|0:0|0:0,0:0:0:0:
128,320,258659,5,2,0:0:0:0:
128,304,258714,1,0,0:0:0:0:
128,288,258770,1,0,0:0:0:0:
128,272,258825,1,0,0:0:0:0:
128,256,258881,1,2,0:0:0:0:
128,240,258936,1,0,0:0:0:0:
128,224,258992,1,0,0:0:0:0:
128,207,259048,1,0,0:0:0:0:
128,192,259103,2,0,L|128:144,3,35,2|0|0|0,0:0|0:0|0:0|0:0,0:0:0:0:
128,128,259325,2,0,L|128:80,3,35,2|0|0|0,0:0|0:0|0:0|0:0,0:0:0:0:
128,64,259548,5,2,0:0:0:0:
144,64,259603,1,0,0:0:0:0:
160,64,259659,1,0,0:0:0:0:
176,64,259714,1,0,0:0:0:0:
192,64,259770,1,2,0:0:0:0:
208,64,259825,1,0,0:0:0:0:
224,64,259881,1,0,0:0:0:0:
240,64,259937,1,0,0:0:0:0:
256,64,259992,2,0,L|304:64,3,35,2|0|0|0,0:0|0:0|0:0|0:0,0:0:0:0:
320,64,260214,2,0,L|368:64,3,35,2|0|0|0,0:0|0:0|0:0|0:0,0:0:0:0:
384,64,260437,5,2,0:0:0:0:
384,80,260492,1,0,0:0:0:0:
384,96,260548,1,0,0:0:0:0:
384,112,260603,1,0,0:0:0:0:
384,128,260659,1,2,0:0:0:0:
384,144,260714,1,0,0:0:0:0:
384,160,260770,1,0,0:0:0:0:
384,176,260826,1,0,0:0:0:0:
384,192,260881,2,0,L|384:240,3,35,2|0|0|0,0:0|0:0|0:0|0:0,0:0:0:0:
384,256,261103,2,0,L|384:304,3,35,2|0|0|0,0:0|0:0|0:0|0:0,0:0:0:0:
384,320,261325,5,2,0:0:0:0:
368,320,261380,1,0,0:0:0:0:
352,320,261436,1,0,0:0:0:0:
336,320,261491,1,0,0:0:0:0:
320,320,261547,1,2,0:0:0:0:
304,320,261602,1,0,0:0:0:0:
288,320,261658,1,0,0:0:0:0:
272,320,261714,1,0,0:0:0:0:
256,320,261769,2,0,L|208:320,3,35,2|0|0|0,0:0|0:0|0:0|0:0,0:0:0:0:
192,320,261991,2,0,L|144:320,3,35,2|0|0|0,0:0|0:0|0:0|0:0,0:0:0:0:
128,320,262214,5,2,0:0:0:0:
128,304,262269,1,0,0:0:0:0:
128,288,262325,1,0,0:0:0:0:
128,272,262380,1,0,0:0:0:0:
128,256,262436,1,2,0:0:0:0:
128,240,262491,1,0,0:0:0:0:
128,224,262547,1,0,0:0:0:0:
128,207,262603,1,0,0:0:0:0:
128,192,262658,2,0,L|128:144,3,35,2|0|0|0,0:0|0:0|0:0|0:0,0:0:0:0:
128,128,262880,2,0,L|128:80,3,35,2|0|0|0,0:0|0:0|0:0|0:0,0:0:0:0:
128,64,263104,5,2,0:0:0:0:
144,64,263159,1,0,0:0:0:0:
160,64,263215,1,0,0:0:0:0:
176,64,263270,1,0,0:0:0:0:
192,64,263326,1,2,0:0:0:0:
208,64,263381,1,0,0:0:0:0:
224,64,263437,1,0,0:0:0:0:
240,64,263493,1,0,0:0:0:0:
256,64,263548,2,0,L|304:64,3,35,2|0|0|0,0:0|0:0|0:0|0:0,0:0:0:0:
320,64,263770,2,0,L|368:64,3,35,2|0|0|0,0:0|0:0|0:0|0:0,0:0:0:0:
384,64,263993,5,2,0:0:0:0:
384,80,264048,1,0,0:0:0:0:
384,96,264104,1,0,0:0:0:0:
384,112,264159,1,0,0:0:0:0:
384,128,264215,1,2,0:0:0:0:
384,144,264270,1,0,0:0:0:0:
384,160,264326,1,0,0:0:0:0:
384,176,264382,1,0,0:0:0:0:
384,192,264437,2,0,L|384:240,3,35,2|0|0|0,0:0|0:0|0:0|0:0,0:0:0:0:
384,256,264659,2,0,L|384:304,3,35,2|0|0|0,0:0|0:0|0:0|0:0,0:0:0:0:
384,320,264881,5,2,0:0:0:0:
368,320,264936,1,0,0:0:0:0:
352,320,264992,1,0,0:0:0:0:
336,320,265047,1,0,0:0:0:0:
320,320,265103,1,2,0:0:0:0:
304,320,265158,1,0,0:0:0:0:
288,320,265214,1,0,0:0:0:0:
272,320,265270,1,0,0:0:0:0:
256,320,265325,2,0,L|208:320,3,35,2|0|0|0,0:0|0:0|0:0|0:0,0:0:0:0:
192,320,265547,2,0,L|144:320,3,35,2|0|0|0,0:0|0:0|0:0|0:0,0:0:0:0:
128,320,265770,5,2,0:0:0:0:
128,304,265825,1,0,0:0:0:0:
128,288,265881,1,0,0:0:0:0:
128,272,265936,1,0,0:0:0:0:
128,256,265992,1,2,0:0:0:0:
128,240,266047,1,0,0:0:0:0:
128,224,266103,1,0,0:0:0:0:
128,207,266159,1,0,0:0:0:0:
128,192,266214,2,0,L|128:144,3,35,2|0|0|0,0:0|0:0|0:0|0:0,0:0:0:0:
128,128,266436,2,0,L|128:80,3,35,2|0|0|0,0:0|0:0|0:0|0:0,0:0:0:0:
128,64,266659,5,2,0:0:0:0:
144,64,266714,1,0,0:0:0:0:
160,64,266770,1,0,0:0:0:0:
176,64,266825,1,0,0:0:0:0:
192,64,266881,1,2,0:0:0:0:
208,64,266936,1,0,0:0:0:0:
224,64,266992,1,0,0:0:0:0:
240,64,267048,1,0,0:0:0:0:
256,64,267103,2,0,L|304:64,3,35,2|0|0|0,0:0|0:0|0:0|0:0,0:0:0:0:
320,64,267325,2,0,L|368:64,3,35,2|0|0|0,0:0|0:0|0:0|0:0,0:0:0:0:
384,64,267548,5,2,0:0:0:0:
384,80,267603,1,0,0:0:0:0:
384,96,267659,1,0,0:0:0:0:
384,112,267714,1,0,0:0:0:0:
384,128,267770,1,2,0:0:0:0:
384,144,267825,1,0,0:0:0:0:
384,160,267881,1,0,0:0:0:0:
384,176,267937,1,0,0:0:0:0:
384,192,267992,2,0,L|384:240,3,35,2|0|0|0,0:0|0:0|0:0|0:0,0:0:0:0:
384,256,268214,2,0,L|384:304,3,35,2|0|0|0,0:0|0:0|0:0|0:0,0:0:0:0:
384,320,268436,5,2,0:0:0:0:
368,320,268491,1,0,0:0:0:0:
352,320,268547,1,0,0:0:0:0:
336,320,268602,1,0,0:0:0:0:
320,320,268658,1,2,0:0:0:0:
304,320,268713,1,0,0:0:0:0:
288,320,268769,1,0,0:0:0:0:
272,320,268825,1,0,0:0:0:0:
256,320,268880,2,0,L|208:320,3,35,2|0|0|0,0:0|0:0|0:0|0:0,0:0:0:0:
192,320,269102,2,0,L|144:320,3,35,2|0|0|0,0:0|0:0|0:0|0:0,0:0:0:0:
128,320,269325,5,2,0:0:0:0:
128,304,269380,1,0,0:0:0:0:
128,288,269436,1,0,0:0:0:0:
128,272,269491,1,0,0:0:0:0:
128,256,269547,1,2,0:0:0:0:
128,240,269602,1,0,0:0:0:0:
128,224,269658,1,0,0:0:0:0:
128,207,269714,1,0,0:0:0:0:
128,192,269769,2,0,L|128:144,3,35,2|0|0|0,0:0|0:0|0:0|0:0,0:0:0:0:
128,128,269991,2,0,L|128:80,3,35,2|0|0|0,0:0|0:0|0:0|0:0,0:0:0:0:
